  0
SECTION
  2
HEADER
  9
$ACADVER
  1
AC1009
  9
$INSBASE
 10
0.0
 20
0.0
 30
0.0
  9
$EXTMIN
 10
-186.61692515652749
 20
-127.3731908254038
 30
0.0
  9
$EXTMAX
 10
48.114456713577042
 20
82.009403434165677
 30
0.1
  9
$LIMMIN
 10
0.0
 20
0.0
  9
$LIMMAX
 10
790.0
 20
790.0
  9
$ORTHOMODE
 70
     0
  9
$REGENMODE
 70
     1
  9
$FILLMODE
 70
     1
  9
$QTEXTMODE
 70
     0
  9
$MIRRTEXT
 70
     1
  9
$DRAGMODE
 70
     2
  9
$LTSCALE
 40
4.0
  9
$OSMODE
 70
   167
  9
$ATTMODE
 70
     1
  9
$TEXTSIZE
 40
3.5
  9
$TRACEWID
 40
0.05
  9
$TEXTSTYLE
  7
ISO
  9
$CLAYER
  8
0
  9
$CELTYPE
  6
BYLAYER
  9
$CECOLOR
 62
   256
  9
$DIMSCALE
 40
0.0
  9
$DIMASZ
 40
3.0
  9
$DIMEXO
 40
1.5
  9
$DIMDLI
 40
10.0
  9
$DIMRND
 40
0.0
  9
$DIMDLE
 40
0.0
  9
$DIMEXE
 40
1.5
  9
$DIMTP
 40
0.0
  9
$DIMTM
 40
0.0
  9
$DIMTXT
 40
3.0
  9
$DIMCEN
 40
-5.0
  9
$DIMTSZ
 40
0.0
  9
$DIMTOL
 70
     0
  9
$DIMLIM
 70
     0
  9
$DIMTIH
 70
     0
  9
$DIMTOH
 70
     0
  9
$DIMSE1
 70
     0
  9
$DIMSE2
 70
     0
  9
$DIMTAD
 70
     1
  9
$DIMZIN
 70
     8
  9
$DIMBLK
  1

  9
$DIMASO
 70
     1
  9
$DIMSHO
 70
     1
  9
$DIMPOST
  1

  9
$DIMAPOST
  1

  9
$DIMALT
 70
     0
  9
$DIMALTD
 70
     0
  9
$DIMALTF
 40
25.399999999999999
  9
$DIMLFAC
 40
-1.0
  9
$DIMTOFL
 70
     1
  9
$DIMTVP
 40
0.0
  9
$DIMTIX
 70
     0
  9
$DIMSOXD
 70
     0
  9
$DIMSAH
 70
     0
  9
$DIMBLK1
  1

  9
$DIMBLK2
  1

  9
$DIMSTYLE
  2
MASKIN
  9
$DIMCLRD
 70
   256
  9
$DIMCLRE
 70
   256
  9
$DIMCLRT
 70
     2
  9
$DIMTFAC
 40
1.0
  9
$DIMGAP
 40
1.0
  9
$LUNITS
 70
     2
  9
$LUPREC
 70
     8
  9
$SKETCHINC
 40
0.1
  9
$FILLETRAD
 40
0.0
  9
$AUNITS
 70
     0
  9
$AUPREC
 70
     8
  9
$MENU
  1
ACAD
  9
$ELEVATION
 40
0.0
  9
$PELEVATION
 40
0.0
  9
$THICKNESS
 40
0.0
  9
$LIMCHECK
 70
     0
  9
$BLIPMODE
 70
     0
  9
$CHAMFERA
 40
0.0
  9
$CHAMFERB
 40
0.0
  9
$SKPOLY
 70
     0
  9
$TDCREATE
 40
2454868.6239902088
  9
$TDUPDATE
 40
2458453.495872627
  9
$TDINDWG
 40
0.0190255093
  9
$TDUSRTIMER
 40
0.0190253241
  9
$USRTIMER
 70
     1
  9
$ANGBASE
 50
0.0
  9
$ANGDIR
 70
     0
  9
$PDMODE
 70
     0
  9
$PDSIZE
 40
0.0
  9
$PLINEWID
 40
0.0
  9
$COORDS
 70
     1
  9
$SPLFRAME
 70
     0
  9
$SPLINETYPE
 70
     6
  9
$SPLINESEGS
 70
     8
  9
$ATTDIA
 70
     1
  9
$ATTREQ
 70
     1
  9
$HANDLING
 70
     1
  9
$HANDSEED
  5
2B0F
  9
$SURFTAB1
 70
     6
  9
$SURFTAB2
 70
     6
  9
$SURFTYPE
 70
     6
  9
$SURFU
 70
     6
  9
$SURFV
 70
     6
  9
$UCSNAME
  2

  9
$UCSORG
 10
0.0
 20
0.0
 30
0.0
  9
$UCSXDIR
 10
1.0
 20
0.0
 30
0.0
  9
$UCSYDIR
 10
0.0
 20
1.0
 30
0.0
  9
$PUCSNAME
  2

  9
$PUCSORG
 10
0.0
 20
0.0
 30
0.0
  9
$PUCSXDIR
 10
1.0
 20
0.0
 30
0.0
  9
$PUCSYDIR
 10
0.0
 20
1.0
 30
0.0
  9
$USERI1
 70
     0
  9
$USERI2
 70
     0
  9
$USERI3
 70
     0
  9
$USERI4
 70
     0
  9
$USERI5
 70
     0
  9
$USERR1
 40
0.0
  9
$USERR2
 40
0.0
  9
$USERR3
 40
0.0
  9
$USERR4
 40
0.0
  9
$USERR5
 40
0.0
  9
$WORLDVIEW
 70
     1
  9
$SHADEDGE
 70
     3
  9
$SHADEDIF
 70
    70
  9
$TILEMODE
 70
     1
  9
$MAXACTVP
 70
    16
  9
$PLIMCHECK
 70
     0
  9
$PEXTMIN
 10
1.0000000000000000E+020
 20
1.0000000000000000E+020
 30
1.0000000000000000E+020
  9
$PEXTMAX
 10
-1.0000000000000000E+020
 20
-1.0000000000000000E+020
 30
-1.0000000000000000E+020
  9
$PLIMMIN
 10
-5.069427490234375
 20
-5.8737497329711914
  9
$PLIMMAX
 10
291.89889526367187
 20
204.0995779037475
  9
$UNITMODE
 70
     0
  9
$VISRETAIN
 70
     1
  9
$PLINEGEN
 70
     0
  9
$PSLTSCALE
 70
     1
  0
ENDSEC
  0
SECTION
  2
TABLES
  0
TABLE
  2
VPORT
 70
     1
  0
VPORT
  2
*ACTIVE
 70
     0
 10
0.0
 20
0.0
 11
1.0
 21
1.0
 12
31.262505057274101
 22
128.42812169633049
 13
0.0
 23
0.0
 14
1.0
 24
1.0
 15
0.0
 25
0.0
 16
0.0
 26
0.0
 36
1.0
 17
0.0
 27
0.0
 37
0.0
 40
341.33393743194972
 41
1.7265193370165739
 42
50.0
 43
0.0
 44
0.0
 50
0.0
 51
0.0
 71
     0
 72
   100
 73
     1
 74
     1
 75
     0
 76
     0
 77
     0
 78
     0
  0
ENDTAB
  0
TABLE
  2
LTYPE
 70
    53
  0
LTYPE
  2
CONTINUOUS
 70
     0
  3
Solid line
 72
    65
 73
     0
 40
0.0
  0
LTYPE
  2
BYGG-01482201$0$NEWDOT
 70
     0
  3
____ . ____ . ____ . ____ . ____ . ____ . ____
 72
    65
 73
     4
 40
2.0
 49
1.0
 49
-0.5
 49
0.0
 49
-0.5
  0
LTYPE
  2
BYGG-014357$0$NEWDOT
 70
     0
  3
____ . ____ . ____ . ____ . ____ . ____ . ____
 72
    65
 73
     4
 40
2.0
 49
1.0
 49
-0.5
 49
0.0
 49
-0.5
  0
LTYPE
  2
BYGG-014357$0$DASHDOT
 70
     0
  3
__ . __ . __ . __ . __ . __ . __ . __ . __ . __
 72
    65
 73
     4
 40
1.0
 49
0.5
 49
-0.25
 49
0.0
 49
-0.25
  0
LTYPE
  2
BYGG-014357$0$DASHED
 70
     0
  3
__ __ __ __ __ __ __ __ __ __ __ __ __ __ __
 72
    65
 73
     2
 40
0.75
 49
0.5
 49
-0.25
  0
LTYPE
  2
BYGG-014279$0$NEWDOT
 70
     0
  3
____ . ____ . ____ . ____ . ____ . ____ . ____
 72
    65
 73
     4
 40
2.0
 49
1.0
 49
-0.5
 49
0.0
 49
-0.5
  0
LTYPE
  2
BYGG-01482201$0$ZIGZAG
 70
     0
  3
Zig zag /\/\/\/\/\/\/\/\/\/\/\/\/\/\/\/\/\/\/\/\/\/\/\/
 72
    65
 73
     4
 40
20.32254
 49
0.00254
 49
-5.0800000000000001
 49
-10.16
 49
-5.0800000000000001
  0
LTYPE
  2
BYGG-025060$0$NEWDOT
 70
     0
  3
____ . ____ . ____ . ____ . ____ . ____ . ____
 72
    65
 73
     4
 40
2.0
 49
1.0
 49
-0.5
 49
0.0
 49
-0.5
  0
LTYPE
  2
BYGG-012216$0$DASHDOT
 70
     0
  3
__ . __ . __ . __ . __ . __ . __ . __ . __ . __
 72
    65
 73
     4
 40
1.0
 49
0.5
 49
-0.25
 49
0.0
 49
-0.25
  0
LTYPE
  2
BYGG-020805$0$NEWDOT
 70
     0
  3
____ . ____ . ____ . ____ . ____ . ____ . ____
 72
    65
 73
     4
 40
2.0
 49
1.0
 49
-0.5
 49
0.0
 49
-0.5
  0
LTYPE
  2
BYGG-020805$0$DASHDOT
 70
     0
  3
__ . __ . __ . __ . __ . __ . __ . __ . __ . __
 72
    65
 73
     4
 40
1.0
 49
0.5
 49
-0.25
 49
0.0
 49
-0.25
  0
LTYPE
  2
BYGG-020805$0$DASHED
 70
     0
  3
__ __ __ __ __ __ __ __ __ __ __ __ __ __ __
 72
    65
 73
     2
 40
0.75
 49
0.5
 49
-0.25
  0
LTYPE
  2
BYGG-020805$0$PHANTOM
 70
     0
  3
Phantom ______  __  __  ______  __  __  ______
 72
    65
 73
     6
 40
63.5
 49
31.75
 49
-6.3499999999999988
 49
6.3499999999999988
 49
-6.3499999999999988
 49
6.3499999999999988
 49
-6.3499999999999988
  0
LTYPE
  2
BYGG-024800$0$NEWDOT
 70
     0
  3
____ . ____ . ____ . ____ . ____ . ____ . ____
 72
    65
 73
     4
 40
2.0
 49
1.0
 49
-0.5
 49
0.0
 49
-0.5
  0
LTYPE
  2
BYGG-024807$0$NEWDOT
 70
     0
  3
____ . ____ . ____ . ____ . ____ . ____ . ____
 72
    65
 73
     4
 40
2.0
 49
1.0
 49
-0.5
 49
0.0
 49
-0.5
  0
LTYPE
  2
BYGG-024807$0$DASHDOT
 70
     0
  3
__ . __ . __ . __ . __ . __ . __ . __ . __ . __
 72
    65
 73
     4
 40
1.0
 49
0.5
 49
-0.25
 49
0.0
 49
-0.25
  0
LTYPE
  2
BYGG-014279$0$ZIGZAG
 70
     0
  3
Zig zag /\/\/\/\/\/\/\/\/\/\/\/\/\/\/\/\/\/\/\/\/\/\/\/
 72
    65
 73
     4
 40
20.32254
 49
0.00254
 49
-5.0800000000000001
 49
-10.16
 49
-5.0800000000000001
  0
LTYPE
  2
BYGG-033167$0$NEWDOT
 70
     0
  3
____ . ____ . ____ . ____ . ____ . ____ . ____
 72
    65
 73
     4
 40
2.0
 49
1.0
 49
-0.5
 49
0.0
 49
-0.5
  0
LTYPE
  2
BYGG-033167$0$DASHDOT
 70
     0
  3
__ . __ . __ . __ . __ . __ . __ . __ . __ . __
 72
    65
 73
     4
 40
1.0
 49
0.5
 49
-0.25
 49
0.0
 49
-0.25
  0
LTYPE
  2
BYGG-033167$0$DASHED
 70
     0
  3
__ __ __ __ __ __ __ __ __ __ __ __ __ __ __
 72
    65
 73
     2
 40
0.75
 49
0.5
 49
-0.25
  0
LTYPE
  2
BYGG-033167$0$PHANTOM
 70
     0
  3
Phantom ______  __  __  ______  __  __  ______
 72
    65
 73
     6
 40
63.5
 49
31.75
 49
-6.3499999999999988
 49
6.3499999999999988
 49
-6.3499999999999988
 49
6.3499999999999988
 49
-6.3499999999999988
  0
LTYPE
  2
BYGG-033167$0$BYGG-020132$
 70
     0
  3
____ . ____ . ____ . ____ . ____ . ____ . ____
 72
    65
 73
     4
 40
2.0
 49
1.0
 49
-0.5
 49
0.0
 49
-0.5
  0
LTYPE
  2
BYGG-033167$0$BYGG-024943$
 70
     0
  3
____ . ____ . ____ . ____ . ____ . ____ . ____
 72
    65
 73
     4
 40
2.0
 49
1.0
 49
-0.5
 49
0.0
 49
-0.5
  0
LTYPE
  2
BYGG-026410$0$NEWDOT
 70
     0
  3
____ . ____ . ____ . ____ . ____ . ____ . ____
 72
    65
 73
     4
 40
2.0
 49
1.0
 49
-0.5
 49
0.0
 49
-0.5
  0
LTYPE
  2
BYGG-026410$0$DASHDOT
 70
     0
  3
__ . __ . __ . __ . __ . __ . __ . __ . __ . __
 72
    65
 73
     4
 40
1.0
 49
0.5
 49
-0.25
 49
0.0
 49
-0.25
  0
LTYPE
  2
BYGG-026410$0$DASHED
 70
     0
  3
__ __ __ __ __ __ __ __ __ __ __ __ __ __ __
 72
    65
 73
     2
 40
0.75
 49
0.5
 49
-0.25
  0
LTYPE
  2
BYGG-026410$0$PHANTOM
 70
     0
  3
Phantom ______  __  __  ______  __  __  ______
 72
    65
 73
     6
 40
63.5
 49
31.75
 49
-6.3499999999999988
 49
6.3499999999999988
 49
-6.3499999999999988
 49
6.3499999999999988
 49
-6.3499999999999988
  0
LTYPE
  2
BYGG-033227$0$NEWDOT
 70
     0
  3
____ . ____ . ____ . ____ . ____ . ____ . ____
 72
    65
 73
     4
 40
2.0
 49
1.0
 49
-0.5
 49
0.0
 49
-0.5
  0
LTYPE
  2
BYGG-033227$0$DASHDOT
 70
     0
  3
__ . __ . __ . __ . __ . __ . __ . __ . __ . __
 72
    65
 73
     4
 40
1.0
 49
0.5
 49
-0.25
 49
0.0
 49
-0.25
  0
LTYPE
  2
BYGG-033227$0$DASHED
 70
     0
  3
__ __ __ __ __ __ __ __ __ __ __ __ __ __ __
 72
    65
 73
     2
 40
0.75
 49
0.5
 49
-0.25
  0
LTYPE
  2
BYGG-033227$0$PHANTOM
 70
     0
  3
Phantom ______  __  __  ______  __  __  ______
 72
    65
 73
     6
 40
63.5
 49
31.75
 49
-6.3499999999999988
 49
6.3499999999999988
 49
-6.3499999999999988
 49
6.3499999999999988
 49
-6.3499999999999988
  0
LTYPE
  2
BYGG-029021$0$NEWDOT
 70
     0
  3
____ . ____ . ____ . ____ . ____ . ____ . ____
 72
    65
 73
     4
 40
2.0
 49
1.0
 49
-0.5
 49
0.0
 49
-0.5
  0
LTYPE
  2
BYGG-029021$0$DASHDOT
 70
     0
  3
__ . __ . __ . __ . __ . __ . __ . __ . __ . __
 72
    65
 73
     4
 40
1.0
 49
0.5
 49
-0.25
 49
0.0
 49
-0.25
  0
LTYPE
  2
BYGG-029021$0$DASHED
 70
     0
  3
__ __ __ __ __ __ __ __ __ __ __ __ __ __ __
 72
    65
 73
     2
 40
0.75
 49
0.5
 49
-0.25
  0
LTYPE
  2
BYGG-029021$0$PHANTOM
 70
     0
  3
Phantom ______  __  __  ______  __  __  ______
 72
    65
 73
     6
 40
63.5
 49
31.75
 49
-6.3499999999999988
 49
6.3499999999999988
 49
-6.3499999999999988
 49
6.3499999999999988
 49
-6.3499999999999988
  0
LTYPE
  2
BYGG-029021$0$DASHED2
 70
     0
  3
_ _ _ _ _ _ _ _ _ _ _ _ _ _ _ _ _ _ _ _ _ _ _ _ _ _ _ _ _ _ _
 72
    65
 73
     2
 40
0.375
 49
0.25
 49
-0.125
  0
LTYPE
  2
BYGG-01409101$0$DASHDOT
 70
     0
  3
__ . __ . __ . __ . __ . __ . __ . __ . __ . __
 72
    65
 73
     4
 40
1.0
 49
0.5
 49
-0.25
 49
0.0
 49
-0.25
  0
LTYPE
  2
BYGG-01409101$0$HIDDEN
 70
     0
  3
_ _ _ _ _ _ _ _ _ _ _ _ _ _ _ _ _ _ _ _ _ _ _
 72
    65
 73
     2
 40
0.375
 49
0.25
 49
-0.125
  0
LTYPE
  2
BYGG-025652$0$NEWDOT
 70
     0
  3
____ . ____ . ____ . ____ . ____ . ____ . ____
 72
    65
 73
     4
 40
2.0
 49
1.0
 49
-0.5
 49
0.0
 49
-0.5
  0
LTYPE
  2
BYGG-025652$0$DASHDOT
 70
     0
  3
__ . __ . __ . __ . __ . __ . __ . __ . __ . __
 72
    65
 73
     4
 40
1.0
 49
0.5
 49
-0.25
 49
0.0
 49
-0.25
  0
LTYPE
  2
BYGG-025652$0$DASHED
 70
     0
  3
__ __ __ __ __ __ __ __ __ __ __ __ __ __ __
 72
    65
 73
     2
 40
0.75
 49
0.5
 49
-0.25
  0
LTYPE
  2
BYGG-025652$0$PHANTOM
 70
     0
  3
Phantom ______  __  __  ______  __  __  ______
 72
    65
 73
     6
 40
63.5
 49
31.75
 49
-6.3499999999999988
 49
6.3499999999999988
 49
-6.3499999999999988
 49
6.3499999999999988
 49
-6.3499999999999988
  0
LTYPE
  2
BYGG-014411$0$NEWDOT
 70
     0
  3
____ . ____ . ____ . ____ . ____ . ____ . ____
 72
    65
 73
     4
 40
2.0
 49
1.0
 49
-0.5
 49
0.0
 49
-0.5
  0
LTYPE
  2
BYGG-014411$0$ZIGZAG
 70
     0
  3
Zig zag /\/\/\/\/\/\/\/\/\/\/\/\/\/\/\/\/\/\/\/\/\/\/\/
 72
    65
 73
     4
 40
20.32254
 49
0.00254
 49
-5.0800000000000001
 49
-10.16
 49
-5.0800000000000001
  0
LTYPE
  2
BYGG-033227$0$PHANTOM2
 70
     0
  3
Phantom (.5x) ___ _ _ ___ _ _ ___ _ _ ___ _ _
 72
    65
 73
     6
 40
1.25
 49
0.625
 49
-0.125
 49
0.125
 49
-0.125
 49
0.125
 49
-0.125
  0
LTYPE
  2
BYGG-025060$0$DASHDOT
 70
     0
  3
__ . __ . __ . __ . __ . __ . __ . __ . __ . __
 72
    65
 73
     4
 40
1.0
 49
0.5
 49
-0.25
 49
0.0
 49
-0.25
  0
LTYPE
  2
BYGG-01409101$0$PHANTOM2
 70
     0
  3
Phantom (.5x) ___ _ _ ___ _ _ ___ _ _ ___ _ _
 72
    65
 73
     6
 40
1.25
 49
0.625
 49
-0.125
 49
0.125
 49
-0.125
 49
0.125
 49
-0.125
  0
LTYPE
  2
BYGG-029021$0$PHANTOM2
 70
     0
  3
Phantom (.5x) ___ _ _ ___ _ _ ___ _ _ ___ _ _
 72
    65
 73
     6
 40
1.25
 49
0.625
 49
-0.125
 49
0.125
 49
-0.125
 49
0.125
 49
-0.125
  0
LTYPE
  2
BYGG-024800$0$DASHDOT
 70
     0
  3
__ . __ . __ . __ . __ . __ . __ . __ . __ . __
 72
    65
 73
     4
 40
1.0
 49
0.5
 49
-0.25
 49
0.0
 49
-0.25
  0
LTYPE
  2
BYGG-025652$0$PHANTOM2
 70
     0
  3
Phantom (.5x) ___ _ _ ___ _ _ ___ _ _ ___ _ _
 72
    65
 73
     6
 40
1.25
 49
0.625
 49
-0.125
 49
0.125
 49
-0.125
 49
0.125
 49
-0.125
  0
LTYPE
  2
BYGG-014411$0$PHANTOM2
 70
     0
  3
Phantom (.5x) ___ _ _ ___ _ _ ___ _ _ ___ _ _
 72
    65
 73
     6
 40
1.25
 49
0.625
 49
-0.125
 49
0.125
 49
-0.125
 49
0.125
 49
-0.125
  0
LTYPE
  2
BYGG-014090$0$PHANTOM2
 70
     0
  3
Phantom (.5x) ___ _ _ ___ _ _ ___ _ _ ___ _ _
 72
    65
 73
     6
 40
1.25
 49
0.625
 49
-0.125
 49
0.125
 49
-0.125
 49
0.125
 49
-0.125
  0
LTYPE
  2
BYGG-014088$0$PHANTOM2
 70
     0
  3
Phantom (.5x) ___ _ _ ___ _ _ ___ _ _ ___ _ _
 72
    65
 73
     6
 40
1.25
 49
0.625
 49
-0.125
 49
0.125
 49
-0.125
 49
0.125
 49
-0.125
  0
ENDTAB
  0
TABLE
  2
LAYER
 70
   297
  0
LAYER
  2
0
 70
     0
 62
     7
  6
CONTINUOUS
  0
LAYER
  2
DEFPOINTS
 70
     0
 62
     7
  6
CONTINUOUS
  0
LAYER
  2
SAPA_ARTIKELNR
 70
     0
 62
     4
  6
CONTINUOUS
  0
LAYER
  2
SAPA_LIGHT
 70
     1
 62
     1
  6
CONTINUOUS
  0
LAYER
  2
SAPA_ISOLATOR
 70
     0
 62
     4
  6
CONTINUOUS
  0
LAYER
  2
SAPA_MATT
 70
     0
 62
     1
  6
CONTINUOUS
  0
LAYER
  2
SAPA_GLAS
 70
     0
 62
     4
  6
CONTINUOUS
  0
LAYER
  2
SAPA_FOGBAND
 70
     0
 62
     2
  6
CONTINUOUS
  0
LAYER
  2
SAPA_PROFIL
 70
     0
 62
     7
  6
CONTINUOUS
  0
ENDTAB
  0
TABLE
  2
STYLE
 70
    55
  0
STYLE
  2
STANDARD
 70
     0
 40
0.0
 41
1.0
 50
0.0
 71
     0
 42
0.2
  3
txt
  4

  0
STYLE
  2
ISO
 70
     0
 40
0.0
 41
1.0
 50
0.0
 71
     0
 42
3.5
  3
txt
  4

  0
STYLE
  2

 70
     1
 40
0.0
 41
1.0
 50
0.0
 71
     0
 42
0.2
  3
ltypeshp.shx
  4

  0
STYLE
  2
BYGG-021589$0$STANDARD
 70
     0
 40
0.0
 41
1.0
 50
0.0
 71
     0
 42
0.2
  3
txt
  4

  0
STYLE
  2
BYGG-021589$0$ISO
 70
     0
 40
0.0
 41
1.0
 50
0.0
 71
     0
 42
3.5
  3
isocp3.shx
  4

  0
STYLE
  2
BYGG-01482201$0$STANDARD
 70
     0
 40
0.0
 41
1.0
 50
0.0
 71
     0
 42
0.2
  3
txt
  4

  0
STYLE
  2
BYGG-01482201$0$ISO
 70
     0
 40
0.0
 41
1.0
 50
0.0
 71
     0
 42
3.5
  3
isocp3.shx
  4

  0
STYLE
  2
BYGG-021802$0$STANDARD
 70
     0
 40
0.0
 41
1.0
 50
0.0
 71
     0
 42
0.2
  3
txt
  4

  0
STYLE
  2
BYGG-021802$0$ISO
 70
     0
 40
0.0
 41
1.0
 50
0.0
 71
     0
 42
3.5
  3
isocp3.shx
  4

  0
STYLE
  2
BYGG-014357$0$STANDARD
 70
     0
 40
0.0
 41
1.0
 50
0.0
 71
     0
 42
0.2
  3
txt
  4

  0
STYLE
  2
BYGG-014357$0$ISO
 70
     0
 40
0.0
 41
1.0
 50
0.0
 71
     0
 42
3.5
  3
isocp3.shx
  4

  0
STYLE
  2
BYGG-014063$0$STANDARD
 70
     0
 40
0.0
 41
1.0
 50
0.0
 71
     0
 42
0.2
  3
txt
  4

  0
STYLE
  2
BYGG-014063$0$ISO
 70
     0
 40
0.0
 41
1.0
 50
0.0
 71
     0
 42
3.5
  3
isocp3.shx
  4

  0
STYLE
  2
BYGG-022668$0$STANDARD
 70
     0
 40
0.0
 41
1.0
 50
0.0
 71
     0
 42
0.2
  3
txt
  4

  0
STYLE
  2
BYGG-022668$0$ISO
 70
     0
 40
0.0
 41
1.0
 50
0.0
 71
     0
 42
3.5
  3
txt
  4

  0
STYLE
  2
BYGG-021582$0$STANDARD
 70
     0
 40
0.0
 41
1.0
 50
0.0
 71
     0
 42
0.2
  3
txt
  4

  0
STYLE
  2
BYGG-021582$0$ISO
 70
     0
 40
0.0
 41
1.0
 50
0.0
 71
     0
 42
3.5
  3
isocp3.shx
  4

  0
STYLE
  2
BYGG-014279$0$STANDARD
 70
     0
 40
0.0
 41
1.0
 50
0.0
 71
     0
 42
0.2
  3
TXT.shx
  4

  0
STYLE
  2
BYGG-014279$0$ISO
 70
     0
 40
0.0
 41
1.0
 50
0.0
 71
     0
 42
3.5
  3
iso
  4

  0
STYLE
  2
BYGG-033227$0$STANDARD
 70
     0
 40
0.0
 41
1.0
 50
0.0
 71
     0
 42
0.2
  3
txt
  4

  0
STYLE
  2
BYGG-033227$0$ISO
 70
     0
 40
0.0
 41
1.0
 50
0.0
 71
     0
 42
3.5
  3
txt
  4

  0
STYLE
  2
BYGG-025060$0$STANDARD
 70
     0
 40
0.0
 41
1.0
 50
0.0
 71
     0
 42
0.2
  3
txt
  4

  0
STYLE
  2
BYGG-025060$0$ISO
 70
     0
 40
0.0
 41
1.0
 50
0.0
 71
     0
 42
3.5
  3
txt
  4

  0
STYLE
  2
BYGG-012216$0$STANDARD
 70
     0
 40
0.0
 41
1.0
 50
0.0
 71
     0
 42
0.2
  3
txt
  4

  0
STYLE
  2
BYGG-012216$0$ISO
 70
     0
 40
0.0
 41
1.0
 50
0.0
 71
     0
 42
3.5
  3
txt
  4

  0
STYLE
  2
BYGG-028980$0$STANDARD
 70
     0
 40
0.0
 41
1.0
 50
0.0
 71
     0
 42
0.2
  3
txt
  4

  0
STYLE
  2
BYGG-028980$0$ISO
 70
     0
 40
0.0
 41
1.0
 50
0.0
 71
     0
 42
3.5
  3
txt
  4

  0
STYLE
  2
BYGG-020805$0$STANDARD
 70
     0
 40
0.0
 41
1.0
 50
0.0
 71
     0
 42
0.2
  3
txt
  4

  0
STYLE
  2
BYGG-020805$0$ISO
 70
     0
 40
0.0
 41
1.0
 50
0.0
 71
     0
 42
3.5
  3
txt
  4

  0
STYLE
  2
BYGG-033167$0$STANDARD
 70
     0
 40
0.0
 41
1.0
 50
0.0
 71
     0
 42
0.2
  3
txt
  4

  0
STYLE
  2
BYGG-033167$0$ISO
 70
     0
 40
0.0
 41
1.0
 50
0.0
 71
     0
 42
3.5
  3
txt
  4

  0
STYLE
  2
BYGG-033167$0$BYGG-020132$
 70
     0
 40
0.0
 41
1.0
 50
0.0
 71
     0
 42
3.5
  3
txt
  4

  0
STYLE
  2
BYGG-033167$0$BYGG-024943$
 70
     0
 40
0.0
 41
1.0
 50
0.0
 71
     0
 42
3.5
  3
txt
  4

  0
STYLE
  2
BYGG-026410$0$STANDARD
 70
     0
 40
0.0
 41
1.0
 50
0.0
 71
     0
 42
0.2
  3
txt
  4

  0
STYLE
  2
BYGG-026410$0$ISO
 70
     0
 40
0.0
 41
1.0
 50
0.0
 71
     0
 42
3.5
  3
txt
  4

  0
STYLE
  2
BYGG-01409101$0$STANDARD
 70
     0
 40
0.0
 41
1.0
 50
0.0
 71
     0
 42
0.4
  3
txt
  4

  0
STYLE
  2
BYGG-01409101$0$SIMPLEX
 70
     0
 40
0.0
 41
1.0
 50
0.0
 71
     0
 42
0.2
  3
simplex
  4

  0
STYLE
  2
BYGG-029021$0$STANDARD
 70
     0
 40
0.0
 41
1.0
 50
0.0
 71
     0
 42
0.2
  3
txt
  4

  0
STYLE
  2
BYGG-029021$0$ISO
 70
     0
 40
0.0
 41
1.0
 50
0.0
 71
     0
 42
3.5
  3
txt
  4

  0
STYLE
  2
BYGG-029021$0$ANNOTATION
 70
     0
 40
0.0
 41
1.0
 50
0.0
 71
     0
 42
0.2
  3
txt
  4

  0
STYLE
  2
BYGG-029021$0$COTATION
 70
     0
 40
0.0
 41
1.0
 50
0.0
 71
     0
 42
0.2
  3
txt
  4

  0
STYLE
  2
BYGG-029021$0$ANNOTATIVE
 70
     0
 40
0.0
 41
1.0
 50
0.0
 71
     0
 42
0.2
  3
txt
  4

  0
STYLE
  2
BYGG-024800$0$STANDARD
 70
     0
 40
0.0
 41
1.0
 50
0.0
 71
     0
 42
0.2
  3
txt
  4

  0
STYLE
  2
BYGG-024800$0$ISO
 70
     0
 40
0.0
 41
1.0
 50
0.0
 71
     0
 42
3.5
  3
txt
  4

  0
STYLE
  2
BYGG-024807$0$STANDARD
 70
     0
 40
0.0
 41
1.0
 50
0.0
 71
     0
 42
0.2
  3
txt
  4

  0
STYLE
  2
BYGG-024807$0$ISO
 70
     0
 40
0.0
 41
1.0
 50
0.0
 71
     0
 42
3.5
  3
txt
  4

  0
STYLE
  2
BYGG-024807$0$ANNOTATIVE
 70
     0
 40
0.0
 41
1.0
 50
0.0
 71
     0
 42
0.2
  3
txt
  4

  0
STYLE
  2
BYGG-025652$0$STANDARD
 70
     0
 40
0.0
 41
1.0
 50
0.0
 71
     0
 42
0.2
  3
txt
  4

  0
STYLE
  2
BYGG-025652$0$ISO
 70
     0
 40
0.0
 41
1.0
 50
0.0
 71
     0
 42
3.5
  3
txt
  4

  0
STYLE
  2
BYGG-025652$0$ANNOTATIVE
 70
     0
 40
0.0
 41
1.0
 50
0.0
 71
     0
 42
0.2
  3
txt
  4

  0
STYLE
  2
BYGG-014411$0$STANDARD
 70
     0
 40
0.0
 41
1.0
 50
0.0
 71
     0
 42
0.2
  3
txt
  4

  0
STYLE
  2
BYGG-014411$0$ISO
 70
     0
 40
0.0
 41
1.0
 50
0.0
 71
     0
 42
3.5
  3
isocp3.shx
  4

  0
STYLE
  2
BYGG-014090$0$STANDARD
 70
     0
 40
0.0
 41
1.0
 50
0.0
 71
     0
 42
0.2
  3
txt
  4

  0
STYLE
  2
BYGG-014090$0$SIMPLEX
 70
     0
 40
0.0
 41
1.0
 50
0.0
 71
     0
 42
0.2
  3
simplex
  4

  0
STYLE
  2
BYGG-014088$0$STANDARD
 70
     0
 40
0.0
 41
1.0
 50
0.0
 71
     0
 42
0.4
  3
txt
  4

  0
ENDTAB
  0
TABLE
  2
VIEW
 70
     0
  0
ENDTAB
  0
TABLE
  2
UCS
 70
     0
  0
ENDTAB
  0
TABLE
  2
APPID
 70
    50
  0
APPID
  2
ACAD
 70
     0
  0
APPID
  2
ACAD_DSTYLE_DIMTEXT_FILL
 70
     0
  0
APPID
  2
ACAD_DSTYLE_DIMEXT_LENGTH
 70
     0
  0
APPID
  2
ACAD_DSTYLE_DIMEXT_ENABLED
 70
     0
  0
APPID
  2
ACAD_DSTYLE_DIM_LINETYPE
 70
     0
  0
APPID
  2
ACAD_DSTYLE_DIM_EXT1_LINETYPE
 70
     0
  0
APPID
  2
ACAD_DSTYLE_DIM_EXT2_LINETYPE
 70
     0
  0
APPID
  2
ACAD_DSTYLE_DIMJOGGED_JOGA
 70
     0
  0
APPID
  2
ACAD_DSTYLE_DIMARC_LENGTH_
 70
     0
  0
APPID
  2
ACAD_PSEXT
 70
     0
  0
APPID
  2
ACAD_MLEADERVER
 70
     0
  0
APPID
  2
AMG_ARCHIVE11
 70
     0
  0
APPID
  2
ACAD_EXEMPT_FROM_CAD_STANDARDS
 70
     0
  0
APPID
  2
ACADANNOTATIVE
 70
     0
  0
APPID
  2
ACAECLAYERSTANDARD
 70
     0
  0
APPID
  2
ACDBDYNAMICBLOCKGUID
 70
     0
  0
APPID
  2
ACDBBLOCKREPETAG
 70
     0
  0
APPID
  2
DCO15
 70
     0
  0
APPID
  2
ACAD_DSTYLE_DIMJAG
 70
     0
  0
APPID
  2
ACAD_DSTYLE_DIMTALN
 70
     0
  0
APPID
  2
RC_PROFILE
 70
     0
  0
APPID
  2
GENIUS_GENODEF_13
 70
     0
  0
APPID
  2
GENIUS_GENTRA_14
 70
     0
  0
APPID
  2
GENIUS_GENOLIS_13
 70
     0
  0
APPID
  2
GENIUS_GENOENT_13
 70
     0
  0
APPID
  2
GENIUS_GENOBJ-N-TIT_13
 70
     0
  0
APPID
  2
GENIUS_GENTITLE_13
 70
     0
  0
APPID
  2
GENIUS_GENOREF_13
 70
     0
  0
APPID
  2
GENIUS_GENSCREG_15
 70
     0
  0
APPID
  2
GENIUS_GENOBJ-N-SDF_13
 70
     0
  0
APPID
  2
GENIUS_GENOBJ-N-CRS_13
 70
     0
  0
APPID
  2
ACAUTHENVIRON
 70
     0
  0
APPID
  2
ACDBDYNAMICBLOCKTRUENAME
 70
     0
  0
APPID
  2
ACAD_NAV_VCDISPLAY
 70
     0
  0
APPID
  2
ACCMTRANSPARENCY
 70
     0
  0
APPID
  2
GRADIENTCOLOR1ACI
 70
     0
  0
APPID
  2
GRADIENTCOLOR2ACI
 70
     0
  0
APPID
  2
PE_URL
 70
     0
  0
APPID
  2
ACDBBLOCKREPBTAG
 70
     0
  0
APPID
  2
ACAD_DSTYLE_DIMRADIAL_EXTENSION
 70
     0
  0
APPID
  2
ACLAYERTOOLS
 70
     0
  0
APPID
  2
ACAD_OBJECT_CHANGE_GUID
 70
     0
  0
APPID
  2
AVE_RENDER
 70
     0
  0
APPID
  2
AVE_ENTITY_MATERIAL
 70
     0
  0
APPID
  2
AVE_FINISH
 70
     0
  0
APPID
  2
AVE_MATERIAL
 70
     0
  0
APPID
  2
AVE_GLOBAL
 70
     0
  0
APPID
  2
4M_RENDER
 70
     0
  0
APPID
  2
LIBMAN
 70
     0
  0
APPID
  2
AUTOBUILD
 70
     0
  0
ENDTAB
  0
TABLE
  2
DIMSTYLE
 70
    52
  0
DIMSTYLE
  2
MASKIN
 70
     0
  3

  4

  5

  6

  7

 40
0.0
 41
3.0
 42
1.5
 43
10.0
 44
1.5
 45
0.0
 46
0.0
 47
0.0
 48
0.0
140
3.0
141
-5.0
142
0.0
143
25.399999999999999
144
-1.0
145
0.0
146
1.0
147
1.0
 71
     0
 72
     0
 73
     0
 74
     0
 75
     0
 76
     0
 77
     1
 78
     8
170
     0
171
     0
172
     1
173
     0
174
     0
175
     0
176
   256
177
   256
178
     2
  0
DIMSTYLE
  2
STANDARD
 70
     0
  3

  4

  5

  6

  7

 40
1.0
 41
0.18
 42
0.0625
 43
0.38
 44
0.18
 45
0.0
 46
0.0
 47
0.0
 48
0.0
140
0.18
141
0.09
142
0.0
143
25.399999999999999
144
1.0
145
0.0
146
1.0
147
0.09
 71
     0
 72
     0
 73
     1
 74
     1
 75
     0
 76
     0
 77
     0
 78
     0
170
     0
171
     2
172
     0
173
     0
174
     0
175
     0
176
     0
177
     0
178
     0
  0
DIMSTYLE
  2
BYGG-021589$0$MASKIN
 70
     0
  3

  4

  5

  6

  7

 40
0.0
 41
3.0
 42
1.5
 43
10.0
 44
1.5
 45
0.0
 46
0.0
 47
0.0
 48
0.0
140
3.0
141
-5.0
142
0.0
143
25.399999999999999
144
-1.0
145
0.0
146
1.0
147
1.0
 71
     0
 72
     0
 73
     0
 74
     0
 75
     0
 76
     0
 77
     1
 78
     8
170
     0
171
     0
172
     1
173
     0
174
     0
175
     0
176
   256
177
   256
178
   256
  0
DIMSTYLE
  2
BYGG-01482201$0$STANDARD
 70
     0
  3

  4

  5

  6

  7

 40
1.0
 41
0.18
 42
0.0625
 43
0.38
 44
0.18
 45
0.0
 46
0.0
 47
0.0
 48
0.0
140
0.18
141
0.09
142
0.0
143
25.399999999999999
144
1.0
145
0.0
146
1.0
147
0.09
 71
     0
 72
     0
 73
     1
 74
     1
 75
     0
 76
     0
 77
     0
 78
     0
170
     0
171
     2
172
     0
173
     0
174
     0
175
     0
176
     0
177
     0
178
     0
  0
DIMSTYLE
  2
BYGG-01482201$0$MASKIN
 70
     0
  3

  4

  5

  6

  7

 40
0.0
 41
3.0
 42
1.5
 43
10.0
 44
1.5
 45
0.0
 46
0.0
 47
0.0
 48
0.0
140
3.0
141
-5.0
142
0.0
143
25.399999999999999
144
-1.0
145
0.0
146
1.0
147
1.0
 71
     0
 72
     0
 73
     0
 74
     1
 75
     0
 76
     0
 77
     1
 78
     8
170
     0
171
     0
172
     1
173
     0
174
     0
175
     0
176
   256
177
   256
178
     2
  0
DIMSTYLE
  2
BYGG-021802$0$MASKIN
 70
     0
  3

  4

  5

  6

  7

 40
0.0
 41
3.0
 42
1.5
 43
10.0
 44
1.5
 45
0.0
 46
0.0
 47
0.0
 48
0.0
140
3.0
141
-5.0
142
0.0
143
25.399999999999999
144
-1.0
145
0.0
146
1.0
147
1.0
 71
     0
 72
     0
 73
     0
 74
     0
 75
     0
 76
     0
 77
     1
 78
     8
170
     0
171
     0
172
     1
173
     0
174
     0
175
     0
176
   256
177
   256
178
   256
  0
DIMSTYLE
  2
BYGG-014357$0$MASKIN
 70
     0
  3

  4

  5

  6

  7

 40
0.0
 41
3.0
 42
1.5
 43
10.0
 44
1.5
 45
0.0
 46
0.0
 47
0.0
 48
0.0
140
3.0
141
-5.0
142
0.0
143
25.399999999999999
144
-1.0
145
0.0
146
1.0
147
1.0
 71
     0
 72
     0
 73
     0
 74
     0
 75
     0
 76
     0
 77
     1
 78
     8
170
     0
171
     0
172
     1
173
     0
174
     0
175
     0
176
   256
177
   256
178
   256
  0
DIMSTYLE
  2
BYGG-014357$0$MASKIN1
 70
     0
  3

  4

  5

  6

  7

 40
1.0
 41
3.0
 42
1.5
 43
10.0
 44
1.5
 45
0.0
 46
0.0
 47
0.0
 48
0.0
140
3.0
141
-5.0
142
0.0
143
25.399999999999999
144
1.0
145
0.0
146
1.0
147
0.9
 71
     0
 72
     0
 73
     0
 74
     0
 75
     0
 76
     0
 77
     1
 78
     8
170
     0
171
     0
172
     1
173
     0
174
     0
175
     0
176
   256
177
   256
178
   256
  0
DIMSTYLE
  2
BYGG-014357$0$MASKIN2
 70
     0
  3

  4

  5

  6

  7

 40
1.0
 41
3.0
 42
1.5
 43
10.0
 44
1.5
 45
0.0
 46
0.0
 47
0.0
 48
0.0
140
3.0
141
-5.0
142
0.0
143
25.399999999999999
144
1.0
145
0.0
146
1.0
147
0.9
 71
     0
 72
     0
 73
     0
 74
     0
 75
     0
 76
     0
 77
     1
 78
     8
170
     0
171
     0
172
     1
173
     0
174
     0
175
     0
176
   256
177
   256
178
   256
  0
DIMSTYLE
  2
BYGG-014357$0$MASKIN3
 70
     0
  3

  4

  5

  6

  7

 40
1.0
 41
3.0
 42
1.5
 43
10.0
 44
1.5
 45
0.0
 46
0.0
 47
0.0
 48
0.0
140
3.0
141
-5.0
142
0.0
143
25.399999999999999
144
1.0
145
0.0
146
1.0
147
0.9
 71
     0
 72
     0
 73
     0
 74
     0
 75
     0
 76
     0
 77
     1
 78
     8
170
     0
171
     0
172
     1
173
     0
174
     0
175
     0
176
   256
177
   256
178
   256
  0
DIMSTYLE
  2
BYGG-014357$0$DMST_1
 70
     0
  3

  4

  5

  6

  7

 40
1.0
 41
0.7000000000000002
 42
0.0
 43
7.0
 44
0.4
 45
0.0
 46
0.0
 47
0.15
 48
0.15
140
0.7000000000000002
141
0.0
142
0.0
143
25.399999999999999
144
1.0
145
0.0
146
0.7
147
0.09
 71
     1
 72
     0
 73
     0
 74
     0
 75
     0
 76
     0
 77
     1
 78
     9
170
     0
171
     2
172
     0
173
     0
174
     0
175
     0
176
     1
177
     1
178
     2
  0
DIMSTYLE
  2
BYGG-014063$0$MASKIN
 70
     0
  3

  4

  5

  6

  7

 40
0.0
 41
3.0
 42
1.5
 43
10.0
 44
1.5
 45
0.0
 46
0.0
 47
0.0
 48
0.0
140
3.0
141
-5.0
142
0.0
143
25.399999999999999
144
-1.0
145
0.0
146
1.0
147
1.0
 71
     0
 72
     0
 73
     0
 74
     0
 75
     0
 76
     0
 77
     1
 78
     8
170
     0
171
     0
172
     1
173
     0
174
     0
175
     0
176
   256
177
   256
178
   256
  0
DIMSTYLE
  2
BYGG-014063$0$STANDARD
 70
     0
  3

  4

  5

  6

  7

 40
1.0
 41
0.18
 42
0.0625
 43
0.38
 44
0.18
 45
0.0
 46
0.0
 47
0.0
 48
0.0
140
0.18
141
0.09
142
0.0
143
25.399999999999999
144
1.0
145
0.0
146
1.0
147
0.09
 71
     0
 72
     0
 73
     1
 74
     1
 75
     0
 76
     0
 77
     0
 78
     0
170
     0
171
     2
172
     0
173
     0
174
     0
175
     0
176
     0
177
     0
178
     0
  0
DIMSTYLE
  2
BYGG-022668$0$STANDARD
 70
     0
  3

  4

  5

  6

  7

 40
1.0
 41
0.18
 42
0.0625
 43
0.38
 44
0.18
 45
0.0
 46
0.0
 47
0.0
 48
0.0
140
0.18
141
0.09
142
0.0
143
25.399999999999999
144
1.0
145
0.0
146
1.0
147
0.09
 71
     0
 72
     0
 73
     1
 74
     1
 75
     0
 76
     0
 77
     0
 78
     0
170
     0
171
     2
172
     0
173
     0
174
     0
175
     0
176
     0
177
     0
178
     0
  0
DIMSTYLE
  2
BYGG-022668$0$MASKIN
 70
     0
  3

  4

  5

  6

  7

 40
0.0
 41
3.0
 42
1.5
 43
10.0
 44
1.5
 45
0.0
 46
0.0
 47
0.0
 48
0.0
140
3.0
141
-5.0
142
0.0
143
25.399999999999999
144
-1.0
145
0.0
146
1.0
147
1.0
 71
     0
 72
     0
 73
     0
 74
     0
 75
     0
 76
     0
 77
     1
 78
     8
170
     0
171
     0
172
     1
173
     0
174
     0
175
     0
176
   256
177
   256
178
     2
  0
DIMSTYLE
  2
BYGG-021582$0$MASKIN
 70
     0
  3

  4

  5

  6

  7

 40
0.0
 41
3.0
 42
1.5
 43
10.0
 44
1.5
 45
0.0
 46
0.0
 47
0.0
 48
0.0
140
3.0
141
-5.0
142
0.0
143
25.399999999999999
144
-1.0
145
0.0
146
1.0
147
1.0
 71
     0
 72
     0
 73
     0
 74
     0
 75
     0
 76
     0
 77
     1
 78
     8
170
     0
171
     0
172
     1
173
     0
174
     0
175
     0
176
   256
177
   256
178
   256
  0
DIMSTYLE
  2
BYGG-014279$0$STANDARD
 70
     0
  3

  4

  5

  6

  7

 40
1.0
 41
0.18
 42
0.0625
 43
0.38
 44
0.18
 45
0.0
 46
0.0
 47
0.0
 48
0.0
140
0.18
141
0.09
142
0.0
143
25.399999999999999
144
1.0
145
0.0
146
1.0
147
0.09
 71
     0
 72
     0
 73
     1
 74
     1
 75
     0
 76
     0
 77
     0
 78
     0
170
     0
171
     2
172
     0
173
     0
174
     0
175
     0
176
     0
177
     0
178
     0
  0
DIMSTYLE
  2
BYGG-014279$0$MASKIN
 70
     0
  3

  4

  5

  6

  7

 40
0.0
 41
3.0
 42
1.5
 43
10.0
 44
1.5
 45
0.0
 46
0.0
 47
0.0
 48
0.0
140
3.0
141
-5.0
142
0.0
143
25.399999999999999
144
-1.0
145
0.0
146
1.0
147
1.0
 71
     0
 72
     0
 73
     0
 74
     1
 75
     0
 76
     0
 77
     1
 78
     8
170
     0
171
     0
172
     1
173
     0
174
     0
175
     0
176
   256
177
   256
178
     2
  0
DIMSTYLE
  2
BYGG-033227$0$STANDARD
 70
     0
  3

  4

  5

  6

  7

 40
1.0
 41
0.18
 42
0.0625
 43
0.38
 44
0.18
 45
0.0
 46
0.0
 47
0.0
 48
0.0
140
0.18
141
0.09
142
0.0
143
25.399999999999999
144
1.0
145
0.0
146
1.0
147
0.09
 71
     0
 72
     0
 73
     1
 74
     1
 75
     0
 76
     0
 77
     0
 78
     0
170
     0
171
     2
172
     0
173
     0
174
     0
175
     0
176
     0
177
     0
178
     0
  0
DIMSTYLE
  2
BYGG-033227$0$MASKIN
 70
     0
  3

  4

  5

  6

  7

 40
0.0
 41
3.0
 42
1.5
 43
10.0
 44
1.5
 45
0.0
 46
0.0
 47
0.0
 48
0.0
140
3.0
141
-5.0
142
0.0
143
25.399999999999999
144
-1.0
145
0.0
146
1.0
147
1.0
 71
     0
 72
     0
 73
     0
 74
     0
 75
     0
 76
     0
 77
     1
 78
     8
170
     0
171
     0
172
     1
173
     0
174
     0
175
     0
176
   256
177
   256
178
     2
  0
DIMSTYLE
  2
BYGG-025060$0$MASKIN
 70
     0
  3

  4

  5

  6

  7

 40
0.0
 41
3.0
 42
1.5
 43
10.0
 44
1.5
 45
0.0
 46
0.0
 47
0.0
 48
0.0
140
3.0
141
-5.0
142
0.0
143
25.399999999999999
144
-1.0
145
0.0
146
1.0
147
1.0
 71
     0
 72
     0
 73
     0
 74
     0
 75
     0
 76
     0
 77
     1
 78
     8
170
     0
171
     0
172
     1
173
     0
174
     0
175
     0
176
   256
177
   256
178
     2
  0
DIMSTYLE
  2
BYGG-025060$0$STANDARD
 70
     0
  3

  4

  5

  6

  7

 40
1.0
 41
0.18
 42
0.0625
 43
0.38
 44
0.18
 45
0.0
 46
0.0
 47
0.0
 48
0.0
140
0.18
141
0.09
142
0.0
143
25.399999999999999
144
1.0
145
0.0
146
1.0
147
0.09
 71
     0
 72
     0
 73
     1
 74
     1
 75
     0
 76
     0
 77
     0
 78
     0
170
     0
171
     2
172
     0
173
     0
174
     0
175
     0
176
     0
177
     0
178
     0
  0
DIMSTYLE
  2
BYGG-012216$0$MASKIN
 70
     0
  3

  4

  5

  6

  7

 40
0.0
 41
3.0
 42
1.5
 43
10.0
 44
1.5
 45
0.0
 46
0.0
 47
0.0
 48
0.0
140
3.0
141
-5.0
142
0.0
143
25.399999999999999
144
-1.0
145
0.0
146
1.0
147
1.0
 71
     0
 72
     0
 73
     0
 74
     0
 75
     0
 76
     0
 77
     1
 78
     8
170
     0
171
     0
172
     1
173
     0
174
     0
175
     0
176
   256
177
   256
178
     2
  0
DIMSTYLE
  2
BYGG-012216$0$STANDARD
 70
     0
  3

  4

  5

  6

  7

 40
1.0
 41
0.18
 42
0.0625
 43
0.38
 44
0.18
 45
0.0
 46
0.0
 47
0.0
 48
0.0
140
0.18
141
0.09
142
0.0
143
25.399999999999999
144
1.0
145
0.0
146
1.0
147
0.09
 71
     0
 72
     0
 73
     1
 74
     1
 75
     0
 76
     0
 77
     0
 78
     0
170
     0
171
     2
172
     0
173
     0
174
     0
175
     0
176
     0
177
     0
178
     0
  0
DIMSTYLE
  2
BYGG-028980$0$STANDARD
 70
     0
  3

  4

  5

  6

  7

 40
1.0
 41
0.18
 42
0.0625
 43
0.38
 44
0.18
 45
0.0
 46
0.0
 47
0.0
 48
0.0
140
0.18
141
0.09
142
0.0
143
25.399999999999999
144
1.0
145
0.0
146
1.0
147
0.09
 71
     0
 72
     0
 73
     1
 74
     1
 75
     0
 76
     0
 77
     0
 78
     0
170
     0
171
     2
172
     0
173
     0
174
     0
175
     0
176
     0
177
     0
178
     0
  0
DIMSTYLE
  2
BYGG-028980$0$MASKIN
 70
     0
  3

  4

  5

  6

  7

 40
0.0
 41
3.0
 42
1.5
 43
10.0
 44
1.5
 45
0.0
 46
0.0
 47
0.0
 48
0.0
140
3.0
141
-5.0
142
0.0
143
25.399999999999999
144
-1.0
145
0.0
146
1.0
147
1.0
 71
     0
 72
     0
 73
     0
 74
     0
 75
     0
 76
     0
 77
     1
 78
     8
170
     0
171
     0
172
     1
173
     0
174
     0
175
     0
176
   256
177
   256
178
     2
  0
DIMSTYLE
  2
BYGG-020805$0$STANDARD
 70
     0
  3

  4

  5

  6

  7

 40
1.0
 41
0.18
 42
0.0625
 43
0.38
 44
0.18
 45
0.0
 46
0.0
 47
0.0
 48
0.0
140
0.18
141
0.09
142
0.0
143
25.399999999999999
144
1.0
145
0.0
146
1.0
147
0.09
 71
     0
 72
     0
 73
     1
 74
     1
 75
     0
 76
     0
 77
     0
 78
     0
170
     0
171
     2
172
     0
173
     0
174
     0
175
     0
176
     0
177
     0
178
     0
  0
DIMSTYLE
  2
BYGG-020805$0$MASKIN
 70
     0
  3

  4

  5

  6

  7

 40
0.0
 41
3.0
 42
1.5
 43
10.0
 44
1.5
 45
0.0
 46
0.0
 47
0.0
 48
0.0
140
3.0
141
-5.0
142
0.0
143
25.399999999999999
144
-1.0
145
0.0
146
1.0
147
1.0
 71
     0
 72
     0
 73
     0
 74
     0
 75
     0
 76
     0
 77
     1
 78
     8
170
     0
171
     0
172
     1
173
     0
174
     0
175
     0
176
   256
177
   256
178
     2
  0
DIMSTYLE
  2
BYGG-033167$0$STANDARD
 70
     0
  3

  4

  5

  6

  7

 40
1.0
 41
0.18
 42
0.0625
 43
0.38
 44
0.18
 45
0.0
 46
0.0
 47
0.0
 48
0.0
140
0.18
141
0.09
142
0.0
143
25.399999999999999
144
1.0
145
0.0
146
1.0
147
0.09
 71
     0
 72
     0
 73
     1
 74
     1
 75
     0
 76
     0
 77
     0
 78
     0
170
     0
171
     2
172
     0
173
     0
174
     0
175
     0
176
     0
177
     0
178
     0
  0
DIMSTYLE
  2
BYGG-033167$0$MASKIN
 70
     0
  3

  4

  5

  6

  7

 40
0.0
 41
3.0
 42
1.5
 43
10.0
 44
1.5
 45
0.0
 46
0.0
 47
0.0
 48
0.0
140
3.0
141
-5.0
142
0.0
143
25.399999999999999
144
-1.0
145
0.0
146
1.0
147
1.0
 71
     0
 72
     0
 73
     0
 74
     0
 75
     0
 76
     0
 77
     1
 78
     8
170
     0
171
     0
172
     1
173
     0
174
     0
175
     0
176
   256
177
   256
178
     2
  0
DIMSTYLE
  2
BYGG-033167$0$BYGG-020132$
 70
     0
  3

  4

  5

  6

  7

 40
0.0
 41
3.0
 42
1.5
 43
10.0
 44
1.5
 45
0.0
 46
0.0
 47
0.0
 48
0.0
140
3.0
141
-5.0
142
0.0
143
25.399999999999999
144
-1.0
145
0.0
146
1.0
147
1.0
 71
     0
 72
     0
 73
     0
 74
     0
 75
     0
 76
     0
 77
     1
 78
     8
170
     0
171
     0
172
     1
173
     0
174
     0
175
     0
176
   256
177
   256
178
     2
  0
DIMSTYLE
  2
BYGG-033167$0$BYGG-024943$
 70
     0
  3

  4

  5

  6

  7

 40
0.0
 41
3.0
 42
1.5
 43
10.0
 44
1.5
 45
0.0
 46
0.0
 47
0.0
 48
0.0
140
3.0
141
-5.0
142
0.0
143
25.399999999999999
144
-1.0
145
0.0
146
1.0
147
1.0
 71
     0
 72
     0
 73
     0
 74
     0
 75
     0
 76
     0
 77
     1
 78
     8
170
     0
171
     0
172
     1
173
     0
174
     0
175
     0
176
   256
177
   256
178
     2
  0
DIMSTYLE
  2
BYGG-026410$0$STANDARD
 70
     0
  3

  4

  5

  6

  7

 40
1.0
 41
0.18
 42
0.0625
 43
0.38
 44
0.18
 45
0.0
 46
0.0
 47
0.0
 48
0.0
140
0.18
141
0.09
142
0.0
143
25.399999999999999
144
1.0
145
0.0
146
1.0
147
0.09
 71
     0
 72
     0
 73
     1
 74
     1
 75
     0
 76
     0
 77
     0
 78
     0
170
     0
171
     2
172
     0
173
     0
174
     0
175
     0
176
     0
177
     0
178
     0
  0
DIMSTYLE
  2
BYGG-026410$0$MASKIN
 70
     0
  3

  4

  5

  6

  7

 40
0.0
 41
3.0
 42
1.5
 43
10.0
 44
1.5
 45
0.0
 46
0.0
 47
0.0
 48
0.0
140
3.0
141
-5.0
142
0.0
143
25.399999999999999
144
-1.0
145
0.0
146
1.0
147
1.0
 71
     0
 72
     0
 73
     0
 74
     0
 75
     0
 76
     0
 77
     1
 78
     8
170
     0
171
     0
172
     1
173
     0
174
     0
175
     0
176
   256
177
   256
178
     2
  0
DIMSTYLE
  2
BYGG-01409101$0$STANDARD
 70
     0
  3

  4

  5

  6

  7

 40
1.0
 41
0.18
 42
0.0625
 43
0.38
 44
0.18
 45
0.0
 46
0.0
 47
0.0
 48
0.0
140
0.18
141
0.09
142
0.0
143
25.399999999999999
144
1.0
145
0.0
146
1.0
147
0.09
 71
     0
 72
     0
 73
     1
 74
     1
 75
     0
 76
     0
 77
     0
 78
     0
170
     0
171
     2
172
     0
173
     0
174
     0
175
     0
176
     0
177
     0
178
     0
  0
DIMSTYLE
  2
BYGG-029021$0$STANDARD
 70
     0
  3

  4

  5

  6

  7

 40
1.0
 41
0.18
 42
0.0625
 43
0.38
 44
0.18
 45
0.0
 46
0.0
 47
0.0
 48
0.0
140
0.18
141
0.09
142
0.0
143
25.399999999999999
144
1.0
145
0.0
146
1.0
147
0.09
 71
     0
 72
     0
 73
     1
 74
     1
 75
     0
 76
     0
 77
     0
 78
     0
170
     0
171
     2
172
     0
173
     0
174
     0
175
     0
176
     0
177
     0
178
     0
  0
DIMSTYLE
  2
BYGG-029021$0$MASKIN
 70
     0
  3

  4

  5

  6

  7

 40
0.0
 41
3.0
 42
1.5
 43
10.0
 44
1.5
 45
0.0
 46
0.0
 47
0.0
 48
0.0
140
3.0
141
-5.0
142
0.0
143
25.399999999999999
144
-1.0
145
0.0
146
1.0
147
1.0
 71
     0
 72
     0
 73
     0
 74
     0
 75
     0
 76
     0
 77
     1
 78
     8
170
     0
171
     0
172
     1
173
     0
174
     0
175
     0
176
   256
177
   256
178
     2
  0
DIMSTYLE
  2
BYGG-029021$0$MASKIN1
 70
     0
  3

  4

  5

  6

  7

 40
0.0
 41
3.0
 42
1.5
 43
10.0
 44
1.5
 45
0.0
 46
0.0
 47
0.0
 48
0.0
140
3.0
141
-5.0
142
0.0
143
25.399999999999999
144
-1.0
145
0.0
146
1.0
147
1.0
 71
     0
 72
     0
 73
     0
 74
     0
 75
     0
 76
     0
 77
     1
 78
     8
170
     0
171
     0
172
     1
173
     0
174
     0
175
     0
176
   256
177
   256
178
   256
  0
DIMSTYLE
  2
BYGG-029021$0$COTATION_HUT
 70
     0
  3

  4

  5

  6

  7

 40
1.0
 41
0.25
 42
0.1
 43
3.75
 44
0.18
 45
0.0
 46
0.0
 47
0.0
 48
0.0
140
0.25
141
2.5
142
0.0
143
25.399999999999999
144
1.0
145
0.05
146
0.7000000000000002
147
0.09
 71
     1
 72
     0
 73
     0
 74
     0
 75
     0
 76
     0
 77
     1
 78
     0
170
     0
171
     2
172
     1
173
     0
174
     0
175
     0
176
     0
177
     0
178
     0
  0
DIMSTYLE
  2
BYGG-029021$0$ANNOTATIVE
 70
     0
  3

  4

  5

  6

  7

 40
1.0
 41
0.18
 42
0.0625
 43
0.38
 44
0.18
 45
0.0
 46
0.0
 47
0.0
 48
0.0
140
0.18
141
0.09
142
0.0
143
25.399999999999999
144
1.0
145
0.0
146
1.0
147
0.09
 71
     0
 72
     0
 73
     1
 74
     1
 75
     0
 76
     0
 77
     0
 78
     0
170
     0
171
     2
172
     0
173
     0
174
     0
175
     0
176
     0
177
     0
178
     0
  0
DIMSTYLE
  2
BYGG-024800$0$MASKIN
 70
     0
  3

  4

  5

  6

  7

 40
0.0
 41
3.0
 42
1.5
 43
10.0
 44
1.5
 45
0.0
 46
0.0
 47
0.0
 48
0.0
140
3.0
141
-5.0
142
0.0
143
25.399999999999999
144
-1.0
145
0.0
146
1.0
147
1.0
 71
     0
 72
     0
 73
     0
 74
     0
 75
     0
 76
     0
 77
     1
 78
     8
170
     0
171
     0
172
     1
173
     0
174
     0
175
     0
176
   256
177
   256
178
     2
  0
DIMSTYLE
  2
BYGG-024800$0$STANDARD
 70
     0
  3

  4

  5

  6

  7

 40
1.0
 41
0.18
 42
0.0625
 43
0.38
 44
0.18
 45
0.0
 46
0.0
 47
0.0
 48
0.0
140
0.18
141
0.09
142
0.0
143
25.399999999999999
144
1.0
145
0.0
146
1.0
147
0.09
 71
     0
 72
     0
 73
     1
 74
     1
 75
     0
 76
     0
 77
     0
 78
     0
170
     0
171
     2
172
     0
173
     0
174
     0
175
     0
176
     0
177
     0
178
     0
  0
DIMSTYLE
  2
BYGG-024807$0$MASKIN
 70
     0
  3

  4

  5

  6

  7

 40
0.0
 41
3.0
 42
1.5
 43
10.0
 44
1.5
 45
0.0
 46
0.0
 47
0.0
 48
0.0
140
3.0
141
-5.0
142
0.0
143
25.399999999999999
144
-1.0
145
0.0
146
1.0
147
1.0
 71
     0
 72
     0
 73
     0
 74
     0
 75
     0
 76
     0
 77
     1
 78
     8
170
     0
171
     0
172
     1
173
     0
174
     0
175
     0
176
   256
177
   256
178
     2
  0
DIMSTYLE
  2
BYGG-024807$0$STANDARD
 70
     0
  3

  4

  5

  6

  7

 40
1.0
 41
0.18
 42
0.0625
 43
0.38
 44
0.18
 45
0.0
 46
0.0
 47
0.0
 48
0.0
140
0.18
141
0.09
142
0.0
143
25.399999999999999
144
1.0
145
0.0
146
1.0
147
0.09
 71
     0
 72
     0
 73
     1
 74
     1
 75
     0
 76
     0
 77
     0
 78
     0
170
     0
171
     2
172
     0
173
     0
174
     0
175
     0
176
     0
177
     0
178
     0
  0
DIMSTYLE
  2
BYGG-024807$0$ANNOTATIVE
 70
     0
  3

  4

  5

  6

  7

 40
1.0
 41
0.18
 42
0.0625
 43
0.38
 44
0.18
 45
0.0
 46
0.0
 47
0.0
 48
0.0
140
0.18
141
0.09
142
0.0
143
25.399999999999999
144
1.0
145
0.0
146
1.0
147
0.09
 71
     0
 72
     0
 73
     1
 74
     1
 75
     0
 76
     0
 77
     0
 78
     0
170
     0
171
     2
172
     0
173
     0
174
     0
175
     0
176
     0
177
     0
178
     0
  0
DIMSTYLE
  2
BYGG-025652$0$STANDARD
 70
     0
  3

  4

  5

  6

  7

 40
1.0
 41
0.18
 42
0.0625
 43
0.38
 44
0.18
 45
0.0
 46
0.0
 47
0.0
 48
0.0
140
0.18
141
0.09
142
0.0
143
25.399999999999999
144
1.0
145
0.0
146
1.0
147
0.09
 71
     0
 72
     0
 73
     1
 74
     1
 75
     0
 76
     0
 77
     0
 78
     0
170
     0
171
     2
172
     0
173
     0
174
     0
175
     0
176
     0
177
     0
178
     0
  0
DIMSTYLE
  2
BYGG-025652$0$MASKIN
 70
     0
  3

  4

  5

  6

  7

 40
0.0
 41
3.0
 42
1.5
 43
10.0
 44
1.5
 45
0.0
 46
0.0
 47
0.0
 48
0.0
140
3.0
141
-5.0
142
0.0
143
25.399999999999999
144
-1.0
145
0.0
146
1.0
147
1.0
 71
     0
 72
     0
 73
     0
 74
     0
 75
     0
 76
     0
 77
     1
 78
     8
170
     0
171
     0
172
     1
173
     0
174
     0
175
     0
176
   256
177
   256
178
     2
  0
DIMSTYLE
  2
BYGG-025652$0$ANNOTATIVE
 70
     0
  3

  4

  5

  6

  7

 40
1.0
 41
0.18
 42
0.0625
 43
0.38
 44
0.18
 45
0.0
 46
0.0
 47
0.0
 48
0.0
140
0.18
141
0.09
142
0.0
143
25.399999999999999
144
1.0
145
0.0
146
1.0
147
0.09
 71
     0
 72
     0
 73
     1
 74
     1
 75
     0
 76
     0
 77
     0
 78
     0
170
     0
171
     2
172
     0
173
     0
174
     0
175
     0
176
     0
177
     0
178
     0
  0
DIMSTYLE
  2
BYGG-014411$0$MASKIN
 70
     0
  3

  4

  5

  6

  7

 40
0.0
 41
3.0
 42
1.5
 43
10.0
 44
1.5
 45
0.0
 46
0.0
 47
0.0
 48
0.0
140
3.0
141
-5.0
142
0.0
143
25.399999999999999
144
-1.0
145
0.0
146
1.0
147
1.0
 71
     0
 72
     0
 73
     0
 74
     0
 75
     0
 76
     0
 77
     1
 78
     8
170
     0
171
     0
172
     1
173
     0
174
     0
175
     0
176
   256
177
   256
178
   256
  0
DIMSTYLE
  2
BYGG-014411$0$STANDARD
 70
     0
  3

  4

  5

  6

  7

 40
1.0
 41
0.18
 42
0.0625
 43
0.38
 44
0.18
 45
0.0
 46
0.0
 47
0.0
 48
0.0
140
0.18
141
0.09
142
0.0
143
25.399999999999999
144
1.0
145
0.0
146
1.0
147
0.09
 71
     0
 72
     0
 73
     1
 74
     1
 75
     0
 76
     0
 77
     0
 78
     0
170
     0
171
     2
172
     0
173
     0
174
     0
175
     0
176
     0
177
     0
178
     0
  0
DIMSTYLE
  2
BYGG-014090$0$STANDARD
 70
     0
  3

  4

  5

  6

  7

 40
1.0
 41
0.18
 42
0.0625
 43
0.38
 44
0.18
 45
0.0
 46
0.0
 47
0.0
 48
0.0
140
0.18
141
0.09
142
0.0
143
25.399999999999999
144
1.0
145
0.0
146
1.0
147
0.09
 71
     0
 72
     0
 73
     1
 74
     1
 75
     0
 76
     0
 77
     0
 78
     0
170
     0
171
     2
172
     0
173
     0
174
     0
175
     0
176
     0
177
     0
178
     0
  0
DIMSTYLE
  2
BYGG-014088$0$STANDARD
 70
     0
  3

  4

  5

  6

  7

 40
1.0
 41
0.18
 42
0.0625
 43
0.38
 44
0.18
 45
0.0
 46
0.0
 47
0.0
 48
0.0
140
0.18
141
0.09
142
0.0
143
25.399999999999999
144
1.0
145
0.0
146
1.0
147
0.09
 71
     0
 72
     0
 73
     1
 74
     1
 75
     0
 76
     0
 77
     0
 78
     0
170
     0
171
     2
172
     0
173
     0
174
     0
175
     0
176
     0
177
     0
178
     0
  0
ENDTAB
  0
ENDSEC
  0
SECTION
  2
BLOCKS
  0
BLOCK
  8
0
  2
$MODEL_SPACE
 70
     0
 10
0.0
 20
0.0
 30
0.0
  3
$MODEL_SPACE
  1

  0
ENDBLK
  5
37
  8
0
  0
BLOCK
 67
     1
  8
0
  2
$PAPER_SPACE
 70
     0
 10
0.0
 20
0.0
 30
0.0
  3
$PAPER_SPACE
  1

  0
ENDBLK
  5
35
 67
     1
  8
0
  0
BLOCK
  8
0
  2
*D142
 70
     1
 10
0.0
 20
0.0
 30
0.0
  3
*D142
  1

  0
LINE
  5
18F9
  8
SAPA_MATT
 10
24.99999999999978
 20
-107.4999999990104
 30
0.0
 11
24.99999999999978
 21
-127.3731908254038
 31
0.0
  0
LINE
  5
18FA
  8
SAPA_MATT
 10
-25.000000000000231
 20
-107.4999999990104
 30
0.0
 11
-25.000000000000231
 21
-127.3731908254038
 31
0.0
  0
LINE
  5
18FB
  8
SAPA_MATT
 10
21.999999999999769
 20
-125.8731908254038
 30
0.0
 11
-22.000000000000231
 21
-125.8731908254038
 31
0.0
  0
SOLID
  5
18FC
  8
SAPA_MATT
 10
21.999999999999769
 20
-125.3731908254038
 30
0.0
 11
21.999999999999769
 21
-126.3731908254038
 31
0.0
 12
24.99999999999978
 22
-125.8731908254038
 32
0.0
 13
24.99999999999978
 23
-125.8731908254038
 33
0.0
  0
SOLID
  5
18FD
  8
SAPA_MATT
 10
-22.000000000000231
 20
-125.3731908254038
 30
0.0
 11
-22.000000000000231
 21
-126.3731908254038
 31
0.0
 12
-25.000000000000231
 22
-125.8731908254038
 32
0.0
 13
-25.000000000000231
 23
-125.8731908254038
 33
0.0
  0
INSERT
  5
18FE
  8
0
  2
*U160
 10
0.0
 20
0.0
 30
0.0
  0
POINT
  5
18FF
  8
DEFPOINTS
 62
     0
 10
24.99999999999978
 20
-105.9999999990104
 30
0.0
  0
POINT
  5
1900
  8
DEFPOINTS
 62
     0
 10
-25.000000000000231
 20
-105.9999999990104
 30
0.0
  0
POINT
  5
1901
  8
DEFPOINTS
 62
     0
 10
-25.000000000000231
 20
-125.8731908254038
 30
0.0
  0
ENDBLK
  5
18AC
  8
0
  0
BLOCK
  8
0
  2
*D143
 70
     1
 10
0.0
 20
0.0
 30
0.0
  3
*D143
  1

  0
LINE
  5
2979
  8
SAPA_MATT
 10
-24.99999999999984
 20
-107.4999999990104
 30
0.0
 11
-24.99999999999984
 21
-127.3557794594702
 31
0.0
  0
LINE
  5
297A
  8
SAPA_MATT
 10
-75.999999999999645
 20
-76.299999251909526
 30
0.0
 11
-75.999999999999645
 21
-127.3557794594702
 31
0.0
  0
LINE
  5
297B
  8
SAPA_MATT
 10
-27.999999999999829
 20
-125.8557794594702
 30
0.0
 11
-72.999999999999659
 21
-125.8557794594702
 31
0.0
  0
SOLID
  5
297C
  8
SAPA_MATT
 10
-27.999999999999829
 20
-125.3557794594702
 30
0.0
 11
-27.999999999999829
 21
-126.3557794594702
 31
0.0
 12
-24.99999999999984
 22
-125.8557794594702
 32
0.0
 13
-24.99999999999984
 23
-125.8557794594702
 33
0.0
  0
SOLID
  5
297D
  8
SAPA_MATT
 10
-72.999999999999659
 20
-125.3557794594702
 30
0.0
 11
-72.999999999999659
 21
-126.3557794594702
 31
0.0
 12
-75.999999999999645
 22
-125.8557794594702
 32
0.0
 13
-75.999999999999645
 23
-125.8557794594702
 33
0.0
  0
TEXT
  8
SAPA_MATT
  40
3
  5
2986
  62
2
  72
0
  71
0
 10
-56.5000
 20
-128.666
 30
0.000000
  1
51
  7
ISO
  0
POINT
  5
297F
  8
DEFPOINTS
 62
     0
 10
-24.99999999999984
 20
-105.9999999990104
 30
0.0
  0
POINT
  5
2980
  8
DEFPOINTS
 62
     0
 10
-75.999999999999645
 20
-74.799999251909526
 30
0.0
  0
POINT
  5
2981
  8
DEFPOINTS
 62
     0
 10
-75.999999999999645
 20
-125.8557794594702
 30
0.0
  0
ENDBLK
  5
18B8
  8
0
  0
BLOCK
  8
0
  2
*D144
 70
     1
 10
0.0
 20
0.0
 30
0.0
  3
*D144
  1

  0
LINE
  5
296E
  8
SAPA_MATT
 10
-75.999999999999645
 20
-76.299999251909526
 30
0.0
 11
-75.999999999999645
 21
-127.3557794594702
 31
0.0
  0
LINE
  5
296F
  8
SAPA_MATT
 10
-80.999999999999645
 20
-81.72335996994201
 30
0.0
 11
-80.999999999999645
 21
-127.3557794594702
 31
0.0
  0
LINE
  5
2970
  8
SAPA_MATT
 10
-72.999999999999659
 20
-125.8557794594702
 30
0.0
 11
-69.999999999999659
 21
-125.8557794594702
 31
0.0
  0
LINE
  5
2971
  8
SAPA_MATT
 10
-83.999999999999659
 20
-125.8557794594702
 30
0.0
 11
-86.999999999999645
 21
-125.8557794594702
 31
0.0
  0
LINE
  5
2972
  8
SAPA_MATT
 10
-75.999999999999645
 20
-125.8557794594702
 30
0.0
 11
-80.999999999999645
 21
-125.8557794594702
 31
0.0
  0
SOLID
  5
2973
  8
SAPA_MATT
 10
-72.999999999999659
 20
-125.3557794594702
 30
0.0
 11
-72.999999999999659
 21
-126.3557794594702
 31
0.0
 12
-75.999999999999645
 22
-125.8557794594702
 32
0.0
 13
-75.999999999999645
 23
-125.8557794594702
 33
0.0
  0
SOLID
  5
2974
  8
SAPA_MATT
 10
-83.999999999999659
 20
-125.3557794594702
 30
0.0
 11
-83.999999999999659
 21
-126.3557794594702
 31
0.0
 12
-80.999999999999645
 22
-125.8557794594702
 32
0.0
 13
-80.999999999999645
 23
-125.8557794594702
 33
0.0
  0
TEXT
  8
SAPA_MATT
  40
3
  5
2987
  62
2
  72
0
  71
0
 10
-84.5000
 20
-128.666
 30
0.000000
  1
5
  7
ISO
  0
POINT
  5
2976
  8
DEFPOINTS
 62
     0
 10
-75.999999999999645
 20
-74.799999251909526
 30
0.0
  0
POINT
  5
2977
  8
DEFPOINTS
 62
     0
 10
-80.999999999999645
 20
-80.223359969941995
 30
0.0
  0
POINT
  5
2978
  8
DEFPOINTS
 62
     0
 10
-80.999999999999645
 20
-125.8557794594702
 30
0.0
  0
ENDBLK
  5
18C4
  8
0
  0
BLOCK
  8
0
  2
*D145
 70
     1
 10
0.0
 20
0.0
 30
0.0
  3
*D145
  1

  0
LINE
  5
2965
  8
SAPA_MATT
 10
-80.999976179970076
 20
-81.999999963795972
 30
0.0
 11
-80.999976179970076
 21
-127.3557794594701
 31
0.0
  0
LINE
  5
2966
  8
SAPA_MATT
 10
-169.99997618387721
 20
-83.499999996299564
 30
0.0
 11
-169.99997618387721
 21
-127.3557794594701
 31
0.0
  0
LINE
  5
2967
  8
SAPA_MATT
 10
-83.999976179970076
 20
-125.8557794594701
 30
0.0
 11
-166.99997618387729
 21
-125.8557794594701
 31
0.0
  0
SOLID
  5
2968
  8
SAPA_MATT
 10
-83.999976179970076
 20
-125.3557794594701
 30
0.0
 11
-83.999976179970076
 21
-126.3557794594701
 31
0.0
 12
-80.999976179970076
 22
-125.8557794594701
 32
0.0
 13
-80.999976179970076
 23
-125.8557794594701
 33
0.0
  0
SOLID
  5
2969
  8
SAPA_MATT
 10
-166.99997618387729
 20
-125.3557794594701
 30
0.0
 11
-166.99997618387729
 21
-126.3557794594701
 31
0.0
 12
-169.99997618387721
 22
-125.8557794594701
 32
0.0
 13
-169.99997618387721
 23
-125.8557794594701
 33
0.0
  0
TEXT
  8
SAPA_MATT
  40
3
  5
2988
  62
2
  72
0
  71
0
 10
-131.500
 20
-128.666
 30
0.000000
  1
89
  7
ISO
  0
POINT
  5
296B
  8
DEFPOINTS
 62
     0
 10
-80.999976179970076
 20
-80.499999963795972
 30
0.0
  0
POINT
  5
296C
  8
DEFPOINTS
 62
     0
 10
-169.99997618387721
 20
-81.999999996299564
 30
0.0
  0
POINT
  5
296D
  8
DEFPOINTS
 62
     0
 10
-169.99997618387721
 20
-125.8557794594701
 30
0.0
  0
ENDBLK
  5
18D2
  8
0
  0
BLOCK
  8
0
  2
*U146
 70
     1
 10
0.0
 20
0.0
 30
0.0
  3
*U146
  1

  0
TEXT
  5
195C
  8
SAPA_ARTIKELNR
 10
-6.4303857324235638
 20
66.451161059970659
 30
0.0
 40
3.5
  1
68654
  7
ISO
  0
ENDBLK
  5
195E
  8
0
  0
BLOCK
  8
0
  2
*U147
 70
     1
 10
0.0
 20
0.0
 30
0.0
  3
*U147
  1

  0
TEXT
  5
1960
  8
SAPA_ARTIKELNR
 10
-6.4303857324235638
 20
-102.82938840410699
 30
0.0
 40
3.5
  1
42657
  7
ISO
  0
ENDBLK
  5
1962
  8
0
  0
BLOCK
  8
0
  2
*U148
 70
     1
 10
0.0
 20
0.0
 30
0.0
  3
*U148
  1

  0
TEXT
  5
1964
  8
SAPA_ARTIKELNR
 10
-6.4303857324235638
 20
-111.8951902723834
 30
0.0
 40
3.5
  1
42227
  7
ISO
  0
ENDBLK
  5
1966
  8
0
  0
BLOCK
  8
0
  2
*U149
 70
     1
 10
0.0
 20
0.0
 30
0.0
  3
*U149
  1

  0
TEXT
  5
19A7
  8
SAPA_ARTIKELNR
 10
-64.893335500908123
 20
7.7769595598259871
 30
0.0
 40
3.5
  1
86423
 50
0.0000000000000211
  7
ISO
  0
ENDBLK
  5
19A9
  8
0
  0
BLOCK
  8
0
  2
*U150
 70
     1
 10
0.0
 20
0.0
 30
0.0
  3
*U150
  1

  0
TEXT
  5
19AB
  8
SAPA_ARTIKELNR
 10
-130.9029914244866
 20
7.7769595598260119
 30
0.0
 40
3.5
  1
86424
 50
0.0000000000000211
  7
ISO
  0
ENDBLK
  5
19AD
  8
0
  0
BLOCK
  8
0
  2
*U151
 70
     1
 10
0.0
 20
0.0
 30
0.0
  3
*U151
  1

  0
TEXT
  5
19AF
  8
SAPA_ARTIKELNR
 10
-166.033530474369
 20
7.7769595598260253
 30
0.0
 40
3.5
  1
42728
 50
0.0000000000000211
  7
ISO
  0
ENDBLK
  5
19B1
  8
0
  0
BLOCK
  8
0
  2
*U152
 70
     1
 10
0.0
 20
0.0
 30
0.0
  3
*U152
  1

  0
SOLID
  5
1C0D
  8
SAPA_PROFIL
  6
CONTINUOUS
 62
     2
 10
-86.831483681342036
 20
-77.067339985094605
 30
0.1
 11
-87.008260376638646
 21
-77.140563289797967
 31
0.1
 12
-86.654706986045383
 22
-77.140563289797967
 32
0.1
 13
-86.654706986045383
 23
-77.140563289797967
 33
0.1
210
0.0
220
0.0
230
1.0
  0
SOLID
  5
1C0E
  8
SAPA_PROFIL
  6
CONTINUOUS
 62
     2
 10
-87.008260376638646
 20
-77.140563289797967
 30
0.1
 11
-87.081483681342007
 21
-77.317339985094605
 31
0.1
 12
-86.581483681342021
 22
-77.317339985094605
 32
0.1
 13
-86.581483681342021
 23
-77.317339985094605
 33
0.1
210
0.0
220
0.0
230
1.0
  0
SOLID
  5
1C0F
  8
SAPA_PROFIL
  6
CONTINUOUS
 62
     2
 10
87.008260376638646
 20
-77.140563289797967
 30
-0.1
 11
86.654706986045383
 21
-77.140563289797967
 31
-0.1
 12
86.581483681342021
 22
-77.317339985094605
 32
-0.1
 13
86.581483681342021
 23
-77.317339985094605
 33
-0.1
210
0.0
220
0.0
230
-1.0
  0
SOLID
  5
1C10
  8
SAPA_PROFIL
  6
CONTINUOUS
 62
     2
 10
87.008260376638646
 20
-77.494116680391244
 30
-0.1
 11
86.654706986045383
 21
-77.494116680391244
 31
-0.1
 12
86.831483681342036
 22
-77.567339985094605
 32
-0.1
 13
86.831483681342036
 23
-77.567339985094605
 33
-0.1
210
0.0
220
0.0
230
-1.0
  0
SOLID
  5
1C11
  8
SAPA_PROFIL
  6
CONTINUOUS
 62
     2
 10
-87.081483681342007
 20
-77.317339985094605
 30
0.1
 11
-87.008260376638646
 21
-77.494116680391244
 31
0.1
 12
-86.654706986045383
 22
-77.494116680391244
 32
0.1
 13
-86.654706986045383
 23
-77.494116680391244
 33
0.1
210
0.0
220
0.0
230
1.0
  0
SOLID
  5
1C12
  8
SAPA_PROFIL
  6
CONTINUOUS
 62
     2
 10
87.081483681342007
 20
-77.317339985094605
 30
-0.1
 11
86.581483681342021
 21
-77.317339985094605
 31
-0.1
 12
86.654706986045383
 22
-77.494116680391244
 32
-0.1
 13
86.654706986045383
 23
-77.494116680391244
 33
-0.1
210
0.0
220
0.0
230
-1.0
  0
LINE
  5
1C13
  8
SAPA_PROFIL
  6
CONTINUOUS
 62
     2
 10
-86.831483681342036
 20
-77.067339985094605
 30
0.1
 11
-87.008260376638646
 21
-77.140563289797967
 31
0.1
  0
LINE
  5
1C14
  8
SAPA_PROFIL
  6
CONTINUOUS
 62
     2
 10
-86.654706986045383
 20
-77.140563289797967
 30
0.1
 11
-86.831483681342036
 21
-77.067339985094605
 31
0.1
  0
LINE
  5
1C15
  8
SAPA_PROFIL
  6
CONTINUOUS
 62
     2
 10
-87.008260376638646
 20
-77.140563289797967
 30
0.1
 11
-87.081483681342007
 21
-77.317339985094605
 31
0.1
  0
LINE
  5
1C16
  8
SAPA_PROFIL
  6
CONTINUOUS
 62
     2
 10
-86.654706986045383
 20
-77.140563289797967
 30
0.1
 11
-86.581483681342021
 21
-77.317339985094605
 31
0.1
  0
LINE
  5
1C17
  8
SAPA_PROFIL
  6
CONTINUOUS
 62
     2
 10
-86.654706986045383
 20
-77.494116680391244
 30
0.1
 11
-86.831483681342036
 21
-77.567339985094605
 31
0.1
  0
LINE
  5
1C18
  8
SAPA_PROFIL
  6
CONTINUOUS
 62
     2
 10
-86.831483681342036
 20
-77.567339985094605
 30
0.1
 11
-87.008260376638646
 21
-77.494116680391244
 31
0.1
  0
LINE
  5
1C19
  8
SAPA_PROFIL
  6
CONTINUOUS
 62
     2
 10
-87.081483681342007
 20
-77.317339985094605
 30
0.1
 11
-87.008260376638646
 21
-77.494116680391244
 31
0.1
  0
LINE
  5
1C1A
  8
SAPA_PROFIL
  6
CONTINUOUS
 62
     2
 10
-86.581483681342021
 20
-77.317339985094605
 30
0.1
 11
-86.654706986045383
 21
-77.494116680391244
 31
0.1
  0
ENDBLK
  5
1C1C
  8
0
  0
BLOCK
  8
0
  2
*U153
 70
     1
 10
0.0
 20
0.0
 30
0.0
  3
*U153
  1

  0
SOLID
  5
1E57
  8
SAPA_PROFIL
  6
CONTINUOUS
 62
     2
 10
-91.994202787260903
 20
-1.503158469717625
 30
0.0
 11
-92.170979482557527
 21
-1.576381774420988
 31
0.0
 12
-91.817426091964265
 22
-1.576381774420988
 32
0.0
 13
-91.817426091964265
 23
-1.576381774420988
 33
0.0
210
0.0
220
0.0
230
1.0
  0
SOLID
  5
1E58
  8
SAPA_PROFIL
  6
CONTINUOUS
 62
     2
 10
-92.170979482557527
 20
-1.576381774420988
 30
0.0
 11
-92.244202787260903
 21
-1.753158469717625
 31
0.0
 12
-91.744202787260903
 22
-1.753158469717625
 32
0.0
 13
-91.744202787260903
 23
-1.753158469717625
 33
0.0
210
0.0
220
0.0
230
1.0
  0
SOLID
  5
1E59
  8
SAPA_PROFIL
  6
CONTINUOUS
 62
     2
 10
92.170979482557527
 20
-1.576381774420988
 30
0.0
 11
91.817426091964265
 21
-1.576381774420988
 31
0.0
 12
91.744202787260903
 22
-1.753158469717625
 32
0.0
 13
91.744202787260903
 23
-1.753158469717625
 33
0.0
210
0.0
220
0.0
230
-1.0
  0
SOLID
  5
1E5A
  8
SAPA_PROFIL
  6
CONTINUOUS
 62
     2
 10
92.170979482557527
 20
-1.929935165014262
 30
0.0
 11
91.817426091964265
 21
-1.929935165014262
 31
0.0
 12
91.994202787260903
 22
-2.0031584697176248
 32
0.0
 13
91.994202787260903
 23
-2.0031584697176248
 33
0.0
210
0.0
220
0.0
230
-1.0
  0
SOLID
  5
1E5B
  8
SAPA_PROFIL
  6
CONTINUOUS
 62
     2
 10
-92.244202787260903
 20
-1.753158469717625
 30
0.0
 11
-92.170979482557527
 21
-1.929935165014262
 31
0.0
 12
-91.817426091964265
 22
-1.929935165014262
 32
0.0
 13
-91.817426091964265
 23
-1.929935165014262
 33
0.0
210
0.0
220
0.0
230
1.0
  0
SOLID
  5
1E5C
  8
SAPA_PROFIL
  6
CONTINUOUS
 62
     2
 10
92.244202787260903
 20
-1.753158469717625
 30
0.0
 11
91.744202787260903
 21
-1.753158469717625
 31
0.0
 12
91.817426091964265
 22
-1.929935165014262
 32
0.0
 13
91.817426091964265
 23
-1.929935165014262
 33
0.0
210
0.0
220
0.0
230
-1.0
  0
LINE
  5
1E5D
  8
SAPA_PROFIL
  6
CONTINUOUS
 62
     2
 10
-91.994202787260903
 20
-1.503158469717625
 30
0.0
 11
-92.170979482557527
 21
-1.576381774420988
 31
0.0
  0
LINE
  5
1E5E
  8
SAPA_PROFIL
  6
CONTINUOUS
 62
     2
 10
-91.817426091964265
 20
-1.576381774420988
 30
0.0
 11
-91.994202787260903
 21
-1.503158469717625
 31
0.0
  0
LINE
  5
1E5F
  8
SAPA_PROFIL
  6
CONTINUOUS
 62
     2
 10
-92.170979482557527
 20
-1.576381774420988
 30
0.0
 11
-92.244202787260903
 21
-1.753158469717625
 31
0.0
  0
LINE
  5
1E60
  8
SAPA_PROFIL
  6
CONTINUOUS
 62
     2
 10
-91.817426091964265
 20
-1.576381774420988
 30
0.0
 11
-91.744202787260903
 21
-1.753158469717625
 31
0.0
  0
LINE
  5
1E61
  8
SAPA_PROFIL
  6
CONTINUOUS
 62
     2
 10
-91.817426091964265
 20
-1.929935165014262
 30
0.0
 11
-91.994202787260903
 21
-2.0031584697176248
 31
0.0
  0
LINE
  5
1E62
  8
SAPA_PROFIL
  6
CONTINUOUS
 62
     2
 10
-91.994202787260903
 20
-2.0031584697176248
 30
0.0
 11
-92.170979482557527
 21
-1.929935165014262
 31
0.0
  0
LINE
  5
1E63
  8
SAPA_PROFIL
  6
CONTINUOUS
 62
     2
 10
-92.244202787260903
 20
-1.753158469717625
 30
0.0
 11
-92.170979482557527
 21
-1.929935165014262
 31
0.0
  0
LINE
  5
1E64
  8
SAPA_PROFIL
  6
CONTINUOUS
 62
     2
 10
-91.744202787260903
 20
-1.753158469717625
 30
0.0
 11
-91.817426091964265
 21
-1.929935165014262
 31
0.0
  0
ENDBLK
  5
1E66
  8
0
  0
BLOCK
  8
0
  2
*U154
 70
     1
 10
0.0
 20
0.0
 30
0.0
  3
*U154
  1

  0
SOLID
  5
226D
  8
SAPA_PROFIL
  6
CONTINUOUS
 62
     2
 10
-86.831483681342036
 20
-77.067339985094605
 30
0.1
 11
-87.008260376638646
 21
-77.140563289797967
 31
0.1
 12
-86.654706986045383
 22
-77.140563289797967
 32
0.1
 13
-86.654706986045383
 23
-77.140563289797967
 33
0.1
210
0.0
220
0.0
230
1.0
  0
SOLID
  5
226E
  8
SAPA_PROFIL
  6
CONTINUOUS
 62
     2
 10
-87.008260376638646
 20
-77.140563289797967
 30
0.1
 11
-87.081483681342007
 21
-77.317339985094605
 31
0.1
 12
-86.581483681342021
 22
-77.317339985094605
 32
0.1
 13
-86.581483681342021
 23
-77.317339985094605
 33
0.1
210
0.0
220
0.0
230
1.0
  0
SOLID
  5
226F
  8
SAPA_PROFIL
  6
CONTINUOUS
 62
     2
 10
87.008260376638646
 20
-77.140563289797967
 30
-0.1
 11
86.654706986045383
 21
-77.140563289797967
 31
-0.1
 12
86.581483681342021
 22
-77.317339985094605
 32
-0.1
 13
86.581483681342021
 23
-77.317339985094605
 33
-0.1
210
0.0
220
0.0
230
-1.0
  0
SOLID
  5
2270
  8
SAPA_PROFIL
  6
CONTINUOUS
 62
     2
 10
87.008260376638646
 20
-77.494116680391244
 30
-0.1
 11
86.654706986045383
 21
-77.494116680391244
 31
-0.1
 12
86.831483681342036
 22
-77.567339985094605
 32
-0.1
 13
86.831483681342036
 23
-77.567339985094605
 33
-0.1
210
0.0
220
0.0
230
-1.0
  0
SOLID
  5
2271
  8
SAPA_PROFIL
  6
CONTINUOUS
 62
     2
 10
-87.081483681342007
 20
-77.317339985094605
 30
0.1
 11
-87.008260376638646
 21
-77.494116680391244
 31
0.1
 12
-86.654706986045383
 22
-77.494116680391244
 32
0.1
 13
-86.654706986045383
 23
-77.494116680391244
 33
0.1
210
0.0
220
0.0
230
1.0
  0
SOLID
  5
2272
  8
SAPA_PROFIL
  6
CONTINUOUS
 62
     2
 10
87.081483681342007
 20
-77.317339985094605
 30
-0.1
 11
86.581483681342021
 21
-77.317339985094605
 31
-0.1
 12
86.654706986045383
 22
-77.494116680391244
 32
-0.1
 13
86.654706986045383
 23
-77.494116680391244
 33
-0.1
210
0.0
220
0.0
230
-1.0
  0
LINE
  5
2273
  8
SAPA_PROFIL
  6
CONTINUOUS
 62
     2
 10
-86.831483681342036
 20
-77.067339985094605
 30
0.1
 11
-87.008260376638646
 21
-77.140563289797967
 31
0.1
  0
LINE
  5
2274
  8
SAPA_PROFIL
  6
CONTINUOUS
 62
     2
 10
-86.654706986045383
 20
-77.140563289797967
 30
0.1
 11
-86.831483681342036
 21
-77.067339985094605
 31
0.1
  0
LINE
  5
2275
  8
SAPA_PROFIL
  6
CONTINUOUS
 62
     2
 10
-87.008260376638646
 20
-77.140563289797967
 30
0.1
 11
-87.081483681342007
 21
-77.317339985094605
 31
0.1
  0
LINE
  5
2276
  8
SAPA_PROFIL
  6
CONTINUOUS
 62
     2
 10
-86.654706986045383
 20
-77.140563289797967
 30
0.1
 11
-86.581483681342021
 21
-77.317339985094605
 31
0.1
  0
LINE
  5
2277
  8
SAPA_PROFIL
  6
CONTINUOUS
 62
     2
 10
-86.654706986045383
 20
-77.494116680391244
 30
0.1
 11
-86.831483681342036
 21
-77.567339985094605
 31
0.1
  0
LINE
  5
2278
  8
SAPA_PROFIL
  6
CONTINUOUS
 62
     2
 10
-86.831483681342036
 20
-77.567339985094605
 30
0.1
 11
-87.008260376638646
 21
-77.494116680391244
 31
0.1
  0
LINE
  5
2279
  8
SAPA_PROFIL
  6
CONTINUOUS
 62
     2
 10
-87.081483681342007
 20
-77.317339985094605
 30
0.1
 11
-87.008260376638646
 21
-77.494116680391244
 31
0.1
  0
LINE
  5
227A
  8
SAPA_PROFIL
  6
CONTINUOUS
 62
     2
 10
-86.581483681342021
 20
-77.317339985094605
 30
0.1
 11
-86.654706986045383
 21
-77.494116680391244
 31
0.1
  0
ENDBLK
  5
227C
  8
0
  0
BLOCK
  8
0
  2
*U155
 70
     1
 10
0.0
 20
0.0
 30
0.0
  3
*U155
  1

  0
SOLID
  5
24B7
  8
SAPA_PROFIL
  6
CONTINUOUS
 62
     2
 10
-91.994202787260903
 20
-1.503158469717625
 30
0.0
 11
-92.170979482557527
 21
-1.576381774420988
 31
0.0
 12
-91.817426091964265
 22
-1.576381774420988
 32
0.0
 13
-91.817426091964265
 23
-1.576381774420988
 33
0.0
210
0.0
220
0.0
230
1.0
  0
SOLID
  5
24B8
  8
SAPA_PROFIL
  6
CONTINUOUS
 62
     2
 10
-92.170979482557527
 20
-1.576381774420988
 30
0.0
 11
-92.244202787260903
 21
-1.753158469717625
 31
0.0
 12
-91.744202787260903
 22
-1.753158469717625
 32
0.0
 13
-91.744202787260903
 23
-1.753158469717625
 33
0.0
210
0.0
220
0.0
230
1.0
  0
SOLID
  5
24B9
  8
SAPA_PROFIL
  6
CONTINUOUS
 62
     2
 10
92.170979482557527
 20
-1.576381774420988
 30
0.0
 11
91.817426091964265
 21
-1.576381774420988
 31
0.0
 12
91.744202787260903
 22
-1.753158469717625
 32
0.0
 13
91.744202787260903
 23
-1.753158469717625
 33
0.0
210
0.0
220
0.0
230
-1.0
  0
SOLID
  5
24BA
  8
SAPA_PROFIL
  6
CONTINUOUS
 62
     2
 10
92.170979482557527
 20
-1.929935165014262
 30
0.0
 11
91.817426091964265
 21
-1.929935165014262
 31
0.0
 12
91.994202787260903
 22
-2.0031584697176248
 32
0.0
 13
91.994202787260903
 23
-2.0031584697176248
 33
0.0
210
0.0
220
0.0
230
-1.0
  0
SOLID
  5
24BB
  8
SAPA_PROFIL
  6
CONTINUOUS
 62
     2
 10
-92.244202787260903
 20
-1.753158469717625
 30
0.0
 11
-92.170979482557527
 21
-1.929935165014262
 31
0.0
 12
-91.817426091964265
 22
-1.929935165014262
 32
0.0
 13
-91.817426091964265
 23
-1.929935165014262
 33
0.0
210
0.0
220
0.0
230
1.0
  0
SOLID
  5
24BC
  8
SAPA_PROFIL
  6
CONTINUOUS
 62
     2
 10
92.244202787260903
 20
-1.753158469717625
 30
0.0
 11
91.744202787260903
 21
-1.753158469717625
 31
0.0
 12
91.817426091964265
 22
-1.929935165014262
 32
0.0
 13
91.817426091964265
 23
-1.929935165014262
 33
0.0
210
0.0
220
0.0
230
-1.0
  0
LINE
  5
24BD
  8
SAPA_PROFIL
  6
CONTINUOUS
 62
     2
 10
-91.994202787260903
 20
-1.503158469717625
 30
0.0
 11
-92.170979482557527
 21
-1.576381774420988
 31
0.0
  0
LINE
  5
24BE
  8
SAPA_PROFIL
  6
CONTINUOUS
 62
     2
 10
-91.817426091964265
 20
-1.576381774420988
 30
0.0
 11
-91.994202787260903
 21
-1.503158469717625
 31
0.0
  0
LINE
  5
24BF
  8
SAPA_PROFIL
  6
CONTINUOUS
 62
     2
 10
-92.170979482557527
 20
-1.576381774420988
 30
0.0
 11
-92.244202787260903
 21
-1.753158469717625
 31
0.0
  0
LINE
  5
24C0
  8
SAPA_PROFIL
  6
CONTINUOUS
 62
     2
 10
-91.817426091964265
 20
-1.576381774420988
 30
0.0
 11
-91.744202787260903
 21
-1.753158469717625
 31
0.0
  0
LINE
  5
24C1
  8
SAPA_PROFIL
  6
CONTINUOUS
 62
     2
 10
-91.817426091964265
 20
-1.929935165014262
 30
0.0
 11
-91.994202787260903
 21
-2.0031584697176248
 31
0.0
  0
LINE
  5
24C2
  8
SAPA_PROFIL
  6
CONTINUOUS
 62
     2
 10
-91.994202787260903
 20
-2.0031584697176248
 30
0.0
 11
-92.170979482557527
 21
-1.929935165014262
 31
0.0
  0
LINE
  5
24C3
  8
SAPA_PROFIL
  6
CONTINUOUS
 62
     2
 10
-92.244202787260903
 20
-1.753158469717625
 30
0.0
 11
-92.170979482557527
 21
-1.929935165014262
 31
0.0
  0
LINE
  5
24C4
  8
SAPA_PROFIL
  6
CONTINUOUS
 62
     2
 10
-91.744202787260903
 20
-1.753158469717625
 30
0.0
 11
-91.817426091964265
 21
-1.929935165014262
 31
0.0
  0
ENDBLK
  5
24C6
  8
0
  0
BLOCK
  8
0
  2
*U156
 70
     1
 10
0.0
 20
0.0
 30
0.0
  3
*U156
  1

  0
SOLID
  5
2730
  8
SAPA_FOGBAND
  6
CONTINUOUS
 10
-18.616845196720082
 20
-84.382617202080866
 30
0.0
 11
-18.797122760493281
 21
-84.457290613987297
 31
0.0
 12
-18.436567632946879
 22
-84.457290613987297
 32
0.0
 13
-18.436567632946879
 23
-84.457290613987297
 33
0.0
210
0.0
220
0.0
230
1.0
  0
SOLID
  5
2731
  8
SAPA_FOGBAND
  6
CONTINUOUS
 10
-18.797122760493281
 20
-84.457290613987297
 30
0.0
 11
-18.871796172399719
 21
-84.637568177760485
 31
0.0
 12
-18.361894221040441
 22
-84.637568177760485
 32
0.0
 13
-18.361894221040441
 23
-84.637568177760485
 33
0.0
210
0.0
220
0.0
230
1.0
  0
SOLID
  5
2732
  8
SAPA_FOGBAND
  6
CONTINUOUS
 10
18.797122760493281
 20
-84.457290613987297
 30
0.0
 11
18.436567632946879
 21
-84.457290613987297
 31
0.0
 12
18.361894221040441
 22
-84.637568177760485
 32
0.0
 13
18.361894221040441
 23
-84.637568177760485
 33
0.0
210
0.0
220
0.0
230
-1.0
  0
SOLID
  5
2733
  8
SAPA_FOGBAND
  6
CONTINUOUS
 10
18.797122760493281
 20
-84.817845741533716
 30
0.0
 11
18.436567632946879
 21
-84.817845741533716
 31
0.0
 12
18.616845196720082
 22
-84.892519153440134
 32
0.0
 13
18.616845196720082
 23
-84.892519153440134
 33
0.0
210
0.0
220
0.0
230
-1.0
  0
SOLID
  5
2734
  8
SAPA_FOGBAND
  6
CONTINUOUS
 10
-18.871796172399719
 20
-84.637568177760485
 30
0.0
 11
-18.797122760493281
 21
-84.817845741533716
 31
0.0
 12
-18.436567632946879
 22
-84.817845741533716
 32
0.0
 13
-18.436567632946879
 23
-84.817845741533716
 33
0.0
210
0.0
220
0.0
230
1.0
  0
SOLID
  5
2735
  8
SAPA_FOGBAND
  6
CONTINUOUS
 10
18.871796172399719
 20
-84.637568177760485
 30
0.0
 11
18.361894221040441
 21
-84.637568177760485
 31
0.0
 12
18.436567632946879
 22
-84.817845741533716
 32
0.0
 13
18.436567632946879
 23
-84.817845741533716
 33
0.0
210
0.0
220
0.0
230
-1.0
  0
LINE
  5
2736
  8
SAPA_FOGBAND
  6
CONTINUOUS
 10
-18.616845196720082
 20
-84.382617202080866
 30
0.0
 11
-18.797122760493281
 21
-84.457290613987297
 31
0.0
  0
LINE
  5
2737
  8
SAPA_FOGBAND
  6
CONTINUOUS
 10
-18.436567632946879
 20
-84.457290613987297
 30
0.0
 11
-18.616845196720082
 21
-84.382617202080866
 31
0.0
  0
LINE
  5
2738
  8
SAPA_FOGBAND
  6
CONTINUOUS
 10
-18.797122760493281
 20
-84.457290613987297
 30
0.0
 11
-18.871796172399719
 21
-84.637568177760485
 31
0.0
  0
LINE
  5
2739
  8
SAPA_FOGBAND
  6
CONTINUOUS
 10
-18.436567632946879
 20
-84.457290613987297
 30
0.0
 11
-18.361894221040441
 21
-84.637568177760485
 31
0.0
  0
LINE
  5
273A
  8
SAPA_FOGBAND
  6
CONTINUOUS
 10
-18.436567632946879
 20
-84.817845741533716
 30
0.0
 11
-18.616845196720082
 21
-84.892519153440134
 31
0.0
  0
LINE
  5
273B
  8
SAPA_FOGBAND
  6
CONTINUOUS
 10
-18.616845196720082
 20
-84.892519153440134
 30
0.0
 11
-18.797122760493281
 21
-84.817845741533716
 31
0.0
  0
LINE
  5
273C
  8
SAPA_FOGBAND
  6
CONTINUOUS
 10
-18.871796172399719
 20
-84.637568177760485
 30
0.0
 11
-18.797122760493281
 21
-84.817845741533716
 31
0.0
  0
LINE
  5
273D
  8
SAPA_FOGBAND
  6
CONTINUOUS
 10
-18.361894221040441
 20
-84.637568177760485
 30
0.0
 11
-18.436567632946879
 21
-84.817845741533716
 31
0.0
  0
ENDBLK
  5
273F
  8
0
  0
BLOCK
  8
0
  2
*U157
 70
     1
 10
0.0
 20
0.0
 30
0.0
  3
*U157
  1

  0
SOLID
  5
27AE
  8
SAPA_FOGBAND
  6
CONTINUOUS
 10
18.629356795613329
 20
-84.773515879680119
 30
0.0
 11
18.44907923184013
 21
-84.848189291586536
 31
0.0
 12
18.809634359386529
 22
-84.848189291586536
 32
0.0
 13
18.809634359386529
 23
-84.848189291586536
 33
0.0
210
0.0
220
0.0
230
1.0
  0
SOLID
  5
27AF
  8
SAPA_FOGBAND
  6
CONTINUOUS
 10
18.44907923184013
 20
-84.848189291586536
 30
0.0
 11
18.374405819933688
 21
-85.028466855359767
 31
0.0
 12
18.884307771292971
 22
-85.028466855359767
 32
0.0
 13
18.884307771292971
 23
-85.028466855359767
 33
0.0
210
0.0
220
0.0
230
1.0
  0
SOLID
  5
27B0
  8
SAPA_FOGBAND
  6
CONTINUOUS
 10
-18.44907923184013
 20
-84.848189291586536
 30
0.0
 11
-18.809634359386529
 21
-84.848189291586536
 31
0.0
 12
-18.884307771292971
 22
-85.028466855359767
 32
0.0
 13
-18.884307771292971
 23
-85.028466855359767
 33
0.0
210
0.0
220
0.0
230
-1.0
  0
SOLID
  5
27B1
  8
SAPA_FOGBAND
  6
CONTINUOUS
 10
-18.44907923184013
 20
-85.208744419132955
 30
0.0
 11
-18.809634359386529
 21
-85.208744419132955
 31
0.0
 12
-18.629356795613329
 22
-85.283417831039387
 32
0.0
 13
-18.629356795613329
 23
-85.283417831039387
 33
0.0
210
0.0
220
0.0
230
-1.0
  0
SOLID
  5
27B2
  8
SAPA_FOGBAND
  6
CONTINUOUS
 10
18.374405819933688
 20
-85.028466855359767
 30
0.0
 11
18.44907923184013
 21
-85.208744419132955
 31
0.0
 12
18.809634359386529
 22
-85.208744419132955
 32
0.0
 13
18.809634359386529
 23
-85.208744419132955
 33
0.0
210
0.0
220
0.0
230
1.0
  0
SOLID
  5
27B3
  8
SAPA_FOGBAND
  6
CONTINUOUS
 10
-18.374405819933688
 20
-85.028466855359767
 30
0.0
 11
-18.884307771292971
 21
-85.028466855359767
 31
0.0
 12
-18.809634359386529
 22
-85.208744419132955
 32
0.0
 13
-18.809634359386529
 23
-85.208744419132955
 33
0.0
210
0.0
220
0.0
230
-1.0
  0
LINE
  5
27B4
  8
SAPA_FOGBAND
  6
CONTINUOUS
 10
18.629356795613329
 20
-84.773515879680119
 30
0.0
 11
18.44907923184013
 21
-84.848189291586536
 31
0.0
  0
LINE
  5
27B5
  8
SAPA_FOGBAND
  6
CONTINUOUS
 10
18.809634359386529
 20
-84.848189291586536
 30
0.0
 11
18.629356795613329
 21
-84.773515879680119
 31
0.0
  0
LINE
  5
27B6
  8
SAPA_FOGBAND
  6
CONTINUOUS
 10
18.44907923184013
 20
-84.848189291586536
 30
0.0
 11
18.374405819933688
 21
-85.028466855359767
 31
0.0
  0
LINE
  5
27B7
  8
SAPA_FOGBAND
  6
CONTINUOUS
 10
18.809634359386529
 20
-84.848189291586536
 30
0.0
 11
18.884307771292971
 21
-85.028466855359767
 31
0.0
  0
LINE
  5
27B8
  8
SAPA_FOGBAND
  6
CONTINUOUS
 10
18.809634359386529
 20
-85.208744419132955
 30
0.0
 11
18.629356795613329
 21
-85.283417831039387
 31
0.0
  0
LINE
  5
27B9
  8
SAPA_FOGBAND
  6
CONTINUOUS
 10
18.629356795613329
 20
-85.283417831039387
 30
0.0
 11
18.44907923184013
 21
-85.208744419132955
 31
0.0
  0
LINE
  5
27BA
  8
SAPA_FOGBAND
  6
CONTINUOUS
 10
18.374405819933688
 20
-85.028466855359767
 30
0.0
 11
18.44907923184013
 21
-85.208744419132955
 31
0.0
  0
LINE
  5
27BB
  8
SAPA_FOGBAND
  6
CONTINUOUS
 10
18.884307771292971
 20
-85.028466855359767
 30
0.0
 11
18.809634359386529
 21
-85.208744419132955
 31
0.0
  0
ENDBLK
  5
27BD
  8
0
  0
BLOCK
  8
0
  2
*U158
 70
     1
 10
0.0
 20
0.0
 30
0.0
  3
*U158
  1

  0
SOLID
  5
2853
  8
SAPA_FOGBAND
  6
CONTINUOUS
 10
-18.616845196720082
 20
-84.382617202080866
 30
0.0
 11
-18.797122760493281
 21
-84.457290613987297
 31
0.0
 12
-18.436567632946879
 22
-84.457290613987297
 32
0.0
 13
-18.436567632946879
 23
-84.457290613987297
 33
0.0
210
0.0
220
0.0
230
1.0
  0
SOLID
  5
2854
  8
SAPA_FOGBAND
  6
CONTINUOUS
 10
-18.797122760493281
 20
-84.457290613987297
 30
0.0
 11
-18.871796172399719
 21
-84.637568177760485
 31
0.0
 12
-18.361894221040441
 22
-84.637568177760485
 32
0.0
 13
-18.361894221040441
 23
-84.637568177760485
 33
0.0
210
0.0
220
0.0
230
1.0
  0
SOLID
  5
2855
  8
SAPA_FOGBAND
  6
CONTINUOUS
 10
18.797122760493281
 20
-84.457290613987297
 30
0.0
 11
18.436567632946879
 21
-84.457290613987297
 31
0.0
 12
18.361894221040441
 22
-84.637568177760485
 32
0.0
 13
18.361894221040441
 23
-84.637568177760485
 33
0.0
210
0.0
220
0.0
230
-1.0
  0
SOLID
  5
2856
  8
SAPA_FOGBAND
  6
CONTINUOUS
 10
18.797122760493281
 20
-84.817845741533716
 30
0.0
 11
18.436567632946879
 21
-84.817845741533716
 31
0.0
 12
18.616845196720082
 22
-84.892519153440134
 32
0.0
 13
18.616845196720082
 23
-84.892519153440134
 33
0.0
210
0.0
220
0.0
230
-1.0
  0
SOLID
  5
2857
  8
SAPA_FOGBAND
  6
CONTINUOUS
 10
-18.871796172399719
 20
-84.637568177760485
 30
0.0
 11
-18.797122760493281
 21
-84.817845741533716
 31
0.0
 12
-18.436567632946879
 22
-84.817845741533716
 32
0.0
 13
-18.436567632946879
 23
-84.817845741533716
 33
0.0
210
0.0
220
0.0
230
1.0
  0
SOLID
  5
2858
  8
SAPA_FOGBAND
  6
CONTINUOUS
 10
18.871796172399719
 20
-84.637568177760485
 30
0.0
 11
18.361894221040441
 21
-84.637568177760485
 31
0.0
 12
18.436567632946879
 22
-84.817845741533716
 32
0.0
 13
18.436567632946879
 23
-84.817845741533716
 33
0.0
210
0.0
220
0.0
230
-1.0
  0
LINE
  5
2859
  8
SAPA_FOGBAND
  6
CONTINUOUS
 10
-18.616845196720082
 20
-84.382617202080866
 30
0.0
 11
-18.797122760493281
 21
-84.457290613987297
 31
0.0
  0
LINE
  5
285A
  8
SAPA_FOGBAND
  6
CONTINUOUS
 10
-18.436567632946879
 20
-84.457290613987297
 30
0.0
 11
-18.616845196720082
 21
-84.382617202080866
 31
0.0
  0
LINE
  5
285B
  8
SAPA_FOGBAND
  6
CONTINUOUS
 10
-18.797122760493281
 20
-84.457290613987297
 30
0.0
 11
-18.871796172399719
 21
-84.637568177760485
 31
0.0
  0
LINE
  5
285C
  8
SAPA_FOGBAND
  6
CONTINUOUS
 10
-18.436567632946879
 20
-84.457290613987297
 30
0.0
 11
-18.361894221040441
 21
-84.637568177760485
 31
0.0
  0
LINE
  5
285D
  8
SAPA_FOGBAND
  6
CONTINUOUS
 10
-18.436567632946879
 20
-84.817845741533716
 30
0.0
 11
-18.616845196720082
 21
-84.892519153440134
 31
0.0
  0
LINE
  5
285E
  8
SAPA_FOGBAND
  6
CONTINUOUS
 10
-18.616845196720082
 20
-84.892519153440134
 30
0.0
 11
-18.797122760493281
 21
-84.817845741533716
 31
0.0
  0
LINE
  5
285F
  8
SAPA_FOGBAND
  6
CONTINUOUS
 10
-18.871796172399719
 20
-84.637568177760485
 30
0.0
 11
-18.797122760493281
 21
-84.817845741533716
 31
0.0
  0
LINE
  5
2860
  8
SAPA_FOGBAND
  6
CONTINUOUS
 10
-18.361894221040441
 20
-84.637568177760485
 30
0.0
 11
-18.436567632946879
 21
-84.817845741533716
 31
0.0
  0
ENDBLK
  5
2862
  8
0
  0
BLOCK
  8
0
  2
*U159
 70
     1
 10
0.0
 20
0.0
 30
0.0
  3
*U159
  1

  0
SOLID
  5
28D1
  8
SAPA_FOGBAND
  6
CONTINUOUS
 10
18.629356795613329
 20
-84.773515879680119
 30
0.0
 11
18.44907923184013
 21
-84.848189291586536
 31
0.0
 12
18.809634359386529
 22
-84.848189291586536
 32
0.0
 13
18.809634359386529
 23
-84.848189291586536
 33
0.0
210
0.0
220
0.0
230
1.0
  0
SOLID
  5
28D2
  8
SAPA_FOGBAND
  6
CONTINUOUS
 10
18.44907923184013
 20
-84.848189291586536
 30
0.0
 11
18.374405819933688
 21
-85.028466855359767
 31
0.0
 12
18.884307771292971
 22
-85.028466855359767
 32
0.0
 13
18.884307771292971
 23
-85.028466855359767
 33
0.0
210
0.0
220
0.0
230
1.0
  0
SOLID
  5
28D3
  8
SAPA_FOGBAND
  6
CONTINUOUS
 10
-18.44907923184013
 20
-84.848189291586536
 30
0.0
 11
-18.809634359386529
 21
-84.848189291586536
 31
0.0
 12
-18.884307771292971
 22
-85.028466855359767
 32
0.0
 13
-18.884307771292971
 23
-85.028466855359767
 33
0.0
210
0.0
220
0.0
230
-1.0
  0
SOLID
  5
28D4
  8
SAPA_FOGBAND
  6
CONTINUOUS
 10
-18.44907923184013
 20
-85.208744419132955
 30
0.0
 11
-18.809634359386529
 21
-85.208744419132955
 31
0.0
 12
-18.629356795613329
 22
-85.283417831039387
 32
0.0
 13
-18.629356795613329
 23
-85.283417831039387
 33
0.0
210
0.0
220
0.0
230
-1.0
  0
SOLID
  5
28D5
  8
SAPA_FOGBAND
  6
CONTINUOUS
 10
18.374405819933688
 20
-85.028466855359767
 30
0.0
 11
18.44907923184013
 21
-85.208744419132955
 31
0.0
 12
18.809634359386529
 22
-85.208744419132955
 32
0.0
 13
18.809634359386529
 23
-85.208744419132955
 33
0.0
210
0.0
220
0.0
230
1.0
  0
SOLID
  5
28D6
  8
SAPA_FOGBAND
  6
CONTINUOUS
 10
-18.374405819933688
 20
-85.028466855359767
 30
0.0
 11
-18.884307771292971
 21
-85.028466855359767
 31
0.0
 12
-18.809634359386529
 22
-85.208744419132955
 32
0.0
 13
-18.809634359386529
 23
-85.208744419132955
 33
0.0
210
0.0
220
0.0
230
-1.0
  0
LINE
  5
28D7
  8
SAPA_FOGBAND
  6
CONTINUOUS
 10
18.629356795613329
 20
-84.773515879680119
 30
0.0
 11
18.44907923184013
 21
-84.848189291586536
 31
0.0
  0
LINE
  5
28D8
  8
SAPA_FOGBAND
  6
CONTINUOUS
 10
18.809634359386529
 20
-84.848189291586536
 30
0.0
 11
18.629356795613329
 21
-84.773515879680119
 31
0.0
  0
LINE
  5
28D9
  8
SAPA_FOGBAND
  6
CONTINUOUS
 10
18.44907923184013
 20
-84.848189291586536
 30
0.0
 11
18.374405819933688
 21
-85.028466855359767
 31
0.0
  0
LINE
  5
28DA
  8
SAPA_FOGBAND
  6
CONTINUOUS
 10
18.809634359386529
 20
-84.848189291586536
 30
0.0
 11
18.884307771292971
 21
-85.028466855359767
 31
0.0
  0
LINE
  5
28DB
  8
SAPA_FOGBAND
  6
CONTINUOUS
 10
18.809634359386529
 20
-85.208744419132955
 30
0.0
 11
18.629356795613329
 21
-85.283417831039387
 31
0.0
  0
LINE
  5
28DC
  8
SAPA_FOGBAND
  6
CONTINUOUS
 10
18.629356795613329
 20
-85.283417831039387
 30
0.0
 11
18.44907923184013
 21
-85.208744419132955
 31
0.0
  0
LINE
  5
28DD
  8
SAPA_FOGBAND
  6
CONTINUOUS
 10
18.374405819933688
 20
-85.028466855359767
 30
0.0
 11
18.44907923184013
 21
-85.208744419132955
 31
0.0
  0
LINE
  5
28DE
  8
SAPA_FOGBAND
  6
CONTINUOUS
 10
18.884307771292971
 20
-85.028466855359767
 30
0.0
 11
18.809634359386529
 21
-85.208744419132955
 31
0.0
  0
ENDBLK
  5
28E0
  8
0
  0
BLOCK
  8
0
  2
*U160
 70
     1
 10
0.0
 20
0.0
 30
0.0
  3
*U160
  1

  0
TEXT
  5
2983
  8
SAPA_MATT
 62
     2
 10
-2.1000000000002248
 20
-124.8731908254038
 30
0.0
 40
3.0
  1
50
  7
ISO
  0
ENDBLK
  5
2985
  8
0
  0
ENDSEC
  0
SECTION
  2
ENTITIES
  0
INSERT
  5
72A
  8
0
  2
*U146
 10
0.0
 20
0.0
 30
0.0
  0
INSERT
  5
72B
  8
0
  2
*U147
 10
0.0
 20
0.0
 30
0.0
  0
INSERT
  5
72C
  8
0
  2
*U148
 10
0.0
 20
0.0
 30
0.0
  0
POLYLINE
  5
73A
  8
SAPA_LIGHT
 66
     1
 10
0.0
 20
0.0
 30
0.0
  0
VERTEX
  5
1967
  8
SAPA_LIGHT
 10
40.999999999995673
 20
-44.499999999010242
 30
0.0
  0
VERTEX
  5
1968
  8
SAPA_LIGHT
 10
10.99999999999568
 20
-44.499999999010242
 30
0.0
  0
VERTEX
  5
1969
  8
SAPA_LIGHT
 10
10.99999999999587
 20
-82.499999999011905
 30
0.0
  0
VERTEX
  5
196A
  8
SAPA_LIGHT
 10
41.026258105807749
 20
-82.499999999011834
 30
0.0
  0
SEQEND
  5
196B
  8
SAPA_LIGHT
  0
POLYLINE
  5
73D
  8
SAPA_LIGHT
 66
     1
 10
0.0
 20
0.0
 30
0.0
  0
VERTEX
  5
196C
  8
SAPA_LIGHT
 10
-89.500023816089481
 20
-8.4999999752664177
 30
0.0
  0
VERTEX
  5
196D
  8
SAPA_LIGHT
 10
-170.00002381610321
 20
-8.4999999752664124
 30
0.0
  0
VERTEX
  5
196E
  8
SAPA_LIGHT
 10
-170.00002381610321
 20
-46.5500000333884
 30
0.0
  0
VERTEX
  5
196F
  8
SAPA_LIGHT
 10
-147.69487763319671
 20
-46.5500000333884
 30
0.0
  0
VERTEX
  5
1970
  8
SAPA_LIGHT
 10
-147.69487763319671
 20
-73.550000033388415
 30
0.0
  0
VERTEX
  5
1971
  8
SAPA_LIGHT
 10
-170.00000000017911
 20
-73.550000033388358
 30
0.0
  0
VERTEX
  5
1972
  8
SAPA_LIGHT
 10
-170.00000000017911
 20
-82.499999954809084
 30
0.0
  0
VERTEX
  5
1973
  8
SAPA_LIGHT
 10
-89.500023816089481
 20
-82.499999956353463
 30
0.0
  0
VERTEX
  5
1974
  8
SAPA_LIGHT
 10
-89.500024014060784
 20
-8.4999999752664195
 30
0.0
  0
SEQEND
  5
1975
  8
SAPA_LIGHT
  0
POLYLINE
  5
73E
  8
SAPA_LIGHT
 66
     1
 10
0.0
 20
0.0
 30
0.0
  0
VERTEX
  5
1976
  8
SAPA_LIGHT
 10
-89.500000000000014
 20
-82.499999956353491
 30
0.0
  0
VERTEX
  5
1977
  8
SAPA_LIGHT
 10
-9.0000000001055582
 20
-82.49999995635342
 30
0.0
  0
VERTEX
  5
1978
  8
SAPA_LIGHT
 10
-9.0000000001055618
 20
-35.500000000001137
 30
0.0
  0
VERTEX
  5
1979
  8
SAPA_LIGHT
 10
-24.99999999999989
 20
-35.50000000000118
 30
0.0
  0
VERTEX
  5
197A
  8
SAPA_LIGHT
 10
-24.99999999999989
 20
-8.4999999570476064
 30
0.0
  0
VERTEX
  5
197B
  8
SAPA_LIGHT
 10
-89.500000197971303
 20
-8.4999999586364794
 30
0.0
  0
SEQEND
  5
197C
  8
SAPA_LIGHT
  0
POLYLINE
  5
754
  8
SAPA_LIGHT
 66
     1
 10
0.0
 20
0.0
 30
0.0
  0
VERTEX
  5
197D
  8
SAPA_LIGHT
 10
-5.0
 20
-82.499999999011905
 30
0.0
  0
VERTEX
  5
197E
  8
SAPA_LIGHT
 10
-4.9999999999997149
 20
-35.500000000001137
 30
0.0
  0
VERTEX
  5
197F
  8
SAPA_LIGHT
 10
-24.999999999999432
 20
-35.500000000001137
 30
0.0
  0
VERTEX
  5
1980
  8
SAPA_LIGHT
 10
-24.999999999999769
 20
64.499999999998863
 30
0.0
  0
VERTEX
  5
1981
  8
SAPA_LIGHT
 10
25.000000000000231
 20
64.499999999998863
 30
0.0
  0
VERTEX
  5
1982
  8
SAPA_LIGHT
 10
25.000000000000231
 20
-44.499999999010242
 30
0.0
  0
VERTEX
  5
1983
  8
SAPA_LIGHT
 10
5.0000000000002274
 20
-44.499999999010242
 30
0.0
  0
VERTEX
  5
1984
  8
SAPA_LIGHT
 10
5.0
 20
-82.499999999011948
 30
0.0
  0
VERTEX
  5
1985
  8
SAPA_LIGHT
 10
25.000000000000799
 20
-82.499999999011834
 30
0.0
  0
VERTEX
  5
1986
  8
SAPA_LIGHT
 10
25.000000000000799
 20
-106.4999999990104
 30
0.0
  0
VERTEX
  5
1987
  8
SAPA_LIGHT
 10
-24.999999999999201
 20
-106.4999999990104
 30
0.0
  0
VERTEX
  5
1988
  8
SAPA_LIGHT
 10
-24.999999999999261
 20
-82.499999956353435
 30
0.0
  0
VERTEX
  5
1989
  8
SAPA_LIGHT
 10
-4.9999999999999432
 20
-82.499999956353435
 30
0.0
  0
SEQEND
  5
198A
  8
SAPA_LIGHT
  0
POLYLINE
  5
81B
  8
SAPA_LIGHT
 66
     1
 10
0.0
 20
0.0
 30
0.0
  0
VERTEX
  5
198B
  8
SAPA_LIGHT
 10
-183.00002381608959
 20
-73.5500000333884
 30
0.0
  0
VERTEX
  5
198C
  8
SAPA_LIGHT
 10
-153.00002381608959
 20
-73.5500000333884
 30
0.0
  0
VERTEX
  5
198D
  8
SAPA_LIGHT
 10
-153.0000238160894
 20
-46.5500000333884
 30
0.0
  0
VERTEX
  5
198E
  8
SAPA_LIGHT
 10
-183.00002381608951
 20
-46.5500000333884
 30
0.0
  0
SEQEND
  5
198F
  8
SAPA_LIGHT
  0
INSERT
  5
F82
  8
0
  2
*U149
 10
0.0
 20
0.0
 30
0.0
  0
INSERT
  5
F83
  8
0
  2
*U150
 10
0.0
 20
0.0
 30
0.0
  0
INSERT
  5
F84
  8
0
  2
*U151
 10
0.0
 20
0.0
 30
0.0
  0
POLYLINE
  5
181F
  8
SAPA_PROFIL
 66
     1
 10
0.0
 20
0.0
 30
0.0
 70
     1
  0
VERTEX
  5
2057
  8
SAPA_PROFIL
 10
-148.49997618390981
 20
0.6047600307532548
 30
0.0
  0
VERTEX
  5
2058
  8
SAPA_PROFIL
 10
-148.49997618390981
 20
0.3622160929061238
 30
0.0
 42
0.2011813370902256
  0
VERTEX
  5
2059
  8
SAPA_PROFIL
 10
-148.4401580367697
 20
0.2195660030755562
 30
0.0
  0
VERTEX
  5
205A
  8
SAPA_PROFIL
 10
-147.51341067804
 20
-0.6911460899483473
 30
0.0
  0
VERTEX
  5
205B
  8
SAPA_PROFIL
 10
-145.99997618390799
 20
-0.6779385472051445
 30
0.0
 42
-0.4931454260356012
  0
VERTEX
  5
205C
  8
SAPA_PROFIL
 10
-144.42871122367009
 20
-0.457111658157487
 30
0.0
  0
VERTEX
  5
205D
  8
SAPA_PROFIL
 10
-143.36106138684579
 20
-1.5062882307702801
 30
0.0
 42
-0.6681786379164681
  0
VERTEX
  5
205E
  8
SAPA_PROFIL
 10
-143.5024302672995
 20
-1.8561884882552131
 30
0.0
  0
VERTEX
  5
205F
  8
SAPA_PROFIL
 10
-147.99997618390981
 20
-1.89543797685252
 30
0.0
  0
VERTEX
  5
2060
  8
SAPA_PROFIL
 10
-150.11406903549951
 20
0.1820752823772409
 30
0.0
 42
0.2038501166358263
  0
VERTEX
  5
2061
  8
SAPA_PROFIL
 10
-150.47837581491731
 20
0.3252581389832585
 30
0.0
  0
VERTEX
  5
2062
  8
SAPA_PROFIL
 10
-165.58308906751171
 20
-0.0933679703056214
 30
0.0
 42
0.4061212134736873
  0
VERTEX
  5
2063
  8
SAPA_PROFIL
 10
-168.4999761839033
 20
-3.0922164574050721
 30
0.0
  0
VERTEX
  5
2064
  8
SAPA_PROFIL
 10
-168.4999761839033
 20
-14.876407700873131
 30
0.0
 42
0.4142135623730951
  0
VERTEX
  5
2065
  8
SAPA_PROFIL
 10
-167.9999761839033
 20
-15.376407700873131
 30
0.0
  0
VERTEX
  5
2066
  8
SAPA_PROFIL
 10
-156.4141897462782
 20
-15.376407700873131
 30
0.0
 42
0.198912367379658
  0
VERTEX
  5
2067
  8
SAPA_PROFIL
 10
-155.7070829650917
 20
-15.08351448205968
 30
0.0
  0
VERTEX
  5
2068
  8
SAPA_PROFIL
 10
-155.3264841917011
 20
-14.70291570866919
 30
0.0
 42
-0.1830252782112529
  0
VERTEX
  5
2069
  8
SAPA_PROFIL
 10
-154.03481638296981
 20
-14.120887166921589
 30
0.0
  0
VERTEX
  5
206A
  8
SAPA_PROFIL
 10
-143.601744354164
 20
-13.397822439591041
 30
0.0
 42
-0.668178637923616
  0
VERTEX
  5
206B
  8
SAPA_PROFIL
 10
-143.3883620346304
 20
-13.912972929380031
 30
0.0
  0
VERTEX
  5
206C
  8
SAPA_PROFIL
 10
-145.38784414955299
 20
-15.91245504430259
 30
0.0
 42
-0.7332303362588345
  0
VERTEX
  5
206D
  8
SAPA_PROFIL
 10
-145.89541850981271
 20
-15.648228556645391
 30
0.0
  0
VERTEX
  5
206E
  8
SAPA_PROFIL
 10
-145.78683439902659
 20
-15.032417463246979
 30
0.0
 42
0.4663076581593561
  0
VERTEX
  5
206F
  8
SAPA_PROFIL
 10
-146.08227672493001
 20
-14.68032300994679
 30
0.0
  0
VERTEX
  5
2070
  8
SAPA_PROFIL
 10
-153.84175385028229
 20
-15.41148263182725
 30
0.0
 42
0.183025278211264
  0
VERTEX
  5
2071
  8
SAPA_PROFIL
 10
-154.48758775464799
 20
-15.70249690270105
 30
0.0
  0
VERTEX
  5
2072
  8
SAPA_PROFIL
 10
-154.87571211519301
 20
-16.090621263246081
 30
0.0
 42
-0.1989123673796518
  0
VERTEX
  5
2073
  8
SAPA_PROFIL
 10
-156.289925677566
 20
-16.676407700872971
 30
0.0
  0
VERTEX
  5
2074
  8
SAPA_PROFIL
 10
-167.69997618391881
 20
-16.676407700873082
 30
0.0
 42
0.4142135623732283
  0
VERTEX
  5
2075
  8
SAPA_PROFIL
 10
-168.19997618391881
 20
-17.176407700873309
 30
0.0
  0
VERTEX
  5
2076
  8
SAPA_PROFIL
 10
-168.19997618391781
 20
-18.376407700872669
 30
0.0
 42
-0.4142135623732062
  0
VERTEX
  5
2077
  8
SAPA_PROFIL
 10
-168.49997618391779
 20
-18.67640770087274
 30
0.0
  0
VERTEX
  5
2078
  8
SAPA_PROFIL
 10
-169.6999761839034
 20
-18.676407700873082
 30
0.0
 42
-0.4142135623716247
  0
VERTEX
  5
2079
  8
SAPA_PROFIL
 10
-169.99997618390341
 20
-18.376407700871759
 30
0.0
  0
VERTEX
  5
207A
  8
SAPA_PROFIL
 10
-169.99997618391691
 20
1.6000000414502431
 30
0.0
 42
-0.4142135623732938
  0
VERTEX
  5
207B
  8
SAPA_PROFIL
 10
-169.7999761839169
 20
1.800000041450289
 30
0.0
  0
VERTEX
  5
207C
  8
SAPA_PROFIL
 10
-148.20460007023109
 20
1.800000041450289
 30
0.0
 42
-0.4210020197690384
  0
VERTEX
  5
207D
  8
SAPA_PROFIL
 10
-147.99997618390981
 20
1.600053499406271
 30
0.0
  0
VERTEX
  5
207E
  8
SAPA_PROFIL
 10
-147.9999761839033
 20
1.0120703362107399
 30
0.0
  0
VERTEX
  5
207F
  8
SAPA_PROFIL
 10
-148.29997618390331
 20
1.0120703362107399
 30
0.0
 42
0.41421356237322
  0
VERTEX
  5
2080
  8
SAPA_PROFIL
 10
-148.49997618390319
 20
0.8120703362106951
 30
0.0
  0
VERTEX
  5
2081
  8
SAPA_PROFIL
 10
-148.4999761839033
 20
0.5948925707410809
 30
0.0
  0
SEQEND
  5
2082
  8
SAPA_PROFIL
  0
CIRCLE
  5
1820
  8
SAPA_PROFIL
 62
     2
 10
-166.66331711132369
 20
-79.310575506965677
 30
0.0
 40
0.8999999999999985
  0
POLYLINE
  5
1821
  8
SAPA_PROFIL
 62
     2
 66
     1
 10
0.0
 20
0.0
 30
0.0
  0
VERTEX
  5
2083
  8
SAPA_PROFIL
 62
     2
 10
-168.0633171113237
 20
-78.00256909539263
 30
0.0
  0
VERTEX
  5
2084
  8
SAPA_PROFIL
 62
     2
 10
-167.87095869133131
 20
-79.093487905545373
 30
0.0
  0
VERTEX
  5
2085
  8
SAPA_PROFIL
 62
     2
 10
-168.3027552512329
 20
-79.209187445065311
 30
0.0
 42
0.4430158954262519
  0
VERTEX
  5
2086
  8
SAPA_PROFIL
 62
     2
 10
-168.438232298777
 20
-79.47266387317228
 30
0.0
  0
VERTEX
  5
2087
  8
SAPA_PROFIL
 62
     2
 10
-167.96128410555809
 20
-80.743151621090476
 30
0.0
 42
0.3125358528825162
  0
VERTEX
  5
2088
  8
SAPA_PROFIL
 62
     2
 10
-167.58680239242869
 20
-81.002569095392175
 30
0.0
  0
VERTEX
  5
2089
  8
SAPA_PROFIL
 62
     2
 10
-165.71664707651831
 20
-81.00256909539263
 30
0.0
 42
0.3125358528825104
  0
VERTEX
  5
208A
  8
SAPA_PROFIL
 62
     2
 10
-165.34216536338889
 20
-80.743151621090476
 30
0.0
  0
VERTEX
  5
208B
  8
SAPA_PROFIL
 62
     2
 10
-164.86521717016981
 20
-79.47266387317228
 30
0.0
 42
0.4430158954262519
  0
VERTEX
  5
208C
  8
SAPA_PROFIL
 62
     2
 10
-165.00069421771391
 20
-79.209187445065425
 30
0.0
  0
VERTEX
  5
208D
  8
SAPA_PROFIL
 62
     2
 10
-165.4324907776157
 20
-79.093487905545373
 30
0.0
  0
VERTEX
  5
208E
  8
SAPA_PROFIL
 62
     2
 10
-165.24022473447349
 20
-78.00256909539263
 30
0.0
  0
SEQEND
  5
208F
  8
SAPA_PROFIL
 62
     2
  0
POLYLINE
  5
1822
  8
SAPA_PROFIL
 62
     2
 66
     1
 10
0.0
 20
0.0
 30
0.0
 70
     1
  0
VERTEX
  5
2090
  8
SAPA_PROFIL
 62
     2
 10
-168.0517247344734
 20
-78.00256909539263
 30
0.0
 42
-0.285714285714282
  0
VERTEX
  5
2091
  8
SAPA_PROFIL
 62
     2
 10
-165.25172473447341
 20
-78.00256909539263
 30
0.0
  0
VERTEX
  5
2092
  8
SAPA_PROFIL
 62
     2
 10
-163.17794456508551
 20
-78.002569095392175
 30
0.0
 42
0.3882600129940275
  0
VERTEX
  5
2093
  8
SAPA_PROFIL
 62
     2
 10
-162.87914306774411
 20
-77.729358369112617
 30
0.0
  0
VERTEX
  5
2094
  8
SAPA_PROFIL
 62
     2
 10
-162.41293314381761
 20
-73.829358369112526
 30
0.0
 42
0.4406523138893894
  0
VERTEX
  5
2095
  8
SAPA_PROFIL
 62
     2
 10
-162.7117346411595
 20
-73.50256909539263
 30
0.0
  0
VERTEX
  5
2096
  8
SAPA_PROFIL
 62
     2
 10
-164.4215266380798
 20
-73.50256909539263
 30
0.0
 42
0.3394542588634375
  0
VERTEX
  5
2097
  8
SAPA_PROFIL
 62
     2
 10
-164.7113043859664
 20
-73.724923381861615
 30
0.0
  0
VERTEX
  5
2098
  8
SAPA_PROFIL
 62
     2
 10
-164.9136841138978
 20
-73.942509164029204
 30
0.0
 42
-0.3394542588633663
  0
VERTEX
  5
2099
  8
SAPA_PROFIL
 62
     2
 10
-165.2034618617846
 20
-74.164863450498217
 30
0.0
  0
VERTEX
  5
209A
  8
SAPA_PROFIL
 62
     2
 10
-168.0999876071624
 20
-74.164863450498217
 30
0.0
 42
-0.3394542588634373
  0
VERTEX
  5
209B
  8
SAPA_PROFIL
 62
     2
 10
-168.38976535504901
 20
-73.942509164029204
 30
0.0
  0
VERTEX
  5
209C
  8
SAPA_PROFIL
 62
     2
 10
-168.59214508298041
 20
-73.724923381861615
 30
0.0
 42
0.3394542588633662
  0
VERTEX
  5
209D
  8
SAPA_PROFIL
 62
     2
 10
-168.88192283086721
 20
-73.50256909539263
 30
0.0
  0
VERTEX
  5
209E
  8
SAPA_PROFIL
 62
     2
 10
-170.59171482778731
 20
-73.50256909539263
 30
0.0
 42
0.4406523138893994
  0
VERTEX
  5
209F
  8
SAPA_PROFIL
 62
     2
 10
-170.89051632512891
 20
-73.829358369112526
 30
0.0
  0
VERTEX
  5
20A0
  8
SAPA_PROFIL
 62
     2
 10
-170.42430640120261
 20
-77.729358369112617
 30
0.0
 42
0.3882600129940462
  0
VERTEX
  5
20A1
  8
SAPA_PROFIL
 62
     2
 10
-170.12550490386121
 20
-78.00256909539263
 30
0.0
  0
VERTEX
  5
20A2
  8
SAPA_PROFIL
 62
     2
 10
-168.0633171113237
 20
-78.00256909539263
 30
0.0
  0
SEQEND
  5
20A3
  8
SAPA_PROFIL
 62
     2
  0
POLYLINE
  5
1823
  8
SAPA_PROFIL
 66
     1
 10
0.0
 20
0.0
 30
0.0
 70
     1
  0
VERTEX
  5
20A4
  8
SAPA_PROFIL
 10
-97.544985430840555
 20
-18.499999952511828
 30
0.0
  0
VERTEX
  5
20A5
  8
SAPA_PROFIL
 10
-101.39777183534071
 20
-18.499999952511828
 30
0.0
 42
0.4142135623731784
  0
VERTEX
  5
20A6
  8
SAPA_PROFIL
 10
-101.6977718353409
 20
-18.7999999525119
 30
0.0
  0
VERTEX
  5
20A7
  8
SAPA_PROFIL
 10
-101.6977718353407
 20
-19.099999952512249
 30
0.0
  0
VERTEX
  5
20A8
  8
SAPA_PROFIL
 10
-100.77401140463731
 20
-20.699999952511881
 30
0.0
 42
-0.5773502691887984
  0
VERTEX
  5
20A9
  8
SAPA_PROFIL
 10
-100.94721648539431
 20
-20.999999952511839
 30
0.0
  0
VERTEX
  5
20AA
  8
SAPA_PROFIL
 10
-102.3328571314493
 20
-20.999999952511839
 30
0.0
 42
-0.2679491924311038
  0
VERTEX
  5
20AB
  8
SAPA_PROFIL
 10
-103.19888253523369
 20
-20.49999995251201
 30
0.0
  0
VERTEX
  5
20AC
  8
SAPA_PROFIL
 10
-104.2092455048069
 20
-18.749999955125041
 30
0.0
 42
0.2679491932396976
  0
VERTEX
  5
20AD
  8
SAPA_PROFIL
 10
-104.6422582082081
 20
-18.499999955125009
 30
0.0
  0
VERTEX
  5
20AE
  8
SAPA_PROFIL
 10
-137.2803609416392
 20
-18.49999995512497
 30
0.0
  0
VERTEX
  5
20AF
  8
SAPA_PROFIL
 10
-137.79997618390979
 20
-18.19999995512498
 30
0.0
  0
VERTEX
  5
20B0
  8
SAPA_PROFIL
 10
-138.31959142618049
 20
-18.49999995512497
 30
0.0
  0
VERTEX
  5
20B1
  8
SAPA_PROFIL
 10
-138.65769415961179
 20
-18.49999995512497
 30
0.0
 42
0.2679491916226445
  0
VERTEX
  5
20B2
  8
SAPA_PROFIL
 10
-139.09070686150409
 20
-18.749999952511882
 30
0.0
  0
VERTEX
  5
20B3
  8
SAPA_PROFIL
 10
-140.10106983258601
 20
-20.499999952511889
 30
0.0
 42
-0.2679491924311319
  0
VERTEX
  5
20B4
  8
SAPA_PROFIL
 10
-140.9670952363704
 20
-20.999999952511828
 30
0.0
  0
VERTEX
  5
20B5
  8
SAPA_PROFIL
 10
-142.35273588242549
 20
-20.999999952511828
 30
0.0
 42
-0.5773502691893683
  0
VERTEX
  5
20B6
  8
SAPA_PROFIL
 10
-142.52594096318251
 20
-20.69999995251187
 30
0.0
  0
VERTEX
  5
20B7
  8
SAPA_PROFIL
 10
-141.60218053247911
 20
-19.09999995251183
 30
0.0
  0
VERTEX
  5
20B8
  8
SAPA_PROFIL
 10
-141.60218053247911
 20
-18.799999952511889
 30
0.0
 42
0.4142135623732059
  0
VERTEX
  5
20B9
  8
SAPA_PROFIL
 10
-141.90218053247921
 20
-18.499999952511828
 30
0.0
  0
VERTEX
  5
20BA
  8
SAPA_PROFIL
 10
-145.7549669369794
 20
-18.499999952511828
 30
0.0
 42
-0.2134217652834387
  0
VERTEX
  5
20BB
  8
SAPA_PROFIL
 10
-145.97857373472951
 20
-18.399999952511699
 30
0.0
 42
0.7625858545243238
  0
VERTEX
  5
20BC
  8
SAPA_PROFIL
 10
-146.30889981574651
 20
-18.584579154709189
 30
0.0
  0
VERTEX
  5
20BD
  8
SAPA_PROFIL
 10
-146.25082617875739
 20
-18.77596215470291
 30
0.0
  0
VERTEX
  5
20BE
  8
SAPA_PROFIL
 10
-145.16626173178571
 20
-20.661805846563968
 30
0.0
  0
VERTEX
  5
20BF
  8
SAPA_PROFIL
 10
-144.84450400356741
 20
-20.651244480336981
 30
0.0
 42
-0.5773502691897466
  0
VERTEX
  5
20C0
  8
SAPA_PROFIL
 10
-144.6615502634572
 20
-20.945400780591822
 30
0.0
  0
VERTEX
  5
20C1
  8
SAPA_PROFIL
 10
-144.81368417456599
 20
-21.230083063823471
 30
0.0
 42
-0.221694662643019
  0
VERTEX
  5
20C2
  8
SAPA_PROFIL
 10
-145.35456400604281
 20
-21.63589196897826
 30
0.0
  0
VERTEX
  5
20C3
  8
SAPA_PROFIL
 10
-147.167794476701
 20
-22.01733856510597
 30
0.0
 42
-0.476975532698164
  0
VERTEX
  5
20C4
  8
SAPA_PROFIL
 10
-147.5394513516469
 20
-21.715085740599498
 30
0.0
  0
VERTEX
  5
20C5
  8
SAPA_PROFIL
 10
-147.53936774376331
 20
-20.211984659837501
 30
0.0
  0
VERTEX
  5
20C6
  8
SAPA_PROFIL
 10
-147.49152199376479
 20
-20.197466250590399
 30
0.0
 42
0.4142135623730951
  0
VERTEX
  5
20C7
  8
SAPA_PROFIL
 10
-147.2915579492574
 20
-19.82328129511458
 30
0.0
  0
VERTEX
  5
20C8
  8
SAPA_PROFIL
 10
-147.79997618390999
 20
-18.507867575269199
 30
0.0
  0
VERTEX
  5
20C9
  8
SAPA_PROFIL
 10
-147.79997618390979
 20
-15.50971671409566
 30
0.0
 42
-0.2562769736732418
  0
VERTEX
  5
20CA
  8
SAPA_PROFIL
 10
-147.70744518559439
 20
-15.341044209884309
 30
0.0
  0
VERTEX
  5
20CB
  8
SAPA_PROFIL
 10
-146.46117968643659
 20
-14.5469912037077
 30
0.0
 42
-0.5920056181180006
  0
VERTEX
  5
20CC
  8
SAPA_PROFIL
 10
-145.99997618390989
 20
-14.799999960024779
 30
0.0
  0
VERTEX
  5
20CD
  8
SAPA_PROFIL
 10
-145.99997618390989
 20
-16.199999960024751
 30
0.0
 42
0.4142135623731505
  0
VERTEX
  5
20CE
  8
SAPA_PROFIL
 10
-145.69997618390991
 20
-16.499999960024791
 30
0.0
  0
VERTEX
  5
20CF
  8
SAPA_PROFIL
 10
-143.29997618390999
 20
-16.499999960024649
 30
0.0
 42
0.4142135623729841
  0
VERTEX
  5
20D0
  8
SAPA_PROFIL
 10
-142.99997618391001
 20
-16.199999960024751
 30
0.0
  0
VERTEX
  5
20D1
  8
SAPA_PROFIL
 10
-142.99997618391001
 20
1.2000000399753059
 30
0.0
 42
0.4142135623730882
  0
VERTEX
  5
20D2
  8
SAPA_PROFIL
 10
-143.29997618390999
 20
1.5000000399753179
 30
0.0
  0
VERTEX
  5
20D3
  8
SAPA_PROFIL
 10
-145.69997618391011
 20
1.500000039975296
 30
0.0
 42
0.4142135623730118
  0
VERTEX
  5
20D4
  8
SAPA_PROFIL
 10
-145.99997618390989
 20
1.200000039975228
 30
0.0
  0
VERTEX
  5
20D5
  8
SAPA_PROFIL
 10
-145.99997618390989
 20
-0.1999999600247841
 30
0.0
 42
-0.5877032589249656
  0
VERTEX
  5
20D6
  8
SAPA_PROFIL
 10
-146.45793639103749
 20
-0.4550461773348933
 30
0.0
  0
VERTEX
  5
20D7
  8
SAPA_PROFIL
 10
-147.9052829886619
 20
0.4413527999073064
 30
0.0
 42
-0.2596812337301635
  0
VERTEX
  5
20D8
  8
SAPA_PROFIL
 10
-147.99997618391001
 20
0.6113836114474079
 30
0.0
  0
VERTEX
  5
20D9
  8
SAPA_PROFIL
 10
-147.99997618391001
 20
3.3000000448068278
 30
0.0
 42
-0.4142135623732095
  0
VERTEX
  5
20DA
  8
SAPA_PROFIL
 10
-147.79997618390999
 20
3.5000000448068169
 30
0.0
  0
VERTEX
  5
20DB
  8
SAPA_PROFIL
 10
-104.9999746897599
 20
3.500000044806812
 30
0.0
 42
-0.4142135623730067
  0
VERTEX
  5
20DC
  8
SAPA_PROFIL
 10
-102.99997618390989
 20
1.500001538957314
 30
0.0
  0
VERTEX
  5
20DD
  8
SAPA_PROFIL
 10
-102.99997618390989
 20
-4.2000007022681052
 30
0.0
 42
0.4142135623729993
  0
VERTEX
  5
20DE
  8
SAPA_PROFIL
 10
-101.9999769309848
 20
-5.1999999551931966
 30
0.0
  0
VERTEX
  5
20DF
  8
SAPA_PROFIL
 10
-94.498957183909781
 20
-5.1999999551930989
 30
0.0
 42
-0.4142135623730951
  0
VERTEX
  5
20E0
  8
SAPA_PROFIL
 10
-93.498957183909866
 20
-6.1999999551931131
 30
0.0
  0
VERTEX
  5
20E1
  8
SAPA_PROFIL
 10
-93.498957183909866
 20
-6.6977751046080911
 30
0.0
 42
-0.4142135623729598
  0
VERTEX
  5
20E2
  8
SAPA_PROFIL
 10
-93.698957034494882
 20
-6.8977749551931922
 30
0.0
  0
VERTEX
  5
20E3
  8
SAPA_PROFIL
 10
-95.296807747088536
 20
-6.897774955193106
 30
0.0
 42
0.414645992438811
  0
VERTEX
  5
20E4
  8
SAPA_PROFIL
 10
-95.496807529177005
 20
-7.0980701916536404
 30
0.0
  0
VERTEX
  5
20E5
  8
SAPA_PROFIL
 10
-95.498364036118872
 20
-18.503696518493971
 30
0.0
  0
VERTEX
  5
20E6
  8
SAPA_PROFIL
 10
-96.008394418562176
 20
-19.823281295114569
 30
0.0
 42
0.4142135623730951
  0
VERTEX
  5
20E7
  8
SAPA_PROFIL
 10
-95.808430374054765
 20
-20.197466250590391
 30
0.0
  0
VERTEX
  5
20E8
  8
SAPA_PROFIL
 10
-95.760584624056293
 20
-20.211984659837491
 30
0.0
  0
VERTEX
  5
20E9
  8
SAPA_PROFIL
 10
-95.760501016172654
 20
-21.715085740599498
 30
0.0
 42
-0.4769755326981641
  0
VERTEX
  5
20EA
  8
SAPA_PROFIL
 10
-96.13215789111851
 20
-22.01733856510597
 30
0.0
  0
VERTEX
  5
20EB
  8
SAPA_PROFIL
 10
-97.945388361776764
 20
-21.63589196897825
 30
0.0
 42
-0.2216946626430191
  0
VERTEX
  5
20EC
  8
SAPA_PROFIL
 10
-98.486268193253551
 20
-21.23008306382345
 30
0.0
  0
VERTEX
  5
20ED
  8
SAPA_PROFIL
 10
-98.638402104362328
 20
-20.9454007805918
 30
0.0
 42
-0.5773502691897466
  0
VERTEX
  5
20EE
  8
SAPA_PROFIL
 10
-98.455448364252135
 20
-20.651244480336992
 30
0.0
  0
VERTEX
  5
20EF
  8
SAPA_PROFIL
 10
-98.13369063603389
 20
-20.661805846563961
 30
0.0
  0
VERTEX
  5
20F0
  8
SAPA_PROFIL
 10
-97.04912618906215
 20
-18.775962154702899
 30
0.0
  0
VERTEX
  5
20F1
  8
SAPA_PROFIL
 10
-96.991052552073072
 20
-18.584579154709179
 30
0.0
 42
0.7625858545243257
  0
VERTEX
  5
20F2
  8
SAPA_PROFIL
 10
-97.321378633090063
 20
-18.399999952511699
 30
0.0
 42
-0.2134217652834391
  0
SEQEND
  5
20F3
  8
SAPA_PROFIL
  0
POLYLINE
  5
1824
  8
SAPA_PROFIL
 66
     1
 10
0.0
 20
0.0
 30
0.0
 70
     1
  0
VERTEX
  5
20F4
  8
SAPA_PROFIL
 10
-104.99997618390989
 20
1.500000048025002
 30
0.0
  0
VERTEX
  5
20F5
  8
SAPA_PROFIL
 10
-106.99997618390989
 20
1.500000048025002
 30
0.0
  0
VERTEX
  5
20F6
  8
SAPA_PROFIL
 10
-106.99997618390979
 20
1.4000000480250929
 30
0.0
 42
-0.4142135623732199
  0
VERTEX
  5
20F7
  8
SAPA_PROFIL
 10
-107.1999761839098
 20
1.2000000480250119
 30
0.0
  0
VERTEX
  5
20F8
  8
SAPA_PROFIL
 10
-108.79997618390971
 20
1.200000048024906
 30
0.0
 42
-0.4142135623727933
  0
VERTEX
  5
20F9
  8
SAPA_PROFIL
 10
-108.99997618390989
 20
1.400000048024802
 30
0.0
  0
VERTEX
  5
20FA
  8
SAPA_PROFIL
 10
-108.99997618390989
 20
1.500000048025002
 30
0.0
  0
VERTEX
  5
20FB
  8
SAPA_PROFIL
 10
-137.29997618390979
 20
1.500000048025006
 30
0.0
  0
VERTEX
  5
20FC
  8
SAPA_PROFIL
 10
-137.29997618390999
 20
1.400000048025011
 30
0.0
 42
-0.4142135623730847
  0
VERTEX
  5
20FD
  8
SAPA_PROFIL
 10
-137.49997618391001
 20
1.2000000480250159
 30
0.0
  0
VERTEX
  5
20FE
  8
SAPA_PROFIL
 10
-139.09997618391
 20
1.2000000480251301
 30
0.0
 42
-0.4142135623730847
  0
VERTEX
  5
20FF
  8
SAPA_PROFIL
 10
-139.29997618390991
 20
1.4000000480250121
 30
0.0
  0
VERTEX
  5
2100
  8
SAPA_PROFIL
 10
-139.29997618390991
 20
1.500000048025006
 30
0.0
  0
VERTEX
  5
2101
  8
SAPA_PROFIL
 10
-140.99997618391001
 20
1.500000048025006
 30
0.0
 42
0.4142135623730675
  0
VERTEX
  5
2102
  8
SAPA_PROFIL
 10
-141.29997618390979
 20
1.2000000480250159
 30
0.0
  0
VERTEX
  5
2103
  8
SAPA_PROFIL
 10
-141.29997618390979
 20
-16.399999951974969
 30
0.0
 42
0.4142135623730673
  0
VERTEX
  5
2104
  8
SAPA_PROFIL
 10
-140.99997618391001
 20
-16.699999951974931
 30
0.0
  0
VERTEX
  5
2105
  8
SAPA_PROFIL
 10
-139.29997618390979
 20
-16.699999951974931
 30
0.0
  0
VERTEX
  5
2106
  8
SAPA_PROFIL
 10
-139.29997618390999
 20
-16.39999995197492
 30
0.0
 42
-0.4142135623731367
  0
VERTEX
  5
2107
  8
SAPA_PROFIL
 10
-139.0999761839098
 20
-16.199999951974931
 30
0.0
  0
VERTEX
  5
2108
  8
SAPA_PROFIL
 10
-137.49997618391001
 20
-16.199999951974871
 30
0.0
 42
-0.4142135623732407
  0
VERTEX
  5
2109
  8
SAPA_PROFIL
 10
-137.29997618390991
 20
-16.39999995197509
 30
0.0
  0
VERTEX
  5
210A
  8
SAPA_PROFIL
 10
-137.29997618390999
 20
-16.699999951974991
 30
0.0
  0
VERTEX
  5
210B
  8
SAPA_PROFIL
 10
-108.99997618390969
 20
-16.699999951974991
 30
0.0
  0
VERTEX
  5
210C
  8
SAPA_PROFIL
 10
-108.99997618390979
 20
-16.39999995197492
 30
0.0
 42
-0.4142135623732199
  0
VERTEX
  5
210D
  8
SAPA_PROFIL
 10
-108.79997618390971
 20
-16.199999951974931
 30
0.0
  0
VERTEX
  5
210E
  8
SAPA_PROFIL
 10
-107.1999761839098
 20
-16.19999995197502
 30
0.0
 42
-0.4142135623733448
  0
VERTEX
  5
210F
  8
SAPA_PROFIL
 10
-106.99997618390989
 20
-16.39999995197509
 30
0.0
  0
VERTEX
  5
2110
  8
SAPA_PROFIL
 10
-106.99997618390989
 20
-16.699999951974942
 30
0.0
  0
VERTEX
  5
2111
  8
SAPA_PROFIL
 10
-97.499976183910078
 20
-16.699999951974942
 30
0.0
 42
0.4142135623732061
  0
VERTEX
  5
2112
  8
SAPA_PROFIL
 10
-97.199976183909982
 20
-16.39999995197493
 30
0.0
  0
VERTEX
  5
2113
  8
SAPA_PROFIL
 10
-97.199976183909982
 20
-7.1999999551930989
 30
0.0
 42
0.4142135623732059
  0
VERTEX
  5
2114
  8
SAPA_PROFIL
 10
-97.499976183910078
 20
-6.8999999551931159
 30
0.0
  0
VERTEX
  5
2115
  8
SAPA_PROFIL
 10
-101.9999769309847
 20
-6.899999955193115
 30
0.0
 42
-0.414213562373052
  0
VERTEX
  5
2116
  8
SAPA_PROFIL
 10
-104.6999761839098
 20
-4.2000007022682739
 30
0.0
  0
VERTEX
  5
2117
  8
SAPA_PROFIL
 10
-104.6999761839098
 20
1.2000000480250119
 30
0.0
 42
0.4142135623732891
  0
SEQEND
  5
2118
  8
SAPA_PROFIL
  0
POLYLINE
  5
1825
  8
SAPA_PROFIL
 66
     1
 10
0.0
 20
0.0
 30
0.1
 70
     1
  0
VERTEX
  5
2119
  8
SAPA_PROFIL
 10
-103.20035871523361
 20
-58.49999995242942
 30
0.1
 42
-0.2679491924311119
  0
VERTEX
  5
211A
  8
SAPA_PROFIL
 10
-102.3343333114492
 20
-57.999999952429519
 30
0.1
  0
VERTEX
  5
211B
  8
SAPA_PROFIL
 10
-100.94869266539411
 20
-57.999999952429633
 30
0.1
 42
-0.5773502691897603
  0
VERTEX
  5
211C
  8
SAPA_PROFIL
 10
-100.7754875846373
 20
-58.299999952429587
 30
0.1
  0
VERTEX
  5
211D
  8
SAPA_PROFIL
 10
-101.6992480153407
 20
-59.899999952429269
 30
0.1
  0
VERTEX
  5
211E
  8
SAPA_PROFIL
 10
-101.6992480153407
 20
-60.199999952429451
 30
0.1
 42
0.4142135623728995
  0
VERTEX
  5
211F
  8
SAPA_PROFIL
 10
-101.3992480153407
 20
-60.499999952429519
 30
0.1
  0
VERTEX
  5
2120
  8
SAPA_PROFIL
 10
-97.54646161084068
 20
-60.499999952429462
 30
0.1
 42
-0.2134217652834313
  0
VERTEX
  5
2121
  8
SAPA_PROFIL
 10
-97.322854813090615
 20
-60.599999952429577
 30
0.1
 42
0.7625858545243313
  0
VERTEX
  5
2122
  8
SAPA_PROFIL
 10
-96.992528732073566
 20
-60.415420750232123
 30
0.1
  0
VERTEX
  5
2123
  8
SAPA_PROFIL
 10
-97.050602369062659
 20
-60.224037750238388
 30
0.1
  0
VERTEX
  5
2124
  8
SAPA_PROFIL
 10
-98.135166816034399
 20
-58.33819405837734
 30
0.1
  0
VERTEX
  5
2125
  8
SAPA_PROFIL
 10
-98.456924544252686
 20
-58.348755424604342
 30
0.1
 42
-0.5773502691897454
  0
VERTEX
  5
2126
  8
SAPA_PROFIL
 10
-98.639878284362823
 20
-58.054599124349473
 30
0.1
  0
VERTEX
  5
2127
  8
SAPA_PROFIL
 10
-98.487744373254102
 20
-57.769916841117833
 30
0.1
 42
-0.2216946626430149
  0
VERTEX
  5
2128
  8
SAPA_PROFIL
 10
-97.946864541777273
 20
-57.364107935963048
 30
0.1
  0
VERTEX
  5
2129
  8
SAPA_PROFIL
 10
-96.133634071119033
 20
-56.982661339835332
 30
0.1
 42
-0.476975532698164
  0
VERTEX
  5
212A
  8
SAPA_PROFIL
 10
-95.761977196173149
 20
-57.284914164341799
 30
0.1
  0
VERTEX
  5
212B
  8
SAPA_PROFIL
 10
-95.762060804056816
 20
-58.788015245103807
 30
0.1
  0
VERTEX
  5
212C
  8
SAPA_PROFIL
 10
-95.809906554055274
 20
-58.80253365435091
 30
0.1
 42
0.4142135623730875
  0
VERTEX
  5
212D
  8
SAPA_PROFIL
 10
-96.009870598562685
 20
-59.176718609826722
 30
0.1
  0
VERTEX
  5
212E
  8
SAPA_PROFIL
 10
-95.499976179998953
 20
-60.495951611588751
 30
0.1
  0
VERTEX
  5
212F
  8
SAPA_PROFIL
 10
-95.499976179998953
 20
-80.231478349085592
 30
0.1
 42
0.3821712090170728
  0
VERTEX
  5
2130
  8
SAPA_PROFIL
 10
-95.233095964093195
 20
-80.529644544187505
 30
0.1
  0
VERTEX
  5
2131
  8
SAPA_PROFIL
 10
-88.655125179998976
 20
-81.055484079152507
 30
0.1
 42
0.4469990000000183
  0
VERTEX
  5
2132
  8
SAPA_PROFIL
 10
-88.099925179999005
 20
-80.558540079152493
 30
0.1
  0
VERTEX
  5
2133
  8
SAPA_PROFIL
 10
-88.099925179998962
 20
-78.799999952429502
 30
0.1
 42
-0.414213999999998
  0
VERTEX
  5
2134
  8
SAPA_PROFIL
 10
-87.099925179998976
 20
-77.799999952429488
 30
0.1
  0
VERTEX
  5
2135
  8
SAPA_PROFIL
 10
-86.832381179998976
 20
-77.799999952429516
 30
0.1
 42
-0.2896899999999924
  0
VERTEX
  5
2136
  8
SAPA_PROFIL
 10
-85.928873179998945
 20
-78.371427952429514
 30
0.1
 42
-0.5507599999999715
  0
VERTEX
  5
2137
  8
SAPA_PROFIL
 10
-86.199925179998957
 20
-78.799999952429502
 30
0.1
  0
VERTEX
  5
2138
  8
SAPA_PROFIL
 10
-86.499925179998939
 20
-78.799999952429488
 30
0.1
 42
0.4142140000001125
  0
VERTEX
  5
2139
  8
SAPA_PROFIL
 10
-86.699925179998957
 20
-78.999999952429505
 30
0.1
  0
VERTEX
  5
213A
  8
SAPA_PROFIL
 10
-86.699925179998957
 20
-80.099999952429528
 30
0.1
 42
0.4142139999999939
  0
VERTEX
  5
213B
  8
SAPA_PROFIL
 10
-85.699925179998957
 20
-81.099999952429528
 30
0.1
  0
VERTEX
  5
213C
  8
SAPA_PROFIL
 10
-83.399976179998987
 20
-81.099999952429528
 30
0.1
 42
0.4142139999999918
  0
VERTEX
  5
213D
  8
SAPA_PROFIL
 10
-82.399976179998987
 20
-80.099999952429528
 30
0.1
  0
VERTEX
  5
213E
  8
SAPA_PROFIL
 10
-82.399976179998944
 20
-78.999999952429505
 30
0.1
 42
0.4142139999999378
  0
VERTEX
  5
213F
  8
SAPA_PROFIL
 10
-82.599976179998976
 20
-78.799999952429502
 30
0.1
  0
VERTEX
  5
2140
  8
SAPA_PROFIL
 10
-82.899925179998945
 20
-78.799999952429474
 30
0.1
 42
-0.5507599999999796
  0
VERTEX
  5
2141
  8
SAPA_PROFIL
 10
-83.170978179998968
 20
-78.371427952429528
 30
0.1
 42
-0.2896900000000027
  0
VERTEX
  5
2142
  8
SAPA_PROFIL
 10
-82.267470179998966
 20
-77.799999952429488
 30
0.1
  0
VERTEX
  5
2143
  8
SAPA_PROFIL
 10
-81.999976179998967
 20
-77.799999952429516
 30
0.1
 42
-0.4142140000000064
  0
VERTEX
  5
2144
  8
SAPA_PROFIL
 10
-80.999976179998939
 20
-78.799999952429502
 30
0.1
  0
VERTEX
  5
2145
  8
SAPA_PROFIL
 10
-80.999976179999024
 20
-80.499999952429505
 30
0.1
 42
-0.4142139999999918
  0
VERTEX
  5
2146
  8
SAPA_PROFIL
 10
-82.999976179998953
 20
-82.499999952429505
 30
0.1
  0
VERTEX
  5
2147
  8
SAPA_PROFIL
 10
-169.4999761799989
 20
-82.499999952429434
 30
0.1
 42
-0.414213999999996
  0
VERTEX
  5
2148
  8
SAPA_PROFIL
 10
-169.9999761799989
 20
-81.999999952429476
 30
0.1
  0
VERTEX
  5
2149
  8
SAPA_PROFIL
 10
-169.99997617999881
 20
-78.299999952429488
 30
0.1
 42
-0.4142139999999107
  0
VERTEX
  5
214A
  8
SAPA_PROFIL
 10
-169.69997617999891
 20
-77.999999952429505
 30
0.1
  0
VERTEX
  5
214B
  8
SAPA_PROFIL
 10
-168.9324311799989
 20
-77.999999952429505
 30
0.1
 42
-0.2896899999999864
  0
VERTEX
  5
214C
  8
SAPA_PROFIL
 10
-168.02892317999891
 20
-78.571427952429474
 30
0.1
 42
-0.5507600000000558
  0
VERTEX
  5
214D
  8
SAPA_PROFIL
 10
-168.29997617999891
 20
-78.999999952429505
 30
0.1
  0
VERTEX
  5
214E
  8
SAPA_PROFIL
 10
-168.4999761799989
 20
-78.999999952429505
 30
0.1
 42
0.414214000000073
  0
VERTEX
  5
214F
  8
SAPA_PROFIL
 10
-168.79997617999891
 20
-79.299999952429474
 30
0.1
  0
VERTEX
  5
2150
  8
SAPA_PROFIL
 10
-168.79997617999891
 20
-80.799999952429474
 30
0.1
 42
0.414213999999996
  0
VERTEX
  5
2151
  8
SAPA_PROFIL
 10
-168.29997617999891
 20
-81.299999952429488
 30
0.1
  0
VERTEX
  5
2152
  8
SAPA_PROFIL
 10
-164.9999761799989
 20
-81.299999952429488
 30
0.1
 42
0.4142140000000002
  0
VERTEX
  5
2153
  8
SAPA_PROFIL
 10
-164.49997617999881
 20
-80.799999952429474
 30
0.1
  0
VERTEX
  5
2154
  8
SAPA_PROFIL
 10
-164.49997617999881
 20
-79.299999952429474
 30
0.1
 42
0.4142140000000209
  0
VERTEX
  5
2155
  8
SAPA_PROFIL
 10
-164.79997617999891
 20
-78.999999952429505
 30
0.1
  0
VERTEX
  5
2156
  8
SAPA_PROFIL
 10
-164.99997617999881
 20
-78.999999952429562
 30
0.1
 42
-0.5507600000000054
  0
VERTEX
  5
2157
  8
SAPA_PROFIL
 10
-165.27102817999889
 20
-78.571427952429474
 30
0.1
 42
-0.2896899999999876
  0
VERTEX
  5
2158
  8
SAPA_PROFIL
 10
-164.36752017999891
 20
-77.999999952429505
 30
0.1
  0
VERTEX
  5
2159
  8
SAPA_PROFIL
 10
-163.370049179999
 20
-77.999999952429519
 30
0.1
 42
-0.0436609999999812
  0
VERTEX
  5
215A
  8
SAPA_PROFIL
 10
-163.28322417999891
 20
-78.007595952429511
 30
0.1
  0
VERTEX
  5
215B
  8
SAPA_PROFIL
 10
-161.71315217999901
 20
-78.284441952429503
 30
0.1
 42
-0.839099999999979
  0
VERTEX
  5
215C
  8
SAPA_PROFIL
 10
-161.71315217999901
 20
-79.269249952429504
 30
0.1
  0
VERTEX
  5
215D
  8
SAPA_PROFIL
 10
-162.88680017999889
 20
-79.476194952429495
 30
0.1
 42
0.363970000000042
  0
VERTEX
  5
215E
  8
SAPA_PROFIL
 10
-163.29997617999891
 20
-79.968598952429517
 30
0.1
  0
VERTEX
  5
215F
  8
SAPA_PROFIL
 10
-163.29997617999891
 20
-80.779999952429463
 30
0.1
 42
0.4373279999999794
  0
VERTEX
  5
2160
  8
SAPA_PROFIL
 10
-162.7608811799989
 20
-81.278468952429506
 30
0.1
  0
VERTEX
  5
2161
  8
SAPA_PROFIL
 10
-148.28782290658259
 20
-80.711670466033624
 30
0.1
 42
0.4023941355298093
  0
VERTEX
  5
2162
  8
SAPA_PROFIL
 10
-147.99997617999881
 20
-80.411916737207321
 30
0.1
  0
VERTEX
  5
2163
  8
SAPA_PROFIL
 10
-147.9999761799989
 20
-79.611382952429494
 30
0.1
 42
-0.2596810000001062
  0
VERTEX
  5
2164
  8
SAPA_PROFIL
 10
-147.9052831799988
 20
-79.441351952429486
 30
0.1
  0
VERTEX
  5
2165
  8
SAPA_PROFIL
 10
-146.457936179999
 20
-78.544952952429412
 30
0.1
 42
-0.5877030000000574
  0
VERTEX
  5
2166
  8
SAPA_PROFIL
 10
-145.99997617999881
 20
-78.799999952429545
 30
0.1
  0
VERTEX
  5
2167
  8
SAPA_PROFIL
 10
-145.99997617999881
 20
-80.199999952429508
 30
0.1
 42
0.4142139999999773
  0
VERTEX
  5
2168
  8
SAPA_PROFIL
 10
-145.69997617999891
 20
-80.499999952429505
 30
0.1
  0
VERTEX
  5
2169
  8
SAPA_PROFIL
 10
-143.29997617999891
 20
-80.499999952429505
 30
0.1
 42
0.4142140000000855
  0
VERTEX
  5
216A
  8
SAPA_PROFIL
 10
-142.99997617999881
 20
-80.199999952429508
 30
0.1
  0
VERTEX
  5
216B
  8
SAPA_PROFIL
 10
-142.99997617999881
 20
-62.79999995242953
 30
0.1
 42
0.4142140000001167
  0
VERTEX
  5
216C
  8
SAPA_PROFIL
 10
-143.29997617999891
 20
-62.499999952429512
 30
0.1
  0
VERTEX
  5
216D
  8
SAPA_PROFIL
 10
-145.69997617999891
 20
-62.499999952429512
 30
0.1
 42
0.4142140000000127
  0
VERTEX
  5
216E
  8
SAPA_PROFIL
 10
-145.99997617999881
 20
-62.79999995242953
 30
0.1
  0
VERTEX
  5
216F
  8
SAPA_PROFIL
 10
-145.99997617999881
 20
-64.199999952429494
 30
0.1
 42
-0.5920054160710117
  0
VERTEX
  5
2170
  8
SAPA_PROFIL
 10
-146.46117951811371
 20
-64.453008465187281
 30
0.1
  0
VERTEX
  5
2171
  8
SAPA_PROFIL
 10
-147.70744517432669
 20
-63.65895543536562
 30
0.1
 42
-0.2562769852931595
  0
VERTEX
  5
2172
  8
SAPA_PROFIL
 10
-147.79997617999879
 20
-63.490282926467003
 30
0.1
  0
VERTEX
  5
2173
  8
SAPA_PROFIL
 10
-147.79997617999879
 20
-60.495951611588467
 30
0.1
  0
VERTEX
  5
2174
  8
SAPA_PROFIL
 10
-147.2900817614352
 20
-59.176718609826779
 30
0.1
 42
0.4142135623730875
  0
VERTEX
  5
2175
  8
SAPA_PROFIL
 10
-147.4900458059426
 20
-58.802533654350967
 30
0.1
  0
VERTEX
  5
2176
  8
SAPA_PROFIL
 10
-147.53789155594109
 20
-58.788015245103857
 30
0.1
  0
VERTEX
  5
2177
  8
SAPA_PROFIL
 10
-147.53797516382471
 20
-57.284914164341849
 30
0.1
 42
-0.4769755326981641
  0
VERTEX
  5
2178
  8
SAPA_PROFIL
 10
-147.1663182888789
 20
-56.982661339835389
 30
0.1
  0
VERTEX
  5
2179
  8
SAPA_PROFIL
 10
-145.35308781822059
 20
-57.364107935963077
 30
0.1
 42
-0.2216946626430149
  0
VERTEX
  5
217A
  8
SAPA_PROFIL
 10
-144.81220798674391
 20
-57.769916841117897
 30
0.1
  0
VERTEX
  5
217B
  8
SAPA_PROFIL
 10
-144.66007407563509
 20
-58.054599124349537
 30
0.1
 42
-0.5773502691897454
  0
VERTEX
  5
217C
  8
SAPA_PROFIL
 10
-144.8430278157453
 20
-58.348755424604363
 30
0.1
  0
VERTEX
  5
217D
  8
SAPA_PROFIL
 10
-145.16478554396349
 20
-58.338194058377397
 30
0.1
  0
VERTEX
  5
217E
  8
SAPA_PROFIL
 10
-146.24934999093529
 20
-60.224037750238431
 30
0.1
  0
VERTEX
  5
217F
  8
SAPA_PROFIL
 10
-146.30742362792429
 20
-60.415420750232137
 30
0.1
 42
0.7625858545243333
  0
VERTEX
  5
2180
  8
SAPA_PROFIL
 10
-145.9770975469074
 20
-60.599999952429627
 30
0.1
 42
-0.2134217652834462
  0
VERTEX
  5
2181
  8
SAPA_PROFIL
 10
-145.75349074915721
 20
-60.499999952429519
 30
0.1
  0
VERTEX
  5
2182
  8
SAPA_PROFIL
 10
-141.9007043446571
 20
-60.499999952429519
 30
0.1
 42
0.4142135623729119
  0
VERTEX
  5
2183
  8
SAPA_PROFIL
 10
-141.6007043446572
 20
-60.199999952429451
 30
0.1
  0
VERTEX
  5
2184
  8
SAPA_PROFIL
 10
-141.6007043446572
 20
-59.899999952429269
 30
0.1
  0
VERTEX
  5
2185
  8
SAPA_PROFIL
 10
-142.5244647753606
 20
-58.299999952429637
 30
0.1
 42
-0.5773502691897497
  0
VERTEX
  5
2186
  8
SAPA_PROFIL
 10
-142.3512596946037
 20
-57.999999952429519
 30
0.1
  0
VERTEX
  5
2187
  8
SAPA_PROFIL
 10
-140.9656190485486
 20
-57.999999952429341
 30
0.1
 42
-0.2679491924311136
  0
VERTEX
  5
2188
  8
SAPA_PROFIL
 10
-140.09959364476421
 20
-58.499999952429349
 30
0.1
  0
VERTEX
  5
2189
  8
SAPA_PROFIL
 10
-139.0892306736821
 20
-60.24999995242954
 30
0.1
 42
0.2679491924310958
  0
VERTEX
  5
218A
  8
SAPA_PROFIL
 10
-138.65621797178991
 20
-60.499999952429519
 30
0.1
  0
VERTEX
  5
218B
  8
SAPA_PROFIL
 10
-138.3195914222695
 20
-60.499999952429519
 30
0.1
  0
VERTEX
  5
218C
  8
SAPA_PROFIL
 10
-137.79997617999879
 20
-60.799999952429502
 30
0.1
  0
VERTEX
  5
218D
  8
SAPA_PROFIL
 10
-137.2803609377282
 20
-60.499999952429519
 30
0.1
  0
VERTEX
  5
218E
  8
SAPA_PROFIL
 10
-104.643734388208
 20
-60.499999952429519
 30
0.1
 42
0.2679491924311033
  0
VERTEX
  5
218F
  8
SAPA_PROFIL
 10
-104.21072168631579
 20
-60.24999995242954
 30
0.1
  0
SEQEND
  5
2190
  8
SAPA_PROFIL
  0
POLYLINE
  5
1826
  8
SAPA_PROFIL
 66
     1
 10
0.0
 20
0.0
 30
0.1
 70
     1
  0
VERTEX
  5
2191
  8
SAPA_PROFIL
 10
-139.099976179999
 20
-62.79999995242953
 30
0.1
  0
VERTEX
  5
2192
  8
SAPA_PROFIL
 10
-137.4999761799989
 20
-62.79999995242953
 30
0.1
 42
0.4142135623730951
  0
VERTEX
  5
2193
  8
SAPA_PROFIL
 10
-137.29997617999891
 20
-62.599999952429499
 30
0.1
  0
VERTEX
  5
2194
  8
SAPA_PROFIL
 10
-137.29997617999891
 20
-62.299999868556178
 30
0.1
  0
VERTEX
  5
2195
  8
SAPA_PROFIL
 10
-101.1999761799989
 20
-62.299999868556178
 30
0.1
  0
VERTEX
  5
2196
  8
SAPA_PROFIL
 10
-101.1999761799989
 20
-62.599999952429499
 30
0.1
 42
0.4142135623730951
  0
VERTEX
  5
2197
  8
SAPA_PROFIL
 10
-100.9999761799989
 20
-62.79999995242953
 30
0.1
  0
VERTEX
  5
2198
  8
SAPA_PROFIL
 10
-99.39997617999893
 20
-62.79999995242953
 30
0.1
 42
0.4142135623730951
  0
VERTEX
  5
2199
  8
SAPA_PROFIL
 10
-99.199976179998956
 20
-62.599999952429499
 30
0.1
  0
VERTEX
  5
219A
  8
SAPA_PROFIL
 10
-99.199976179998956
 20
-62.299999868556178
 30
0.1
  0
VERTEX
  5
219B
  8
SAPA_PROFIL
 10
-97.499976179998953
 20
-62.299999868556171
 30
0.1
 42
-0.4142135623730951
  0
VERTEX
  5
219C
  8
SAPA_PROFIL
 10
-97.199976179998941
 20
-62.599999868556182
 30
0.1
  0
VERTEX
  5
219D
  8
SAPA_PROFIL
 10
-97.199976179998941
 20
-80.199999952429508
 30
0.1
 42
-0.4142135623730951
  0
VERTEX
  5
219E
  8
SAPA_PROFIL
 10
-97.499976179998953
 20
-80.499999952429505
 30
0.1
  0
VERTEX
  5
219F
  8
SAPA_PROFIL
 10
-99.199976179998956
 20
-80.499999952429505
 30
0.1
  0
VERTEX
  5
21A0
  8
SAPA_PROFIL
 10
-99.199976179998956
 20
-80.399999952429496
 30
0.1
 42
0.4142135623730951
  0
VERTEX
  5
21A1
  8
SAPA_PROFIL
 10
-99.39997617999893
 20
-80.199999952429508
 30
0.1
  0
VERTEX
  5
21A2
  8
SAPA_PROFIL
 10
-100.9999761799989
 20
-80.199999952429508
 30
0.1
 42
0.4142135623730951
  0
VERTEX
  5
21A3
  8
SAPA_PROFIL
 10
-101.1999761799989
 20
-80.399999952429496
 30
0.1
  0
VERTEX
  5
21A4
  8
SAPA_PROFIL
 10
-101.1999761799989
 20
-80.499999952429505
 30
0.1
  0
VERTEX
  5
21A5
  8
SAPA_PROFIL
 10
-137.29997617999891
 20
-80.499999952429505
 30
0.1
  0
VERTEX
  5
21A6
  8
SAPA_PROFIL
 10
-137.29997617999891
 20
-80.399999952429496
 30
0.1
 42
0.4142135623730951
  0
VERTEX
  5
21A7
  8
SAPA_PROFIL
 10
-137.4999761799989
 20
-80.199999952429508
 30
0.1
  0
VERTEX
  5
21A8
  8
SAPA_PROFIL
 10
-139.099976179999
 20
-80.199999952429508
 30
0.1
 42
0.4142135623730951
  0
VERTEX
  5
21A9
  8
SAPA_PROFIL
 10
-139.29997617999891
 20
-80.399999952429496
 30
0.1
  0
VERTEX
  5
21AA
  8
SAPA_PROFIL
 10
-139.29997617999891
 20
-80.499999952429505
 30
0.1
  0
VERTEX
  5
21AB
  8
SAPA_PROFIL
 10
-140.99997617999901
 20
-80.499999952429505
 30
0.1
 42
-0.4142135623730951
  0
VERTEX
  5
21AC
  8
SAPA_PROFIL
 10
-141.29997617999891
 20
-80.199999952429508
 30
0.1
  0
VERTEX
  5
21AD
  8
SAPA_PROFIL
 10
-141.29997617999899
 20
-62.599999868556182
 30
0.1
 42
-0.4142135623730951
  0
VERTEX
  5
21AE
  8
SAPA_PROFIL
 10
-140.99997617999901
 20
-62.299999868556178
 30
0.1
  0
VERTEX
  5
21AF
  8
SAPA_PROFIL
 10
-139.29997617999891
 20
-62.299999868556178
 30
0.1
  0
VERTEX
  5
21B0
  8
SAPA_PROFIL
 10
-139.29997617999891
 20
-62.599999952429499
 30
0.1
 42
0.4142135623730951
  0
SEQEND
  5
21B1
  8
SAPA_PROFIL
  0
POLYLINE
  5
1827
  8
SAPA_PROFIL
 62
     4
 66
     1
 10
0.0
 20
0.0
 30
0.0
  0
VERTEX
  5
21B2
  8
SAPA_PROFIL
 62
     4
 10
-145.09660907061749
 20
-30.450670830157438
 30
0.0
 42
-0.5571646428658034
  0
VERTEX
  5
21B3
  8
SAPA_PROFIL
 62
     4
 10
-144.228890156462
 20
-30.98763133429426
 30
0.0
  0
VERTEX
  5
21B4
  8
SAPA_PROFIL
 62
     4
 10
-144.2288901564624
 20
-48.012368570815461
 30
0.0
 42
-0.5571645048035741
  0
VERTEX
  5
21B5
  8
SAPA_PROFIL
 62
     4
 10
-145.09660884432861
 20
-48.549329187776522
 30
0.0
  0
VERTEX
  5
21B6
  8
SAPA_PROFIL
 62
     4
 10
-146.76274950039661
 20
-47.718622100229823
 30
0.0
 42
-0.284385813979063
  0
VERTEX
  5
21B7
  8
SAPA_PROFIL
 62
     4
 10
-146.92889015646409
 20
-47.450141791749473
 30
0.0
  0
VERTEX
  5
21B8
  8
SAPA_PROFIL
 62
     4
 10
-146.92889015646409
 20
-31.549858113360159
 30
0.0
 42
-0.2843858139786238
  0
VERTEX
  5
21B9
  8
SAPA_PROFIL
 62
     4
 10
-146.76274950039709
 20
-31.281377804879881
 30
0.0
  0
VERTEX
  5
21BA
  8
SAPA_PROFIL
 62
     4
 10
-145.09660884432779
 20
-30.450670717332709
 30
0.0
  0
SEQEND
  5
21BB
  8
SAPA_PROFIL
 62
     4
  0
POLYLINE
  5
1828
  8
SAPA_PROFIL
 62
     4
 66
     1
 10
0.0
 20
0.0
 30
0.0
 70
     1
  0
VERTEX
  5
21BC
  8
SAPA_PROFIL
 62
     4
 10
-147.28572167096161
 20
-53.91761113722211
 30
0.0
  0
VERTEX
  5
21BD
  8
SAPA_PROFIL
 62
     4
 10
-147.6922818669658
 20
-54.181634415598118
 30
0.0
 42
0.2539676464751066
  0
VERTEX
  5
21BE
  8
SAPA_PROFIL
 62
     4
 10
-147.82889015646191
 20
-54.433235585982828
 30
0.0
  0
VERTEX
  5
21BF
  8
SAPA_PROFIL
 62
     4
 10
-147.82889015646191
 20
-55.814735171188168
 30
0.0
 42
0.3152987888790479
  0
VERTEX
  5
21C0
  8
SAPA_PROFIL
 62
     4
 10
-147.49990022812369
 20
-56.284581481580489
 30
0.0
  0
VERTEX
  5
21C1
  8
SAPA_PROFIL
 62
     4
 10
-145.03907003767239
 20
-57.180250422489102
 30
0.0
 42
-0.2694959974287434
  0
VERTEX
  5
21C2
  8
SAPA_PROFIL
 62
     4
 10
-144.84593806332859
 20
-57.411769468890441
 30
0.0
 42
-0.0612686379508233
  0
VERTEX
  5
21C3
  8
SAPA_PROFIL
 62
     4
 10
-144.832354692698
 20
-57.704444901743727
 30
0.0
  0
VERTEX
  5
21C4
  8
SAPA_PROFIL
 62
     4
 10
-144.63061801396921
 20
-58.053863079051993
 30
0.0
 42
-0.5773502691891679
  0
VERTEX
  5
21C5
  8
SAPA_PROFIL
 62
     4
 10
-144.81248334876381
 20
-58.368863079051579
 30
0.0
  0
VERTEX
  5
21C6
  8
SAPA_PROFIL
 62
     4
 10
-145.07959787689009
 20
-58.36886307905182
 30
0.0
  0
VERTEX
  5
21C7
  8
SAPA_PROFIL
 62
     4
 10
-145.8882813381984
 20
-59.767390779686068
 30
0.0
 42
0.1318219888653519
  0
VERTEX
  5
21C8
  8
SAPA_PROFIL
 62
     4
 10
-145.92857373473581
 20
-59.917563882158419
 30
0.0
  0
VERTEX
  5
21C9
  8
SAPA_PROFIL
 62
     4
 10
-145.92857373472941
 20
-60.099999952595191
 30
0.0
 42
0.4142135623724291
  0
VERTEX
  5
21CA
  8
SAPA_PROFIL
 62
     4
 10
-145.5285737347298
 20
-60.499999952595743
 30
0.0
  0
VERTEX
  5
21CB
  8
SAPA_PROFIL
 62
     4
 10
-142.1285737347288
 20
-60.499999952594379
 30
0.0
 42
0.4142135623744271
  0
VERTEX
  5
21CC
  8
SAPA_PROFIL
 62
     4
 10
-141.7285737347278
 20
-60.099999952595191
 30
0.0
  0
VERTEX
  5
21CD
  8
SAPA_PROFIL
 62
     4
 10
-141.72857373472721
 20
-59.920384710323887
 30
0.0
 42
0.1316524975874005
  0
VERTEX
  5
21CE
  8
SAPA_PROFIL
 62
     4
 10
-141.76876611359279
 20
-59.770384710327079
 30
0.0
  0
VERTEX
  5
21CF
  8
SAPA_PROFIL
 62
     4
 10
-142.69491556024531
 20
-58.166246813324818
 30
0.0
 42
-0.1316524975875904
  0
VERTEX
  5
21D0
  8
SAPA_PROFIL
 62
     4
 10
-142.82889015646009
 20
-57.666246813323113
 30
0.0
  0
VERTEX
  5
21D1
  8
SAPA_PROFIL
 62
     4
 10
-142.82889015646009
 20
-57.249999952595743
 30
0.0
 42
-0.4142135623730951
  0
VERTEX
  5
21D2
  8
SAPA_PROFIL
 62
     4
 10
-141.82889015646009
 20
-56.249999952595751
 30
0.0
  0
VERTEX
  5
21D3
  8
SAPA_PROFIL
 62
     4
 10
-138.82889015646279
 20
-56.249999952595751
 30
0.0
 42
0.9999996830128083
  0
VERTEX
  5
21D4
  8
SAPA_PROFIL
 62
     4
 10
-138.828890156461
 20
-55.249999952595743
 30
0.0
  0
VERTEX
  5
21D5
  8
SAPA_PROFIL
 62
     4
 10
-141.828890156461
 20
-55.249999952595743
 30
0.0
 42
-0.4142135623730951
  0
VERTEX
  5
21D6
  8
SAPA_PROFIL
 62
     4
 10
-142.828890156461
 20
-54.249999952595743
 30
0.0
  0
VERTEX
  5
21D7
  8
SAPA_PROFIL
 62
     4
 10
-142.828890156461
 20
-24.74999995251116
 30
0.0
 42
-0.4142135623730951
  0
VERTEX
  5
21D8
  8
SAPA_PROFIL
 62
     4
 10
-141.828890156461
 20
-23.74999995251116
 30
0.0
  0
VERTEX
  5
21D9
  8
SAPA_PROFIL
 62
     4
 10
-138.82889015646279
 20
-23.74999995251116
 30
0.0
 42
0.9999999999999998
  0
VERTEX
  5
21DA
  8
SAPA_PROFIL
 62
     4
 10
-138.82889015646279
 20
-22.74999995251116
 30
0.0
  0
VERTEX
  5
21DB
  8
SAPA_PROFIL
 62
     4
 10
-141.828890156461
 20
-22.74999995251116
 30
0.0
 42
-0.4142135623736278
  0
VERTEX
  5
21DC
  8
SAPA_PROFIL
 62
     4
 10
-142.828890156461
 20
-21.74999995251116
 30
0.0
  0
VERTEX
  5
21DD
  8
SAPA_PROFIL
 62
     4
 10
-142.828890156461
 20
-21.3337530917847
 30
0.0
 42
-0.1316524975874375
  0
VERTEX
  5
21DE
  8
SAPA_PROFIL
 62
     4
 10
-142.69491556024491
 20
-20.833753091784502
 30
0.0
  0
VERTEX
  5
21DF
  8
SAPA_PROFIL
 62
     4
 10
-141.76876611359279
 20
-19.22961519478255
 30
0.0
 42
0.1316524975874
  0
VERTEX
  5
21E0
  8
SAPA_PROFIL
 62
     4
 10
-141.72857373472721
 20
-19.07961519478301
 30
0.0
  0
VERTEX
  5
21E1
  8
SAPA_PROFIL
 62
     4
 10
-141.7285737347278
 20
-18.899999952511699
 30
0.0
 42
0.4142135623744271
  0
VERTEX
  5
21E2
  8
SAPA_PROFIL
 62
     4
 10
-142.1285737347288
 20
-18.499999952512521
 30
0.0
  0
VERTEX
  5
21E3
  8
SAPA_PROFIL
 62
     4
 10
-145.5285737347298
 20
-18.49999995251116
 30
0.0
 42
0.4142135623724291
  0
VERTEX
  5
21E4
  8
SAPA_PROFIL
 62
     4
 10
-145.92857373472941
 20
-18.899999952511699
 30
0.0
  0
VERTEX
  5
21E5
  8
SAPA_PROFIL
 62
     4
 10
-145.92857373473581
 20
-19.082436022948482
 30
0.0
 42
0.1318219888653524
  0
VERTEX
  5
21E6
  8
SAPA_PROFIL
 62
     4
 10
-145.8882813381984
 20
-19.232609125420829
 30
0.0
  0
VERTEX
  5
21E7
  8
SAPA_PROFIL
 62
     4
 10
-145.07959787697411
 20
-20.63113682590048
 30
0.0
  0
VERTEX
  5
21E8
  8
SAPA_PROFIL
 62
     4
 10
-144.81248334876111
 20
-20.63113682590048
 30
0.0
 42
-0.577350269189159
  0
VERTEX
  5
21E9
  8
SAPA_PROFIL
 62
     4
 10
-144.63061801396651
 20
-20.94613682590008
 30
0.0
  0
VERTEX
  5
21EA
  8
SAPA_PROFIL
 62
     4
 10
-144.83235469264361
 20
-21.295555003118739
 30
0.0
 42
-0.0612687673629489
  0
VERTEX
  5
21EB
  8
SAPA_PROFIL
 62
     4
 10
-144.84593806332981
 20
-21.588230436218961
 30
0.0
 42
-0.2694959974285039
  0
VERTEX
  5
21EC
  8
SAPA_PROFIL
 62
     4
 10
-145.0390700376737
 20
-21.819749482619478
 30
0.0
  0
VERTEX
  5
21ED
  8
SAPA_PROFIL
 62
     4
 10
-147.4999002281269
 20
-22.715418423529151
 30
0.0
 42
0.3152987888784035
  0
VERTEX
  5
21EE
  8
SAPA_PROFIL
 62
     4
 10
-147.8288901564635
 20
-23.18526473392237
 30
0.0
  0
VERTEX
  5
21EF
  8
SAPA_PROFIL
 62
     4
 10
-147.82889015646191
 20
-24.566764319126811
 30
0.0
 42
0.2539676464741841
  0
VERTEX
  5
21F0
  8
SAPA_PROFIL
 62
     4
 10
-147.6922818669666
 20
-24.818365489510882
 30
0.0
  0
VERTEX
  5
21F1
  8
SAPA_PROFIL
 62
     4
 10
-147.28572167096161
 20
-25.082388767887519
 30
0.0
 42
0.5862177598324623
  0
VERTEX
  5
21F2
  8
SAPA_PROFIL
 62
     4
 10
-146.82889015646509
 20
-24.826646952649181
 30
0.0
  0
VERTEX
  5
21F3
  8
SAPA_PROFIL
 62
     4
 10
-146.8288901564728
 20
-23.885472272139371
 30
0.0
 42
-0.3152987888813165
  0
VERTEX
  5
21F4
  8
SAPA_PROFIL
 62
     4
 10
-146.499900228136
 20
-23.415625961741611
 30
0.0
  0
VERTEX
  5
21F5
  8
SAPA_PROFIL
 62
     4
 10
-145.29990022812481
 20
-22.978861680617651
 30
0.0
 42
-0.5205670505515651
  0
VERTEX
  5
21F6
  8
SAPA_PROFIL
 62
     4
 10
-144.62889015646209
 20
-23.448707991010881
 30
0.0
  0
VERTEX
  5
21F7
  8
SAPA_PROFIL
 62
     4
 10
-144.62889015646209
 20
-28.465148931679732
 30
0.0
 42
-0.3702522326300203
  0
VERTEX
  5
21F8
  8
SAPA_PROFIL
 62
     4
 10
-144.8833501091278
 20
-28.761672293473062
 30
0.0
 42
-0.0982365330332397
  0
VERTEX
  5
21F9
  8
SAPA_PROFIL
 62
     4
 10
-146.5710368841228
 20
-28.852125051683998
 30
0.0
 42
-0.3735060174783164
  0
VERTEX
  5
21FA
  8
SAPA_PROFIL
 62
     4
 10
-146.82889015646279
 20
-28.55510038377302
 30
0.0
  0
VERTEX
  5
21FB
  8
SAPA_PROFIL
 62
     4
 10
-146.8288901564637
 20
-28.126646952650361
 30
0.0
 42
0.5920056181162531
  0
VERTEX
  5
21FC
  8
SAPA_PROFIL
 62
     4
 10
-147.29009365899159
 20
-27.873638196332958
 30
0.0
  0
VERTEX
  5
21FD
  8
SAPA_PROFIL
 62
     4
 10
-147.69228186696989
 20
-28.134822272488659
 30
0.0
 42
0.2539676464746725
  0
VERTEX
  5
21FE
  8
SAPA_PROFIL
 62
     4
 10
-147.82889015646529
 20
-28.386423442872431
 30
0.0
  0
VERTEX
  5
21FF
  8
SAPA_PROFIL
 62
     4
 10
-147.8288901564637
 20
-50.613576462238107
 30
0.0
 42
0.2539676464741819
  0
VERTEX
  5
2200
  8
SAPA_PROFIL
 62
     4
 10
-147.69228186696989
 20
-50.86517763262097
 30
0.0
  0
VERTEX
  5
2201
  8
SAPA_PROFIL
 62
     4
 10
-147.29009365899159
 20
-51.12636170877478
 30
0.0
 42
0.5920055144124249
  0
VERTEX
  5
2202
  8
SAPA_PROFIL
 62
     4
 10
-146.8288901564637
 20
-50.873352952459271
 30
0.0
  0
VERTEX
  5
2203
  8
SAPA_PROFIL
 62
     4
 10
-146.8288901817387
 20
-50.444899475169052
 30
0.0
 42
-0.3735060174775405
  0
VERTEX
  5
2204
  8
SAPA_PROFIL
 62
     4
 10
-146.5710369093986
 20
-50.147874807259363
 30
0.0
 42
-0.0355900683670349
  0
VERTEX
  5
2205
  8
SAPA_PROFIL
 62
     4
 10
-145.95516332259879
 20
-50.103981243227111
 30
0.0
 42
-0.0624282003873116
  0
VERTEX
  5
2206
  8
SAPA_PROFIL
 62
     4
 10
-144.88335013440371
 20
-50.238327565470051
 30
0.0
 42
-0.3702522326309292
  0
VERTEX
  5
2207
  8
SAPA_PROFIL
 62
     4
 10
-144.628890181738
 20
-50.534850927263427
 30
0.0
  0
VERTEX
  5
2208
  8
SAPA_PROFIL
 62
     4
 10
-144.62889015646181
 20
-55.551291914096943
 30
0.0
 42
-0.5205670505515692
  0
VERTEX
  5
2209
  8
SAPA_PROFIL
 62
     4
 10
-145.29990022812481
 20
-56.021138224490159
 30
0.0
  0
VERTEX
  5
220A
  8
SAPA_PROFIL
 62
     4
 10
-146.49990022813429
 20
-55.584373943365208
 30
0.0
 42
-0.3152987888807539
  0
VERTEX
  5
220B
  8
SAPA_PROFIL
 62
     4
 10
-146.82889015647191
 20
-55.114527632969363
 30
0.0
  0
VERTEX
  5
220C
  8
SAPA_PROFIL
 62
     4
 10
-146.82889015646509
 20
-54.17335295246027
 30
0.0
 42
0.5862175119221242
  0
VERTEX
  5
220D
  8
SAPA_PROFIL
 62
     4
 10
-147.2857214822202
 20
-53.917611021478322
 30
0.0
 42
-0.0000002084758573
  0
SEQEND
  5
220E
  8
SAPA_PROFIL
 62
     4
  0
POLYLINE
  5
1829
  8
SAPA_PROFIL
 62
     4
 66
     1
 10
0.0
 20
0.0
 30
0.0
  0
VERTEX
  5
220F
  8
SAPA_PROFIL
 62
     4
 10
-98.203343297202466
 20
-30.450670830157438
 30
0.0
 42
0.5571646428658034
  0
VERTEX
  5
2210
  8
SAPA_PROFIL
 62
     4
 10
-99.071062211357997
 20
-30.98763133429426
 30
0.0
  0
VERTEX
  5
2211
  8
SAPA_PROFIL
 62
     4
 10
-99.071062211357557
 20
-48.012368570815461
 30
0.0
 42
0.5571645048035741
  0
VERTEX
  5
2212
  8
SAPA_PROFIL
 62
     4
 10
-98.20334352349137
 20
-48.549329187776522
 30
0.0
  0
VERTEX
  5
2213
  8
SAPA_PROFIL
 62
     4
 10
-96.537202867423346
 20
-47.718622100229823
 30
0.0
 42
0.284385813979063
  0
VERTEX
  5
2214
  8
SAPA_PROFIL
 62
     4
 10
-96.371062211355905
 20
-47.450141791749473
 30
0.0
  0
VERTEX
  5
2215
  8
SAPA_PROFIL
 62
     4
 10
-96.371062211355905
 20
-31.549858113360159
 30
0.0
 42
0.2843858139786238
  0
VERTEX
  5
2216
  8
SAPA_PROFIL
 62
     4
 10
-96.537202867422835
 20
-31.281377804879881
 30
0.0
  0
VERTEX
  5
2217
  8
SAPA_PROFIL
 62
     4
 10
-98.203343523492194
 20
-30.450670717332709
 30
0.0
  0
SEQEND
  5
2218
  8
SAPA_PROFIL
 62
     4
  0
POLYLINE
  5
182A
  8
SAPA_PROFIL
 62
     4
 66
     1
 10
0.0
 20
0.0
 30
0.0
 70
     1
  0
VERTEX
  5
2219
  8
SAPA_PROFIL
 62
     4
 10
-96.014230696858334
 20
-53.91761113722211
 30
0.0
  0
VERTEX
  5
221A
  8
SAPA_PROFIL
 62
     4
 10
-95.607670500854198
 20
-54.181634415598118
 30
0.0
 42
-0.2539676464751066
  0
VERTEX
  5
221B
  8
SAPA_PROFIL
 62
     4
 10
-95.471062211358088
 20
-54.433235585982828
 30
0.0
  0
VERTEX
  5
221C
  8
SAPA_PROFIL
 62
     4
 10
-95.471062211358088
 20
-55.814735171188168
 30
0.0
 42
-0.3152987888790479
  0
VERTEX
  5
221D
  8
SAPA_PROFIL
 62
     4
 10
-95.800052139696248
 20
-56.284581481580489
 30
0.0
  0
VERTEX
  5
221E
  8
SAPA_PROFIL
 62
     4
 10
-98.260882330147524
 20
-57.180250422489102
 30
0.0
 42
0.2694959974287434
  0
VERTEX
  5
221F
  8
SAPA_PROFIL
 62
     4
 10
-98.454014304491423
 20
-57.411769468890441
 30
0.0
 42
0.0612686379508233
  0
VERTEX
  5
2220
  8
SAPA_PROFIL
 62
     4
 10
-98.467597675121937
 20
-57.704444901743727
 30
0.0
  0
VERTEX
  5
2221
  8
SAPA_PROFIL
 62
     4
 10
-98.669334353850758
 20
-58.053863079051993
 30
0.0
 42
0.5773502691891679
  0
VERTEX
  5
2222
  8
SAPA_PROFIL
 62
     4
 10
-98.487469019056206
 20
-58.368863079051579
 30
0.0
  0
VERTEX
  5
2223
  8
SAPA_PROFIL
 62
     4
 10
-98.220354490929878
 20
-58.36886307905182
 30
0.0
  0
VERTEX
  5
2224
  8
SAPA_PROFIL
 62
     4
 10
-97.411671029621559
 20
-59.767390779686068
 30
0.0
 42
-0.1318219888653519
  0
VERTEX
  5
2225
  8
SAPA_PROFIL
 62
     4
 10
-97.371378633084177
 20
-59.917563882158419
 30
0.0
  0
VERTEX
  5
2226
  8
SAPA_PROFIL
 62
     4
 10
-97.371378633090529
 20
-60.099999952595191
 30
0.0
 42
-0.4142135623724291
  0
VERTEX
  5
2227
  8
SAPA_PROFIL
 62
     4
 10
-97.771378633090166
 20
-60.499999952595743
 30
0.0
  0
VERTEX
  5
2228
  8
SAPA_PROFIL
 62
     4
 10
-101.17137863309109
 20
-60.499999952594379
 30
0.0
 42
-0.4142135623744271
  0
VERTEX
  5
2229
  8
SAPA_PROFIL
 62
     4
 10
-101.5713786330921
 20
-60.099999952595191
 30
0.0
  0
VERTEX
  5
222A
  8
SAPA_PROFIL
 62
     4
 10
-101.57137863309281
 20
-59.920384710323887
 30
0.0
 42
-0.1316524975874005
  0
VERTEX
  5
222B
  8
SAPA_PROFIL
 62
     4
 10
-101.53118625422719
 20
-59.770384710327079
 30
0.0
  0
VERTEX
  5
222C
  8
SAPA_PROFIL
 62
     4
 10
-100.60503680757471
 20
-58.166246813324818
 30
0.0
 42
0.1316524975875904
  0
VERTEX
  5
222D
  8
SAPA_PROFIL
 62
     4
 10
-100.47106221135989
 20
-57.666246813323113
 30
0.0
  0
VERTEX
  5
222E
  8
SAPA_PROFIL
 62
     4
 10
-100.47106221135989
 20
-57.249999952595743
 30
0.0
 42
0.4142135623730951
  0
VERTEX
  5
222F
  8
SAPA_PROFIL
 62
     4
 10
-101.47106221135989
 20
-56.249999952595751
 30
0.0
  0
VERTEX
  5
2230
  8
SAPA_PROFIL
 62
     4
 10
-104.47106221135719
 20
-56.249999952595751
 30
0.0
 42
-0.9999996830128083
  0
VERTEX
  5
2231
  8
SAPA_PROFIL
 62
     4
 10
-104.471062211359
 20
-55.249999952595743
 30
0.0
  0
VERTEX
  5
2232
  8
SAPA_PROFIL
 62
     4
 10
-101.471062211359
 20
-55.249999952595743
 30
0.0
 42
0.4142135623730951
  0
VERTEX
  5
2233
  8
SAPA_PROFIL
 62
     4
 10
-100.471062211359
 20
-54.249999952595743
 30
0.0
  0
VERTEX
  5
2234
  8
SAPA_PROFIL
 62
     4
 10
-100.471062211359
 20
-24.74999995251116
 30
0.0
 42
0.4142135623730951
  0
VERTEX
  5
2235
  8
SAPA_PROFIL
 62
     4
 10
-101.471062211359
 20
-23.74999995251116
 30
0.0
  0
VERTEX
  5
2236
  8
SAPA_PROFIL
 62
     4
 10
-104.47106221135719
 20
-23.74999995251116
 30
0.0
 42
-0.9999999999999998
  0
VERTEX
  5
2237
  8
SAPA_PROFIL
 62
     4
 10
-104.47106221135719
 20
-22.74999995251116
 30
0.0
  0
VERTEX
  5
2238
  8
SAPA_PROFIL
 62
     4
 10
-101.471062211359
 20
-22.74999995251116
 30
0.0
 42
0.4142135623736278
  0
VERTEX
  5
2239
  8
SAPA_PROFIL
 62
     4
 10
-100.471062211359
 20
-21.74999995251116
 30
0.0
  0
VERTEX
  5
223A
  8
SAPA_PROFIL
 62
     4
 10
-100.471062211359
 20
-21.3337530917847
 30
0.0
 42
0.1316524975874375
  0
VERTEX
  5
223B
  8
SAPA_PROFIL
 62
     4
 10
-100.605036807575
 20
-20.833753091784502
 30
0.0
  0
VERTEX
  5
223C
  8
SAPA_PROFIL
 62
     4
 10
-101.53118625422719
 20
-19.22961519478255
 30
0.0
 42
-0.1316524975874
  0
VERTEX
  5
223D
  8
SAPA_PROFIL
 62
     4
 10
-101.57137863309281
 20
-19.07961519478301
 30
0.0
  0
VERTEX
  5
223E
  8
SAPA_PROFIL
 62
     4
 10
-101.5713786330921
 20
-18.899999952511699
 30
0.0
 42
-0.4142135623744271
  0
VERTEX
  5
223F
  8
SAPA_PROFIL
 62
     4
 10
-101.17137863309109
 20
-18.499999952512521
 30
0.0
  0
VERTEX
  5
2240
  8
SAPA_PROFIL
 62
     4
 10
-97.771378633090166
 20
-18.49999995251116
 30
0.0
 42
-0.4142135623724291
  0
VERTEX
  5
2241
  8
SAPA_PROFIL
 62
     4
 10
-97.371378633090529
 20
-18.899999952511699
 30
0.0
  0
VERTEX
  5
2242
  8
SAPA_PROFIL
 62
     4
 10
-97.371378633084177
 20
-19.082436022948482
 30
0.0
 42
-0.1318219888653524
  0
VERTEX
  5
2243
  8
SAPA_PROFIL
 62
     4
 10
-97.411671029621559
 20
-19.232609125420829
 30
0.0
  0
VERTEX
  5
2244
  8
SAPA_PROFIL
 62
     4
 10
-98.220354490845892
 20
-20.63113682590048
 30
0.0
  0
VERTEX
  5
2245
  8
SAPA_PROFIL
 62
     4
 10
-98.487469019058921
 20
-20.63113682590048
 30
0.0
 42
0.577350269189159
  0
VERTEX
  5
2246
  8
SAPA_PROFIL
 62
     4
 10
-98.6693343538535
 20
-20.94613682590008
 30
0.0
  0
VERTEX
  5
2247
  8
SAPA_PROFIL
 62
     4
 10
-98.467597675176393
 20
-21.295555003118739
 30
0.0
 42
0.0612687673629489
  0
VERTEX
  5
2248
  8
SAPA_PROFIL
 62
     4
 10
-98.454014304490187
 20
-21.588230436218961
 30
0.0
 42
0.2694959974285039
  0
VERTEX
  5
2249
  8
SAPA_PROFIL
 62
     4
 10
-98.260882330146231
 20
-21.819749482619478
 30
0.0
  0
VERTEX
  5
224A
  8
SAPA_PROFIL
 62
     4
 10
-95.800052139693065
 20
-22.715418423529151
 30
0.0
 42
-0.3152987888784035
  0
VERTEX
  5
224B
  8
SAPA_PROFIL
 62
     4
 10
-95.471062211356497
 20
-23.18526473392237
 30
0.0
  0
VERTEX
  5
224C
  8
SAPA_PROFIL
 62
     4
 10
-95.471062211358088
 20
-24.566764319126811
 30
0.0
 42
-0.2539676464741841
  0
VERTEX
  5
224D
  8
SAPA_PROFIL
 62
     4
 10
-95.607670500853374
 20
-24.818365489510882
 30
0.0
  0
VERTEX
  5
224E
  8
SAPA_PROFIL
 62
     4
 10
-96.014230696858334
 20
-25.082388767887519
 30
0.0
 42
-0.5862177598324623
  0
VERTEX
  5
224F
  8
SAPA_PROFIL
 62
     4
 10
-96.471062211354848
 20
-24.826646952649181
 30
0.0
  0
VERTEX
  5
2250
  8
SAPA_PROFIL
 62
     4
 10
-96.471062211347174
 20
-23.885472272139371
 30
0.0
 42
0.3152987888813165
  0
VERTEX
  5
2251
  8
SAPA_PROFIL
 62
     4
 10
-96.800052139683913
 20
-23.415625961741611
 30
0.0
  0
VERTEX
  5
2252
  8
SAPA_PROFIL
 62
     4
 10
-98.000052139695157
 20
-22.978861680617651
 30
0.0
 42
0.5205670505515651
  0
VERTEX
  5
2253
  8
SAPA_PROFIL
 62
     4
 10
-98.671062211357921
 20
-23.448707991010881
 30
0.0
  0
VERTEX
  5
2254
  8
SAPA_PROFIL
 62
     4
 10
-98.671062211357935
 20
-28.465148931679732
 30
0.0
 42
0.3702522326300203
  0
VERTEX
  5
2255
  8
SAPA_PROFIL
 62
     4
 10
-98.416602258692222
 20
-28.761672293473062
 30
0.0
 42
0.0982365330332397
  0
VERTEX
  5
2256
  8
SAPA_PROFIL
 62
     4
 10
-96.728915483697222
 20
-28.852125051683998
 30
0.0
 42
0.3735060174783164
  0
VERTEX
  5
2257
  8
SAPA_PROFIL
 62
     4
 10
-96.471062211357179
 20
-28.55510038377302
 30
0.0
  0
VERTEX
  5
2258
  8
SAPA_PROFIL
 62
     4
 10
-96.471062211356269
 20
-28.126646952650361
 30
0.0
 42
-0.5920056181162531
  0
VERTEX
  5
2259
  8
SAPA_PROFIL
 62
     4
 10
-96.009858708828347
 20
-27.873638196332958
 30
0.0
  0
VERTEX
  5
225A
  8
SAPA_PROFIL
 62
     4
 10
-95.607670500850034
 20
-28.134822272488659
 30
0.0
 42
-0.2539676464746725
  0
VERTEX
  5
225B
  8
SAPA_PROFIL
 62
     4
 10
-95.471062211354706
 20
-28.386423442872431
 30
0.0
  0
VERTEX
  5
225C
  8
SAPA_PROFIL
 62
     4
 10
-95.471062211356255
 20
-50.613576462238107
 30
0.0
 42
-0.2539676464741819
  0
VERTEX
  5
225D
  8
SAPA_PROFIL
 62
     4
 10
-95.607670500850034
 20
-50.86517763262097
 30
0.0
  0
VERTEX
  5
225E
  8
SAPA_PROFIL
 62
     4
 10
-96.009858708828389
 20
-51.12636170877478
 30
0.0
 42
-0.5920055144124249
  0
VERTEX
  5
225F
  8
SAPA_PROFIL
 62
     4
 10
-96.471062211356269
 20
-50.873352952459271
 30
0.0
  0
VERTEX
  5
2260
  8
SAPA_PROFIL
 62
     4
 10
-96.471062186081284
 20
-50.444899475169052
 30
0.0
 42
0.3735060174775405
  0
VERTEX
  5
2261
  8
SAPA_PROFIL
 62
     4
 10
-96.728915458421355
 20
-50.147874807259363
 30
0.0
 42
0.0355900683670349
  0
VERTEX
  5
2262
  8
SAPA_PROFIL
 62
     4
 10
-97.344789045221134
 20
-50.103981243227111
 30
0.0
 42
0.0624282003873116
  0
VERTEX
  5
2263
  8
SAPA_PROFIL
 62
     4
 10
-98.41660223341627
 20
-50.238327565470051
 30
0.0
 42
0.3702522326309292
  0
VERTEX
  5
2264
  8
SAPA_PROFIL
 62
     4
 10
-98.671062186081997
 20
-50.534850927263427
 30
0.0
  0
VERTEX
  5
2265
  8
SAPA_PROFIL
 62
     4
 10
-98.671062211358134
 20
-55.551291914096943
 30
0.0
 42
0.5205670505515692
  0
VERTEX
  5
2266
  8
SAPA_PROFIL
 62
     4
 10
-98.000052139695157
 20
-56.021138224490159
 30
0.0
  0
VERTEX
  5
2267
  8
SAPA_PROFIL
 62
     4
 10
-96.800052139685718
 20
-55.584373943365208
 30
0.0
 42
0.3152987888807539
  0
VERTEX
  5
2268
  8
SAPA_PROFIL
 62
     4
 10
-96.471062211348084
 20
-55.114527632969363
 30
0.0
  0
VERTEX
  5
2269
  8
SAPA_PROFIL
 62
     4
 10
-96.471062211354905
 20
-54.17335295246027
 30
0.0
 42
-0.5862175119221242
  0
VERTEX
  5
226A
  8
SAPA_PROFIL
 62
     4
 10
-96.014230885599773
 20
-53.917611021478322
 30
0.0
 42
0.0000002084758573
  0
SEQEND
  5
226B
  8
SAPA_PROFIL
 62
     4
  0
CIRCLE
  5
182B
  8
SAPA_PROFIL
 62
     2
 10
-86.831483681342036
 20
-77.317339985094605
 30
0.1
 40
0.25
  0
INSERT
  5
182C
  8
SAPA_PROFIL
  6
CONTINUOUS
 62
     2
  2
*U154
 10
0.0
 20
0.0
 30
0.0
1001
ACAD
1002
{
1000
R14_HATCH_DATA
1000
182C
1011
1.0
1021
0.0
1031
0.0
1021
0.0
1031
0.0
1011
0.0
1021
0.0
1031
0.0
1021
1.0
1031
0.0
1011
0.0
1021
0.0
1031
0.0
1021
0.0
1031
1.0
1040
0.1
1010
0.0
1020
0.0
1030
1.0
1000
SOLID
1070
     1
1070
     1
1071
        1
1071
        7
1070
     1
1070
     1
1071
        2
1040
-86.831483681342036
1040
-77.067339985094605
1040
-1.0
1040
-86.831483681342036
1040
-77.567339985094605
1040
-1.0
1071
        1
1005
182B
1070
     0
1070
     1
1040
0.0095408196840103
1071
        1
1040
-86.831483681342036
1040
-77.217339985094597
1040
0.1
1002
}
  0
POLYLINE
  5
182D
  8
SAPA_PROFIL
 62
     2
 66
     1
 10
0.0
 20
0.0
 30
0.1
 70
     1
  0
VERTEX
  5
227D
  8
SAPA_PROFIL
 62
     2
 10
-84.499950679998975
 20
-79.991719223960473
 30
0.1
  0
VERTEX
  5
227E
  8
SAPA_PROFIL
 62
     2
 10
-84.399950679998994
 20
-79.991719223960473
 30
0.1
 42
0.4142135623730959
  0
VERTEX
  5
227F
  8
SAPA_PROFIL
 62
     2
 10
-83.699950679999006
 20
-79.291719223960484
 30
0.1
  0
VERTEX
  5
2280
  8
SAPA_PROFIL
 62
     2
 10
-83.699950679999006
 20
-78.19171922396049
 30
0.1
 42
0.4142135623730961
  0
VERTEX
  5
2281
  8
SAPA_PROFIL
 62
     2
 10
-83.899950679998994
 20
-77.991719223960473
 30
0.1
  0
VERTEX
  5
2282
  8
SAPA_PROFIL
 62
     2
 10
-84.999950679998989
 20
-77.991719223960473
 30
0.1
 42
0.4142135623730956
  0
VERTEX
  5
2283
  8
SAPA_PROFIL
 62
     2
 10
-85.199950679998977
 20
-78.19171922396049
 30
0.1
  0
VERTEX
  5
2284
  8
SAPA_PROFIL
 62
     2
 10
-85.199950679998977
 20
-79.291719223960484
 30
0.1
 42
0.4142135623730946
  0
SEQEND
  5
2285
  8
SAPA_PROFIL
 62
     2
  0
POLYLINE
  5
182E
  8
SAPA_PROFIL
 62
     2
 66
     1
 10
0.0
 20
0.0
 30
0.1
  0
VERTEX
  5
2286
  8
SAPA_PROFIL
 62
     2
 10
-85.999950679998975
 20
-78.69171922396049
 30
0.1
  0
VERTEX
  5
2287
  8
SAPA_PROFIL
 62
     2
 10
-85.999950679998975
 20
-78.0439536586874
 30
0.1
 42
0.4416942457848117
  0
VERTEX
  5
2288
  8
SAPA_PROFIL
 62
     2
 10
-86.218505039626905
 20
-77.844816179194467
 30
0.1
  0
VERTEX
  5
2289
  8
SAPA_PROFIL
 62
     2
 10
-87.181396320371064
 20
-77.934532244452498
 30
0.1
 42
-0.4416942457848106
  0
VERTEX
  5
228A
  8
SAPA_PROFIL
 62
     2
 10
-87.399950679998994
 20
-77.735394764959565
 30
0.1
  0
VERTEX
  5
228B
  8
SAPA_PROFIL
 62
     2
 10
-87.399950679998994
 20
-77.185412425368028
 30
0.1
 42
-0.5445962197109637
  0
VERTEX
  5
228C
  8
SAPA_PROFIL
 62
     2
 10
-86.694271634593917
 20
-76.729675516306159
 30
0.1
  0
VERTEX
  5
228D
  8
SAPA_PROFIL
 62
     2
 10
-86.335220481308653
 20
-76.891719223960479
 30
0.1
  0
VERTEX
  5
228E
  8
SAPA_PROFIL
 62
     2
 10
-84.862261242560749
 20
-76.891719223960479
 30
0.1
 42
-0.336437923496554
  0
VERTEX
  5
228F
  8
SAPA_PROFIL
 62
     2
 10
-83.790517512945925
 20
-77.079226041802215
 30
0.1
  0
VERTEX
  5
2290
  8
SAPA_PROFIL
 62
     2
 10
-83.228653877122184
 20
-77.079226041802215
 30
0.1
 42
0.1919812372740513
  0
VERTEX
  5
2291
  8
SAPA_PROFIL
 62
     2
 10
-82.884666829522175
 20
-76.942093663784959
 30
0.1
  0
VERTEX
  5
2292
  8
SAPA_PROFIL
 62
     2
 10
-82.492799899118864
 20
-76.57061618749492
 30
0.1
 42
0.9249153594910841
  0
VERTEX
  5
2293
  8
SAPA_PROFIL
 62
     2
 10
-84.158577827641082
 20
-74.336921372415617
 30
0.1
  0
VERTEX
  5
2294
  8
SAPA_PROFIL
 62
     2
 10
-85.243122767309856
 20
-74.870469427667246
 30
0.1
 42
-0.4184584792862776
  0
VERTEX
  5
2295
  8
SAPA_PROFIL
 62
     2
 10
-85.829825083881275
 20
-74.466717307247535
 30
0.1
 42
-0.3891337693453737
  0
VERTEX
  5
2296
  8
SAPA_PROFIL
 62
     2
 10
-85.684658192340805
 20
-74.238627999304924
 30
0.1
  0
VERTEX
  5
2297
  8
SAPA_PROFIL
 62
     2
 10
-84.59876210177579
 20
-73.675722946817046
 30
0.1
 42
-0.8864286961344978
  0
VERTEX
  5
2298
  8
SAPA_PROFIL
 62
     2
 10
-81.926982199839244
 20
-77.034921702337769
 30
0.1
  0
VERTEX
  5
2299
  8
SAPA_PROFIL
 62
     2
 10
-81.496423061957984
 20
-77.150289675626865
 30
0.1
 42
-0.9163311740174273
  0
VERTEX
  5
229A
  8
SAPA_PROFIL
 62
     2
 10
-81.634812977098065
 20
-77.935137885379206
 30
0.1
  0
VERTEX
  5
229B
  8
SAPA_PROFIL
 62
     2
 10
-82.682519531449444
 20
-77.843475439171655
 30
0.1
 42
0.4400105308918339
  0
VERTEX
  5
229C
  8
SAPA_PROFIL
 62
     2
 10
-82.899950679998994
 20
-78.042714378790009
 30
0.1
  0
VERTEX
  5
229D
  8
SAPA_PROFIL
 62
     2
 10
-82.899950679998994
 20
-78.891719223960479
 30
0.1
  0
VERTEX
  5
229E
  8
SAPA_PROFIL
 62
     2
 10
-82.499950679998989
 20
-78.891719223960479
 30
0.1
 42
-0.569380983920789
  0
VERTEX
  5
229F
  8
SAPA_PROFIL
 62
     2
 10
-82.324396634435416
 20
-79.187535595663135
 30
0.1
  0
VERTEX
  5
22A0
  8
SAPA_PROFIL
 62
     2
 10
-83.029362234334457
 20
-80.479168339068437
 30
0.1
 42
-0.274387813087548
  0
VERTEX
  5
22A1
  8
SAPA_PROFIL
 62
     2
 10
-83.556024371025217
 20
-80.791719223960484
 30
0.1
  0
VERTEX
  5
22A2
  8
SAPA_PROFIL
 62
     2
 10
-85.343876988972767
 20
-80.791719223960484
 30
0.1
 42
-0.274387813087548
  0
VERTEX
  5
22A3
  8
SAPA_PROFIL
 62
     2
 10
-85.870539125663527
 20
-80.479168339068437
 30
0.1
  0
VERTEX
  5
22A4
  8
SAPA_PROFIL
 62
     2
 10
-86.575504725562567
 20
-79.187535595663135
 30
0.1
 42
-0.5693809839207892
  0
VERTEX
  5
22A5
  8
SAPA_PROFIL
 62
     2
 10
-86.399950679998994
 20
-78.891719223960479
 30
0.1
  0
VERTEX
  5
22A6
  8
SAPA_PROFIL
 62
     2
 10
-85.999950679998975
 20
-78.891719223960479
 30
0.1
  0
VERTEX
  5
22A7
  8
SAPA_PROFIL
 62
     2
 10
-85.999950679998975
 20
-78.042714378790009
 30
0.1
  0
SEQEND
  5
22A8
  8
SAPA_PROFIL
 62
     2
  0
POLYLINE
  5
182F
  8
SAPA_PROFIL
 66
     1
 10
0.0
 20
0.0
 30
0.0
 70
     1
  0
VERTEX
  5
22A9
  8
SAPA_PROFIL
 10
-81.453514569157932
 20
-18.499999957005059
 30
0.0
 42
-0.2134217652834387
  0
VERTEX
  5
22AA
  8
SAPA_PROFIL
 10
-81.67712136690804
 20
-18.399999957004962
 30
0.0
 42
0.7625858545243219
  0
VERTEX
  5
22AB
  8
SAPA_PROFIL
 10
-82.007447447925074
 20
-18.584579159202431
 30
0.0
  0
VERTEX
  5
22AC
  8
SAPA_PROFIL
 10
-81.949373810935981
 20
-18.775962159196151
 30
0.0
  0
VERTEX
  5
22AD
  8
SAPA_PROFIL
 10
-80.864809363964255
 20
-20.66180585105721
 30
0.0
  0
VERTEX
  5
22AE
  8
SAPA_PROFIL
 10
-80.543051635745954
 20
-20.651244484830229
 30
0.0
 42
-0.5773502691897439
  0
VERTEX
  5
22AF
  8
SAPA_PROFIL
 10
-80.360097895635818
 20
-20.94540078508507
 30
0.0
  0
VERTEX
  5
22B0
  8
SAPA_PROFIL
 10
-80.512231806744552
 20
-21.230083068316699
 30
0.0
 42
-0.2216946626430187
  0
VERTEX
  5
22B1
  8
SAPA_PROFIL
 10
-81.053111638221367
 20
-21.635891973471502
 30
0.0
  0
VERTEX
  5
22B2
  8
SAPA_PROFIL
 10
-82.866342108879579
 20
-22.017338569599222
 30
0.0
 42
-0.4769755326981641
  0
VERTEX
  5
22B3
  8
SAPA_PROFIL
 10
-83.237998983825491
 20
-21.71508574509275
 30
0.0
  0
VERTEX
  5
22B4
  8
SAPA_PROFIL
 10
-83.237915375941839
 20
-20.211984664330739
 30
0.0
  0
VERTEX
  5
22B5
  8
SAPA_PROFIL
 10
-83.190069625943337
 20
-20.19746625508364
 30
0.0
 42
0.4142135623730944
  0
VERTEX
  5
22B6
  8
SAPA_PROFIL
 10
-82.990105581435955
 20
-19.823281299607832
 30
0.0
  0
VERTEX
  5
22B7
  8
SAPA_PROFIL
 10
-83.499999999999417
 20
-18.50404829784642
 30
0.0
  0
VERTEX
  5
22B8
  8
SAPA_PROFIL
 10
-83.499999999999517
 20
1.2314784396510841
 30
0.0
 42
0.38217120901707
  0
VERTEX
  5
22B9
  8
SAPA_PROFIL
 10
-83.766880215905246
 20
1.5296446347530079
 30
0.0
  0
VERTEX
  5
22BA
  8
SAPA_PROFIL
 10
-90.344850999999466
 20
2.0554841697180009
 30
0.0
 42
0.4469990000000265
  0
VERTEX
  5
22BB
  8
SAPA_PROFIL
 10
-90.900050999999593
 20
1.558540169717952
 30
0.0
  0
VERTEX
  5
22BC
  8
SAPA_PROFIL
 10
-90.900050999999465
 20
-0.1999999570050459
 30
0.0
 42
-0.4142139999999868
  0
VERTEX
  5
22BD
  8
SAPA_PROFIL
 10
-91.900050999999408
 20
-1.199999957005017
 30
0.0
  0
VERTEX
  5
22BE
  8
SAPA_PROFIL
 10
-92.167594999999523
 20
-1.1999999570050599
 30
0.0
 42
-0.2896899999999956
  0
VERTEX
  5
22BF
  8
SAPA_PROFIL
 10
-93.071102999999511
 20
-0.6285719570049846
 30
0.0
 42
-0.5507599999999603
  0
VERTEX
  5
22C0
  8
SAPA_PROFIL
 10
-92.800050999999456
 20
-0.1999999570050459
 30
0.0
  0
VERTEX
  5
22C1
  8
SAPA_PROFIL
 10
-92.500050999999516
 20
-0.1999999570050495
 30
0.0
 42
0.4142140000001095
  0
VERTEX
  5
22C2
  8
SAPA_PROFIL
 10
-92.300050999999414
 20
0.0000000429949996
 30
0.0
  0
VERTEX
  5
22C3
  8
SAPA_PROFIL
 10
-92.300050999999485
 20
1.100000042994965
 30
0.0
 42
0.4142139999999826
  0
VERTEX
  5
22C4
  8
SAPA_PROFIL
 10
-93.300050999999456
 20
2.1000000429949051
 30
0.0
  0
VERTEX
  5
22C5
  8
SAPA_PROFIL
 10
-95.59999999999954
 20
2.1000000429949539
 30
0.0
 42
0.4142139999999877
  0
VERTEX
  5
22C6
  8
SAPA_PROFIL
 10
-96.599999999999525
 20
1.100000042995011
 30
0.0
  0
VERTEX
  5
22C7
  8
SAPA_PROFIL
 10
-96.599999999999525
 20
0.0000000429949427
 30
0.0
 42
0.4142139999999481
  0
VERTEX
  5
22C8
  8
SAPA_PROFIL
 10
-96.399999999999423
 20
-0.1999999570050104
 30
0.0
  0
VERTEX
  5
22C9
  8
SAPA_PROFIL
 10
-96.100050999999524
 20
-0.199999957005053
 30
0.0
 42
-0.5507600000000124
  0
VERTEX
  5
22CA
  8
SAPA_PROFIL
 10
-95.828997999999487
 20
-0.6285719570050521
 30
0.0
 42
-0.2896899999999978
  0
VERTEX
  5
22CB
  8
SAPA_PROFIL
 10
-96.732505999999404
 20
-1.1999999570050739
 30
0.0
  0
VERTEX
  5
22CC
  8
SAPA_PROFIL
 10
-96.999999999999531
 20
-1.199999957005049
 30
0.0
 42
-0.4142140000000002
  0
VERTEX
  5
22CD
  8
SAPA_PROFIL
 10
-97.999999999999517
 20
-0.1999999570050352
 30
0.0
  0
VERTEX
  5
22CE
  8
SAPA_PROFIL
 10
-97.999999999999545
 20
1.5000000429949421
 30
0.0
 42
-0.4142139999999887
  0
VERTEX
  5
22CF
  8
SAPA_PROFIL
 10
-95.999999999999488
 20
3.5000000429949991
 30
0.0
  0
VERTEX
  5
22D0
  8
SAPA_PROFIL
 10
-31.199999999999559
 20
3.5000000429949418
 30
0.0
 42
-0.4142135623730847
  0
VERTEX
  5
22D1
  8
SAPA_PROFIL
 10
-30.999999999999549
 20
3.3000000429949461
 30
0.0
  0
VERTEX
  5
22D2
  8
SAPA_PROFIL
 10
-30.99999999999957
 20
0.6113830429949818
 30
0.0
 42
-0.2596810000000924
  0
VERTEX
  5
22D3
  8
SAPA_PROFIL
 10
-31.09469299999958
 20
0.4413520429949589
 30
0.0
  0
VERTEX
  5
22D4
  8
SAPA_PROFIL
 10
-32.542039999999503
 20
-0.4550469570050506
 30
0.0
 42
-0.5877030000000333
  0
VERTEX
  5
22D5
  8
SAPA_PROFIL
 10
-32.999999999999581
 20
-0.1999999570049891
 30
0.0
  0
VERTEX
  5
22D6
  8
SAPA_PROFIL
 10
-32.999999999999567
 20
1.2000000429949811
 30
0.0
 42
0.4142139999999517
  0
VERTEX
  5
22D7
  8
SAPA_PROFIL
 10
-33.299999999999493
 20
1.500000042994964
 30
0.0
  0
VERTEX
  5
22D8
  8
SAPA_PROFIL
 10
-35.699999999999498
 20
1.5000000429949321
 30
0.0
 42
0.4142140000000525
  0
VERTEX
  5
22D9
  8
SAPA_PROFIL
 10
-35.99999999999951
 20
1.200000042994988
 30
0.0
  0
VERTEX
  5
22DA
  8
SAPA_PROFIL
 10
-35.999999999999567
 20
-16.199999957004991
 30
0.0
 42
0.4142140000001183
  0
VERTEX
  5
22DB
  8
SAPA_PROFIL
 10
-35.69999999999947
 20
-16.49999995700518
 30
0.0
  0
VERTEX
  5
22DC
  8
SAPA_PROFIL
 10
-33.299999999999471
 20
-16.49999995700507
 30
0.0
 42
0.4142140000000144
  0
VERTEX
  5
22DD
  8
SAPA_PROFIL
 10
-32.999999999999623
 20
-16.199999957005051
 30
0.0
  0
VERTEX
  5
22DE
  8
SAPA_PROFIL
 10
-32.999999999999567
 20
-14.799999957005021
 30
0.0
 42
-0.5920054160710128
  0
VERTEX
  5
22DF
  8
SAPA_PROFIL
 10
-32.538796661884668
 20
-14.546991444247279
 30
0.0
  0
VERTEX
  5
22E0
  8
SAPA_PROFIL
 10
-31.292531005671691
 20
-15.3410444740689
 30
0.0
 42
-0.2562769852931535
  0
VERTEX
  5
22E1
  8
SAPA_PROFIL
 10
-31.19999999999958
 20
-15.50971698296752
 30
0.0
  0
VERTEX
  5
22E2
  8
SAPA_PROFIL
 10
-31.199999999999569
 20
-18.504048297845902
 30
0.0
  0
VERTEX
  5
22E3
  8
SAPA_PROFIL
 10
-31.709894418563241
 20
-19.8232812996078
 30
0.0
 42
0.4142135623730948
  0
VERTEX
  5
22E4
  8
SAPA_PROFIL
 10
-31.509930374055848
 20
-20.197466255083619
 30
0.0
  0
VERTEX
  5
22E5
  8
SAPA_PROFIL
 10
-31.462084624057361
 20
-20.211984664330721
 30
0.0
  0
VERTEX
  5
22E6
  8
SAPA_PROFIL
 10
-31.46200101617373
 20
-21.715085745092729
 30
0.0
 42
-0.4769755326981646
  0
VERTEX
  5
22E7
  8
SAPA_PROFIL
 10
-31.833657891119579
 20
-22.0173385695992
 30
0.0
  0
VERTEX
  5
22E8
  8
SAPA_PROFIL
 10
-33.64688836177784
 20
-21.63589197347147
 30
0.0
 42
-0.2216946626430189
  0
VERTEX
  5
22E9
  8
SAPA_PROFIL
 10
-34.18776819325462
 20
-21.230083068316681
 30
0.0
  0
VERTEX
  5
22EA
  8
SAPA_PROFIL
 10
-34.339902104363397
 20
-20.945400785085031
 30
0.0
 42
-0.5773502691897443
  0
VERTEX
  5
22EB
  8
SAPA_PROFIL
 10
-34.156948364253203
 20
-20.651244484830219
 30
0.0
  0
VERTEX
  5
22EC
  8
SAPA_PROFIL
 10
-33.835190636034959
 20
-20.661805851057188
 30
0.0
  0
VERTEX
  5
22ED
  8
SAPA_PROFIL
 10
-32.750626189063219
 20
-18.77596215919613
 30
0.0
  0
VERTEX
  5
22EE
  8
SAPA_PROFIL
 10
-32.69255255207414
 20
-18.58457915920242
 30
0.0
 42
0.7625858545243274
  0
VERTEX
  5
22EF
  8
SAPA_PROFIL
 10
-33.022878633091132
 20
-18.399999957004908
 30
0.0
 42
-0.2134217652834391
  0
VERTEX
  5
22F0
  8
SAPA_PROFIL
 10
-33.246485430841247
 20
-18.499999957005031
 30
0.0
  0
VERTEX
  5
22F1
  8
SAPA_PROFIL
 10
-37.099271835341277
 20
-18.499999957005059
 30
0.0
 42
0.4142135623729077
  0
VERTEX
  5
22F2
  8
SAPA_PROFIL
 10
-37.399271835341168
 20
-18.799999957005131
 30
0.0
  0
VERTEX
  5
22F3
  8
SAPA_PROFIL
 10
-37.399271835341231
 20
-19.099999957005309
 30
0.0
  0
VERTEX
  5
22F4
  8
SAPA_PROFIL
 10
-36.475511404637949
 20
-20.699999957004941
 30
0.0
 42
-0.5773502691897674
  0
VERTEX
  5
22F5
  8
SAPA_PROFIL
 10
-36.648716485394708
 20
-20.99999995700507
 30
0.0
  0
VERTEX
  5
22F6
  8
SAPA_PROFIL
 10
-38.034357131449859
 20
-20.99999995700507
 30
0.0
 42
-0.2679491924311062
  0
VERTEX
  5
22F7
  8
SAPA_PROFIL
 10
-38.9003825352343
 20
-20.499999957005251
 30
0.0
  0
VERTEX
  5
22F8
  8
SAPA_PROFIL
 10
-39.910745506316367
 20
-18.749999957005009
 30
0.0
 42
0.267949192431108
  0
VERTEX
  5
22F9
  8
SAPA_PROFIL
 10
-40.343758208208577
 20
-18.499999957005059
 30
0.0
  0
VERTEX
  5
22FA
  8
SAPA_PROFIL
 10
-74.356241791790424
 20
-18.499999957005048
 30
0.0
 42
0.2679491924311069
  0
VERTEX
  5
22FB
  8
SAPA_PROFIL
 10
-74.789254493682648
 20
-18.749999957005031
 30
0.0
  0
VERTEX
  5
22FC
  8
SAPA_PROFIL
 10
-75.799617464764736
 20
-20.499999957005169
 30
0.0
 42
-0.2679491924311082
  0
VERTEX
  5
22FD
  8
SAPA_PROFIL
 10
-76.665642868549156
 20
-20.999999957005048
 30
0.0
  0
VERTEX
  5
22FE
  8
SAPA_PROFIL
 10
-78.051283514604251
 20
-20.999999957005059
 30
0.0
 42
-0.5773502691897738
  0
VERTEX
  5
22FF
  8
SAPA_PROFIL
 10
-78.224488595361038
 20
-20.699999957004991
 30
0.0
  0
VERTEX
  5
2300
  8
SAPA_PROFIL
 10
-77.300728164657784
 20
-19.099999957005309
 30
0.0
  0
VERTEX
  5
2301
  8
SAPA_PROFIL
 10
-77.300728164657784
 20
-18.799999957005131
 30
0.0
 42
0.4142135623729009
  0
VERTEX
  5
2302
  8
SAPA_PROFIL
 10
-77.600728164657653
 20
-18.499999957004992
 30
0.0
  0
SEQEND
  5
2303
  8
SAPA_PROFIL
  0
POLYLINE
  5
1830
  8
SAPA_PROFIL
 66
     1
 10
0.0
 20
0.0
 30
0.0
 70
     1
  0
VERTEX
  5
2304
  8
SAPA_PROFIL
 10
-79.799999999999557
 20
-16.399999957005029
 30
0.0
 42
-0.4142135623730951
  0
VERTEX
  5
2305
  8
SAPA_PROFIL
 10
-79.59999999999954
 20
-16.199999957004991
 30
0.0
  0
VERTEX
  5
2306
  8
SAPA_PROFIL
 10
-77.999999999999517
 20
-16.199999957005051
 30
0.0
 42
-0.4142135623730951
  0
VERTEX
  5
2307
  8
SAPA_PROFIL
 10
-77.799999999999471
 20
-16.399999957005029
 30
0.0
  0
VERTEX
  5
2308
  8
SAPA_PROFIL
 10
-77.799999999999471
 20
-16.700000040878361
 30
0.0
  0
VERTEX
  5
2309
  8
SAPA_PROFIL
 10
-41.699999999999498
 20
-16.700000040878368
 30
0.0
  0
VERTEX
  5
230A
  8
SAPA_PROFIL
 10
-41.69999999999952
 20
-16.39999995700504
 30
0.0
 42
-0.4142135623730951
  0
VERTEX
  5
230B
  8
SAPA_PROFIL
 10
-41.49999999999951
 20
-16.199999957004991
 30
0.0
  0
VERTEX
  5
230C
  8
SAPA_PROFIL
 10
-39.899999999999487
 20
-16.199999957005051
 30
0.0
 42
-0.4142135623730951
  0
VERTEX
  5
230D
  8
SAPA_PROFIL
 10
-39.699999999999498
 20
-16.39999995700504
 30
0.0
  0
VERTEX
  5
230E
  8
SAPA_PROFIL
 10
-39.699999999999498
 20
-16.700000040878368
 30
0.0
  0
VERTEX
  5
230F
  8
SAPA_PROFIL
 10
-37.99999999999951
 20
-16.700000040878319
 30
0.0
 42
0.4142135623730951
  0
VERTEX
  5
2310
  8
SAPA_PROFIL
 10
-37.699999999999498
 20
-16.400000040878361
 30
0.0
  0
VERTEX
  5
2311
  8
SAPA_PROFIL
 10
-37.699999999999527
 20
1.2000000429949811
 30
0.0
 42
0.414213562373095
  0
VERTEX
  5
2312
  8
SAPA_PROFIL
 10
-37.99999999999951
 20
1.5000000429949349
 30
0.0
  0
VERTEX
  5
2313
  8
SAPA_PROFIL
 10
-39.699999999999498
 20
1.5000000429949349
 30
0.0
  0
VERTEX
  5
2314
  8
SAPA_PROFIL
 10
-39.699999999999498
 20
1.400000042994912
 30
0.0
 42
-0.4142135623730951
  0
VERTEX
  5
2315
  8
SAPA_PROFIL
 10
-39.899999999999487
 20
1.2000000429949811
 30
0.0
  0
VERTEX
  5
2316
  8
SAPA_PROFIL
 10
-41.49999999999951
 20
1.20000004299492
 30
0.0
 42
-0.4142135623730951
  0
VERTEX
  5
2317
  8
SAPA_PROFIL
 10
-41.699999999999498
 20
1.400000042994912
 30
0.0
  0
VERTEX
  5
2318
  8
SAPA_PROFIL
 10
-41.699999999999498
 20
1.5000000429949349
 30
0.0
  0
VERTEX
  5
2319
  8
SAPA_PROFIL
 10
-77.799999999999471
 20
1.5000000429949401
 30
0.0
  0
VERTEX
  5
231A
  8
SAPA_PROFIL
 10
-77.799999999999528
 20
1.400000042994918
 30
0.0
 42
-0.4142135623730951
  0
VERTEX
  5
231B
  8
SAPA_PROFIL
 10
-77.999999999999517
 20
1.200000042994986
 30
0.0
  0
VERTEX
  5
231C
  8
SAPA_PROFIL
 10
-79.59999999999954
 20
1.200000042994936
 30
0.0
 42
-0.4142135623730898
  0
VERTEX
  5
231D
  8
SAPA_PROFIL
 10
-79.799999999999471
 20
1.400000042994918
 30
0.0
  0
VERTEX
  5
231E
  8
SAPA_PROFIL
 10
-79.799999999999471
 20
1.5000000429949401
 30
0.0
  0
VERTEX
  5
231F
  8
SAPA_PROFIL
 10
-81.499999999999517
 20
1.5000000429949969
 30
0.0
 42
0.4142135623730953
  0
VERTEX
  5
2320
  8
SAPA_PROFIL
 10
-81.799999999999486
 20
1.200000042994986
 30
0.0
  0
VERTEX
  5
2321
  8
SAPA_PROFIL
 10
-81.799999999999528
 20
-16.40000004087835
 30
0.0
 42
0.4142135623730951
  0
VERTEX
  5
2322
  8
SAPA_PROFIL
 10
-81.499999999999517
 20
-16.700000040878361
 30
0.0
  0
VERTEX
  5
2323
  8
SAPA_PROFIL
 10
-79.799999999999471
 20
-16.700000040878361
 30
0.0
  0
SEQEND
  5
2324
  8
SAPA_PROFIL
  0
POLYLINE
  5
1831
  8
SAPA_PROFIL
 66
     1
 10
0.0
 20
0.0
 30
0.0
 70
     1
  0
VERTEX
  5
2325
  8
SAPA_PROFIL
 10
-33.246485430841247
 20
-60.499999957005031
 30
0.0
  0
VERTEX
  5
2326
  8
SAPA_PROFIL
 10
-37.099271835341298
 20
-60.499999957005031
 30
0.0
 42
-0.414213562372901
  0
VERTEX
  5
2327
  8
SAPA_PROFIL
 10
-37.399271835341168
 20
-60.199999957004962
 30
0.0
  0
VERTEX
  5
2328
  8
SAPA_PROFIL
 10
-37.399271835341231
 20
-59.899999957004781
 30
0.0
  0
VERTEX
  5
2329
  8
SAPA_PROFIL
 10
-36.475511404637949
 20
-58.299999957005113
 30
0.0
 42
0.5773502691897976
  0
VERTEX
  5
232A
  8
SAPA_PROFIL
 10
-36.648716485394708
 20
-57.999999957005031
 30
0.0
  0
VERTEX
  5
232B
  8
SAPA_PROFIL
 10
-38.034357131449859
 20
-57.999999957005031
 30
0.0
 42
0.2679491924311222
  0
VERTEX
  5
232C
  8
SAPA_PROFIL
 10
-38.900382535234279
 20
-58.499999957004889
 30
0.0
  0
VERTEX
  5
232D
  8
SAPA_PROFIL
 10
-39.910745506316367
 20
-60.249999957005059
 30
0.0
 42
-0.2679491924310994
  0
VERTEX
  5
232E
  8
SAPA_PROFIL
 10
-40.343758208208577
 20
-60.499999957005059
 30
0.0
  0
VERTEX
  5
232F
  8
SAPA_PROFIL
 10
-74.356241791790481
 20
-60.499999957005031
 30
0.0
 42
-0.2679491924311005
  0
VERTEX
  5
2330
  8
SAPA_PROFIL
 10
-74.789254493682691
 20
-60.249999957005059
 30
0.0
  0
VERTEX
  5
2331
  8
SAPA_PROFIL
 10
-75.799617464764751
 20
-58.49999995700486
 30
0.0
 42
0.2679491924311199
  0
VERTEX
  5
2332
  8
SAPA_PROFIL
 10
-76.665642868549199
 20
-57.999999957005031
 30
0.0
  0
VERTEX
  5
2333
  8
SAPA_PROFIL
 10
-78.051283514604322
 20
-57.999999957005024
 30
0.0
 42
0.5773502691897738
  0
VERTEX
  5
2334
  8
SAPA_PROFIL
 10
-78.224488595361109
 20
-58.299999957005099
 30
0.0
  0
VERTEX
  5
2335
  8
SAPA_PROFIL
 10
-77.300728164657798
 20
-59.899999957004781
 30
0.0
  0
VERTEX
  5
2336
  8
SAPA_PROFIL
 10
-77.300728164657798
 20
-60.199999957004962
 30
0.0
 42
-0.414213562372901
  0
VERTEX
  5
2337
  8
SAPA_PROFIL
 10
-77.600728164657724
 20
-60.499999957005087
 30
0.0
  0
VERTEX
  5
2338
  8
SAPA_PROFIL
 10
-81.453514569157804
 20
-60.499999957005031
 30
0.0
 42
0.2134217652834299
  0
VERTEX
  5
2339
  8
SAPA_PROFIL
 10
-81.677121366907883
 20
-60.599999957005153
 30
0.0
 42
-0.7625858545243327
  0
VERTEX
  5
233A
  8
SAPA_PROFIL
 10
-82.007447447924918
 20
-60.415420754807677
 30
0.0
  0
VERTEX
  5
233B
  8
SAPA_PROFIL
 10
-81.949373810935825
 20
-60.22403775481397
 30
0.0
  0
VERTEX
  5
233C
  8
SAPA_PROFIL
 10
-80.864809363964085
 20
-58.338194062952901
 30
0.0
  0
VERTEX
  5
233D
  8
SAPA_PROFIL
 10
-80.543051635745798
 20
-58.348755429179889
 30
0.0
 42
0.5773502691897466
  0
VERTEX
  5
233E
  8
SAPA_PROFIL
 10
-80.360097895635661
 20
-58.054599128925048
 30
0.0
  0
VERTEX
  5
233F
  8
SAPA_PROFIL
 10
-80.512231806744396
 20
-57.769916845693402
 30
0.0
 42
0.221694662643014
  0
VERTEX
  5
2340
  8
SAPA_PROFIL
 10
-81.053111638221196
 20
-57.364107940538617
 30
0.0
  0
VERTEX
  5
2341
  8
SAPA_PROFIL
 10
-82.866342108879437
 20
-56.9826613444109
 30
0.0
 42
0.4769755326981641
  0
VERTEX
  5
2342
  8
SAPA_PROFIL
 10
-83.237998983825335
 20
-57.284914168917368
 30
0.0
  0
VERTEX
  5
2343
  8
SAPA_PROFIL
 10
-83.237915375941682
 20
-58.788015249679368
 30
0.0
  0
VERTEX
  5
2344
  8
SAPA_PROFIL
 10
-83.190069625943195
 20
-58.802533658926478
 30
0.0
 42
-0.4142135623730878
  0
VERTEX
  5
2345
  8
SAPA_PROFIL
 10
-82.990105581435799
 20
-59.17671861440229
 30
0.0
  0
VERTEX
  5
2346
  8
SAPA_PROFIL
 10
-83.499999999999474
 20
-60.495951616164099
 30
0.0
  0
VERTEX
  5
2347
  8
SAPA_PROFIL
 10
-83.499999999999488
 20
-71.899999873157469
 30
0.0
 42
-0.4142135623730847
  0
VERTEX
  5
2348
  8
SAPA_PROFIL
 10
-83.699999999999534
 20
-72.099999873157472
 30
0.0
  0
VERTEX
  5
2349
  8
SAPA_PROFIL
 10
-85.299999997930087
 20
-72.099999873157458
 30
0.0
 42
0.4142135623730951
  0
VERTEX
  5
234A
  8
SAPA_PROFIL
 10
-85.499999997930104
 20
-72.299999873157475
 30
0.0
  0
VERTEX
  5
234B
  8
SAPA_PROFIL
 10
-85.499999997930104
 20
-72.799999873157958
 30
0.0
 42
0.4142135623730951
  0
VERTEX
  5
234C
  8
SAPA_PROFIL
 10
-84.499999997930473
 20
-73.799999873157532
 30
0.0
  0
VERTEX
  5
234D
  8
SAPA_PROFIL
 10
-76.999999250855765
 20
-73.799999873157532
 30
0.0
 42
-0.4142135623730951
  0
VERTEX
  5
234E
  8
SAPA_PROFIL
 10
-75.999999997930175
 20
-74.799999126083122
 30
0.0
  0
VERTEX
  5
234F
  8
SAPA_PROFIL
 10
-75.999999997930033
 20
-80.499999957005031
 30
0.0
 42
0.4142135623730951
  0
VERTEX
  5
2350
  8
SAPA_PROFIL
 10
-73.999999997930033
 20
-82.499999957005045
 30
0.0
  0
VERTEX
  5
2351
  8
SAPA_PROFIL
 10
-9.4999999999995577
 20
-82.499999957005045
 30
0.0
 42
0.4142139999999795
  0
VERTEX
  5
2352
  8
SAPA_PROFIL
 10
-8.9999999999995577
 20
-81.999999957005031
 30
0.0
  0
VERTEX
  5
2353
  8
SAPA_PROFIL
 10
-8.9999999999995701
 20
-78.299999957005014
 30
0.0
 42
0.414213999999917
  0
VERTEX
  5
2354
  8
SAPA_PROFIL
 10
-9.299999999999498
 20
-77.999999957005031
 30
0.0
  0
VERTEX
  5
2355
  8
SAPA_PROFIL
 10
-10.067544999999541
 20
-77.999999957005031
 30
0.0
 42
0.2896899999999867
  0
VERTEX
  5
2356
  8
SAPA_PROFIL
 10
-10.9710529999995
 20
-78.571427957005028
 30
0.0
 42
0.5507600000000635
  0
VERTEX
  5
2357
  8
SAPA_PROFIL
 10
-10.699999999999539
 20
-78.999999957005031
 30
0.0
  0
VERTEX
  5
2358
  8
SAPA_PROFIL
 10
-10.499999999999559
 20
-78.999999957005031
 30
0.0
 42
-0.4142140000000558
  0
VERTEX
  5
2359
  8
SAPA_PROFIL
 10
-10.199999999999489
 20
-79.299999957004999
 30
0.0
  0
VERTEX
  5
235A
  8
SAPA_PROFIL
 10
-10.19999999999953
 20
-80.799999957005014
 30
0.0
 42
-0.4142139999999795
  0
VERTEX
  5
235B
  8
SAPA_PROFIL
 10
-10.699999999999539
 20
-81.299999957004985
 30
0.0
  0
VERTEX
  5
235C
  8
SAPA_PROFIL
 10
-13.999999999999581
 20
-81.299999957005014
 30
0.0
 42
-0.4142140000000003
  0
VERTEX
  5
235D
  8
SAPA_PROFIL
 10
-14.499999999999631
 20
-80.799999957005014
 30
0.0
  0
VERTEX
  5
235E
  8
SAPA_PROFIL
 10
-14.499999999999581
 20
-79.299999957005014
 30
0.0
 42
-0.4142140000000143
  0
VERTEX
  5
235F
  8
SAPA_PROFIL
 10
-14.19999999999952
 20
-78.999999957004988
 30
0.0
  0
VERTEX
  5
2360
  8
SAPA_PROFIL
 10
-13.999999999999581
 20
-78.999999957005031
 30
0.0
 42
0.5507599999999967
  0
VERTEX
  5
2361
  8
SAPA_PROFIL
 10
-13.72894799999959
 20
-78.571427957005014
 30
0.0
 42
0.2896899999999865
  0
VERTEX
  5
2362
  8
SAPA_PROFIL
 10
-14.6324559999995
 20
-77.999999957005031
 30
0.0
  0
VERTEX
  5
2363
  8
SAPA_PROFIL
 10
-15.629926999999491
 20
-77.999999957005031
 30
0.0
 42
0.0436609999999814
  0
VERTEX
  5
2364
  8
SAPA_PROFIL
 10
-15.71675199999947
 20
-78.007595957005037
 30
0.0
  0
VERTEX
  5
2365
  8
SAPA_PROFIL
 10
-17.286823999999498
 20
-78.284441957004987
 30
0.0
 42
0.839099999999982
  0
VERTEX
  5
2366
  8
SAPA_PROFIL
 10
-17.286823999999498
 20
-79.269249957005044
 30
0.0
  0
VERTEX
  5
2367
  8
SAPA_PROFIL
 10
-16.113175999999498
 20
-79.476194957005021
 30
0.0
 42
-0.3639700000000465
  0
VERTEX
  5
2368
  8
SAPA_PROFIL
 10
-15.6999999999995
 20
-79.968598957005057
 30
0.0
  0
VERTEX
  5
2369
  8
SAPA_PROFIL
 10
-15.6999999999995
 20
-80.779999957004989
 30
0.0
 42
-0.4373279999999983
  0
VERTEX
  5
236A
  8
SAPA_PROFIL
 10
-16.239094999999509
 20
-81.278468957005046
 30
0.0
  0
VERTEX
  5
236B
  8
SAPA_PROFIL
 10
-30.7121532734159
 20
-80.711670470609164
 30
0.0
 42
-0.4023941355297885
  0
VERTEX
  5
236C
  8
SAPA_PROFIL
 10
-30.99999999999962
 20
-80.411916741782846
 30
0.0
  0
VERTEX
  5
236D
  8
SAPA_PROFIL
 10
-30.999999999999599
 20
-79.61138295700502
 30
0.0
 42
0.2596810000001162
  0
VERTEX
  5
236E
  8
SAPA_PROFIL
 10
-31.094692999999602
 20
-79.441351957005025
 30
0.0
  0
VERTEX
  5
236F
  8
SAPA_PROFIL
 10
-32.542039999999503
 20
-78.544952957005023
 30
0.0
 42
0.5877030000000189
  0
VERTEX
  5
2370
  8
SAPA_PROFIL
 10
-32.999999999999602
 20
-78.799999957005042
 30
0.0
  0
VERTEX
  5
2371
  8
SAPA_PROFIL
 10
-32.999999999999602
 20
-80.199999957005005
 30
0.0
 42
-0.4142139999999518
  0
VERTEX
  5
2372
  8
SAPA_PROFIL
 10
-33.299999999999493
 20
-80.499999957005016
 30
0.0
  0
VERTEX
  5
2373
  8
SAPA_PROFIL
 10
-35.699999999999498
 20
-80.499999957005031
 30
0.0
 42
-0.4142140000000629
  0
VERTEX
  5
2374
  8
SAPA_PROFIL
 10
-35.999999999999538
 20
-80.199999957005005
 30
0.0
  0
VERTEX
  5
2375
  8
SAPA_PROFIL
 10
-35.999999999999567
 20
-62.799999957005042
 30
0.0
 42
-0.4142140000001044
  0
VERTEX
  5
2376
  8
SAPA_PROFIL
 10
-35.699999999999498
 20
-62.499999957004952
 30
0.0
  0
VERTEX
  5
2377
  8
SAPA_PROFIL
 10
-33.299999999999493
 20
-62.499999957005031
 30
0.0
 42
-0.4142140000000074
  0
VERTEX
  5
2378
  8
SAPA_PROFIL
 10
-32.999999999999623
 20
-62.799999957005042
 30
0.0
  0
VERTEX
  5
2379
  8
SAPA_PROFIL
 10
-32.999999999999623
 20
-64.199999957005019
 30
0.0
 42
0.5920054160709848
  0
VERTEX
  5
237A
  8
SAPA_PROFIL
 10
-32.538796661884668
 20
-64.453008469762779
 30
0.0
  0
VERTEX
  5
237B
  8
SAPA_PROFIL
 10
-31.292531005671709
 20
-63.65895543994111
 30
0.0
 42
0.2562769852931301
  0
VERTEX
  5
237C
  8
SAPA_PROFIL
 10
-31.19999999999958
 20
-63.490282931042508
 30
0.0
  0
VERTEX
  5
237D
  8
SAPA_PROFIL
 10
-31.19999999999958
 20
-60.495951616163509
 30
0.0
  0
VERTEX
  5
237E
  8
SAPA_PROFIL
 10
-31.709894418563
 20
-59.17671861440229
 30
0.0
 42
-0.4142135623730872
  0
VERTEX
  5
237F
  8
SAPA_PROFIL
 10
-31.50993037405561
 20
-58.802533658926478
 30
0.0
  0
VERTEX
  5
2380
  8
SAPA_PROFIL
 10
-31.46208462405712
 20
-58.788015249679368
 30
0.0
  0
VERTEX
  5
2381
  8
SAPA_PROFIL
 10
-31.462001016173492
 20
-57.284914168917368
 30
0.0
 42
0.4769755326981643
  0
VERTEX
  5
2382
  8
SAPA_PROFIL
 10
-31.833657891119341
 20
-56.9826613444109
 30
0.0
  0
VERTEX
  5
2383
  8
SAPA_PROFIL
 10
-33.64688836177762
 20
-57.364107940538602
 30
0.0
 42
0.221694662643016
  0
VERTEX
  5
2384
  8
SAPA_PROFIL
 10
-34.187768193254378
 20
-57.769916845693423
 30
0.0
  0
VERTEX
  5
2385
  8
SAPA_PROFIL
 10
-34.339902104363141
 20
-58.054599128925062
 30
0.0
 42
0.5773502691897466
  0
VERTEX
  5
2386
  8
SAPA_PROFIL
 10
-34.156948364252962
 20
-58.348755429179882
 30
0.0
  0
VERTEX
  5
2387
  8
SAPA_PROFIL
 10
-33.835190636034717
 20
-58.338194062952901
 30
0.0
  0
VERTEX
  5
2388
  8
SAPA_PROFIL
 10
-32.750626189062977
 20
-60.22403775481397
 30
0.0
  0
VERTEX
  5
2389
  8
SAPA_PROFIL
 10
-32.692552552073892
 20
-60.415420754807677
 30
0.0
 42
-0.7625858545243331
  0
VERTEX
  5
238A
  8
SAPA_PROFIL
 10
-33.02287863309089
 20
-60.599999957005153
 30
0.0
 42
0.2134217652834442
  0
SEQEND
  5
238B
  8
SAPA_PROFIL
  0
POLYLINE
  5
1832
  8
SAPA_PROFIL
 66
     1
 10
0.0
 20
0.0
 30
0.0
 70
     1
  0
VERTEX
  5
238C
  8
SAPA_PROFIL
 10
-71.999999957930086
 20
-62.599999957005032
 30
0.0
 42
0.4142135623730951
  0
VERTEX
  5
238D
  8
SAPA_PROFIL
 10
-71.799999957930069
 20
-62.799999957005042
 30
0.0
  0
VERTEX
  5
238E
  8
SAPA_PROFIL
 10
-70.199999957930018
 20
-62.799999957005006
 30
0.0
 42
0.4142135623730951
  0
VERTEX
  5
238F
  8
SAPA_PROFIL
 10
-69.999999957930029
 20
-62.599999957005032
 30
0.0
  0
VERTEX
  5
2390
  8
SAPA_PROFIL
 10
-69.999999957930029
 20
-62.299999873131718
 30
0.0
  0
VERTEX
  5
2391
  8
SAPA_PROFIL
 10
-41.699999999999498
 20
-62.299999873131718
 30
0.0
  0
VERTEX
  5
2392
  8
SAPA_PROFIL
 10
-41.699999999999498
 20
-62.599999957005032
 30
0.0
 42
0.4142135623730951
  0
VERTEX
  5
2393
  8
SAPA_PROFIL
 10
-41.49999999999951
 20
-62.799999957005042
 30
0.0
  0
VERTEX
  5
2394
  8
SAPA_PROFIL
 10
-39.899999999999487
 20
-62.799999957005006
 30
0.0
 42
0.4142135623730951
  0
VERTEX
  5
2395
  8
SAPA_PROFIL
 10
-39.699999999999498
 20
-62.599999957005032
 30
0.0
  0
VERTEX
  5
2396
  8
SAPA_PROFIL
 10
-39.699999999999498
 20
-62.299999873131718
 30
0.0
  0
VERTEX
  5
2397
  8
SAPA_PROFIL
 10
-37.99999999999951
 20
-62.299999873131718
 30
0.0
 42
-0.4142135623730951
  0
VERTEX
  5
2398
  8
SAPA_PROFIL
 10
-37.699999999999498
 20
-62.599999873131679
 30
0.0
  0
VERTEX
  5
2399
  8
SAPA_PROFIL
 10
-37.699999999999498
 20
-80.199999957005005
 30
0.0
 42
-0.4142135623730951
  0
VERTEX
  5
239A
  8
SAPA_PROFIL
 10
-37.99999999999951
 20
-80.499999957005031
 30
0.0
  0
VERTEX
  5
239B
  8
SAPA_PROFIL
 10
-39.699999999999498
 20
-80.499999957005031
 30
0.0
  0
VERTEX
  5
239C
  8
SAPA_PROFIL
 10
-39.699999999999498
 20
-80.399999957005008
 30
0.0
 42
0.4142135623730951
  0
VERTEX
  5
239D
  8
SAPA_PROFIL
 10
-39.899999999999487
 20
-80.199999957005005
 30
0.0
  0
VERTEX
  5
239E
  8
SAPA_PROFIL
 10
-41.49999999999951
 20
-80.199999957005005
 30
0.0
 42
0.4142135623730951
  0
VERTEX
  5
239F
  8
SAPA_PROFIL
 10
-41.699999999999498
 20
-80.399999957005008
 30
0.0
  0
VERTEX
  5
23A0
  8
SAPA_PROFIL
 10
-41.699999999999498
 20
-80.499999957005031
 30
0.0
  0
VERTEX
  5
23A1
  8
SAPA_PROFIL
 10
-69.999999957930029
 20
-80.499999957005031
 30
0.0
  0
VERTEX
  5
23A2
  8
SAPA_PROFIL
 10
-69.999999957930029
 20
-80.399999957005008
 30
0.0
 42
0.4142135623730951
  0
VERTEX
  5
23A3
  8
SAPA_PROFIL
 10
-70.199999957930018
 20
-80.199999957005005
 30
0.0
  0
VERTEX
  5
23A4
  8
SAPA_PROFIL
 10
-71.799999957930069
 20
-80.199999957005033
 30
0.0
 42
0.4142135623730951
  0
VERTEX
  5
23A5
  8
SAPA_PROFIL
 10
-71.999999957930029
 20
-80.399999957005008
 30
0.0
  0
VERTEX
  5
23A6
  8
SAPA_PROFIL
 10
-71.999999957930029
 20
-80.499999957005031
 30
0.0
  0
VERTEX
  5
23A7
  8
SAPA_PROFIL
 10
-73.999999997930061
 20
-80.499999957005031
 30
0.0
 42
-0.4142135623732158
  0
VERTEX
  5
23A8
  8
SAPA_PROFIL
 10
-74.299999997930144
 20
-80.199999957005048
 30
0.0
  0
VERTEX
  5
23A9
  8
SAPA_PROFIL
 10
-74.299999997930101
 20
-74.799999126083122
 30
0.0
 42
0.4142135623730951
  0
VERTEX
  5
23AA
  8
SAPA_PROFIL
 10
-76.999999250855765
 20
-72.099999873157458
 30
0.0
  0
VERTEX
  5
23AB
  8
SAPA_PROFIL
 10
-81.499999999999545
 20
-72.099999873157458
 30
0.0
 42
-0.4142135623730951
  0
VERTEX
  5
23AC
  8
SAPA_PROFIL
 10
-81.799999999999514
 20
-71.799999873157475
 30
0.0
  0
VERTEX
  5
23AD
  8
SAPA_PROFIL
 10
-81.799999999999514
 20
-62.599999873131679
 30
0.0
 42
-0.4142135623730951
  0
VERTEX
  5
23AE
  8
SAPA_PROFIL
 10
-81.499999999999503
 20
-62.299999873131718
 30
0.0
  0
VERTEX
  5
23AF
  8
SAPA_PROFIL
 10
-71.999999957930029
 20
-62.299999873131718
 30
0.0
  0
SEQEND
  5
23B0
  8
SAPA_PROFIL
  0
POLYLINE
  5
1833
  8
SAPA_PROFIL
 62
     4
 66
     1
 10
0.0
 20
0.0
 30
0.0
  0
VERTEX
  5
23B1
  8
SAPA_PROFIL
 62
     4
 10
-33.932281085846512
 20
-48.549329079444703
 30
0.0
 42
-0.5571646428658034
  0
VERTEX
  5
23B2
  8
SAPA_PROFIL
 62
     4
 10
-34.800000000002058
 20
-48.012368575307868
 30
0.0
  0
VERTEX
  5
23B3
  8
SAPA_PROFIL
 62
     4
 10
-34.800000000001603
 20
-30.987631338786681
 30
0.0
 42
-0.5571645048035741
  0
VERTEX
  5
23B4
  8
SAPA_PROFIL
 62
     4
 10
-33.93228131213543
 20
-30.45067072182562
 30
0.0
  0
VERTEX
  5
23B5
  8
SAPA_PROFIL
 62
     4
 10
-32.2661406560674
 20
-31.281377809372319
 30
0.0
 42
-0.284385813979063
  0
VERTEX
  5
23B6
  8
SAPA_PROFIL
 62
     4
 10
-32.099999999999959
 20
-31.549858117852661
 30
0.0
  0
VERTEX
  5
23B7
  8
SAPA_PROFIL
 62
     4
 10
-32.099999999999973
 20
-47.450141796241979
 30
0.0
 42
-0.2843858139786238
  0
VERTEX
  5
23B8
  8
SAPA_PROFIL
 62
     4
 10
-32.266140656066888
 20
-47.718622104722257
 30
0.0
  0
VERTEX
  5
23B9
  8
SAPA_PROFIL
 62
     4
 10
-33.93228131213624
 20
-48.549329192269433
 30
0.0
  0
SEQEND
  5
23BA
  8
SAPA_PROFIL
 62
     4
  0
POLYLINE
  5
1834
  8
SAPA_PROFIL
 62
     4
 66
     1
 10
0.0
 20
0.0
 30
0.0
 70
     1
  0
VERTEX
  5
23BB
  8
SAPA_PROFIL
 62
     4
 10
-31.743168485502391
 20
-25.082388772380028
 30
0.0
  0
VERTEX
  5
23BC
  8
SAPA_PROFIL
 62
     4
 10
-31.336608289498251
 20
-24.81836549400402
 30
0.0
 42
0.2539676464751066
  0
VERTEX
  5
23BD
  8
SAPA_PROFIL
 62
     4
 10
-31.200000000002142
 20
-24.56676432361931
 30
0.0
  0
VERTEX
  5
23BE
  8
SAPA_PROFIL
 62
     4
 10
-31.200000000002142
 20
-23.185264738413959
 30
0.0
 42
0.3152987888790479
  0
VERTEX
  5
23BF
  8
SAPA_PROFIL
 62
     4
 10
-31.528989928340302
 20
-22.71541842802165
 30
0.0
  0
VERTEX
  5
23C0
  8
SAPA_PROFIL
 62
     4
 10
-33.989820118791577
 20
-21.81974948711304
 30
0.0
 42
-0.2694959974287434
  0
VERTEX
  5
23C1
  8
SAPA_PROFIL
 62
     4
 10
-34.182952093135469
 20
-21.588230440711691
 30
0.0
 42
-0.0612686379508233
  0
VERTEX
  5
23C2
  8
SAPA_PROFIL
 62
     4
 10
-34.19653546376599
 20
-21.295555007858411
 30
0.0
  0
VERTEX
  5
23C3
  8
SAPA_PROFIL
 62
     4
 10
-34.398272142494811
 20
-20.946136830550149
 30
0.0
 42
-0.5773502691891679
  0
VERTEX
  5
23C4
  8
SAPA_PROFIL
 62
     4
 10
-34.216406807700253
 20
-20.63113683055056
 30
0.0
  0
VERTEX
  5
23C5
  8
SAPA_PROFIL
 62
     4
 10
-33.949292279573932
 20
-20.631136830550322
 30
0.0
  0
VERTEX
  5
23C6
  8
SAPA_PROFIL
 62
     4
 10
-33.140608818265612
 20
-19.23260912991606
 30
0.0
 42
0.1318219888653519
  0
VERTEX
  5
23C7
  8
SAPA_PROFIL
 62
     4
 10
-33.100316421728223
 20
-19.08243602744372
 30
0.0
  0
VERTEX
  5
23C8
  8
SAPA_PROFIL
 62
     4
 10
-33.10031642173459
 20
-18.899999957006941
 30
0.0
 42
0.4142135623724291
  0
VERTEX
  5
23C9
  8
SAPA_PROFIL
 62
     4
 10
-33.500316421734233
 20
-18.499999957006391
 30
0.0
  0
VERTEX
  5
23CA
  8
SAPA_PROFIL
 62
     4
 10
-36.900316421735234
 20
-18.499999957007759
 30
0.0
 42
0.4142135623744271
  0
VERTEX
  5
23CB
  8
SAPA_PROFIL
 62
     4
 10
-37.300316421736227
 20
-18.899999957006941
 30
0.0
  0
VERTEX
  5
23CC
  8
SAPA_PROFIL
 62
     4
 10
-37.300316421736852
 20
-19.079615199278241
 30
0.0
 42
0.1316524975874005
  0
VERTEX
  5
23CD
  8
SAPA_PROFIL
 62
     4
 10
-37.260124042871261
 20
-19.229615199275059
 30
0.0
  0
VERTEX
  5
23CE
  8
SAPA_PROFIL
 62
     4
 10
-36.333974596218717
 20
-20.833753096277309
 30
0.0
 42
-0.1316524975875904
  0
VERTEX
  5
23CF
  8
SAPA_PROFIL
 62
     4
 10
-36.200000000003961
 20
-21.333753096279018
 30
0.0
  0
VERTEX
  5
23D0
  8
SAPA_PROFIL
 62
     4
 10
-36.200000000003961
 20
-21.749999957006391
 30
0.0
 42
-0.4142135623730951
  0
VERTEX
  5
23D1
  8
SAPA_PROFIL
 62
     4
 10
-37.200000000003961
 20
-22.749999957006391
 30
0.0
  0
VERTEX
  5
23D2
  8
SAPA_PROFIL
 62
     4
 10
-40.200000000001232
 20
-22.749999957006391
 30
0.0
 42
0.9999996830128083
  0
VERTEX
  5
23D3
  8
SAPA_PROFIL
 62
     4
 10
-40.200000000003051
 20
-23.749999957006398
 30
0.0
  0
VERTEX
  5
23D4
  8
SAPA_PROFIL
 62
     4
 10
-37.200000000003051
 20
-23.749999957006398
 30
0.0
 42
-0.4142135623730951
  0
VERTEX
  5
23D5
  8
SAPA_PROFIL
 62
     4
 10
-36.200000000003051
 20
-24.749999957006398
 30
0.0
  0
VERTEX
  5
23D6
  8
SAPA_PROFIL
 62
     4
 10
-36.200000000003058
 20
-54.249999957090971
 30
0.0
 42
-0.4142135623730951
  0
VERTEX
  5
23D7
  8
SAPA_PROFIL
 62
     4
 10
-37.200000000003058
 20
-55.249999957090978
 30
0.0
  0
VERTEX
  5
23D8
  8
SAPA_PROFIL
 62
     4
 10
-40.200000000001232
 20
-55.249999957090978
 30
0.0
 42
0.9999999999999998
  0
VERTEX
  5
23D9
  8
SAPA_PROFIL
 62
     4
 10
-40.200000000001232
 20
-56.249999957090978
 30
0.0
  0
VERTEX
  5
23DA
  8
SAPA_PROFIL
 62
     4
 10
-37.200000000003058
 20
-56.249999957090978
 30
0.0
 42
-0.4142135623736278
  0
VERTEX
  5
23DB
  8
SAPA_PROFIL
 62
     4
 10
-36.200000000003058
 20
-57.249999957090971
 30
0.0
  0
VERTEX
  5
23DC
  8
SAPA_PROFIL
 62
     4
 10
-36.200000000003058
 20
-57.666246817817438
 30
0.0
 42
-0.1316524975874375
  0
VERTEX
  5
23DD
  8
SAPA_PROFIL
 62
     4
 10
-36.333974596219093
 20
-58.166246817817637
 30
0.0
  0
VERTEX
  5
23DE
  8
SAPA_PROFIL
 62
     4
 10
-37.260124042871269
 20
-59.770384714819578
 30
0.0
 42
0.1316524975874
  0
VERTEX
  5
23DF
  8
SAPA_PROFIL
 62
     4
 10
-37.300316421736859
 20
-59.920384714819129
 30
0.0
  0
VERTEX
  5
23E0
  8
SAPA_PROFIL
 62
     4
 10
-37.300316421736227
 20
-60.099999957090432
 30
0.0
 42
0.4142135623744271
  0
VERTEX
  5
23E1
  8
SAPA_PROFIL
 62
     4
 10
-36.900316421735234
 20
-60.499999957089621
 30
0.0
  0
VERTEX
  5
23E2
  8
SAPA_PROFIL
 62
     4
 10
-33.500316421734233
 20
-60.499999957090971
 30
0.0
 42
0.4142135623724291
  0
VERTEX
  5
23E3
  8
SAPA_PROFIL
 62
     4
 10
-33.10031642173459
 20
-60.099999957090432
 30
0.0
  0
VERTEX
  5
23E4
  8
SAPA_PROFIL
 62
     4
 10
-33.100316421728223
 20
-59.917563886653653
 30
0.0
 42
0.1318219888653524
  0
VERTEX
  5
23E5
  8
SAPA_PROFIL
 62
     4
 10
-33.140608818265612
 20
-59.767390784181302
 30
0.0
  0
VERTEX
  5
23E6
  8
SAPA_PROFIL
 62
     4
 10
-33.949292279489953
 20
-58.368863083701648
 30
0.0
  0
VERTEX
  5
23E7
  8
SAPA_PROFIL
 62
     4
 10
-34.216406807702988
 20
-58.368863083701648
 30
0.0
 42
-0.577350269189159
  0
VERTEX
  5
23E8
  8
SAPA_PROFIL
 62
     4
 10
-34.398272142497547
 20
-58.053863083702062
 30
0.0
  0
VERTEX
  5
23E9
  8
SAPA_PROFIL
 62
     4
 10
-34.196535463820453
 20
-57.704444906483403
 30
0.0
 42
-0.0612687673629489
  0
VERTEX
  5
23EA
  8
SAPA_PROFIL
 62
     4
 10
-34.18295209313424
 20
-57.411769473383181
 30
0.0
 42
-0.2694959974285039
  0
VERTEX
  5
23EB
  8
SAPA_PROFIL
 62
     4
 10
-33.989820118790291
 20
-57.18025042698266
 30
0.0
  0
VERTEX
  5
23EC
  8
SAPA_PROFIL
 62
     4
 10
-31.528989928337118
 20
-56.284581486072987
 30
0.0
 42
0.3152987888784035
  0
VERTEX
  5
23ED
  8
SAPA_PROFIL
 62
     4
 10
-31.20000000000055
 20
-55.814735175679772
 30
0.0
  0
VERTEX
  5
23EE
  8
SAPA_PROFIL
 62
     4
 10
-31.200000000002149
 20
-54.433235590475327
 30
0.0
 42
0.2539676464741841
  0
VERTEX
  5
23EF
  8
SAPA_PROFIL
 62
     4
 10
-31.33660828949742
 20
-54.181634420091257
 30
0.0
  0
VERTEX
  5
23F0
  8
SAPA_PROFIL
 62
     4
 10
-31.743168485502391
 20
-53.917611141714623
 30
0.0
 42
0.5862177598324623
  0
VERTEX
  5
23F1
  8
SAPA_PROFIL
 62
     4
 10
-32.199999999998902
 20
-54.173352956952961
 30
0.0
  0
VERTEX
  5
23F2
  8
SAPA_PROFIL
 62
     4
 10
-32.199999999991242
 20
-55.114527637462771
 30
0.0
 42
-0.3152987888813165
  0
VERTEX
  5
23F3
  8
SAPA_PROFIL
 62
     4
 10
-32.528989928327988
 20
-55.584373947860527
 30
0.0
  0
VERTEX
  5
23F4
  8
SAPA_PROFIL
 62
     4
 10
-33.728989928339217
 20
-56.021138228984491
 30
0.0
 42
-0.5205670505515651
  0
VERTEX
  5
23F5
  8
SAPA_PROFIL
 62
     4
 10
-34.400000000001967
 20
-55.551291918591261
 30
0.0
  0
VERTEX
  5
23F6
  8
SAPA_PROFIL
 62
     4
 10
-34.400000000002002
 20
-50.53485097792241
 30
0.0
 42
-0.3702522326300203
  0
VERTEX
  5
23F7
  8
SAPA_PROFIL
 62
     4
 10
-34.145540047336283
 20
-50.238327616129077
 30
0.0
 42
-0.0982365330332397
  0
VERTEX
  5
23F8
  8
SAPA_PROFIL
 62
     4
 10
-32.457853272341282
 20
-50.147874857918133
 30
0.0
 42
-0.3735060174783164
  0
VERTEX
  5
23F9
  8
SAPA_PROFIL
 62
     4
 10
-32.200000000001239
 20
-50.444899525829122
 30
0.0
  0
VERTEX
  5
23FA
  8
SAPA_PROFIL
 62
     4
 10
-32.20000000000033
 20
-50.873352956951777
 30
0.0
 42
0.5920056181162531
  0
VERTEX
  5
23FB
  8
SAPA_PROFIL
 62
     4
 10
-31.738796497472411
 20
-51.126361713269183
 30
0.0
  0
VERTEX
  5
23FC
  8
SAPA_PROFIL
 62
     4
 10
-31.336608289494109
 20
-50.865177637113483
 30
0.0
 42
0.2539676464746725
  0
VERTEX
  5
23FD
  8
SAPA_PROFIL
 62
     4
 10
-31.199999999998749
 20
-50.613576466729711
 30
0.0
  0
VERTEX
  5
23FE
  8
SAPA_PROFIL
 62
     4
 10
-31.200000000000319
 20
-28.386423447364031
 30
0.0
 42
0.2539676464741819
  0
VERTEX
  5
23FF
  8
SAPA_PROFIL
 62
     4
 10
-31.336608289494109
 20
-28.134822276981168
 30
0.0
  0
VERTEX
  5
2400
  8
SAPA_PROFIL
 62
     4
 10
-31.738796497472439
 20
-27.873638200827362
 30
0.0
 42
0.5920055144124249
  0
VERTEX
  5
2401
  8
SAPA_PROFIL
 62
     4
 10
-32.20000000000033
 20
-28.126646957142871
 30
0.0
  0
VERTEX
  5
2402
  8
SAPA_PROFIL
 62
     4
 10
-32.199999974725323
 20
-28.55510043443309
 30
0.0
 42
-0.3735060174775405
  0
VERTEX
  5
2403
  8
SAPA_PROFIL
 62
     4
 10
-32.457853247065408
 20
-28.852125102342779
 30
0.0
 42
-0.0355900683670349
  0
VERTEX
  5
2404
  8
SAPA_PROFIL
 62
     4
 10
-33.073726833865202
 20
-28.896018666375031
 30
0.0
 42
-0.0624282003873116
  0
VERTEX
  5
2405
  8
SAPA_PROFIL
 62
     4
 10
-34.145540022060331
 20
-28.761672344132091
 30
0.0
 42
-0.3702522326309292
  0
VERTEX
  5
2406
  8
SAPA_PROFIL
 62
     4
 10
-34.399999974726043
 20
-28.465148982338711
 30
0.0
  0
VERTEX
  5
2407
  8
SAPA_PROFIL
 62
     4
 10
-34.40000000000218
 20
-23.448707995505199
 30
0.0
 42
-0.5205670505515692
  0
VERTEX
  5
2408
  8
SAPA_PROFIL
 62
     4
 10
-33.72898992833921
 20
-22.97886168511198
 30
0.0
  0
VERTEX
  5
2409
  8
SAPA_PROFIL
 62
     4
 10
-32.528989928329771
 20
-23.415625966236931
 30
0.0
 42
-0.3152987888807539
  0
VERTEX
  5
240A
  8
SAPA_PROFIL
 62
     4
 10
-32.199999999992137
 20
-23.885472276632779
 30
0.0
  0
VERTEX
  5
240B
  8
SAPA_PROFIL
 62
     4
 10
-32.199999999998958
 20
-24.826646957141872
 30
0.0
 42
0.5862175119221242
  0
VERTEX
  5
240C
  8
SAPA_PROFIL
 62
     4
 10
-31.743168674243819
 20
-25.08238888812382
 30
0.0
 42
-0.0000002084758573
  0
SEQEND
  5
240D
  8
SAPA_PROFIL
 62
     4
  0
POLYLINE
  5
1835
  8
SAPA_PROFIL
 62
     4
 66
     1
 10
0.0
 20
0.0
 30
0.0
  0
VERTEX
  5
240E
  8
SAPA_PROFIL
 62
     4
 10
-80.767718914152553
 20
-48.549329079444703
 30
0.0
 42
0.5571646428658034
  0
VERTEX
  5
240F
  8
SAPA_PROFIL
 62
     4
 10
-79.899999999996993
 20
-48.012368575307868
 30
0.0
  0
VERTEX
  5
2410
  8
SAPA_PROFIL
 62
     4
 10
-79.899999999997462
 20
-30.987631338786681
 30
0.0
 42
0.5571645048035741
  0
VERTEX
  5
2411
  8
SAPA_PROFIL
 62
     4
 10
-80.767718687863635
 20
-30.45067072182562
 30
0.0
  0
VERTEX
  5
2412
  8
SAPA_PROFIL
 62
     4
 10
-82.433859343931644
 20
-31.281377809372319
 30
0.0
 42
0.284385813979063
  0
VERTEX
  5
2413
  8
SAPA_PROFIL
 62
     4
 10
-82.599999999999099
 20
-31.549858117852661
 30
0.0
  0
VERTEX
  5
2414
  8
SAPA_PROFIL
 62
     4
 10
-82.599999999999099
 20
-47.450141796241979
 30
0.0
 42
0.2843858139786238
  0
VERTEX
  5
2415
  8
SAPA_PROFIL
 62
     4
 10
-82.433859343932156
 20
-47.718622104722257
 30
0.0
  0
VERTEX
  5
2416
  8
SAPA_PROFIL
 62
     4
 10
-80.767718687862825
 20
-48.549329192269433
 30
0.0
  0
SEQEND
  5
2417
  8
SAPA_PROFIL
 62
     4
  0
POLYLINE
  5
1836
  8
SAPA_PROFIL
 62
     4
 66
     1
 10
0.0
 20
0.0
 30
0.0
 70
     1
  0
VERTEX
  5
2418
  8
SAPA_PROFIL
 62
     4
 10
-82.95683151449667
 20
-25.082388772380028
 30
0.0
  0
VERTEX
  5
2419
  8
SAPA_PROFIL
 62
     4
 10
-83.363391710500835
 20
-24.81836549400402
 30
0.0
 42
-0.2539676464751066
  0
VERTEX
  5
241A
  8
SAPA_PROFIL
 62
     4
 10
-83.499999999996916
 20
-24.56676432361931
 30
0.0
  0
VERTEX
  5
241B
  8
SAPA_PROFIL
 62
     4
 10
-83.499999999996916
 20
-23.185264738413959
 30
0.0
 42
-0.3152987888790479
  0
VERTEX
  5
241C
  8
SAPA_PROFIL
 62
     4
 10
-83.171010071658756
 20
-22.71541842802165
 30
0.0
  0
VERTEX
  5
241D
  8
SAPA_PROFIL
 62
     4
 10
-80.710179881207495
 20
-21.81974948711304
 30
0.0
 42
0.2694959974287434
  0
VERTEX
  5
241E
  8
SAPA_PROFIL
 62
     4
 10
-80.517047906863596
 20
-21.588230440711691
 30
0.0
 42
0.0612686379508233
  0
VERTEX
  5
241F
  8
SAPA_PROFIL
 62
     4
 10
-80.503464536233068
 20
-21.295555007858411
 30
0.0
  0
VERTEX
  5
2420
  8
SAPA_PROFIL
 62
     4
 10
-80.301727857504247
 20
-20.946136830550149
 30
0.0
 42
0.5773502691891679
  0
VERTEX
  5
2421
  8
SAPA_PROFIL
 62
     4
 10
-80.483593192298812
 20
-20.63113683055056
 30
0.0
  0
VERTEX
  5
2422
  8
SAPA_PROFIL
 62
     4
 10
-80.750707720425126
 20
-20.631136830550322
 30
0.0
  0
VERTEX
  5
2423
  8
SAPA_PROFIL
 62
     4
 10
-81.559391181733446
 20
-19.23260912991606
 30
0.0
 42
-0.1318219888653519
  0
VERTEX
  5
2424
  8
SAPA_PROFIL
 62
     4
 10
-81.599683578270842
 20
-19.08243602744372
 30
0.0
  0
VERTEX
  5
2425
  8
SAPA_PROFIL
 62
     4
 10
-81.599683578264475
 20
-18.899999957006941
 30
0.0
 42
-0.4142135623724291
  0
VERTEX
  5
2426
  8
SAPA_PROFIL
 62
     4
 10
-81.199683578264839
 20
-18.499999957006391
 30
0.0
  0
VERTEX
  5
2427
  8
SAPA_PROFIL
 62
     4
 10
-77.799683578263824
 20
-18.499999957007759
 30
0.0
 42
-0.4142135623744271
  0
VERTEX
  5
2428
  8
SAPA_PROFIL
 62
     4
 10
-77.399683578262838
 20
-18.899999957006941
 30
0.0
  0
VERTEX
  5
2429
  8
SAPA_PROFIL
 62
     4
 10
-77.399683578262199
 20
-19.079615199278241
 30
0.0
 42
-0.1316524975874005
  0
VERTEX
  5
242A
  8
SAPA_PROFIL
 62
     4
 10
-77.439875957127796
 20
-19.229615199275059
 30
0.0
  0
VERTEX
  5
242B
  8
SAPA_PROFIL
 62
     4
 10
-78.366025403780327
 20
-20.833753096277309
 30
0.0
 42
0.1316524975875904
  0
VERTEX
  5
242C
  8
SAPA_PROFIL
 62
     4
 10
-78.499999999995097
 20
-21.333753096279018
 30
0.0
  0
VERTEX
  5
242D
  8
SAPA_PROFIL
 62
     4
 10
-78.499999999995097
 20
-21.749999957006391
 30
0.0
 42
0.4142135623730951
  0
VERTEX
  5
242E
  8
SAPA_PROFIL
 62
     4
 10
-77.499999999995083
 20
-22.749999957006391
 30
0.0
  0
VERTEX
  5
242F
  8
SAPA_PROFIL
 62
     4
 10
-74.499999999997826
 20
-22.749999957006391
 30
0.0
 42
-0.9999996830128083
  0
VERTEX
  5
2430
  8
SAPA_PROFIL
 62
     4
 10
-74.499999999996007
 20
-23.749999957006398
 30
0.0
  0
VERTEX
  5
2431
  8
SAPA_PROFIL
 62
     4
 10
-77.499999999996007
 20
-23.749999957006398
 30
0.0
 42
0.4142135623730951
  0
VERTEX
  5
2432
  8
SAPA_PROFIL
 62
     4
 10
-78.499999999996007
 20
-24.749999957006398
 30
0.0
  0
VERTEX
  5
2433
  8
SAPA_PROFIL
 62
     4
 10
-78.499999999996007
 20
-54.249999957090971
 30
0.0
 42
0.4142135623730951
  0
VERTEX
  5
2434
  8
SAPA_PROFIL
 62
     4
 10
-77.499999999996007
 20
-55.249999957090978
 30
0.0
  0
VERTEX
  5
2435
  8
SAPA_PROFIL
 62
     4
 10
-74.499999999997826
 20
-55.249999957090978
 30
0.0
 42
-0.9999999999999998
  0
VERTEX
  5
2436
  8
SAPA_PROFIL
 62
     4
 10
-74.499999999997826
 20
-56.249999957090978
 30
0.0
  0
VERTEX
  5
2437
  8
SAPA_PROFIL
 62
     4
 10
-77.499999999996007
 20
-56.249999957090978
 30
0.0
 42
0.4142135623736278
  0
VERTEX
  5
2438
  8
SAPA_PROFIL
 62
     4
 10
-78.499999999996007
 20
-57.249999957090971
 30
0.0
  0
VERTEX
  5
2439
  8
SAPA_PROFIL
 62
     4
 10
-78.499999999996007
 20
-57.666246817817438
 30
0.0
 42
0.1316524975874375
  0
VERTEX
  5
243A
  8
SAPA_PROFIL
 62
     4
 10
-78.366025403779972
 20
-58.166246817817637
 30
0.0
  0
VERTEX
  5
243B
  8
SAPA_PROFIL
 62
     4
 10
-77.439875957127796
 20
-59.770384714819578
 30
0.0
 42
-0.1316524975874
  0
VERTEX
  5
243C
  8
SAPA_PROFIL
 62
     4
 10
-77.399683578262213
 20
-59.920384714819129
 30
0.0
  0
VERTEX
  5
243D
  8
SAPA_PROFIL
 62
     4
 10
-77.399683578262838
 20
-60.099999957090432
 30
0.0
 42
-0.4142135623744271
  0
VERTEX
  5
243E
  8
SAPA_PROFIL
 62
     4
 10
-77.799683578263824
 20
-60.499999957089621
 30
0.0
  0
VERTEX
  5
243F
  8
SAPA_PROFIL
 62
     4
 10
-81.199683578264839
 20
-60.499999957090971
 30
0.0
 42
-0.4142135623724291
  0
VERTEX
  5
2440
  8
SAPA_PROFIL
 62
     4
 10
-81.599683578264475
 20
-60.099999957090432
 30
0.0
  0
VERTEX
  5
2441
  8
SAPA_PROFIL
 62
     4
 10
-81.599683578270842
 20
-59.917563886653653
 30
0.0
 42
-0.1318219888653524
  0
VERTEX
  5
2442
  8
SAPA_PROFIL
 62
     4
 10
-81.55939118173346
 20
-59.767390784181302
 30
0.0
  0
VERTEX
  5
2443
  8
SAPA_PROFIL
 62
     4
 10
-80.750707720509126
 20
-58.368863083701648
 30
0.0
  0
VERTEX
  5
2444
  8
SAPA_PROFIL
 62
     4
 10
-80.483593192296084
 20
-58.368863083701648
 30
0.0
 42
0.577350269189159
  0
VERTEX
  5
2445
  8
SAPA_PROFIL
 62
     4
 10
-80.301727857501504
 20
-58.053863083702062
 30
0.0
  0
VERTEX
  5
2446
  8
SAPA_PROFIL
 62
     4
 10
-80.503464536178626
 20
-57.704444906483403
 30
0.0
 42
0.0612687673629489
  0
VERTEX
  5
2447
  8
SAPA_PROFIL
 62
     4
 10
-80.517047906864846
 20
-57.411769473383181
 30
0.0
 42
0.2694959974285039
  0
VERTEX
  5
2448
  8
SAPA_PROFIL
 62
     4
 10
-80.710179881208774
 20
-57.18025042698266
 30
0.0
  0
VERTEX
  5
2449
  8
SAPA_PROFIL
 62
     4
 10
-83.171010071661925
 20
-56.284581486072987
 30
0.0
 42
-0.3152987888784035
  0
VERTEX
  5
244A
  8
SAPA_PROFIL
 62
     4
 10
-83.499999999998522
 20
-55.814735175679772
 30
0.0
  0
VERTEX
  5
244B
  8
SAPA_PROFIL
 62
     4
 10
-83.499999999996916
 20
-54.433235590475327
 30
0.0
 42
-0.2539676464741841
  0
VERTEX
  5
244C
  8
SAPA_PROFIL
 62
     4
 10
-83.363391710501645
 20
-54.181634420091257
 30
0.0
  0
VERTEX
  5
244D
  8
SAPA_PROFIL
 62
     4
 10
-82.95683151449667
 20
-53.917611141714623
 30
0.0
 42
-0.5862177598324623
  0
VERTEX
  5
244E
  8
SAPA_PROFIL
 62
     4
 10
-82.500000000000171
 20
-54.173352956952961
 30
0.0
  0
VERTEX
  5
244F
  8
SAPA_PROFIL
 62
     4
 10
-82.50000000000783
 20
-55.114527637462771
 30
0.0
 42
0.3152987888813165
  0
VERTEX
  5
2450
  8
SAPA_PROFIL
 62
     4
 10
-82.171010071671077
 20
-55.584373947860527
 30
0.0
  0
VERTEX
  5
2451
  8
SAPA_PROFIL
 62
     4
 10
-80.971010071659848
 20
-56.021138228984491
 30
0.0
 42
0.5205670505515651
  0
VERTEX
  5
2452
  8
SAPA_PROFIL
 62
     4
 10
-80.299999999997084
 20
-55.551291918591261
 30
0.0
  0
VERTEX
  5
2453
  8
SAPA_PROFIL
 62
     4
 10
-80.299999999997084
 20
-50.53485097792241
 30
0.0
 42
0.3702522326300203
  0
VERTEX
  5
2454
  8
SAPA_PROFIL
 62
     4
 10
-80.554459952662782
 20
-50.238327616129077
 30
0.0
 42
0.0982365330332397
  0
VERTEX
  5
2455
  8
SAPA_PROFIL
 62
     4
 10
-82.242146727657783
 20
-50.147874857918133
 30
0.0
 42
0.3735060174783164
  0
VERTEX
  5
2456
  8
SAPA_PROFIL
 62
     4
 10
-82.499999999997826
 20
-50.444899525829122
 30
0.0
  0
VERTEX
  5
2457
  8
SAPA_PROFIL
 62
     4
 10
-82.499999999998735
 20
-50.873352956951777
 30
0.0
 42
-0.5920056181162531
  0
VERTEX
  5
2458
  8
SAPA_PROFIL
 62
     4
 10
-82.961203502526658
 20
-51.126361713269183
 30
0.0
  0
VERTEX
  5
2459
  8
SAPA_PROFIL
 62
     4
 10
-83.363391710504956
 20
-50.865177637113483
 30
0.0
 42
-0.2539676464746725
  0
VERTEX
  5
245A
  8
SAPA_PROFIL
 62
     4
 10
-83.500000000000313
 20
-50.613576466729711
 30
0.0
  0
VERTEX
  5
245B
  8
SAPA_PROFIL
 62
     4
 10
-83.499999999998735
 20
-28.386423447364031
 30
0.0
 42
-0.2539676464741819
  0
VERTEX
  5
245C
  8
SAPA_PROFIL
 62
     4
 10
-83.363391710504956
 20
-28.134822276981168
 30
0.0
  0
VERTEX
  5
245D
  8
SAPA_PROFIL
 62
     4
 10
-82.961203502526615
 20
-27.873638200827362
 30
0.0
 42
-0.5920055144124249
  0
VERTEX
  5
245E
  8
SAPA_PROFIL
 62
     4
 10
-82.499999999998735
 20
-28.126646957142871
 30
0.0
  0
VERTEX
  5
245F
  8
SAPA_PROFIL
 62
     4
 10
-82.500000025273749
 20
-28.55510043443309
 30
0.0
 42
0.3735060174775405
  0
VERTEX
  5
2460
  8
SAPA_PROFIL
 62
     4
 10
-82.242146752933664
 20
-28.852125102342779
 30
0.0
 42
0.0355900683670349
  0
VERTEX
  5
2461
  8
SAPA_PROFIL
 62
     4
 10
-81.626273166133856
 20
-28.896018666375031
 30
0.0
 42
0.0624282003873116
  0
VERTEX
  5
2462
  8
SAPA_PROFIL
 62
     4
 10
-80.554459977938734
 20
-28.761672344132091
 30
0.0
 42
0.3702522326309292
  0
VERTEX
  5
2463
  8
SAPA_PROFIL
 62
     4
 10
-80.300000025273022
 20
-28.465148982338711
 30
0.0
  0
VERTEX
  5
2464
  8
SAPA_PROFIL
 62
     4
 10
-80.299999999996885
 20
-23.448707995505199
 30
0.0
 42
0.5205670505515692
  0
VERTEX
  5
2465
  8
SAPA_PROFIL
 62
     4
 10
-80.971010071659848
 20
-22.97886168511198
 30
0.0
  0
VERTEX
  5
2466
  8
SAPA_PROFIL
 62
     4
 10
-82.171010071669286
 20
-23.415625966236931
 30
0.0
 42
0.3152987888807539
  0
VERTEX
  5
2467
  8
SAPA_PROFIL
 62
     4
 10
-82.500000000006921
 20
-23.885472276632779
 30
0.0
  0
VERTEX
  5
2468
  8
SAPA_PROFIL
 62
     4
 10
-82.500000000000099
 20
-24.826646957141872
 30
0.0
 42
-0.5862175119221242
  0
VERTEX
  5
2469
  8
SAPA_PROFIL
 62
     4
 10
-82.956831325755246
 20
-25.08238888812382
 30
0.0
 42
0.0000002084758573
  0
SEQEND
  5
246A
  8
SAPA_PROFIL
 62
     4
  0
POLYLINE
  5
1837
  8
SAPA_PROFIL
 62
     4
 66
     1
 10
0.0
 20
0.0
 30
0.0
 70
     1
  0
VERTEX
  5
246B
  8
SAPA_PROFIL
 62
     4
 10
-14.899999995557209
 20
-68.702943511206044
 30
0.0
  0
VERTEX
  5
246C
  8
SAPA_PROFIL
 62
     4
 10
-14.89999999555539
 20
-72.897056060902955
 30
0.0
 42
0.1989123673786592
  0
VERTEX
  5
246D
  8
SAPA_PROFIL
 62
     4
 10
-14.812132029911931
 20
-73.109188095258773
 30
0.0
  0
VERTEX
  5
246E
  8
SAPA_PROFIL
 62
     4
 10
-12.587867961201029
 20
-75.333452163969682
 30
0.0
 42
-0.1989123673785438
  0
VERTEX
  5
246F
  8
SAPA_PROFIL
 62
     4
 10
-12.49999999555757
 20
-75.5455841983255
 30
0.0
  0
VERTEX
  5
2470
  8
SAPA_PROFIL
 62
     4
 10
-12.49999999555939
 20
-75.999999786053863
 30
0.0
 42
-0.4142135623730951
  0
VERTEX
  5
2471
  8
SAPA_PROFIL
 62
     4
 10
-12.799999995558659
 20
-76.299999786054045
 30
0.0
  0
VERTEX
  5
2472
  8
SAPA_PROFIL
 62
     4
 10
-24.699999995557619
 20
-76.299999786054045
 30
0.0
 42
0.4142135623730951
  0
VERTEX
  5
2473
  8
SAPA_PROFIL
 62
     4
 10
-25.199999995557619
 20
-76.799999786054045
 30
0.0
  0
VERTEX
  5
2474
  8
SAPA_PROFIL
 62
     4
 10
-25.199999995557619
 20
-78.499999786053863
 30
0.0
 42
-0.4142135623739832
  0
VERTEX
  5
2475
  8
SAPA_PROFIL
 62
     4
 10
-25.499999995556891
 20
-78.799999786054045
 30
0.0
  0
VERTEX
  5
2476
  8
SAPA_PROFIL
 62
     4
 10
-29.199999995556482
 20
-78.799999786054045
 30
0.0
 42
-0.414213562375759
  0
VERTEX
  5
2477
  8
SAPA_PROFIL
 62
     4
 10
-29.49999999555757
 20
-78.499999786053863
 30
0.0
  0
VERTEX
  5
2478
  8
SAPA_PROFIL
 62
     4
 10
-29.499999995555761
 20
-62.006576655650854
 30
0.0
 42
-0.4142135623735391
  0
VERTEX
  5
2479
  8
SAPA_PROFIL
 62
     4
 10
-29.199999995556482
 20
-61.706576655651119
 30
0.0
  0
VERTEX
  5
247A
  8
SAPA_PROFIL
 62
     4
 10
-12.799999995558659
 20
-61.706576655651119
 30
0.0
 42
-0.4142135623726511
  0
VERTEX
  5
247B
  8
SAPA_PROFIL
 62
     4
 10
-12.49999999555757
 20
-62.006576655650854
 30
0.0
  0
VERTEX
  5
247C
  8
SAPA_PROFIL
 62
     4
 10
-12.49999999555757
 20
-66.05441537378168
 30
0.0
 42
-0.1989123673785438
  0
VERTEX
  5
247D
  8
SAPA_PROFIL
 62
     4
 10
-12.587867961201029
 20
-66.266547408137498
 30
0.0
  0
VERTEX
  5
247E
  8
SAPA_PROFIL
 62
     4
 10
-14.81213202991375
 20
-68.490811476850226
 30
0.0
 42
0.1989123673798886
  0
SEQEND
  5
247F
  8
SAPA_PROFIL
 62
     4
  0
POLYLINE
  5
1838
  8
SAPA_PROFIL
 62
     4
 66
     1
 10
0.0
 20
0.0
 30
0.0
 70
     1
  0
VERTEX
  5
2480
  8
SAPA_PROFIL
 62
     4
 10
-29.49999999555757
 20
-47.299999786054272
 30
0.0
  0
VERTEX
  5
2481
  8
SAPA_PROFIL
 62
     4
 10
-29.499999995555761
 20
-60.106576655650763
 30
0.0
 42
0.4142135623732061
  0
VERTEX
  5
2482
  8
SAPA_PROFIL
 62
     4
 10
-29.199999995556482
 20
-60.406576655650937
 30
0.0
  0
VERTEX
  5
2483
  8
SAPA_PROFIL
 62
     4
 10
-12.799999995558659
 20
-60.406576655650937
 30
0.0
 42
0.4142135623730951
  0
VERTEX
  5
2484
  8
SAPA_PROFIL
 62
     4
 10
-12.49999999555757
 20
-60.106576655650763
 30
0.0
  0
VERTEX
  5
2485
  8
SAPA_PROFIL
 62
     4
 10
-12.49999999555939
 20
-47.299999786054272
 30
0.0
 42
0.4142135623731173
  0
VERTEX
  5
2486
  8
SAPA_PROFIL
 62
     4
 10
-12.79999999556048
 20
-46.99999978605409
 30
0.0
  0
VERTEX
  5
2487
  8
SAPA_PROFIL
 62
     4
 10
-29.199999995558301
 20
-46.99999978605409
 30
0.0
 42
0.4142135623730951
  0
SEQEND
  5
2488
  8
SAPA_PROFIL
 62
     4
  0
POLYLINE
  5
1839
  8
SAPA_PROFIL
 62
     4
 66
     1
 10
0.0
 20
0.0
 30
0.0
 70
     1
  0
VERTEX
  5
2489
  8
SAPA_PROFIL
 62
     4
 10
-10.99999999555939
 20
-45.99999978605409
 30
0.0
  0
VERTEX
  5
248A
  8
SAPA_PROFIL
 62
     4
 10
-10.99999999555757
 20
-66.675735717341681
 30
0.0
 42
-0.1989123673799843
  0
VERTEX
  5
248B
  8
SAPA_PROFIL
 62
     4
 10
-11.087867961202839
 20
-66.887867751698408
 30
0.0
  0
VERTEX
  5
248C
  8
SAPA_PROFIL
 62
     4
 10
-13.31213202991375
 20
-69.112131820409303
 30
0.0
 42
0.1989123673811184
  0
VERTEX
  5
248D
  8
SAPA_PROFIL
 62
     4
 10
-13.399999995557209
 20
-69.324263854765135
 30
0.0
  0
VERTEX
  5
248E
  8
SAPA_PROFIL
 62
     4
 10
-13.39999999555539
 20
-72.275735717342954
 30
0.0
 42
0.1989123673785438
  0
VERTEX
  5
248F
  8
SAPA_PROFIL
 62
     4
 10
-13.312132029911931
 20
-72.487867751698772
 30
0.0
  0
VERTEX
  5
2490
  8
SAPA_PROFIL
 62
     4
 10
-11.087867961201029
 20
-74.71213182041059
 30
0.0
 42
-0.1989123673785438
  0
VERTEX
  5
2491
  8
SAPA_PROFIL
 62
     4
 10
-10.99999999555757
 20
-74.924263854766394
 30
0.0
  0
VERTEX
  5
2492
  8
SAPA_PROFIL
 62
     4
 10
-10.99999999555939
 20
-77.299999786054045
 30
0.0
 42
-0.4142135623730951
  0
VERTEX
  5
2493
  8
SAPA_PROFIL
 62
     4
 10
-11.49999999555939
 20
-77.799999786054045
 30
0.0
  0
VERTEX
  5
2494
  8
SAPA_PROFIL
 62
     4
 10
-23.39999999555835
 20
-77.799999786054045
 30
0.0
 42
0.414213562373761
  0
VERTEX
  5
2495
  8
SAPA_PROFIL
 62
     4
 10
-23.699999995557619
 20
-78.099999786054227
 30
0.0
  0
VERTEX
  5
2496
  8
SAPA_PROFIL
 62
     4
 10
-23.699999995557619
 20
-79.799999786054045
 30
0.0
 42
-0.4142135623730951
  0
VERTEX
  5
2497
  8
SAPA_PROFIL
 62
     4
 10
-24.199999995557619
 20
-80.299999786054045
 30
0.0
  0
VERTEX
  5
2498
  8
SAPA_PROFIL
 62
     4
 10
-30.49999999555757
 20
-80.299999786054045
 30
0.0
 42
-0.4142135623730951
  0
VERTEX
  5
2499
  8
SAPA_PROFIL
 62
     4
 10
-30.99999999555758
 20
-79.799999786054045
 30
0.0
  0
VERTEX
  5
249A
  8
SAPA_PROFIL
 62
     4
 10
-30.999999995555761
 20
-78.799999786053704
 30
0.0
 42
0.414213562373539
  0
VERTEX
  5
249B
  8
SAPA_PROFIL
 62
     4
 10
-31.29999999555503
 20
-78.499999786053735
 30
0.0
  0
VERTEX
  5
249C
  8
SAPA_PROFIL
 62
     4
 10
-32.899999995557209
 20
-78.499999786054204
 30
0.0
 42
0.4142135623735391
  0
VERTEX
  5
249D
  8
SAPA_PROFIL
 62
     4
 10
-33.199999995556482
 20
-78.799999786053931
 30
0.0
  0
VERTEX
  5
249E
  8
SAPA_PROFIL
 62
     4
 10
-33.199999995554663
 20
-79.099999786053544
 30
0.0
 42
-0.592337729603611
  0
VERTEX
  5
249F
  8
SAPA_PROFIL
 62
     4
 10
-33.661452266296237
 20
-79.352849868657799
 30
0.0
  0
VERTEX
  5
24A0
  8
SAPA_PROFIL
 62
     4
 10
-35.361452266296972
 20
-78.075790600360946
 30
0.0
 42
-0.2560149538738706
  0
VERTEX
  5
24A1
  8
SAPA_PROFIL
 62
     4
 10
-35.499999995557573
 20
-77.822940517755782
 30
0.0
  0
VERTEX
  5
24A2
  8
SAPA_PROFIL
 62
     4
 10
-35.499999995557573
 20
-77.599999786053203
 30
0.0
 42
-0.4142135623733169
  0
VERTEX
  5
24A3
  8
SAPA_PROFIL
 62
     4
 10
-35.199999995558301
 20
-77.299999786053931
 30
0.0
  0
VERTEX
  5
24A4
  8
SAPA_PROFIL
 62
     4
 10
-31.29999999555503
 20
-77.299999786053931
 30
0.0
 42
0.414213562373539
  0
VERTEX
  5
24A5
  8
SAPA_PROFIL
 62
     4
 10
-30.999999995555761
 20
-76.999999786053976
 30
0.0
  0
VERTEX
  5
24A6
  8
SAPA_PROFIL
 62
     4
 10
-30.99999999555758
 20
-65.999999786053735
 30
0.0
 42
0.414213562373539
  0
VERTEX
  5
24A7
  8
SAPA_PROFIL
 62
     4
 10
-31.299999995556849
 20
-65.699999786053795
 30
0.0
  0
VERTEX
  5
24A8
  8
SAPA_PROFIL
 62
     4
 10
-35.199999995558301
 20
-65.699999786053795
 30
0.0
 42
-0.4142135623730951
  0
VERTEX
  5
24A9
  8
SAPA_PROFIL
 62
     4
 10
-35.499999995557573
 20
-65.399999786054522
 30
0.0
  0
VERTEX
  5
24AA
  8
SAPA_PROFIL
 62
     4
 10
-35.499999995557573
 20
-65.177059054351943
 30
0.0
 42
-0.2560149538738705
  0
VERTEX
  5
24AB
  8
SAPA_PROFIL
 62
     4
 10
-35.361452266296972
 20
-64.924208971746779
 30
0.0
  0
VERTEX
  5
24AC
  8
SAPA_PROFIL
 62
     4
 10
-33.661452266296237
 20
-63.647149703449927
 30
0.0
 42
-0.592337729603611
  0
VERTEX
  5
24AD
  8
SAPA_PROFIL
 62
     4
 10
-33.199999995554663
 20
-63.899999786054181
 30
0.0
  0
VERTEX
  5
24AE
  8
SAPA_PROFIL
 62
     4
 10
-33.199999995556482
 20
-64.199999786053795
 30
0.0
 42
0.4142135623735391
  0
VERTEX
  5
24AF
  8
SAPA_PROFIL
 62
     4
 10
-32.899999995557209
 20
-64.499999786053522
 30
0.0
  0
VERTEX
  5
24B0
  8
SAPA_PROFIL
 62
     4
 10
-31.299999995556849
 20
-64.499999786053976
 30
0.0
 42
0.414213562373539
  0
VERTEX
  5
24B1
  8
SAPA_PROFIL
 62
     4
 10
-30.99999999555758
 20
-64.199999786054022
 30
0.0
  0
VERTEX
  5
24B2
  8
SAPA_PROFIL
 62
     4
 10
-30.999999995561211
 20
-45.99999978605409
 30
0.0
 42
-0.414213562373126
  0
VERTEX
  5
24B3
  8
SAPA_PROFIL
 62
     4
 10
-30.499999995561211
 20
-45.499999786054083
 30
0.0
  0
VERTEX
  5
24B4
  8
SAPA_PROFIL
 62
     4
 10
-11.49999999555939
 20
-45.499999786054083
 30
0.0
 42
-0.4142135623730951
  0
SEQEND
  5
24B5
  8
SAPA_PROFIL
 62
     4
  0
CIRCLE
  5
183A
  8
SAPA_PROFIL
 62
     2
 10
-91.994202787260903
 20
-1.753158469717625
 30
0.0
 40
0.25
  0
INSERT
  5
183B
  8
SAPA_PROFIL
  6
CONTINUOUS
 62
     2
  2
*U155
 10
0.0
 20
0.0
 30
0.0
1001
ACAD
1002
{
1000
R14_HATCH_DATA
1000
183B
1011
1.0
1021
0.0
1031
0.0
1021
0.0
1031
0.0
1011
0.0
1021
0.0
1031
0.0
1021
1.0
1031
0.0
1011
0.0
1021
0.0
1031
0.0
1021
0.0
1031
1.0
1040
0.0
1010
0.0
1020
0.0
1030
1.0
1000
SOLID
1070
     1
1070
     1
1071
        1
1071
        7
1070
     1
1070
     1
1071
        2
1040
-91.994202787260903
1040
-2.0031584697176248
1040
-1.0
1040
-91.994202787260903
1040
-1.503158469717625
1040
-1.0
1071
        1
1005
183A
1070
     0
1070
     1
1040
0.0095408196840103
1071
        1
1040
-91.994202787260903
1040
-1.8531584697176271
1040
0.0
1002
}
  0
POLYLINE
  5
183C
  8
SAPA_PROFIL
 62
     2
 66
     1
 10
0.0
 20
0.0
 30
0.0
 70
     1
  0
VERTEX
  5
24C7
  8
SAPA_PROFIL
 62
     2
 10
-94.325735788603936
 20
0.9212207691482596
 30
0.0
  0
VERTEX
  5
24C8
  8
SAPA_PROFIL
 62
     2
 10
-94.42573578860393
 20
0.9212207691482596
 30
0.0
 42
0.4142135623730959
  0
VERTEX
  5
24C9
  8
SAPA_PROFIL
 62
     2
 10
-95.125735788603933
 20
0.2212207691482568
 30
0.0
  0
VERTEX
  5
24CA
  8
SAPA_PROFIL
 62
     2
 10
-95.125735788603933
 20
-0.878779230851741
 30
0.0
 42
0.4142135623730961
  0
VERTEX
  5
24CB
  8
SAPA_PROFIL
 62
     2
 10
-94.925735788603916
 20
-1.0787792308517401
 30
0.0
  0
VERTEX
  5
24CC
  8
SAPA_PROFIL
 62
     2
 10
-93.825735788603936
 20
-1.0787792308517401
 30
0.0
 42
0.4142135623730956
  0
VERTEX
  5
24CD
  8
SAPA_PROFIL
 62
     2
 10
-93.625735788603933
 20
-0.878779230851741
 30
0.0
  0
VERTEX
  5
24CE
  8
SAPA_PROFIL
 62
     2
 10
-93.625735788603933
 20
0.2212207691482604
 30
0.0
 42
0.4142135623730946
  0
SEQEND
  5
24CF
  8
SAPA_PROFIL
 62
     2
  0
POLYLINE
  5
183D
  8
SAPA_PROFIL
 62
     2
 66
     1
 10
0.0
 20
0.0
 30
0.0
  0
VERTEX
  5
24D0
  8
SAPA_PROFIL
 62
     2
 10
-92.825735788603936
 20
-0.3787792308517393
 30
0.0
  0
VERTEX
  5
24D1
  8
SAPA_PROFIL
 62
     2
 10
-92.825735788603936
 20
-1.0265447961248271
 30
0.0
 42
0.4416942457848117
  0
VERTEX
  5
24D2
  8
SAPA_PROFIL
 62
     2
 10
-92.607181428976006
 20
-1.2256822756177601
 30
0.0
  0
VERTEX
  5
24D3
  8
SAPA_PROFIL
 62
     2
 10
-91.644290148231846
 20
-1.1359662103597199
 30
0.0
 42
-0.4416942457848106
  0
VERTEX
  5
24D4
  8
SAPA_PROFIL
 62
     2
 10
-91.42573578860393
 20
-1.3351036898526529
 30
0.0
  0
VERTEX
  5
24D5
  8
SAPA_PROFIL
 62
     2
 10
-91.42573578860393
 20
-1.8850860294441989
 30
0.0
 42
-0.5445962197109637
  0
VERTEX
  5
24D6
  8
SAPA_PROFIL
 62
     2
 10
-92.131414834009007
 20
-2.3408229385060628
 30
0.0
  0
VERTEX
  5
24D7
  8
SAPA_PROFIL
 62
     2
 10
-92.490465987294257
 20
-2.1787792308517382
 30
0.0
  0
VERTEX
  5
24D8
  8
SAPA_PROFIL
 62
     2
 10
-93.963425226042162
 20
-2.1787792308517382
 30
0.0
 42
-0.336437923496554
  0
VERTEX
  5
24D9
  8
SAPA_PROFIL
 62
     2
 10
-95.035168955657014
 20
-1.9912724130100079
 30
0.0
  0
VERTEX
  5
24DA
  8
SAPA_PROFIL
 62
     2
 10
-95.597032591480726
 20
-1.9912724130100079
 30
0.0
 42
0.1919812372740513
  0
VERTEX
  5
24DB
  8
SAPA_PROFIL
 62
     2
 10
-95.94101963908075
 20
-2.1284047910272612
 30
0.0
  0
VERTEX
  5
24DC
  8
SAPA_PROFIL
 62
     2
 10
-96.332886569484074
 20
-2.4998822673172998
 30
0.0
 42
0.9249153594910841
  0
VERTEX
  5
24DD
  8
SAPA_PROFIL
 62
     2
 10
-94.667108640961828
 20
-4.7335770823966072
 30
0.0
  0
VERTEX
  5
24DE
  8
SAPA_PROFIL
 62
     2
 10
-93.582563701293068
 20
-4.2000290271449714
 30
0.0
 42
-0.4184584792862776
  0
VERTEX
  5
24DF
  8
SAPA_PROFIL
 62
     2
 10
-92.995861384721636
 20
-4.6037811475646846
 30
0.0
 42
-0.3891337693453737
  0
VERTEX
  5
24E0
  8
SAPA_PROFIL
 62
     2
 10
-93.141028276262119
 20
-4.8318704555073033
 30
0.0
  0
VERTEX
  5
24E1
  8
SAPA_PROFIL
 62
     2
 10
-94.226924366827134
 20
-5.3947755079951767
 30
0.0
 42
-0.8864286961344978
  0
VERTEX
  5
24E2
  8
SAPA_PROFIL
 62
     2
 10
-96.89870426876368
 20
-2.035576752474455
 30
0.0
  0
VERTEX
  5
24E3
  8
SAPA_PROFIL
 62
     2
 10
-97.329263406644927
 20
-1.9202087791853371
 30
0.0
 42
-0.9163311740174273
  0
VERTEX
  5
24E4
  8
SAPA_PROFIL
 62
     2
 10
-97.19087349150486
 20
-1.1353605694330109
 30
0.0
  0
VERTEX
  5
24E5
  8
SAPA_PROFIL
 62
     2
 10
-96.143166937153467
 20
-1.2270230156405679
 30
0.0
 42
0.4400105308918339
  0
VERTEX
  5
24E6
  8
SAPA_PROFIL
 62
     2
 10
-95.925735788603944
 20
-1.0277840760222201
 30
0.0
  0
VERTEX
  5
24E7
  8
SAPA_PROFIL
 62
     2
 10
-95.925735788603944
 20
-0.1787792308517382
 30
0.0
  0
VERTEX
  5
24E8
  8
SAPA_PROFIL
 62
     2
 10
-96.32573578860395
 20
-0.17877923085174
 30
0.0
 42
-0.569380983920789
  0
VERTEX
  5
24E9
  8
SAPA_PROFIL
 62
     2
 10
-96.501289834167522
 20
0.1170371408509112
 30
0.0
  0
VERTEX
  5
24EA
  8
SAPA_PROFIL
 62
     2
 10
-95.796324234268454
 20
1.408669884256212
 30
0.0
 42
-0.274387813087548
  0
VERTEX
  5
24EB
  8
SAPA_PROFIL
 62
     2
 10
-95.269662097577708
 20
1.7212207691482579
 30
0.0
  0
VERTEX
  5
24EC
  8
SAPA_PROFIL
 62
     2
 10
-93.481809479630144
 20
1.7212207691482599
 30
0.0
 42
-0.274387813087548
  0
VERTEX
  5
24ED
  8
SAPA_PROFIL
 62
     2
 10
-92.955147342939412
 20
1.4086698842562111
 30
0.0
  0
VERTEX
  5
24EE
  8
SAPA_PROFIL
 62
     2
 10
-92.250181743040343
 20
0.1170371408509112
 30
0.0
 42
-0.5693809839207892
  0
VERTEX
  5
24EF
  8
SAPA_PROFIL
 62
     2
 10
-92.425735788603916
 20
-0.1787792308517382
 30
0.0
  0
VERTEX
  5
24F0
  8
SAPA_PROFIL
 62
     2
 10
-92.825735788603936
 20
-0.1787792308517382
 30
0.0
  0
VERTEX
  5
24F1
  8
SAPA_PROFIL
 62
     2
 10
-92.825735788603936
 20
-1.0277840760222201
 30
0.0
  0
SEQEND
  5
24F2
  8
SAPA_PROFIL
 62
     2
  0
POLYLINE
  5
183E
  8
SAPA_PROFIL
 66
     1
 10
0.0
 20
0.0
 30
0.0
 70
     1
  0
VERTEX
  5
24F3
  8
SAPA_PROFIL
 10
-22.800000000000178
 20
-91.098475071207986
 30
0.0
  0
VERTEX
  5
24F4
  8
SAPA_PROFIL
 10
-23.800000000000178
 20
-91.098475071207986
 30
0.0
  0
VERTEX
  5
24F5
  8
SAPA_PROFIL
 10
-23.800000000000178
 20
-88.498475071207835
 30
0.0
 42
0.4142135623730951
  0
VERTEX
  5
24F6
  8
SAPA_PROFIL
 10
-24.300000000000178
 20
-87.998475071207821
 30
0.0
  0
VERTEX
  5
24F7
  8
SAPA_PROFIL
 10
-24.700000000000269
 20
-87.998475071207821
 30
0.0
 42
0.4142135623730951
  0
VERTEX
  5
24F8
  8
SAPA_PROFIL
 10
-25.000000000000231
 20
-88.298475071207775
 30
0.0
  0
VERTEX
  5
24F9
  8
SAPA_PROFIL
 10
-25.000000000000231
 20
-105.9999999990104
 30
0.0
 42
0.4142135623730951
  0
VERTEX
  5
24FA
  8
SAPA_PROFIL
 10
-24.500000000000231
 20
-106.4999999990104
 30
0.0
  0
VERTEX
  5
24FB
  8
SAPA_PROFIL
 10
24.499999999999769
 20
-106.4999999990104
 30
0.0
 42
0.4142135623730951
  0
VERTEX
  5
24FC
  8
SAPA_PROFIL
 10
24.999999999999769
 20
-105.9999999990104
 30
0.0
  0
VERTEX
  5
24FD
  8
SAPA_PROFIL
 10
24.999999999999769
 20
-88.298475071207775
 30
0.0
 42
0.4142135623730951
  0
VERTEX
  5
24FE
  8
SAPA_PROFIL
 10
24.699999999999822
 20
-87.998475071207821
 30
0.0
  0
VERTEX
  5
24FF
  8
SAPA_PROFIL
 10
24.299999999999731
 20
-87.998475071207821
 30
0.0
 42
0.4142135623730951
  0
VERTEX
  5
2500
  8
SAPA_PROFIL
 10
23.799999999999731
 20
-88.498475071207835
 30
0.0
  0
VERTEX
  5
2501
  8
SAPA_PROFIL
 10
23.799999999999731
 20
-91.098475071207986
 30
0.0
  0
VERTEX
  5
2502
  8
SAPA_PROFIL
 10
22.799999999999731
 20
-91.098475071207986
 30
0.0
  0
VERTEX
  5
2503
  8
SAPA_PROFIL
 10
22.22033922157857
 20
-92.102507830840963
 30
0.0
 42
0.4155392929676362
  0
VERTEX
  5
2504
  8
SAPA_PROFIL
 10
22.51631264788443
 20
-93.197126802632965
 30
0.0
  0
VERTEX
  5
2505
  8
SAPA_PROFIL
 10
23.799999999999731
 20
-93.938264040931927
 30
0.0
  0
VERTEX
  5
2506
  8
SAPA_PROFIL
 10
23.799999999999731
 20
-104.09999999901061
 30
0.0
 42
-0.4142135623730951
  0
VERTEX
  5
2507
  8
SAPA_PROFIL
 10
22.799999999999731
 20
-105.09999999901061
 30
0.0
  0
VERTEX
  5
2508
  8
SAPA_PROFIL
 10
-22.800000000000178
 20
-105.09999999901061
 30
0.0
 42
-0.4142135623730951
  0
VERTEX
  5
2509
  8
SAPA_PROFIL
 10
-23.800000000000178
 20
-104.09999999901061
 30
0.0
  0
VERTEX
  5
250A
  8
SAPA_PROFIL
 10
-23.800000000000178
 20
-93.938264040931927
 30
0.0
  0
VERTEX
  5
250B
  8
SAPA_PROFIL
 10
-22.516312647884892
 20
-93.197126802632965
 30
0.0
 42
0.4155392929676362
  0
VERTEX
  5
250C
  8
SAPA_PROFIL
 10
-22.220339221579032
 20
-92.102507830840963
 30
0.0
  0
SEQEND
  5
250D
  8
SAPA_PROFIL
  0
POLYLINE
  5
183F
  8
SAPA_PROFIL
 66
     1
 10
0.0
 20
0.0
 30
0.0
 70
     1
  0
VERTEX
  5
250E
  8
SAPA_PROFIL
 10
20.85000000000036
 20
-86.499999999010456
 30
0.0
 42
0.1989123673797145
  0
VERTEX
  5
250F
  8
SAPA_PROFIL
 10
20.637867965644091
 20
-86.587867964654379
 30
0.0
  0
VERTEX
  5
2510
  8
SAPA_PROFIL
 10
20.237867965644451
 20
-86.987867964654455
 30
0.0
 42
0.668178637919182
  0
VERTEX
  5
2511
  8
SAPA_PROFIL
 10
20.450000000000269
 20
-87.499999999010484
 30
0.0
  0
VERTEX
  5
2512
  8
SAPA_PROFIL
 10
21.300000000000178
 20
-87.499999999010484
 30
0.0
 42
-0.4142135623730284
  0
VERTEX
  5
2513
  8
SAPA_PROFIL
 10
21.800000000000178
 20
-87.999999999010456
 30
0.0
  0
VERTEX
  5
2514
  8
SAPA_PROFIL
 10
21.800000000000178
 20
-88.390808928730607
 30
0.0
 42
-0.17632698070845
  0
VERTEX
  5
2515
  8
SAPA_PROFIL
 10
21.729813332935919
 20
-88.583645211636394
 30
0.0
  0
VERTEX
  5
2516
  8
SAPA_PROFIL
 10
20.211721773135199
 20
-90.392836281916061
 30
0.0
 42
-0.2216946626429421
  0
VERTEX
  5
2517
  8
SAPA_PROFIL
 10
19.98190844019928
 20
-90.499999999010015
 30
0.0
  0
VERTEX
  5
2518
  8
SAPA_PROFIL
 10
16.450000000000269
 20
-90.499999999010456
 30
0.0
 42
-0.4142135623730951
  0
VERTEX
  5
2519
  8
SAPA_PROFIL
 10
16.150000000000091
 20
-90.199999999010288
 30
0.0
  0
VERTEX
  5
251A
  8
SAPA_PROFIL
 10
16.150000000000539
 20
-87.799999999010197
 30
0.0
 42
-0.4142135623730951
  0
VERTEX
  5
251B
  8
SAPA_PROFIL
 10
16.450000000000269
 20
-87.499999999010484
 30
0.0
  0
VERTEX
  5
251C
  8
SAPA_PROFIL
 10
16.85000000000036
 20
-87.499999999010484
 30
0.0
 42
0.6681786379193188
  0
VERTEX
  5
251D
  8
SAPA_PROFIL
 10
17.062132034356178
 20
-86.987867964654455
 30
0.0
  0
VERTEX
  5
251E
  8
SAPA_PROFIL
 10
16.662132034356091
 20
-86.587867964654379
 30
0.0
 42
0.198912367379658
  0
VERTEX
  5
251F
  8
SAPA_PROFIL
 10
16.450000000000269
 20
-86.499999999010456
 30
0.0
  0
VERTEX
  5
2520
  8
SAPA_PROFIL
 10
14.65000000000054
 20
-86.499999999010015
 30
0.0
 42
0.4142135623731284
  0
VERTEX
  5
2521
  8
SAPA_PROFIL
 10
14.15000000000054
 20
-86.999999999010015
 30
0.0
  0
VERTEX
  5
2522
  8
SAPA_PROFIL
 10
14.150000000000089
 20
-91.499999999010925
 30
0.0
 42
0.4142135623730951
  0
VERTEX
  5
2523
  8
SAPA_PROFIL
 10
14.650000000000089
 20
-91.999999999010925
 30
0.0
  0
VERTEX
  5
2524
  8
SAPA_PROFIL
 10
18.650000000000091
 20
-91.999999999010015
 30
0.0
 42
-0.4142135623729619
  0
VERTEX
  5
2525
  8
SAPA_PROFIL
 10
19.150000000000091
 20
-92.499999999010015
 30
0.0
  0
VERTEX
  5
2526
  8
SAPA_PROFIL
 10
19.150000000000091
 20
-94.516956646213657
 30
0.0
 42
-0.1763269807084973
  0
VERTEX
  5
2527
  8
SAPA_PROFIL
 10
19.033022221559349
 20
-94.838350451057053
 30
0.0
  0
VERTEX
  5
2528
  8
SAPA_PROFIL
 10
16.949501460030199
 20
-97.321393803853425
 30
0.0
 42
-0.2216946626428772
  0
VERTEX
  5
2529
  8
SAPA_PROFIL
 10
16.566479238470951
 20
-97.499999999010015
 30
0.0
  0
VERTEX
  5
252A
  8
SAPA_PROFIL
 10
10.56853372839123
 20
-97.499999999010484
 30
0.0
 42
-0.315298788878991
  0
VERTEX
  5
252B
  8
SAPA_PROFIL
 10
10.098687417998461
 20
-97.171010070673219
 30
0.0
  0
VERTEX
  5
252C
  8
SAPA_PROFIL
 10
8.6380638705318233
 20
-93.157979855684516
 30
0.0
 42
0.3152987888789731
  0
VERTEX
  5
252D
  8
SAPA_PROFIL
 10
7.6983712497458319
 20
-92.499999999010015
 30
0.0
  0
VERTEX
  5
252E
  8
SAPA_PROFIL
 10
6.6500000000000901
 20
-92.499999999010015
 30
0.0
 42
-0.4142135623732616
  0
VERTEX
  5
252F
  8
SAPA_PROFIL
 10
6.3499999999999091
 20
-92.199999999010288
 30
0.0
  0
VERTEX
  5
2530
  8
SAPA_PROFIL
 10
6.3499999999999091
 20
-91.799999999010197
 30
0.0
 42
0.4142135623731506
  0
VERTEX
  5
2531
  8
SAPA_PROFIL
 10
6.050000000000181
 20
-91.499999999010015
 30
0.0
  0
VERTEX
  5
2532
  8
SAPA_PROFIL
 10
5.6500000000000901
 20
-91.499999999010015
 30
0.0
 42
0.4142135623731505
  0
VERTEX
  5
2533
  8
SAPA_PROFIL
 10
5.3499999999999091
 20
-91.799999999010197
 30
0.0
  0
VERTEX
  5
2534
  8
SAPA_PROFIL
 10
5.3499999999999091
 20
-92.199999999010288
 30
0.0
 42
-0.4142135623732061
  0
VERTEX
  5
2535
  8
SAPA_PROFIL
 10
5.050000000000181
 20
-92.499999999010015
 30
0.0
  0
VERTEX
  5
2536
  8
SAPA_PROFIL
 10
0.6242640687119092
 20
-92.499999999010015
 30
0.0
 42
0.198912367379577
  0
VERTEX
  5
2537
  8
SAPA_PROFIL
 10
0.4121320343560911
 20
-92.587867964654379
 30
0.0
  0
VERTEX
  5
2538
  8
SAPA_PROFIL
 10
0.0
 20
-92.999999999010015
 30
0.0
  0
VERTEX
  5
2539
  8
SAPA_PROFIL
 10
-0.4121320343560911
 20
-92.587867964654379
 30
0.0
 42
0.1989123673795771
  0
VERTEX
  5
253A
  8
SAPA_PROFIL
 10
-0.6242640687119092
 20
-92.499999999010015
 30
0.0
  0
VERTEX
  5
253B
  8
SAPA_PROFIL
 10
-5.0499999999997272
 20
-92.499999999010015
 30
0.0
 42
-0.4142135623732059
  0
VERTEX
  5
253C
  8
SAPA_PROFIL
 10
-5.3499999999999091
 20
-92.199999999010288
 30
0.0
  0
VERTEX
  5
253D
  8
SAPA_PROFIL
 10
-5.3499999999999091
 20
-91.799999999010197
 30
0.0
 42
0.4142135623731506
  0
VERTEX
  5
253E
  8
SAPA_PROFIL
 10
-5.6500000000000901
 20
-91.499999999010015
 30
0.0
  0
VERTEX
  5
253F
  8
SAPA_PROFIL
 10
-6.0499999999997272
 20
-91.499999999010015
 30
0.0
 42
0.4142135623731505
  0
VERTEX
  5
2540
  8
SAPA_PROFIL
 10
-6.3499999999999091
 20
-91.799999999010197
 30
0.0
  0
VERTEX
  5
2541
  8
SAPA_PROFIL
 10
-6.3499999999999091
 20
-92.199999999010288
 30
0.0
 42
-0.4142135623732615
  0
VERTEX
  5
2542
  8
SAPA_PROFIL
 10
-6.6500000000000901
 20
-92.499999999010015
 30
0.0
  0
VERTEX
  5
2543
  8
SAPA_PROFIL
 10
-7.698371249745378
 20
-92.499999999010015
 30
0.0
 42
0.3152987888789731
  0
VERTEX
  5
2544
  8
SAPA_PROFIL
 10
-8.6380638705313686
 20
-93.157979855684516
 30
0.0
  0
VERTEX
  5
2545
  8
SAPA_PROFIL
 10
-10.09868741799801
 20
-97.171010070673219
 30
0.0
 42
-0.315298788878991
  0
VERTEX
  5
2546
  8
SAPA_PROFIL
 10
-10.56853372839123
 20
-97.499999999010484
 30
0.0
  0
VERTEX
  5
2547
  8
SAPA_PROFIL
 10
-16.566479238470489
 20
-97.499999999010015
 30
0.0
 42
-0.2216946626428772
  0
VERTEX
  5
2548
  8
SAPA_PROFIL
 10
-16.949501460029751
 20
-97.321393803853425
 30
0.0
  0
VERTEX
  5
2549
  8
SAPA_PROFIL
 10
-19.033022221559349
 20
-94.838350451057053
 30
0.0
 42
-0.1763269807084973
  0
VERTEX
  5
254A
  8
SAPA_PROFIL
 10
-19.150000000000091
 20
-94.516956646213657
 30
0.0
  0
VERTEX
  5
254B
  8
SAPA_PROFIL
 10
-19.150000000000091
 20
-92.499999999010015
 30
0.0
 42
-0.4142135623729619
  0
VERTEX
  5
254C
  8
SAPA_PROFIL
 10
-18.650000000000091
 20
-91.999999999010015
 30
0.0
  0
VERTEX
  5
254D
  8
SAPA_PROFIL
 10
-14.650000000000089
 20
-91.999999999010925
 30
0.0
 42
0.4142135623730951
  0
VERTEX
  5
254E
  8
SAPA_PROFIL
 10
-14.150000000000089
 20
-91.499999999010925
 30
0.0
  0
VERTEX
  5
254F
  8
SAPA_PROFIL
 10
-14.150000000000089
 20
-86.999999999010015
 30
0.0
 42
0.4142135623731285
  0
VERTEX
  5
2550
  8
SAPA_PROFIL
 10
-14.650000000000089
 20
-86.499999999010015
 30
0.0
  0
VERTEX
  5
2551
  8
SAPA_PROFIL
 10
-16.450000000000269
 20
-86.499999999010456
 30
0.0
 42
0.198912367379658
  0
VERTEX
  5
2552
  8
SAPA_PROFIL
 10
-16.662132034356091
 20
-86.587867964654379
 30
0.0
  0
VERTEX
  5
2553
  8
SAPA_PROFIL
 10
-17.062132034356178
 20
-86.987867964654455
 30
0.0
 42
0.6681786379193188
  0
VERTEX
  5
2554
  8
SAPA_PROFIL
 10
-16.849999999999909
 20
-87.499999999010484
 30
0.0
  0
VERTEX
  5
2555
  8
SAPA_PROFIL
 10
-16.450000000000269
 20
-87.499999999010484
 30
0.0
 42
-0.4142135623730951
  0
VERTEX
  5
2556
  8
SAPA_PROFIL
 10
-16.150000000000091
 20
-87.799999999010197
 30
0.0
  0
VERTEX
  5
2557
  8
SAPA_PROFIL
 10
-16.150000000000091
 20
-90.199999999010288
 30
0.0
 42
-0.4142135623730951
  0
VERTEX
  5
2558
  8
SAPA_PROFIL
 10
-16.450000000000269
 20
-90.499999999010456
 30
0.0
  0
VERTEX
  5
2559
  8
SAPA_PROFIL
 10
-19.98190844019928
 20
-90.499999999010015
 30
0.0
 42
-0.221694662642942
  0
VERTEX
  5
255A
  8
SAPA_PROFIL
 10
-20.211721773134741
 20
-90.392836281916061
 30
0.0
  0
VERTEX
  5
255B
  8
SAPA_PROFIL
 10
-21.729813332935471
 20
-88.583645211636394
 30
0.0
 42
-0.1763269807084499
  0
VERTEX
  5
255C
  8
SAPA_PROFIL
 10
-21.799999999999731
 20
-88.390808928730607
 30
0.0
  0
VERTEX
  5
255D
  8
SAPA_PROFIL
 10
-21.800000000000178
 20
-87.999999999010456
 30
0.0
 42
-0.4142135623730284
  0
VERTEX
  5
255E
  8
SAPA_PROFIL
 10
-21.300000000000178
 20
-87.499999999010484
 30
0.0
  0
VERTEX
  5
255F
  8
SAPA_PROFIL
 10
-20.450000000000269
 20
-87.499999999010484
 30
0.0
 42
0.668178637919182
  0
VERTEX
  5
2560
  8
SAPA_PROFIL
 10
-20.237867965644
 20
-86.987867964654455
 30
0.0
  0
VERTEX
  5
2561
  8
SAPA_PROFIL
 10
-20.637867965644091
 20
-86.587867964654379
 30
0.0
 42
0.1989123673797144
  0
VERTEX
  5
2562
  8
SAPA_PROFIL
 10
-20.849999999999909
 20
-86.499999999010456
 30
0.0
  0
VERTEX
  5
2563
  8
SAPA_PROFIL
 10
-23.300000000000178
 20
-86.499999999010456
 30
0.0
 42
0.4142135623730951
  0
VERTEX
  5
2564
  8
SAPA_PROFIL
 10
-23.800000000000178
 20
-86.99999999901047
 30
0.0
  0
VERTEX
  5
2565
  8
SAPA_PROFIL
 10
-23.800000000000178
 20
-90.699999999010274
 30
0.0
 42
0.4142135623730951
  0
VERTEX
  5
2566
  8
SAPA_PROFIL
 10
-23.500000000000451
 20
-90.99999999901047
 30
0.0
  0
VERTEX
  5
2567
  8
SAPA_PROFIL
 10
-22.473205080757001
 20
-90.99999999901047
 30
0.0
 42
-0.2679491924311428
  0
VERTEX
  5
2568
  8
SAPA_PROFIL
 10
-22.21339745962177
 20
-91.149999999010575
 30
0.0
  0
VERTEX
  5
2569
  8
SAPA_PROFIL
 10
-21.325961894323431
 20
-92.687083486550804
 30
0.0
 42
-0.4142135623731709
  0
VERTEX
  5
256A
  8
SAPA_PROFIL
 10
-21.435769515459011
 20
-93.096891107686133
 30
0.0
  0
VERTEX
  5
256B
  8
SAPA_PROFIL
 10
-21.96791111376206
 20
-93.404123202713436
 30
0.0
 42
0.4663076581551056
  0
VERTEX
  5
256C
  8
SAPA_PROFIL
 10
-22.233955556881028
 20
-94.912936216184335
 30
0.0
  0
VERTEX
  5
256D
  8
SAPA_PROFIL
 10
-18.115270605417209
 20
-99.821393803853425
 30
0.0
 42
0.2216946626428921
  0
VERTEX
  5
256E
  8
SAPA_PROFIL
 10
-17.732248383857488
 20
-99.999999999010484
 30
0.0
  0
VERTEX
  5
256F
  8
SAPA_PROFIL
 10
-9.7002075382097246
 20
-99.999999999010484
 30
0.0
 42
0.3152987888789878
  0
VERTEX
  5
2570
  8
SAPA_PROFIL
 10
-8.760514917423734
 20
-99.342020142335983
 30
0.0
  0
VERTEX
  5
2571
  8
SAPA_PROFIL
 10
-7.4196339112449996
 20
-95.657979855684516
 30
0.0
 42
-0.3152987888789804
  0
VERTEX
  5
2572
  8
SAPA_PROFIL
 10
-6.479941290459009
 20
-94.999999999010015
 30
0.0
  0
VERTEX
  5
2573
  8
SAPA_PROFIL
 10
6.4799412904594638
 20
-94.999999999010015
 30
0.0
 42
-0.3152987888789804
  0
VERTEX
  5
2574
  8
SAPA_PROFIL
 10
7.4196339112454552
 20
-95.657979855684516
 30
0.0
  0
VERTEX
  5
2575
  8
SAPA_PROFIL
 10
8.760514917423734
 20
-99.342020142335983
 30
0.0
 42
0.3152987888789877
  0
VERTEX
  5
2576
  8
SAPA_PROFIL
 10
9.7002075382097246
 20
-99.999999999010484
 30
0.0
  0
VERTEX
  5
2577
  8
SAPA_PROFIL
 10
17.73224838385795
 20
-99.999999999010484
 30
0.0
 42
0.2216946626428921
  0
VERTEX
  5
2578
  8
SAPA_PROFIL
 10
18.115270605417209
 20
-99.821393803853425
 30
0.0
  0
VERTEX
  5
2579
  8
SAPA_PROFIL
 10
22.233955556881028
 20
-94.912936216184335
 30
0.0
 42
0.4663076581551056
  0
VERTEX
  5
257A
  8
SAPA_PROFIL
 10
21.967911113762511
 20
-93.404123202713436
 30
0.0
  0
VERTEX
  5
257B
  8
SAPA_PROFIL
 10
21.435769515459011
 20
-93.096891107686133
 30
0.0
 42
-0.414213562373157
  0
VERTEX
  5
257C
  8
SAPA_PROFIL
 10
21.325961894323878
 20
-92.687083486550804
 30
0.0
  0
VERTEX
  5
257D
  8
SAPA_PROFIL
 10
22.213397459622229
 20
-91.149999999010575
 30
0.0
 42
-0.2679491924311554
  0
VERTEX
  5
257E
  8
SAPA_PROFIL
 10
22.473205080757449
 20
-90.99999999901047
 30
0.0
  0
VERTEX
  5
257F
  8
SAPA_PROFIL
 10
23.500000000000451
 20
-90.99999999901047
 30
0.0
 42
0.4142135623730951
  0
VERTEX
  5
2580
  8
SAPA_PROFIL
 10
23.80000000000064
 20
-90.699999999010274
 30
0.0
  0
VERTEX
  5
2581
  8
SAPA_PROFIL
 10
23.800000000000178
 20
-86.99999999901047
 30
0.0
 42
0.4142135623730951
  0
VERTEX
  5
2582
  8
SAPA_PROFIL
 10
23.300000000000178
 20
-86.499999999010456
 30
0.0
  0
SEQEND
  5
2583
  8
SAPA_PROFIL
  0
POLYLINE
  5
1840
  8
SAPA_PROFIL
 62
     4
 66
     1
 10
0.0
 20
0.0
 30
0.0
 70
     1
  0
VERTEX
  5
2584
  8
SAPA_PROFIL
 62
     4
 10
-1.055634910786466
 20
-88.358578641879717
 30
0.0
 42
-0.1989123671061458
  0
VERTEX
  5
2585
  8
SAPA_PROFIL
 62
     4
 10
-0.2071067742556352
 20
-88.00710678019658
 30
0.0
  0
VERTEX
  5
2586
  8
SAPA_PROFIL
 62
     4
 10
0.2071067742555215
 20
-88.00710678019658
 30
0.0
 42
-0.1989123671061505
  0
VERTEX
  5
2587
  8
SAPA_PROFIL
 62
     4
 10
1.0556349107863521
 20
-88.358578641879717
 30
0.0
  0
VERTEX
  5
2588
  8
SAPA_PROFIL
 62
     4
 10
3.287867965867235
 20
-90.590811692262079
 30
0.0
 42
0.6681786375387371
  0
VERTEX
  5
2589
  8
SAPA_PROFIL
 62
     4
 10
3.7999999999999541
 20
-90.378679657682881
 30
0.0
  0
VERTEX
  5
258A
  8
SAPA_PROFIL
 62
     4
 10
3.7999999999999541
 20
-73.799999999010083
 30
0.0
 42
0.4142135623731034
  0
VERTEX
  5
258B
  8
SAPA_PROFIL
 62
     4
 10
3.4999999999999432
 20
-73.499999999010072
 30
0.0
  0
VERTEX
  5
258C
  8
SAPA_PROFIL
 62
     4
 10
-3.4999999999999432
 20
-73.499999999010072
 30
0.0
 42
0.4142135623731034
  0
VERTEX
  5
258D
  8
SAPA_PROFIL
 62
     4
 10
-3.8000000000000109
 20
-73.799999999010083
 30
0.0
  0
VERTEX
  5
258E
  8
SAPA_PROFIL
 62
     4
 10
-3.8000000000000682
 20
-90.378679657682881
 30
0.0
 42
0.6681786375387019
  0
VERTEX
  5
258F
  8
SAPA_PROFIL
 62
     4
 10
-3.2878679658673491
 20
-90.590811692262079
 30
0.0
  0
SEQEND
  5
2590
  8
SAPA_PROFIL
 62
     4
  0
POLYLINE
  5
1841
  8
SAPA_PROFIL
 62
     4
 66
     1
 10
0.0
 20
0.0
 30
0.0
 70
     1
  0
VERTEX
  5
2591
  8
SAPA_PROFIL
 62
     4
 10
3.7999999999999541
 20
-72.19999999901006
 30
0.0
  0
VERTEX
  5
2592
  8
SAPA_PROFIL
 62
     4
 10
3.7999999999999541
 20
-53.999999999010022
 30
0.0
 42
0.4142135623730951
  0
VERTEX
  5
2593
  8
SAPA_PROFIL
 62
     4
 10
3.5
 20
-53.699999999010011
 30
0.0
  0
VERTEX
  5
2594
  8
SAPA_PROFIL
 62
     4
 10
2.6029437251521581
 20
-53.69999999901006
 30
0.0
  0
VERTEX
  5
2595
  8
SAPA_PROFIL
 62
     4
 10
1.0499999999999541
 20
-52.147056273857629
 30
0.0
  0
VERTEX
  5
2596
  8
SAPA_PROFIL
 62
     4
 10
1.0499999999999541
 20
-46.568653346957198
 30
0.0
  0
VERTEX
  5
2597
  8
SAPA_PROFIL
 62
     4
 10
0.4763139720814138
 20
-45.57499999901006
 30
0.0
 42
0.5773502691896344
  0
VERTEX
  5
2598
  8
SAPA_PROFIL
 62
     4
 10
-0.4763139720814707
 20
-45.574999999009997
 30
0.0
  0
VERTEX
  5
2599
  8
SAPA_PROFIL
 62
     4
 10
-1.050000000000068
 20
-46.568653346957369
 30
0.0
  0
VERTEX
  5
259A
  8
SAPA_PROFIL
 62
     4
 10
-1.050000000000068
 20
-52.1470562738578
 30
0.0
  0
VERTEX
  5
259B
  8
SAPA_PROFIL
 62
     4
 10
-2.6029437251522718
 20
-53.69999999901006
 30
0.0
  0
VERTEX
  5
259C
  8
SAPA_PROFIL
 62
     4
 10
-3.5000000000001128
 20
-53.699999999010011
 30
0.0
 42
0.4142135623730951
  0
VERTEX
  5
259D
  8
SAPA_PROFIL
 62
     4
 10
-3.8000000000000682
 20
-53.999999999010022
 30
0.0
  0
VERTEX
  5
259E
  8
SAPA_PROFIL
 62
     4
 10
-3.8000000000000109
 20
-72.19999999901006
 30
0.0
 42
0.4142135623730951
  0
VERTEX
  5
259F
  8
SAPA_PROFIL
 62
     4
 10
-3.500000000000056
 20
-72.499999999010015
 30
0.0
  0
VERTEX
  5
25A0
  8
SAPA_PROFIL
 62
     4
 10
3.500000000000056
 20
-72.499999999010072
 30
0.0
 42
0.4142135623730951
  0
SEQEND
  5
25A1
  8
SAPA_PROFIL
 62
     4
  0
POLYLINE
  5
1842
  8
SAPA_PROFIL
 62
     4
 66
     1
 10
0.0
 20
0.0
 30
0.0
 70
     1
  0
VERTEX
  5
25A2
  8
SAPA_PROFIL
 62
     4
 10
-0.3535533839706204
 20
-89.353553389603292
 30
0.0
 42
-0.4142135623730951
  0
VERTEX
  5
25A3
  8
SAPA_PROFIL
 62
     4
 10
0.3535533972159328
 20
-89.353553389603292
 30
0.0
  0
VERTEX
  5
25A4
  8
SAPA_PROFIL
 62
     4
 10
3.5
 20
-92.499999999010015
 30
0.0
  0
VERTEX
  5
25A5
  8
SAPA_PROFIL
 62
     4
 10
5.0
 20
-92.499999999010015
 30
0.0
  0
VERTEX
  5
25A6
  8
SAPA_PROFIL
 62
     4
 10
5.0
 20
-52.999999999010008
 30
0.0
 42
0.4142135623730951
  0
VERTEX
  5
25A7
  8
SAPA_PROFIL
 62
     4
 10
4.5
 20
-52.499999999010008
 30
0.0
  0
VERTEX
  5
25A8
  8
SAPA_PROFIL
 62
     4
 10
3.0999999999999091
 20
-52.499999999010008
 30
0.0
  0
VERTEX
  5
25A9
  8
SAPA_PROFIL
 62
     4
 10
2.25
 20
-51.649999999010049
 30
0.0
  0
VERTEX
  5
25AA
  8
SAPA_PROFIL
 62
     4
 10
2.25
 20
-47.047114316039988
 30
0.0
  0
VERTEX
  5
25AB
  8
SAPA_PROFIL
 62
     4
 10
1.1691342951090169
 20
-45.174999999010019
 30
0.0
 42
0.5773502691896344
  0
VERTEX
  5
25AC
  8
SAPA_PROFIL
 62
     4
 10
-1.169134295109074
 20
-45.174999999010019
 30
0.0
  0
VERTEX
  5
25AD
  8
SAPA_PROFIL
 62
     4
 10
-2.2500000000001128
 20
-47.047114316040172
 30
0.0
  0
VERTEX
  5
25AE
  8
SAPA_PROFIL
 62
     4
 10
-2.2500000000001128
 20
-51.649999999010049
 30
0.0
  0
VERTEX
  5
25AF
  8
SAPA_PROFIL
 62
     4
 10
-3.1000000000000218
 20
-52.499999999010008
 30
0.0
  0
VERTEX
  5
25B0
  8
SAPA_PROFIL
 62
     4
 10
-4.5
 20
-52.499999999010008
 30
0.0
 42
0.4142135623730951
  0
VERTEX
  5
25B1
  8
SAPA_PROFIL
 62
     4
 10
-5.0
 20
-52.999999999010008
 30
0.0
  0
VERTEX
  5
25B2
  8
SAPA_PROFIL
 62
     4
 10
-5.0
 20
-92.499999999010015
 30
0.0
  0
VERTEX
  5
25B3
  8
SAPA_PROFIL
 62
     4
 10
-3.5
 20
-92.499999999010015
 30
0.0
  0
SEQEND
  5
25B4
  8
SAPA_PROFIL
 62
     4
  0
POLYLINE
  5
1843
  8
SAPA_PROFIL
 66
     1
 10
0.0
 20
0.0
 30
0.0
 70
     1
  0
VERTEX
  5
25B5
  8
SAPA_PROFIL
 10
2.700000000000272
 20
-33.050000000001091
 30
0.0
  0
VERTEX
  5
25B6
  8
SAPA_PROFIL
 10
2.0767196966983188
 20
-31.67376540642476
 30
0.0
 42
-0.5450207798987328
  0
VERTEX
  5
25B7
  8
SAPA_PROFIL
 10
2.350000000000136
 20
-31.25000000000114
 30
0.0
  0
VERTEX
  5
25B8
  8
SAPA_PROFIL
 10
2.700000000000272
 20
-31.25000000000114
 30
0.0
  0
VERTEX
  5
25B9
  8
SAPA_PROFIL
 10
2.700000000000272
 20
-31.00000000000114
 30
0.0
 42
0.4142135623730951
  0
VERTEX
  5
25BA
  8
SAPA_PROFIL
 10
1.700000000000272
 20
-30.00000000000114
 30
0.0
  0
VERTEX
  5
25BB
  8
SAPA_PROFIL
 10
-1.6999999999998181
 20
-30.00000000000114
 30
0.0
 42
0.4142135623730951
  0
VERTEX
  5
25BC
  8
SAPA_PROFIL
 10
-2.6999999999998181
 20
-31.00000000000114
 30
0.0
  0
VERTEX
  5
25BD
  8
SAPA_PROFIL
 10
-2.6999999999998181
 20
-32.150000000001
 30
0.0
  0
VERTEX
  5
25BE
  8
SAPA_PROFIL
 10
-2.3499999999996808
 20
-32.150000000001
 30
0.0
 42
-0.5450200690651551
  0
VERTEX
  5
25BF
  8
SAPA_PROFIL
 10
-2.0767189999999109
 20
-32.573765000001011
 30
0.0
  0
VERTEX
  5
25C0
  8
SAPA_PROFIL
 10
-2.6999999999998181
 20
-33.950000000000948
 30
0.0
  0
VERTEX
  5
25C1
  8
SAPA_PROFIL
 10
-2.3499999999996808
 20
-33.950000000000948
 30
0.0
 42
-0.5450200690651692
  0
VERTEX
  5
25C2
  8
SAPA_PROFIL
 10
-2.0767189999999109
 20
-34.373765000000958
 30
0.0
  0
VERTEX
  5
25C3
  8
SAPA_PROFIL
 10
-2.6999999999998181
 20
-35.750000000001137
 30
0.0
  0
VERTEX
  5
25C4
  8
SAPA_PROFIL
 10
-2.3499999999996808
 20
-35.750000000001137
 30
0.0
 42
-0.5450200690651619
  0
VERTEX
  5
25C5
  8
SAPA_PROFIL
 10
-2.0767189999999109
 20
-36.17376500000114
 30
0.0
  0
VERTEX
  5
25C6
  8
SAPA_PROFIL
 10
-2.6999999999998181
 20
-37.550000000001091
 30
0.0
  0
VERTEX
  5
25C7
  8
SAPA_PROFIL
 10
-2.3499999999996808
 20
-37.550000000001091
 30
0.0
 42
-0.5450200690651619
  0
VERTEX
  5
25C8
  8
SAPA_PROFIL
 10
-2.0767189999999109
 20
-37.973765000001102
 30
0.0
  0
VERTEX
  5
25C9
  8
SAPA_PROFIL
 10
-2.6999999999998181
 20
-39.350000000001053
 30
0.0
  0
VERTEX
  5
25CA
  8
SAPA_PROFIL
 10
-2.3499999999996808
 20
-39.350000000001053
 30
0.0
 42
-0.5450200690651692
  0
VERTEX
  5
25CB
  8
SAPA_PROFIL
 10
-2.0767189999999109
 20
-39.773765000001049
 30
0.0
  0
VERTEX
  5
25CC
  8
SAPA_PROFIL
 10
-2.6999999999998181
 20
-41.150000000001
 30
0.0
  0
VERTEX
  5
25CD
  8
SAPA_PROFIL
 10
-2.6999999999998181
 20
-41.450000000000948
 30
0.0
  0
VERTEX
  5
25CE
  8
SAPA_PROFIL
 10
2.42826763351104
 20
-41.450000000000948
 30
0.0
  0
VERTEX
  5
25CF
  8
SAPA_PROFIL
 10
2.0767196966983188
 20
-40.673765406424756
 30
0.0
 42
-0.5450207798987328
  0
VERTEX
  5
25D0
  8
SAPA_PROFIL
 10
2.350000000000136
 20
-40.250000000001137
 30
0.0
  0
VERTEX
  5
25D1
  8
SAPA_PROFIL
 10
2.700000000000272
 20
-40.250000000001137
 30
0.0
  0
VERTEX
  5
25D2
  8
SAPA_PROFIL
 10
2.0767200000002499
 20
-38.873765000000958
 30
0.0
 42
-0.5450205149791638
  0
VERTEX
  5
25D3
  8
SAPA_PROFIL
 10
2.350000000000136
 20
-38.450000000000962
 30
0.0
  0
VERTEX
  5
25D4
  8
SAPA_PROFIL
 10
2.700000000000272
 20
-38.450000000000962
 30
0.0
  0
VERTEX
  5
25D5
  8
SAPA_PROFIL
 10
2.0767196966983188
 20
-37.073765406424627
 30
0.0
 42
-0.545020779898768
  0
VERTEX
  5
25D6
  8
SAPA_PROFIL
 10
2.350000000000136
 20
-36.650000000001
 30
0.0
  0
VERTEX
  5
25D7
  8
SAPA_PROFIL
 10
2.700000000000272
 20
-36.650000000001
 30
0.0
  0
VERTEX
  5
25D8
  8
SAPA_PROFIL
 10
2.0767196966983188
 20
-35.273765406424673
 30
0.0
 42
-0.54502077989874
  0
VERTEX
  5
25D9
  8
SAPA_PROFIL
 10
2.350000000000136
 20
-34.850000000001053
 30
0.0
  0
VERTEX
  5
25DA
  8
SAPA_PROFIL
 10
2.700000000000272
 20
-34.850000000001053
 30
0.0
  0
VERTEX
  5
25DB
  8
SAPA_PROFIL
 10
2.0767196966983188
 20
-33.473765406424718
 30
0.0
 42
-0.545020779898761
  0
VERTEX
  5
25DC
  8
SAPA_PROFIL
 10
2.350000000000136
 20
-33.050000000001091
 30
0.0
  0
SEQEND
  5
25DD
  8
SAPA_PROFIL
  0
POLYLINE
  5
1844
  8
SAPA_PROFIL
 66
     1
 10
0.0
 20
0.0
 30
0.0
 70
     1
  0
VERTEX
  5
25DE
  8
SAPA_PROFIL
 10
23.000000000000231
 20
58.024264068710863
 30
0.0
 42
-0.1989123673796753
  0
VERTEX
  5
25DF
  8
SAPA_PROFIL
 10
22.912132034356091
 20
57.812132034355052
 30
0.0
  0
VERTEX
  5
25E0
  8
SAPA_PROFIL
 10
21.187867965644269
 20
56.087867965642999
 30
0.0
 42
0.1989123673796753
  0
VERTEX
  5
25E1
  8
SAPA_PROFIL
 10
21.10000000000014
 20
55.875735931286947
 30
0.0
  0
VERTEX
  5
25E2
  8
SAPA_PROFIL
 10
21.10000000000014
 20
55.299999999999052
 30
0.0
 42
0.4142135623730951
  0
VERTEX
  5
25E3
  8
SAPA_PROFIL
 10
21.400000000000318
 20
54.999999999998863
 30
0.0
  0
VERTEX
  5
25E4
  8
SAPA_PROFIL
 10
22.700000000000269
 20
54.999999999998863
 30
0.0
 42
-0.4142135623730951
  0
VERTEX
  5
25E5
  8
SAPA_PROFIL
 10
23.000000000000231
 20
54.699999999998909
 30
0.0
  0
VERTEX
  5
25E6
  8
SAPA_PROFIL
 10
23.000000000000231
 20
29.99999999999886
 30
0.0
 42
-0.4142135623730951
  0
VERTEX
  5
25E7
  8
SAPA_PROFIL
 10
22.000000000000231
 20
28.99999999999887
 30
0.0
  0
VERTEX
  5
25E8
  8
SAPA_PROFIL
 10
17.600000000000129
 20
28.99999999999887
 30
0.0
 42
0.4142135623730951
  0
VERTEX
  5
25E9
  8
SAPA_PROFIL
 10
17.300000000000178
 20
28.699999999998909
 30
0.0
  0
VERTEX
  5
25EA
  8
SAPA_PROFIL
 10
17.300000000000178
 20
26.399999999998961
 30
0.0
 42
0.4142135623730951
  0
VERTEX
  5
25EB
  8
SAPA_PROFIL
 10
17.600000000000129
 20
26.099999999999
 30
0.0
  0
VERTEX
  5
25EC
  8
SAPA_PROFIL
 10
18.100000000000129
 20
26.099999999999
 30
0.0
 42
0.4142135623730951
  0
VERTEX
  5
25ED
  8
SAPA_PROFIL
 10
18.400000000000318
 20
26.399999999998961
 30
0.0
  0
VERTEX
  5
25EE
  8
SAPA_PROFIL
 10
18.400000000000318
 20
26.736626924633359
 30
0.0
 42
-0.5535245743249297
  0
VERTEX
  5
25EF
  8
SAPA_PROFIL
 10
22.71055421153164
 20
24.96410760212348
 30
0.0
  0
VERTEX
  5
25F0
  8
SAPA_PROFIL
 10
22.42322330470347
 20
24.67677669529553
 30
0.0
 42
0.4142135623729421
  0
VERTEX
  5
25F1
  8
SAPA_PROFIL
 10
22.42322330470347
 20
24.32322330470242
 30
0.0
  0
VERTEX
  5
25F2
  8
SAPA_PROFIL
 10
22.71055421153164
 20
24.035892397874481
 30
0.0
 42
-0.5535245743249292
  0
VERTEX
  5
25F3
  8
SAPA_PROFIL
 10
18.400000000000318
 20
22.26337307536437
 30
0.0
  0
VERTEX
  5
25F4
  8
SAPA_PROFIL
 10
18.400000000000318
 20
22.599999999999
 30
0.0
 42
0.4142135623730951
  0
VERTEX
  5
25F5
  8
SAPA_PROFIL
 10
18.100000000000129
 20
22.899999999998961
 30
0.0
  0
VERTEX
  5
25F6
  8
SAPA_PROFIL
 10
17.600000000000129
 20
22.899999999998961
 30
0.0
 42
0.4142135623730951
  0
VERTEX
  5
25F7
  8
SAPA_PROFIL
 10
17.300000000000178
 20
22.599999999999
 30
0.0
  0
VERTEX
  5
25F8
  8
SAPA_PROFIL
 10
17.300000000000178
 20
21.49999999999886
 30
0.0
 42
0.4142135623730951
  0
VERTEX
  5
25F9
  8
SAPA_PROFIL
 10
18.800000000000178
 20
19.99999999999886
 30
0.0
  0
VERTEX
  5
25FA
  8
SAPA_PROFIL
 10
21.63397459621569
 20
19.99999999999886
 30
0.0
 42
0.267949192431143
  0
VERTEX
  5
25FB
  8
SAPA_PROFIL
 10
22.066987298107961
 20
20.24999999999886
 30
0.0
 42
-0.767326987978956
  0
VERTEX
  5
25FC
  8
SAPA_PROFIL
 10
23.000000000000231
 20
19.99999999999886
 30
0.0
  0
VERTEX
  5
25FD
  8
SAPA_PROFIL
 10
23.000000000000231
 20
-15.00000000000113
 30
0.0
 42
-0.4142135623730951
  0
VERTEX
  5
25FE
  8
SAPA_PROFIL
 10
22.000000000000231
 20
-16.00000000000114
 30
0.0
  0
VERTEX
  5
25FF
  8
SAPA_PROFIL
 10
17.600000000000129
 20
-16.00000000000114
 30
0.0
 42
0.4142135623730951
  0
VERTEX
  5
2600
  8
SAPA_PROFIL
 10
17.300000000000178
 20
-16.300000000001091
 30
0.0
  0
VERTEX
  5
2601
  8
SAPA_PROFIL
 10
17.300000000000178
 20
-18.600000000001039
 30
0.0
 42
0.4142135623730951
  0
VERTEX
  5
2602
  8
SAPA_PROFIL
 10
17.600000000000129
 20
-18.900000000001
 30
0.0
  0
VERTEX
  5
2603
  8
SAPA_PROFIL
 10
18.100000000000129
 20
-18.900000000001
 30
0.0
 42
0.4142135623730951
  0
VERTEX
  5
2604
  8
SAPA_PROFIL
 10
18.400000000000318
 20
-18.600000000001039
 30
0.0
  0
VERTEX
  5
2605
  8
SAPA_PROFIL
 10
18.400000000000318
 20
-18.263373075366641
 30
0.0
 42
-0.5535245743249297
  0
VERTEX
  5
2606
  8
SAPA_PROFIL
 10
22.71055421153164
 20
-20.03589239787652
 30
0.0
  0
VERTEX
  5
2607
  8
SAPA_PROFIL
 10
22.42322330470347
 20
-20.32322330470447
 30
0.0
 42
0.4142135623730243
  0
VERTEX
  5
2608
  8
SAPA_PROFIL
 10
22.423223304703701
 20
-20.67677669529758
 30
0.0
  0
VERTEX
  5
2609
  8
SAPA_PROFIL
 10
22.71055421153164
 20
-20.96410760212553
 30
0.0
 42
-0.5535245743249292
  0
VERTEX
  5
260A
  8
SAPA_PROFIL
 10
18.400000000000318
 20
-22.73662692463563
 30
0.0
  0
VERTEX
  5
260B
  8
SAPA_PROFIL
 10
18.400000000000318
 20
-22.400000000001
 30
0.0
 42
0.4142135623730951
  0
VERTEX
  5
260C
  8
SAPA_PROFIL
 10
18.100000000000129
 20
-22.100000000001049
 30
0.0
  0
VERTEX
  5
260D
  8
SAPA_PROFIL
 10
17.600000000000129
 20
-22.100000000001049
 30
0.0
 42
0.4142135623730951
  0
VERTEX
  5
260E
  8
SAPA_PROFIL
 10
17.300000000000178
 20
-22.400000000001
 30
0.0
  0
VERTEX
  5
260F
  8
SAPA_PROFIL
 10
17.300000000000178
 20
-23.50000000000114
 30
0.0
 42
0.4142135623730951
  0
VERTEX
  5
2610
  8
SAPA_PROFIL
 10
18.800000000000178
 20
-25.00000000000114
 30
0.0
  0
VERTEX
  5
2611
  8
SAPA_PROFIL
 10
21.780384757729511
 20
-25.00000000000114
 30
0.0
 42
0.2679491924311188
  0
VERTEX
  5
2612
  8
SAPA_PROFIL
 10
22.040192378864958
 20
-24.850000000001049
 30
0.0
 42
-0.7673269879789557
  0
VERTEX
  5
2613
  8
SAPA_PROFIL
 10
22.600000000000129
 20
-25.00000000000114
 30
0.0
  0
VERTEX
  5
2614
  8
SAPA_PROFIL
 10
22.599999999999909
 20
-27.00000000000114
 30
0.0
 42
-0.4142137811865366
  0
VERTEX
  5
2615
  8
SAPA_PROFIL
 10
21.600000747075459
 20
-28.00000000000114
 30
0.0
  0
VERTEX
  5
2616
  8
SAPA_PROFIL
 10
-21.599999999999682
 20
-28.00000000000114
 30
0.0
 42
-0.4142140000000124
  0
VERTEX
  5
2617
  8
SAPA_PROFIL
 10
-22.599999999999682
 20
-27.00000000000114
 30
0.0
  0
VERTEX
  5
2618
  8
SAPA_PROFIL
 10
-22.599999999999682
 20
-25.00000000000114
 30
0.0
 42
-0.7673269879789457
  0
VERTEX
  5
2619
  8
SAPA_PROFIL
 10
-22.0401923788645
 20
-24.850000000001049
 30
0.0
 42
0.2679491924311191
  0
VERTEX
  5
261A
  8
SAPA_PROFIL
 10
-21.780384757729049
 20
-25.00000000000114
 30
0.0
  0
VERTEX
  5
261B
  8
SAPA_PROFIL
 10
-18.799999999999731
 20
-25.00000000000114
 30
0.0
 42
0.4142135623730951
  0
VERTEX
  5
261C
  8
SAPA_PROFIL
 10
-17.299999999999731
 20
-23.50000000000114
 30
0.0
  0
VERTEX
  5
261D
  8
SAPA_PROFIL
 10
-17.299999999999731
 20
-22.400000000001
 30
0.0
 42
0.4142135623730951
  0
VERTEX
  5
261E
  8
SAPA_PROFIL
 10
-17.599999999999682
 20
-22.100000000001049
 30
0.0
  0
VERTEX
  5
261F
  8
SAPA_PROFIL
 10
-18.099999999999682
 20
-22.100000000001049
 30
0.0
 42
0.4142135623730951
  0
VERTEX
  5
2620
  8
SAPA_PROFIL
 10
-18.39999999999986
 20
-22.400000000001
 30
0.0
  0
VERTEX
  5
2621
  8
SAPA_PROFIL
 10
-18.39999999999986
 20
-22.73662692463563
 30
0.0
 42
-0.5535245743249307
  0
VERTEX
  5
2622
  8
SAPA_PROFIL
 10
-22.710554211531189
 20
-20.96410760212553
 30
0.0
  0
VERTEX
  5
2623
  8
SAPA_PROFIL
 10
-22.423223304703239
 20
-20.67677669529758
 30
0.0
 42
0.4142135623730951
  0
VERTEX
  5
2624
  8
SAPA_PROFIL
 10
-22.423223304703239
 20
-20.32322330470447
 30
0.0
  0
VERTEX
  5
2625
  8
SAPA_PROFIL
 10
-22.710554211531189
 20
-20.03589239787652
 30
0.0
 42
-0.553524574324932
  0
VERTEX
  5
2626
  8
SAPA_PROFIL
 10
-18.39999999999986
 20
-18.263373075366641
 30
0.0
  0
VERTEX
  5
2627
  8
SAPA_PROFIL
 10
-18.39999999999986
 20
-18.600000000001039
 30
0.0
 42
0.4142135623730951
  0
VERTEX
  5
2628
  8
SAPA_PROFIL
 10
-18.099999999999682
 20
-18.900000000001
 30
0.0
  0
VERTEX
  5
2629
  8
SAPA_PROFIL
 10
-17.599999999999682
 20
-18.900000000001
 30
0.0
 42
0.4142135623730951
  0
VERTEX
  5
262A
  8
SAPA_PROFIL
 10
-17.299999999999731
 20
-18.600000000001039
 30
0.0
  0
VERTEX
  5
262B
  8
SAPA_PROFIL
 10
-17.299999999999731
 20
-16.300000000001091
 30
0.0
 42
0.4142135623730951
  0
VERTEX
  5
262C
  8
SAPA_PROFIL
 10
-17.599999999999682
 20
-16.00000000000114
 30
0.0
  0
VERTEX
  5
262D
  8
SAPA_PROFIL
 10
-21.999999999999769
 20
-16.00000000000114
 30
0.0
 42
-0.4142135623730951
  0
VERTEX
  5
262E
  8
SAPA_PROFIL
 10
-22.999999999999769
 20
-15.00000000000113
 30
0.0
  0
VERTEX
  5
262F
  8
SAPA_PROFIL
 10
-22.999999999999769
 20
19.99999999999886
 30
0.0
 42
-0.7673269879789569
  0
VERTEX
  5
2630
  8
SAPA_PROFIL
 10
-22.066987298107509
 20
20.24999999999886
 30
0.0
 42
0.2679491924311163
  0
VERTEX
  5
2631
  8
SAPA_PROFIL
 10
-21.633974596215239
 20
19.99999999999886
 30
0.0
  0
VERTEX
  5
2632
  8
SAPA_PROFIL
 10
-18.799999999999731
 20
19.99999999999886
 30
0.0
 42
0.4142135623730951
  0
VERTEX
  5
2633
  8
SAPA_PROFIL
 10
-17.299999999999731
 20
21.49999999999886
 30
0.0
  0
VERTEX
  5
2634
  8
SAPA_PROFIL
 10
-17.299999999999731
 20
22.599999999999
 30
0.0
 42
0.4142135623730951
  0
VERTEX
  5
2635
  8
SAPA_PROFIL
 10
-17.599999999999682
 20
22.899999999998961
 30
0.0
  0
VERTEX
  5
2636
  8
SAPA_PROFIL
 10
-18.099999999999682
 20
22.899999999998961
 30
0.0
 42
0.4142135623730951
  0
VERTEX
  5
2637
  8
SAPA_PROFIL
 10
-18.39999999999986
 20
22.599999999999
 30
0.0
  0
VERTEX
  5
2638
  8
SAPA_PROFIL
 10
-18.39999999999986
 20
22.26337307536437
 30
0.0
 42
-0.5535245743249307
  0
VERTEX
  5
2639
  8
SAPA_PROFIL
 10
-22.710554211531189
 20
24.035892397874481
 30
0.0
  0
VERTEX
  5
263A
  8
SAPA_PROFIL
 10
-22.423223304703239
 20
24.32322330470242
 30
0.0
 42
0.4142135623731068
  0
VERTEX
  5
263B
  8
SAPA_PROFIL
 10
-22.423223304703011
 20
24.67677669529553
 30
0.0
  0
VERTEX
  5
263C
  8
SAPA_PROFIL
 10
-22.710554211531189
 20
24.96410760212348
 30
0.0
 42
-0.553524574324932
  0
VERTEX
  5
263D
  8
SAPA_PROFIL
 10
-18.39999999999986
 20
26.736626924633359
 30
0.0
  0
VERTEX
  5
263E
  8
SAPA_PROFIL
 10
-18.39999999999986
 20
26.399999999998961
 30
0.0
 42
0.4142135623730951
  0
VERTEX
  5
263F
  8
SAPA_PROFIL
 10
-18.099999999999682
 20
26.099999999999
 30
0.0
  0
VERTEX
  5
2640
  8
SAPA_PROFIL
 10
-17.599999999999682
 20
26.099999999999
 30
0.0
 42
0.4142135623730951
  0
VERTEX
  5
2641
  8
SAPA_PROFIL
 10
-17.299999999999731
 20
26.399999999998961
 30
0.0
  0
VERTEX
  5
2642
  8
SAPA_PROFIL
 10
-17.299999999999731
 20
28.699999999998909
 30
0.0
 42
0.4142135623730951
  0
VERTEX
  5
2643
  8
SAPA_PROFIL
 10
-17.599999999999682
 20
28.99999999999887
 30
0.0
  0
VERTEX
  5
2644
  8
SAPA_PROFIL
 10
-21.999999999999769
 20
28.99999999999887
 30
0.0
 42
-0.4142135623730951
  0
VERTEX
  5
2645
  8
SAPA_PROFIL
 10
-22.999999999999769
 20
29.99999999999886
 30
0.0
  0
VERTEX
  5
2646
  8
SAPA_PROFIL
 10
-22.999999999999769
 20
54.699999999998909
 30
0.0
 42
-0.4142135623730951
  0
VERTEX
  5
2647
  8
SAPA_PROFIL
 10
-22.699999999999822
 20
54.999999999998863
 30
0.0
  0
VERTEX
  5
2648
  8
SAPA_PROFIL
 10
-21.39999999999986
 20
54.999999999998863
 30
0.0
 42
0.4142135623730951
  0
VERTEX
  5
2649
  8
SAPA_PROFIL
 10
-21.099999999999682
 20
55.299999999999052
 30
0.0
  0
VERTEX
  5
264A
  8
SAPA_PROFIL
 10
-21.099999999999682
 20
55.875735931286947
 30
0.0
 42
0.1989123673796752
  0
VERTEX
  5
264B
  8
SAPA_PROFIL
 10
-21.187867965643822
 20
56.087867965642999
 30
0.0
  0
VERTEX
  5
264C
  8
SAPA_PROFIL
 10
-22.91213203435586
 20
57.812132034355052
 30
0.0
 42
-0.1989123673796057
  0
VERTEX
  5
264D
  8
SAPA_PROFIL
 10
-22.999999999999769
 20
58.024264068710863
 30
0.0
  0
VERTEX
  5
264E
  8
SAPA_PROFIL
 10
-22.999999999999769
 20
61.499999999998863
 30
0.0
 42
-0.4142135623730951
  0
VERTEX
  5
264F
  8
SAPA_PROFIL
 10
-21.999999999999769
 20
62.499999999998863
 30
0.0
  0
VERTEX
  5
2650
  8
SAPA_PROFIL
 10
22.000000000000231
 20
62.499999999998863
 30
0.0
 42
-0.4142135623730951
  0
VERTEX
  5
2651
  8
SAPA_PROFIL
 10
23.000000000000231
 20
61.499999999998863
 30
0.0
  0
SEQEND
  5
2652
  8
SAPA_PROFIL
  0
POLYLINE
  5
1845
  8
SAPA_PROFIL
 66
     1
 10
0.0
 20
0.0
 30
0.0
 70
     1
  0
VERTEX
  5
2653
  8
SAPA_PROFIL
 10
6.0000000000002274
 20
-30.00000000000114
 30
0.0
 42
0.4142135623730951
  0
VERTEX
  5
2654
  8
SAPA_PROFIL
 10
5.0000000000002274
 20
-31.00000000000114
 30
0.0
  0
VERTEX
  5
2655
  8
SAPA_PROFIL
 10
5.0000000000002274
 20
-52.200000000000948
 30
0.0
 42
-0.4142135623730951
  0
VERTEX
  5
2656
  8
SAPA_PROFIL
 10
4.700000000000272
 20
-52.50000000000113
 30
0.0
  0
VERTEX
  5
2657
  8
SAPA_PROFIL
 10
3.0757360000002332
 20
-52.50000000000113
 30
0.0
  0
VERTEX
  5
2658
  8
SAPA_PROFIL
 10
2.2378679656442269
 20
-51.562132034356871
 30
0.0
 42
-0.668178637919305
  0
VERTEX
  5
2659
  8
SAPA_PROFIL
 10
2.450000000000272
 20
-51.050000000001091
 30
0.0
  0
VERTEX
  5
265A
  8
SAPA_PROFIL
 10
2.700000000000272
 20
-51.050000000001091
 30
0.0
  0
VERTEX
  5
265B
  8
SAPA_PROFIL
 10
2.1767196966982278
 20
-49.673765406424756
 30
0.0
 42
-0.5450207798987201
  0
VERTEX
  5
265C
  8
SAPA_PROFIL
 10
2.450000000000272
 20
-49.250000000001137
 30
0.0
  0
VERTEX
  5
265D
  8
SAPA_PROFIL
 10
2.700000000000272
 20
-49.250000000001137
 30
0.0
  0
VERTEX
  5
265E
  8
SAPA_PROFIL
 10
2.1767196966982278
 20
-47.873765406424567
 30
0.0
 42
-0.5450207798987201
  0
VERTEX
  5
265F
  8
SAPA_PROFIL
 10
2.450000000000272
 20
-47.450000000000962
 30
0.0
  0
VERTEX
  5
2660
  8
SAPA_PROFIL
 10
2.700000000000272
 20
-47.450000000000962
 30
0.0
  0
VERTEX
  5
2661
  8
SAPA_PROFIL
 10
2.1767196966982278
 20
-46.07376540642462
 30
0.0
 42
-0.5450207798987342
  0
VERTEX
  5
2662
  8
SAPA_PROFIL
 10
2.450000000000272
 20
-45.650000000000993
 30
0.0
  0
VERTEX
  5
2663
  8
SAPA_PROFIL
 10
2.700000000000272
 20
-45.650000000000993
 30
0.0
  0
VERTEX
  5
2664
  8
SAPA_PROFIL
 10
2.1767196966982278
 20
-44.273765406424673
 30
0.0
 42
-0.5450207798987201
  0
VERTEX
  5
2665
  8
SAPA_PROFIL
 10
2.450000000000272
 20
-43.850000000001039
 30
0.0
  0
VERTEX
  5
2666
  8
SAPA_PROFIL
 10
2.700000000000272
 20
-43.850000000001039
 30
0.0
  0
VERTEX
  5
2667
  8
SAPA_PROFIL
 10
2.4722372826161059
 20
-43.126282705194853
 30
0.0
 42
0.2945484962563026
  0
VERTEX
  5
2668
  8
SAPA_PROFIL
 10
2.1988824689378812
 20
-42.950048040246656
 30
0.0
  0
VERTEX
  5
2669
  8
SAPA_PROFIL
 10
1.2642999377483191
 20
-42.950255222213173
 30
0.0
 42
-0.3475954753796591
  0
VERTEX
  5
266A
  8
SAPA_PROFIL
 10
0.9723265106783856
 20
-42.719501178044077
 30
0.0
 42
0.790522909611319
  0
VERTEX
  5
266B
  8
SAPA_PROFIL
 10
-0.973664089865224
 20
-42.71949097360357
 30
0.0
 42
-0.3476065658631364
  0
VERTEX
  5
266C
  8
SAPA_PROFIL
 10
-1.2656518108867649
 20
-42.950241952335773
 30
0.0
  0
VERTEX
  5
266D
  8
SAPA_PROFIL
 10
-1.8499926620931999
 20
-42.950095231626847
 30
0.0
 42
0.4102317530969976
  0
VERTEX
  5
266E
  8
SAPA_PROFIL
 10
-2.1500282985855388
 20
-43.245946879780369
 30
0.0
 42
-0.0712587206050384
  0
VERTEX
  5
266F
  8
SAPA_PROFIL
 10
-2.1632556124550311
 20
-43.329990804708579
 30
0.0
  0
VERTEX
  5
2670
  8
SAPA_PROFIL
 10
-2.6999999999998181
 20
-44.750000000001137
 30
0.0
  0
VERTEX
  5
2671
  8
SAPA_PROFIL
 10
-2.4499999999998181
 20
-44.750000000001137
 30
0.0
 42
-0.5450200690651619
  0
VERTEX
  5
2672
  8
SAPA_PROFIL
 10
-2.17671899999982
 20
-45.173765000001133
 30
0.0
  0
VERTEX
  5
2673
  8
SAPA_PROFIL
 10
-2.6999999999998181
 20
-46.550000000001091
 30
0.0
  0
VERTEX
  5
2674
  8
SAPA_PROFIL
 10
-2.4499999999998181
 20
-46.550000000000857
 30
0.0
 42
-0.545020069065176
  0
VERTEX
  5
2675
  8
SAPA_PROFIL
 10
-2.17671899999982
 20
-46.973765000001087
 30
0.0
  0
VERTEX
  5
2676
  8
SAPA_PROFIL
 10
-2.6999999999998181
 20
-48.350000000001039
 30
0.0
  0
VERTEX
  5
2677
  8
SAPA_PROFIL
 10
-2.4499999999998181
 20
-48.350000000001039
 30
0.0
 42
-0.5450200690651692
  0
VERTEX
  5
2678
  8
SAPA_PROFIL
 10
-2.17671899999982
 20
-48.773765000001049
 30
0.0
  0
VERTEX
  5
2679
  8
SAPA_PROFIL
 10
-2.6999999999998181
 20
-50.150000000001
 30
0.0
  0
VERTEX
  5
267A
  8
SAPA_PROFIL
 10
-2.1499999999998631
 20
-50.150000000001
 30
0.0
  0
VERTEX
  5
267B
  8
SAPA_PROFIL
 10
-2.1499999999998631
 20
-51.350000000001039
 30
0.0
 42
-0.1989123673797004
  0
VERTEX
  5
267C
  8
SAPA_PROFIL
 10
-2.2378679999997071
 20
-51.562132000001156
 30
0.0
  0
VERTEX
  5
267D
  8
SAPA_PROFIL
 10
-3.075735999999778
 20
-52.50000000000113
 30
0.0
  0
VERTEX
  5
267E
  8
SAPA_PROFIL
 10
-4.6999999999998181
 20
-52.50000000000113
 30
0.0
 42
-0.4142135623730951
  0
VERTEX
  5
267F
  8
SAPA_PROFIL
 10
-4.9999999999997717
 20
-52.200000000000948
 30
0.0
  0
VERTEX
  5
2680
  8
SAPA_PROFIL
 10
-4.9999999999997717
 20
-31.00000000000114
 30
0.0
 42
0.4142135623730951
  0
VERTEX
  5
2681
  8
SAPA_PROFIL
 10
-5.9999999999997717
 20
-30.00000000000114
 30
0.0
  0
VERTEX
  5
2682
  8
SAPA_PROFIL
 10
-14.19999999999982
 20
-30.00000000000114
 30
0.0
 42
0.4142135623730951
  0
VERTEX
  5
2683
  8
SAPA_PROFIL
 10
-14.69999999999982
 20
-30.50000000000114
 30
0.0
  0
VERTEX
  5
2684
  8
SAPA_PROFIL
 10
-14.69999999999982
 20
-33.700000000000962
 30
0.0
 42
0.4142135623730951
  0
VERTEX
  5
2685
  8
SAPA_PROFIL
 10
-14.19999999999982
 20
-34.200000000000962
 30
0.0
  0
VERTEX
  5
2686
  8
SAPA_PROFIL
 10
-11.299999999999731
 20
-34.200000000000962
 30
0.0
 42
-0.4142135623730951
  0
VERTEX
  5
2687
  8
SAPA_PROFIL
 10
-10.999999999999771
 20
-34.500000000001137
 30
0.0
  0
VERTEX
  5
2688
  8
SAPA_PROFIL
 10
-10.999999999999771
 20
-35.200000000000948
 30
0.0
 42
-0.4142135623730951
  0
VERTEX
  5
2689
  8
SAPA_PROFIL
 10
-11.299999999999731
 20
-35.500000000001137
 30
0.0
  0
VERTEX
  5
268A
  8
SAPA_PROFIL
 10
-17.999999999999769
 20
-35.500000000001137
 30
0.0
  0
VERTEX
  5
268B
  8
SAPA_PROFIL
 10
-18.586384015500471
 20
-35.035076580641999
 30
0.0
 42
-0.7105995019814511
  0
VERTEX
  5
268C
  8
SAPA_PROFIL
 10
-18.39999999999986
 20
-34.500000000001137
 30
0.0
  0
VERTEX
  5
268D
  8
SAPA_PROFIL
 10
-16.499999999999769
 20
-34.500000000001137
 30
0.0
 42
0.4142135623730951
  0
VERTEX
  5
268E
  8
SAPA_PROFIL
 10
-16.199999999999822
 20
-34.200000000000962
 30
0.0
  0
VERTEX
  5
268F
  8
SAPA_PROFIL
 10
-16.199999999999822
 20
-30.300000000001091
 30
0.0
 42
0.4142135623730951
  0
VERTEX
  5
2690
  8
SAPA_PROFIL
 10
-16.499999999999769
 20
-30.00000000000114
 30
0.0
  0
VERTEX
  5
2691
  8
SAPA_PROFIL
 10
-23.199999999999822
 20
-30.00000000000114
 30
0.0
 42
0.4142135623730951
  0
VERTEX
  5
2692
  8
SAPA_PROFIL
 10
-23.499999999999769
 20
-30.300000000001091
 30
0.0
  0
VERTEX
  5
2693
  8
SAPA_PROFIL
 10
-23.499999999999769
 20
-34.200000000000962
 30
0.0
 42
0.4142135623730951
  0
VERTEX
  5
2694
  8
SAPA_PROFIL
 10
-23.199999999999822
 20
-34.500000000001137
 30
0.0
  0
VERTEX
  5
2695
  8
SAPA_PROFIL
 10
-21.999999999999769
 20
-34.500000000001137
 30
0.0
 42
-0.7105990647993611
  0
VERTEX
  5
2696
  8
SAPA_PROFIL
 10
-21.81361599999968
 20
-35.035076000001027
 30
0.0
  0
VERTEX
  5
2697
  8
SAPA_PROFIL
 10
-22.39999999999986
 20
-35.500000000001137
 30
0.0
  0
VERTEX
  5
2698
  8
SAPA_PROFIL
 10
-24.699999999999822
 20
-35.500000000001137
 30
0.0
 42
-0.4142135623730951
  0
VERTEX
  5
2699
  8
SAPA_PROFIL
 10
-24.999999999999769
 20
-35.200000000000948
 30
0.0
  0
VERTEX
  5
269A
  8
SAPA_PROFIL
 10
-24.999999999999769
 20
63.999999999998863
 30
0.0
 42
-0.4142135623730951
  0
VERTEX
  5
269B
  8
SAPA_PROFIL
 10
-24.499999999999769
 20
64.499999999998863
 30
0.0
  0
VERTEX
  5
269C
  8
SAPA_PROFIL
 10
24.500000000000231
 20
64.499999999998863
 30
0.0
 42
-0.4142135623730951
  0
VERTEX
  5
269D
  8
SAPA_PROFIL
 10
25.000000000000231
 20
63.999999999998863
 30
0.0
  0
VERTEX
  5
269E
  8
SAPA_PROFIL
 10
25.000000000000231
 20
-35.200000000000948
 30
0.0
 42
-0.4142135623730951
  0
VERTEX
  5
269F
  8
SAPA_PROFIL
 10
24.700000000000269
 20
-35.500000000001137
 30
0.0
  0
VERTEX
  5
26A0
  8
SAPA_PROFIL
 10
22.400000000000318
 20
-35.500000000001137
 30
0.0
  0
VERTEX
  5
26A1
  8
SAPA_PROFIL
 10
21.81361598449962
 20
-35.035076580641999
 30
0.0
 42
-0.7105995019814511
  0
VERTEX
  5
26A2
  8
SAPA_PROFIL
 10
22.000000000000231
 20
-34.500000000001137
 30
0.0
  0
VERTEX
  5
26A3
  8
SAPA_PROFIL
 10
23.200000000000269
 20
-34.500000000001137
 30
0.0
 42
0.4142135623730951
  0
VERTEX
  5
26A4
  8
SAPA_PROFIL
 10
23.500000000000231
 20
-34.200000000000962
 30
0.0
  0
VERTEX
  5
26A5
  8
SAPA_PROFIL
 10
23.500000000000231
 20
-30.300000000001091
 30
0.0
 42
0.4142135623730951
  0
VERTEX
  5
26A6
  8
SAPA_PROFIL
 10
23.200000000000269
 20
-30.00000000000114
 30
0.0
  0
VERTEX
  5
26A7
  8
SAPA_PROFIL
 10
16.500000000000231
 20
-30.00000000000114
 30
0.0
 42
0.4142135623730951
  0
VERTEX
  5
26A8
  8
SAPA_PROFIL
 10
16.200000000000269
 20
-30.300000000001091
 30
0.0
  0
VERTEX
  5
26A9
  8
SAPA_PROFIL
 10
16.200000000000269
 20
-34.200000000000962
 30
0.0
 42
0.4142135623730951
  0
VERTEX
  5
26AA
  8
SAPA_PROFIL
 10
16.500000000000231
 20
-34.500000000001137
 30
0.0
  0
VERTEX
  5
26AB
  8
SAPA_PROFIL
 10
18.400000000000318
 20
-34.500000000001137
 30
0.0
 42
-0.7105995019814511
  0
VERTEX
  5
26AC
  8
SAPA_PROFIL
 10
18.586384015500919
 20
-35.035076580641999
 30
0.0
  0
VERTEX
  5
26AD
  8
SAPA_PROFIL
 10
18.000000000000231
 20
-35.500000000001137
 30
0.0
  0
VERTEX
  5
26AE
  8
SAPA_PROFIL
 10
11.30000000000018
 20
-35.500000000001137
 30
0.0
 42
-0.4142135623730951
  0
VERTEX
  5
26AF
  8
SAPA_PROFIL
 10
11.00000000000022
 20
-35.200000000000948
 30
0.0
  0
VERTEX
  5
26B0
  8
SAPA_PROFIL
 10
11.00000000000022
 20
-34.500000000001137
 30
0.0
 42
-0.4142135623730951
  0
VERTEX
  5
26B1
  8
SAPA_PROFIL
 10
11.30000000000018
 20
-34.200000000000962
 30
0.0
  0
VERTEX
  5
26B2
  8
SAPA_PROFIL
 10
14.200000000000269
 20
-34.200000000000962
 30
0.0
 42
0.4142135623730951
  0
VERTEX
  5
26B3
  8
SAPA_PROFIL
 10
14.700000000000269
 20
-33.700000000000962
 30
0.0
  0
VERTEX
  5
26B4
  8
SAPA_PROFIL
 10
14.700000000000269
 20
-30.50000000000114
 30
0.0
 42
0.4142135623730951
  0
VERTEX
  5
26B5
  8
SAPA_PROFIL
 10
14.200000000000269
 20
-30.00000000000114
 30
0.0
  0
SEQEND
  5
26B6
  8
SAPA_PROFIL
  0
POLYLINE
  5
1854
  8
SAPA_GLAS
 66
     1
 10
0.0
 20
0.0
 30
0.0
  0
VERTEX
  5
26EB
  8
SAPA_GLAS
 10
40.999999999996092
 20
-48.499999999010257
 30
0.0
  0
VERTEX
  5
26EC
  8
SAPA_GLAS
 10
10.99999999999609
 20
-48.499999999010257
 30
0.0
  0
VERTEX
  5
26ED
  8
SAPA_GLAS
 10
10.99999999999609
 20
-44.499999999010257
 30
0.0
  0
VERTEX
  5
26EE
  8
SAPA_GLAS
 10
40.999999999996092
 20
-44.499999999010257
 30
0.0
  0
SEQEND
  5
26EF
  8
SAPA_GLAS
  0
POLYLINE
  5
1855
  8
SAPA_GLAS
 66
     1
 10
0.0
 20
0.0
 30
0.0
  0
VERTEX
  5
26F0
  8
SAPA_GLAS
 10
20.999999999995179
 20
-60.499999999010249
 30
0.0
  0
VERTEX
  5
26F1
  8
SAPA_GLAS
 10
20.999999999995179
 20
-48.499999999010257
 30
0.0
  0
VERTEX
  5
26F2
  8
SAPA_GLAS
 10
10.99999999999609
 20
-48.499999999010257
 30
0.0
  0
VERTEX
  5
26F3
  8
SAPA_GLAS
 10
10.99999999999609
 20
-60.499999999010249
 30
0.0
  0
VERTEX
  5
26F4
  8
SAPA_GLAS
 10
20.999999999995179
 20
-60.499999999010249
 30
0.0
  0
SEQEND
  5
26F5
  8
SAPA_GLAS
  0
POLYLINE
  5
1856
  8
SAPA_GLAS
 66
     1
 10
0.0
 20
0.0
 30
0.0
  0
VERTEX
  5
26F6
  8
SAPA_GLAS
 10
40.999999999996092
 20
-64.499999999010257
 30
0.0
  0
VERTEX
  5
26F7
  8
SAPA_GLAS
 10
10.99999999999609
 20
-64.499999999010257
 30
0.0
  0
VERTEX
  5
26F8
  8
SAPA_GLAS
 10
10.99999999999609
 20
-60.499999999010249
 30
0.0
  0
VERTEX
  5
26F9
  8
SAPA_GLAS
 10
40.999999999996092
 20
-60.499999999010249
 30
0.0
  0
SEQEND
  5
26FA
  8
SAPA_GLAS
  0
POLYLINE
  5
1857
  8
SAPA_GLAS
 66
     1
 10
0.0
 20
0.0
 30
0.0
  0
VERTEX
  5
26FB
  8
SAPA_GLAS
 10
20.999999999995179
 20
-76.499999999011848
 30
0.0
  0
VERTEX
  5
26FC
  8
SAPA_GLAS
 10
20.999999999995179
 20
-64.499999999010257
 30
0.0
  0
VERTEX
  5
26FD
  8
SAPA_GLAS
 10
10.99999999999609
 20
-64.499999999010257
 30
0.0
  0
VERTEX
  5
26FE
  8
SAPA_GLAS
 10
10.99999999999609
 20
-76.499999999011848
 30
0.0
  0
VERTEX
  5
26FF
  8
SAPA_GLAS
 10
20.999999999995179
 20
-76.499999999011848
 30
0.0
  0
SEQEND
  5
2700
  8
SAPA_GLAS
  0
POLYLINE
  5
1858
  8
SAPA_GLAS
 66
     1
 10
0.0
 20
0.0
 30
0.0
  0
VERTEX
  5
2701
  8
SAPA_GLAS
 10
40.999999999996092
 20
-82.499999999011834
 30
0.0
  0
VERTEX
  5
2702
  8
SAPA_GLAS
 10
10.99999999999609
 20
-82.499999999011834
 30
0.0
  0
VERTEX
  5
2703
  8
SAPA_GLAS
 10
10.99999999999609
 20
-76.499999999011848
 30
0.0
  0
VERTEX
  5
2704
  8
SAPA_GLAS
 10
40.999999999996092
 20
-76.499999999011848
 30
0.0
  0
SEQEND
  5
2705
  8
SAPA_GLAS
  0
POLYLINE
  5
1859
  8
SAPA_GLAS
 66
     1
 10
0.0
 20
0.0
 30
0.0
 70
     1
  0
VERTEX
  5
2706
  8
SAPA_GLAS
 10
-162.99997618391029
 20
-67.502569095392573
 30
0.0
  0
VERTEX
  5
2707
  8
SAPA_GLAS
 10
-162.99997618391029
 20
-52.502569095392573
 30
0.0
  0
VERTEX
  5
2708
  8
SAPA_GLAS
 10
-152.99997618391029
 20
-52.502569095392573
 30
0.0
  0
VERTEX
  5
2709
  8
SAPA_GLAS
 10
-152.99997618391029
 20
-67.502569095392573
 30
0.0
  0
SEQEND
  5
270A
  8
SAPA_GLAS
  0
POLYLINE
  5
185A
  8
SAPA_GLAS
 66
     1
 10
0.0
 20
0.0
 30
0.0
 70
     1
  0
VERTEX
  5
270B
  8
SAPA_GLAS
 10
-162.99997618391029
 20
-48.50256909539258
 30
0.0
  0
VERTEX
  5
270C
  8
SAPA_GLAS
 10
-162.99997618391029
 20
-33.50256909539258
 30
0.0
  0
VERTEX
  5
270D
  8
SAPA_GLAS
 10
-152.99997618391029
 20
-33.50256909539258
 30
0.0
  0
VERTEX
  5
270E
  8
SAPA_GLAS
 10
-152.99997618391029
 20
-48.50256909539258
 30
0.0
  0
SEQEND
  5
270F
  8
SAPA_GLAS
  0
POLYLINE
  5
185B
  8
SAPA_GLAS
 66
     1
 10
0.0
 20
0.0
 30
0.0
  0
VERTEX
  5
2710
  8
SAPA_GLAS
 10
-182.99997618391009
 20
-48.50256909539258
 30
0.0
  0
VERTEX
  5
2711
  8
SAPA_GLAS
 10
-152.99997618391009
 20
-48.50256909539258
 30
0.0
  0
VERTEX
  5
2712
  8
SAPA_GLAS
 10
-152.99997618391009
 20
-52.502569095392573
 30
0.0
  0
VERTEX
  5
2713
  8
SAPA_GLAS
 10
-182.99997618391009
 20
-52.502569095392573
 30
0.0
  0
SEQEND
  5
2714
  8
SAPA_GLAS
  0
POLYLINE
  5
185C
  8
SAPA_GLAS
 66
     1
 10
0.0
 20
0.0
 30
0.0
  0
VERTEX
  5
2715
  8
SAPA_GLAS
 10
-182.99997618391009
 20
-27.50256909539258
 30
0.0
  0
VERTEX
  5
2716
  8
SAPA_GLAS
 10
-152.99997618391009
 20
-27.50256909539258
 30
0.0
  0
VERTEX
  5
2717
  8
SAPA_GLAS
 10
-152.99997618391009
 20
-33.50256909539258
 30
0.0
  0
VERTEX
  5
2718
  8
SAPA_GLAS
 10
-182.99997618391009
 20
-33.50256909539258
 30
0.0
  0
SEQEND
  5
2719
  8
SAPA_GLAS
  0
POLYLINE
  5
185D
  8
SAPA_GLAS
 66
     1
 10
0.0
 20
0.0
 30
0.0
  0
VERTEX
  5
271A
  8
SAPA_GLAS
 10
-182.99997618391009
 20
-73.502569095392573
 30
0.0
  0
VERTEX
  5
271B
  8
SAPA_GLAS
 10
-152.99997618391009
 20
-73.502569095392573
 30
0.0
  0
VERTEX
  5
271C
  8
SAPA_GLAS
 10
-152.99997618391009
 20
-67.502569095392573
 30
0.0
  0
VERTEX
  5
271D
  8
SAPA_GLAS
 10
-182.99997618391009
 20
-67.502569095392573
 30
0.0
  0
SEQEND
  5
271E
  8
SAPA_GLAS
  0
LINE
  5
1868
  8
SAPA_ISOLATOR
 10
-25.00001783078185
 20
-19.383797270178121
 30
0.0
 11
-31.194641597964761
 21
-19.383797270178121
 31
0.0
  0
LINE
  5
1869
  8
SAPA_ISOLATOR
 10
-25.00001783078185
 20
-44.57868055338988
 30
0.0
 11
-25.00001783078185
 21
-19.383797270178121
 31
0.0
  0
LINE
  5
186A
  8
SAPA_ISOLATOR
 10
-31.19464159796658
 20
-44.57868055338988
 30
0.0
 11
-25.00001783078185
 21
-44.57868055338988
 31
0.0
  0
LINE
  5
186B
  8
SAPA_ISOLATOR
 10
-31.200017830781832
 20
-19.383797270178121
 30
0.0
 11
-31.19464159796658
 21
-44.57868055338988
 31
0.0
  0
LINE
  5
186C
  8
SAPA_ISOLATOR
 10
-31.19464159796658
 20
-44.57868055338988
 30
0.0
 11
-25.00001783078185
 21
-19.383797270178121
 31
0.0
  0
LINE
  5
186D
  8
SAPA_ISOLATOR
 10
-31.21660513366729
 20
-19.383797270178121
 30
0.0
 11
-25.01122890085205
 21
-44.57868055338988
 31
0.0
  0
POLYLINE
  5
1888
  8
SAPA_FOGBAND
 62
     2
 10
-157.77376162995841
 20
-23.911193723606019
 30
0.0
 66
     1
 70
     8
  0
VERTEX
  8
SAPA_FOGBAND
  5
2989
 10
-157.774
 20
-23.9112
 30
0.000000
  70
    32
  0
VERTEX
  8
SAPA_FOGBAND
  5
298A
 10
-157.771
 20
-23.9799
 30
0.000000
  70
    32
  0
VERTEX
  8
SAPA_FOGBAND
  5
298B
 10
-157.763
 20
-24.0484
 30
0.000000
  70
    32
  0
VERTEX
  8
SAPA_FOGBAND
  5
298C
 10
-157.750
 20
-24.1166
 30
0.000000
  70
    32
  0
VERTEX
  8
SAPA_FOGBAND
  5
298D
 10
-157.732
 20
-24.1843
 30
0.000000
  70
    32
  0
VERTEX
  8
SAPA_FOGBAND
  5
298E
 10
-157.709
 20
-24.2514
 30
0.000000
  70
    32
  0
VERTEX
  8
SAPA_FOGBAND
  5
298F
 10
-157.680
 20
-24.3176
 30
0.000000
  70
    32
  0
VERTEX
  8
SAPA_FOGBAND
  5
2990
 10
-157.647
 20
-24.3828
 30
0.000000
  70
    32
  0
VERTEX
  8
SAPA_FOGBAND
  5
2991
 10
-157.609
 20
-24.4470
 30
0.000000
  70
    32
  0
VERTEX
  8
SAPA_FOGBAND
  5
2992
 10
-157.566
 20
-24.5098
 30
0.000000
  70
    32
  0
VERTEX
  8
SAPA_FOGBAND
  5
2993
 10
-157.518
 20
-24.5711
 30
0.000000
  70
    32
  0
VERTEX
  8
SAPA_FOGBAND
  5
2994
 10
-157.465
 20
-24.6309
 30
0.000000
  70
    32
  0
VERTEX
  8
SAPA_FOGBAND
  5
2995
 10
-157.408
 20
-24.6890
 30
0.000000
  70
    32
  0
VERTEX
  8
SAPA_FOGBAND
  5
2996
 10
-157.347
 20
-24.7452
 30
0.000000
  70
    32
  0
VERTEX
  8
SAPA_FOGBAND
  5
2997
 10
-157.282
 20
-24.7993
 30
0.000000
  70
    32
  0
VERTEX
  8
SAPA_FOGBAND
  5
2998
 10
-157.212
 20
-24.8514
 30
0.000000
  70
    32
  0
VERTEX
  8
SAPA_FOGBAND
  5
2999
 10
-157.139
 20
-24.9011
 30
0.000000
  70
    32
  0
VERTEX
  8
SAPA_FOGBAND
  5
299A
 10
-157.062
 20
-24.9485
 30
0.000000
  70
    32
  0
VERTEX
  8
SAPA_FOGBAND
  5
299B
 10
-156.981
 20
-24.9934
 30
0.000000
  70
    32
  0
VERTEX
  8
SAPA_FOGBAND
  5
299C
 10
-156.897
 20
-25.0357
 30
0.000000
  70
    32
  0
VERTEX
  8
SAPA_FOGBAND
  5
299D
 10
-156.810
 20
-25.0753
 30
0.000000
  70
    32
  0
VERTEX
  8
SAPA_FOGBAND
  5
299E
 10
-156.720
 20
-25.1120
 30
0.000000
  70
    32
  0
VERTEX
  8
SAPA_FOGBAND
  5
299F
 10
-156.628
 20
-25.1459
 30
0.000000
  70
    32
  0
VERTEX
  8
SAPA_FOGBAND
  5
29A0
 10
-156.533
 20
-25.1768
 30
0.000000
  70
    32
  0
VERTEX
  8
SAPA_FOGBAND
  5
29A1
 10
-156.436
 20
-25.2046
 30
0.000000
  70
    32
  0
VERTEX
  8
SAPA_FOGBAND
  5
29A2
 10
-156.336
 20
-25.2294
 30
0.000000
  70
    32
  0
VERTEX
  8
SAPA_FOGBAND
  5
29A3
 10
-156.235
 20
-25.2509
 30
0.000000
  70
    32
  0
VERTEX
  8
SAPA_FOGBAND
  5
29A4
 10
-156.133
 20
-25.2692
 30
0.000000
  70
    32
  0
VERTEX
  8
SAPA_FOGBAND
  5
29A5
 10
-156.029
 20
-25.2843
 30
0.000000
  70
    32
  0
VERTEX
  8
SAPA_FOGBAND
  5
29A6
 10
-155.924
 20
-25.2960
 30
0.000000
  70
    32
  0
VERTEX
  8
SAPA_FOGBAND
  5
29A7
 10
-155.818
 20
-25.3045
 30
0.000000
  70
    32
  0
VERTEX
  8
SAPA_FOGBAND
  5
29A8
 10
-155.712
 20
-25.3095
 30
0.000000
  70
    32
  0
VERTEX
  8
SAPA_FOGBAND
  5
29A9
 10
-155.606
 20
-25.3112
 30
0.000000
  70
    32
  0
VERTEX
  8
SAPA_FOGBAND
  5
29AA
 10
-155.500
 20
-25.3095
 30
0.000000
  70
    32
  0
VERTEX
  8
SAPA_FOGBAND
  5
29AB
 10
-155.393
 20
-25.3045
 30
0.000000
  70
    32
  0
VERTEX
  8
SAPA_FOGBAND
  5
29AC
 10
-155.288
 20
-25.2960
 30
0.000000
  70
    32
  0
VERTEX
  8
SAPA_FOGBAND
  5
29AD
 10
-155.183
 20
-25.2843
 30
0.000000
  70
    32
  0
VERTEX
  8
SAPA_FOGBAND
  5
29AE
 10
-155.079
 20
-25.2692
 30
0.000000
  70
    32
  0
VERTEX
  8
SAPA_FOGBAND
  5
29AF
 10
-154.977
 20
-25.2509
 30
0.000000
  70
    32
  0
VERTEX
  8
SAPA_FOGBAND
  5
29B0
 10
-154.876
 20
-25.2294
 30
0.000000
  70
    32
  0
VERTEX
  8
SAPA_FOGBAND
  5
29B1
 10
-154.776
 20
-25.2046
 30
0.000000
  70
    32
  0
VERTEX
  8
SAPA_FOGBAND
  5
29B2
 10
-154.679
 20
-25.1768
 30
0.000000
  70
    32
  0
VERTEX
  8
SAPA_FOGBAND
  5
29B3
 10
-154.584
 20
-25.1459
 30
0.000000
  70
    32
  0
VERTEX
  8
SAPA_FOGBAND
  5
29B4
 10
-154.492
 20
-25.1120
 30
0.000000
  70
    32
  0
VERTEX
  8
SAPA_FOGBAND
  5
29B5
 10
-154.402
 20
-25.0753
 30
0.000000
  70
    32
  0
VERTEX
  8
SAPA_FOGBAND
  5
29B6
 10
-154.315
 20
-25.0357
 30
0.000000
  70
    32
  0
VERTEX
  8
SAPA_FOGBAND
  5
29B7
 10
-154.231
 20
-24.9934
 30
0.000000
  70
    32
  0
VERTEX
  8
SAPA_FOGBAND
  5
29B8
 10
-154.150
 20
-24.9485
 30
0.000000
  70
    32
  0
VERTEX
  8
SAPA_FOGBAND
  5
29B9
 10
-154.073
 20
-24.9011
 30
0.000000
  70
    32
  0
VERTEX
  8
SAPA_FOGBAND
  5
29BA
 10
-154.000
 20
-24.8514
 30
0.000000
  70
    32
  0
VERTEX
  8
SAPA_FOGBAND
  5
29BB
 10
-153.930
 20
-24.7993
 30
0.000000
  70
    32
  0
VERTEX
  8
SAPA_FOGBAND
  5
29BC
 10
-153.865
 20
-24.7452
 30
0.000000
  70
    32
  0
VERTEX
  8
SAPA_FOGBAND
  5
29BD
 10
-153.804
 20
-24.6890
 30
0.000000
  70
    32
  0
VERTEX
  8
SAPA_FOGBAND
  5
29BE
 10
-153.747
 20
-24.6309
 30
0.000000
  70
    32
  0
VERTEX
  8
SAPA_FOGBAND
  5
29BF
 10
-153.694
 20
-24.5711
 30
0.000000
  70
    32
  0
VERTEX
  8
SAPA_FOGBAND
  5
29C0
 10
-153.646
 20
-24.5098
 30
0.000000
  70
    32
  0
VERTEX
  8
SAPA_FOGBAND
  5
29C1
 10
-153.603
 20
-24.4470
 30
0.000000
  70
    32
  0
VERTEX
  8
SAPA_FOGBAND
  5
29C2
 10
-153.565
 20
-24.3828
 30
0.000000
  70
    32
  0
VERTEX
  8
SAPA_FOGBAND
  5
29C3
 10
-153.532
 20
-24.3176
 30
0.000000
  70
    32
  0
VERTEX
  8
SAPA_FOGBAND
  5
29C4
 10
-153.503
 20
-24.2514
 30
0.000000
  70
    32
  0
VERTEX
  8
SAPA_FOGBAND
  5
29C5
 10
-153.480
 20
-24.1843
 30
0.000000
  70
    32
  0
VERTEX
  8
SAPA_FOGBAND
  5
29C6
 10
-153.462
 20
-24.1166
 30
0.000000
  70
    32
  0
VERTEX
  8
SAPA_FOGBAND
  5
29C7
 10
-153.449
 20
-24.0484
 30
0.000000
  70
    32
  0
VERTEX
  8
SAPA_FOGBAND
  5
29C8
 10
-153.441
 20
-23.9799
 30
0.000000
  70
    32
  0
VERTEX
  8
SAPA_FOGBAND
  5
29C9
 10
-153.438
 20
-23.9112
 30
0.000000
  70
    32
  0
VERTEX
  8
SAPA_FOGBAND
  5
29CA
 10
-153.441
 20
-23.8425
 30
0.000000
  70
    32
  0
VERTEX
  8
SAPA_FOGBAND
  5
29CB
 10
-153.449
 20
-23.7740
 30
0.000000
  70
    32
  0
VERTEX
  8
SAPA_FOGBAND
  5
29CC
 10
-153.462
 20
-23.7058
 30
0.000000
  70
    32
  0
VERTEX
  8
SAPA_FOGBAND
  5
29CD
 10
-153.480
 20
-23.6381
 30
0.000000
  70
    32
  0
VERTEX
  8
SAPA_FOGBAND
  5
29CE
 10
-153.503
 20
-23.5710
 30
0.000000
  70
    32
  0
VERTEX
  8
SAPA_FOGBAND
  5
29CF
 10
-153.532
 20
-23.5048
 30
0.000000
  70
    32
  0
VERTEX
  8
SAPA_FOGBAND
  5
29D0
 10
-153.565
 20
-23.4395
 30
0.000000
  70
    32
  0
VERTEX
  8
SAPA_FOGBAND
  5
29D1
 10
-153.603
 20
-23.3754
 30
0.000000
  70
    32
  0
VERTEX
  8
SAPA_FOGBAND
  5
29D2
 10
-153.646
 20
-23.3126
 30
0.000000
  70
    32
  0
VERTEX
  8
SAPA_FOGBAND
  5
29D3
 10
-153.694
 20
-23.2512
 30
0.000000
  70
    32
  0
VERTEX
  8
SAPA_FOGBAND
  5
29D4
 10
-153.747
 20
-23.1914
 30
0.000000
  70
    32
  0
VERTEX
  8
SAPA_FOGBAND
  5
29D5
 10
-153.804
 20
-23.1334
 30
0.000000
  70
    32
  0
VERTEX
  8
SAPA_FOGBAND
  5
29D6
 10
-153.865
 20
-23.0772
 30
0.000000
  70
    32
  0
VERTEX
  8
SAPA_FOGBAND
  5
29D7
 10
-153.930
 20
-23.0230
 30
0.000000
  70
    32
  0
VERTEX
  8
SAPA_FOGBAND
  5
29D8
 10
-154.000
 20
-22.9710
 30
0.000000
  70
    32
  0
VERTEX
  8
SAPA_FOGBAND
  5
29D9
 10
-154.073
 20
-22.9212
 30
0.000000
  70
    32
  0
VERTEX
  8
SAPA_FOGBAND
  5
29DA
 10
-154.150
 20
-22.8739
 30
0.000000
  70
    32
  0
VERTEX
  8
SAPA_FOGBAND
  5
29DB
 10
-154.231
 20
-22.8290
 30
0.000000
  70
    32
  0
VERTEX
  8
SAPA_FOGBAND
  5
29DC
 10
-154.315
 20
-22.7867
 30
0.000000
  70
    32
  0
VERTEX
  8
SAPA_FOGBAND
  5
29DD
 10
-154.402
 20
-22.7471
 30
0.000000
  70
    32
  0
VERTEX
  8
SAPA_FOGBAND
  5
29DE
 10
-154.492
 20
-22.7104
 30
0.000000
  70
    32
  0
VERTEX
  8
SAPA_FOGBAND
  5
29DF
 10
-154.584
 20
-22.6765
 30
0.000000
  70
    32
  0
VERTEX
  8
SAPA_FOGBAND
  5
29E0
 10
-154.679
 20
-22.6456
 30
0.000000
  70
    32
  0
VERTEX
  8
SAPA_FOGBAND
  5
29E1
 10
-154.776
 20
-22.6178
 30
0.000000
  70
    32
  0
VERTEX
  8
SAPA_FOGBAND
  5
29E2
 10
-154.876
 20
-22.5930
 30
0.000000
  70
    32
  0
VERTEX
  8
SAPA_FOGBAND
  5
29E3
 10
-154.977
 20
-22.5715
 30
0.000000
  70
    32
  0
VERTEX
  8
SAPA_FOGBAND
  5
29E4
 10
-155.079
 20
-22.5531
 30
0.000000
  70
    32
  0
VERTEX
  8
SAPA_FOGBAND
  5
29E5
 10
-155.183
 20
-22.5381
 30
0.000000
  70
    32
  0
VERTEX
  8
SAPA_FOGBAND
  5
29E6
 10
-155.288
 20
-22.5263
 30
0.000000
  70
    32
  0
VERTEX
  8
SAPA_FOGBAND
  5
29E7
 10
-155.393
 20
-22.5179
 30
0.000000
  70
    32
  0
VERTEX
  8
SAPA_FOGBAND
  5
29E8
 10
-155.500
 20
-22.5129
 30
0.000000
  70
    32
  0
VERTEX
  8
SAPA_FOGBAND
  5
29E9
 10
-155.606
 20
-22.5112
 30
0.000000
  70
    32
  0
VERTEX
  8
SAPA_FOGBAND
  5
29EA
 10
-155.712
 20
-22.5129
 30
0.000000
  70
    32
  0
VERTEX
  8
SAPA_FOGBAND
  5
29EB
 10
-155.818
 20
-22.5179
 30
0.000000
  70
    32
  0
VERTEX
  8
SAPA_FOGBAND
  5
29EC
 10
-155.924
 20
-22.5263
 30
0.000000
  70
    32
  0
VERTEX
  8
SAPA_FOGBAND
  5
29ED
 10
-156.029
 20
-22.5381
 30
0.000000
  70
    32
  0
VERTEX
  8
SAPA_FOGBAND
  5
29EE
 10
-156.133
 20
-22.5531
 30
0.000000
  70
    32
  0
VERTEX
  8
SAPA_FOGBAND
  5
29EF
 10
-156.235
 20
-22.5715
 30
0.000000
  70
    32
  0
VERTEX
  8
SAPA_FOGBAND
  5
29F0
 10
-156.336
 20
-22.5930
 30
0.000000
  70
    32
  0
VERTEX
  8
SAPA_FOGBAND
  5
29F1
 10
-156.436
 20
-22.6178
 30
0.000000
  70
    32
  0
VERTEX
  8
SAPA_FOGBAND
  5
29F2
 10
-156.533
 20
-22.6456
 30
0.000000
  70
    32
  0
VERTEX
  8
SAPA_FOGBAND
  5
29F3
 10
-156.628
 20
-22.6765
 30
0.000000
  70
    32
  0
VERTEX
  8
SAPA_FOGBAND
  5
29F4
 10
-156.720
 20
-22.7104
 30
0.000000
  70
    32
  0
VERTEX
  8
SAPA_FOGBAND
  5
29F5
 10
-156.810
 20
-22.7471
 30
0.000000
  70
    32
  0
VERTEX
  8
SAPA_FOGBAND
  5
29F6
 10
-156.897
 20
-22.7867
 30
0.000000
  70
    32
  0
VERTEX
  8
SAPA_FOGBAND
  5
29F7
 10
-156.981
 20
-22.8290
 30
0.000000
  70
    32
  0
VERTEX
  8
SAPA_FOGBAND
  5
29F8
 10
-157.062
 20
-22.8739
 30
0.000000
  70
    32
  0
VERTEX
  8
SAPA_FOGBAND
  5
29F9
 10
-157.139
 20
-22.9212
 30
0.000000
  70
    32
  0
VERTEX
  8
SAPA_FOGBAND
  5
29FA
 10
-157.212
 20
-22.9710
 30
0.000000
  70
    32
  0
VERTEX
  8
SAPA_FOGBAND
  5
29FB
 10
-157.282
 20
-23.0230
 30
0.000000
  70
    32
  0
VERTEX
  8
SAPA_FOGBAND
  5
29FC
 10
-157.347
 20
-23.0772
 30
0.000000
  70
    32
  0
VERTEX
  8
SAPA_FOGBAND
  5
29FD
 10
-157.408
 20
-23.1334
 30
0.000000
  70
    32
  0
VERTEX
  8
SAPA_FOGBAND
  5
29FE
 10
-157.465
 20
-23.1914
 30
0.000000
  70
    32
  0
VERTEX
  8
SAPA_FOGBAND
  5
29FF
 10
-157.518
 20
-23.2512
 30
0.000000
  70
    32
  0
VERTEX
  8
SAPA_FOGBAND
  5
2A00
 10
-157.566
 20
-23.3126
 30
0.000000
  70
    32
  0
VERTEX
  8
SAPA_FOGBAND
  5
2A01
 10
-157.609
 20
-23.3754
 30
0.000000
  70
    32
  0
VERTEX
  8
SAPA_FOGBAND
  5
2A02
 10
-157.647
 20
-23.4395
 30
0.000000
  70
    32
  0
VERTEX
  8
SAPA_FOGBAND
  5
2A03
 10
-157.680
 20
-23.5048
 30
0.000000
  70
    32
  0
VERTEX
  8
SAPA_FOGBAND
  5
2A04
 10
-157.709
 20
-23.5710
 30
0.000000
  70
    32
  0
VERTEX
  8
SAPA_FOGBAND
  5
2A05
 10
-157.732
 20
-23.6381
 30
0.000000
  70
    32
  0
VERTEX
  8
SAPA_FOGBAND
  5
2A06
 10
-157.750
 20
-23.7058
 30
0.000000
  70
    32
  0
VERTEX
  8
SAPA_FOGBAND
  5
2A07
 10
-157.763
 20
-23.7740
 30
0.000000
  70
    32
  0
VERTEX
  8
SAPA_FOGBAND
  5
2A08
 10
-157.771
 20
-23.8425
 30
0.000000
  70
    32
  0
VERTEX
  8
SAPA_FOGBAND
  5
2A09
 10
-157.774
 20
-23.9112
 30
0.000000
  70
    32
  0
SEQEND
  8
SAPA_FOGBAND
  5
2A0A
  0
POLYLINE
  5
1889
  8
SAPA_FOGBAND
 62
     2
 10
-167.29116448900945
 20
-22.176407700873085
 30
0.0
 66
     1
 70
     8
  0
VERTEX
  8
SAPA_FOGBAND
  5
2A0B
 10
-167.291
 20
-22.1764
 30
0.000000
  70
    32
  0
VERTEX
  8
SAPA_FOGBAND
  5
2A0C
 10
-167.287
 20
-22.2647
 30
0.000000
  70
    32
  0
VERTEX
  8
SAPA_FOGBAND
  5
2A0D
 10
-167.276
 20
-22.3528
 30
0.000000
  70
    32
  0
VERTEX
  8
SAPA_FOGBAND
  5
2A0E
 10
-167.258
 20
-22.4405
 30
0.000000
  70
    32
  0
VERTEX
  8
SAPA_FOGBAND
  5
2A0F
 10
-167.232
 20
-22.5276
 30
0.000000
  70
    32
  0
VERTEX
  8
SAPA_FOGBAND
  5
2A10
 10
-167.199
 20
-22.6138
 30
0.000000
  70
    32
  0
VERTEX
  8
SAPA_FOGBAND
  5
2A11
 10
-167.158
 20
-22.6989
 30
0.000000
  70
    32
  0
VERTEX
  8
SAPA_FOGBAND
  5
2A12
 10
-167.111
 20
-22.7828
 30
0.000000
  70
    32
  0
VERTEX
  8
SAPA_FOGBAND
  5
2A13
 10
-167.056
 20
-22.8652
 30
0.000000
  70
    32
  0
VERTEX
  8
SAPA_FOGBAND
  5
2A14
 10
-166.995
 20
-22.9460
 30
0.000000
  70
    32
  0
VERTEX
  8
SAPA_FOGBAND
  5
2A15
 10
-166.927
 20
-23.0249
 30
0.000000
  70
    32
  0
VERTEX
  8
SAPA_FOGBAND
  5
2A16
 10
-166.852
 20
-23.1018
 30
0.000000
  70
    32
  0
VERTEX
  8
SAPA_FOGBAND
  5
2A17
 10
-166.771
 20
-23.1764
 30
0.000000
  70
    32
  0
VERTEX
  8
SAPA_FOGBAND
  5
2A18
 10
-166.684
 20
-23.2487
 30
0.000000
  70
    32
  0
VERTEX
  8
SAPA_FOGBAND
  5
2A19
 10
-166.591
 20
-23.3183
 30
0.000000
  70
    32
  0
VERTEX
  8
SAPA_FOGBAND
  5
2A1A
 10
-166.492
 20
-23.3852
 30
0.000000
  70
    32
  0
VERTEX
  8
SAPA_FOGBAND
  5
2A1B
 10
-166.388
 20
-23.4492
 30
0.000000
  70
    32
  0
VERTEX
  8
SAPA_FOGBAND
  5
2A1C
 10
-166.278
 20
-23.5101
 30
0.000000
  70
    32
  0
VERTEX
  8
SAPA_FOGBAND
  5
2A1D
 10
-166.163
 20
-23.5678
 30
0.000000
  70
    32
  0
VERTEX
  8
SAPA_FOGBAND
  5
2A1E
 10
-166.044
 20
-23.6222
 30
0.000000
  70
    32
  0
VERTEX
  8
SAPA_FOGBAND
  5
2A1F
 10
-165.920
 20
-23.6731
 30
0.000000
  70
    32
  0
VERTEX
  8
SAPA_FOGBAND
  5
2A20
 10
-165.792
 20
-23.7203
 30
0.000000
  70
    32
  0
VERTEX
  8
SAPA_FOGBAND
  5
2A21
 10
-165.660
 20
-23.7639
 30
0.000000
  70
    32
  0
VERTEX
  8
SAPA_FOGBAND
  5
2A22
 10
-165.525
 20
-23.8036
 30
0.000000
  70
    32
  0
VERTEX
  8
SAPA_FOGBAND
  5
2A23
 10
-165.387
 20
-23.8394
 30
0.000000
  70
    32
  0
VERTEX
  8
SAPA_FOGBAND
  5
2A24
 10
-165.245
 20
-23.8712
 30
0.000000
  70
    32
  0
VERTEX
  8
SAPA_FOGBAND
  5
2A25
 10
-165.102
 20
-23.8989
 30
0.000000
  70
    32
  0
VERTEX
  8
SAPA_FOGBAND
  5
2A26
 10
-164.956
 20
-23.9225
 30
0.000000
  70
    32
  0
VERTEX
  8
SAPA_FOGBAND
  5
2A27
 10
-164.808
 20
-23.9418
 30
0.000000
  70
    32
  0
VERTEX
  8
SAPA_FOGBAND
  5
2A28
 10
-164.659
 20
-23.9569
 30
0.000000
  70
    32
  0
VERTEX
  8
SAPA_FOGBAND
  5
2A29
 10
-164.508
 20
-23.9677
 30
0.000000
  70
    32
  0
VERTEX
  8
SAPA_FOGBAND
  5
2A2A
 10
-164.357
 20
-23.9742
 30
0.000000
  70
    32
  0
VERTEX
  8
SAPA_FOGBAND
  5
2A2B
 10
-164.206
 20
-23.9764
 30
0.000000
  70
    32
  0
VERTEX
  8
SAPA_FOGBAND
  5
2A2C
 10
-164.055
 20
-23.9742
 30
0.000000
  70
    32
  0
VERTEX
  8
SAPA_FOGBAND
  5
2A2D
 10
-163.904
 20
-23.9677
 30
0.000000
  70
    32
  0
VERTEX
  8
SAPA_FOGBAND
  5
2A2E
 10
-163.753
 20
-23.9569
 30
0.000000
  70
    32
  0
VERTEX
  8
SAPA_FOGBAND
  5
2A2F
 10
-163.604
 20
-23.9418
 30
0.000000
  70
    32
  0
VERTEX
  8
SAPA_FOGBAND
  5
2A30
 10
-163.456
 20
-23.9225
 30
0.000000
  70
    32
  0
VERTEX
  8
SAPA_FOGBAND
  5
2A31
 10
-163.310
 20
-23.8989
 30
0.000000
  70
    32
  0
VERTEX
  8
SAPA_FOGBAND
  5
2A32
 10
-163.167
 20
-23.8712
 30
0.000000
  70
    32
  0
VERTEX
  8
SAPA_FOGBAND
  5
2A33
 10
-163.025
 20
-23.8394
 30
0.000000
  70
    32
  0
VERTEX
  8
SAPA_FOGBAND
  5
2A34
 10
-162.887
 20
-23.8036
 30
0.000000
  70
    32
  0
VERTEX
  8
SAPA_FOGBAND
  5
2A35
 10
-162.752
 20
-23.7639
 30
0.000000
  70
    32
  0
VERTEX
  8
SAPA_FOGBAND
  5
2A36
 10
-162.620
 20
-23.7203
 30
0.000000
  70
    32
  0
VERTEX
  8
SAPA_FOGBAND
  5
2A37
 10
-162.492
 20
-23.6731
 30
0.000000
  70
    32
  0
VERTEX
  8
SAPA_FOGBAND
  5
2A38
 10
-162.368
 20
-23.6222
 30
0.000000
  70
    32
  0
VERTEX
  8
SAPA_FOGBAND
  5
2A39
 10
-162.249
 20
-23.5678
 30
0.000000
  70
    32
  0
VERTEX
  8
SAPA_FOGBAND
  5
2A3A
 10
-162.134
 20
-23.5101
 30
0.000000
  70
    32
  0
VERTEX
  8
SAPA_FOGBAND
  5
2A3B
 10
-162.024
 20
-23.4492
 30
0.000000
  70
    32
  0
VERTEX
  8
SAPA_FOGBAND
  5
2A3C
 10
-161.920
 20
-23.3852
 30
0.000000
  70
    32
  0
VERTEX
  8
SAPA_FOGBAND
  5
2A3D
 10
-161.821
 20
-23.3183
 30
0.000000
  70
    32
  0
VERTEX
  8
SAPA_FOGBAND
  5
2A3E
 10
-161.728
 20
-23.2487
 30
0.000000
  70
    32
  0
VERTEX
  8
SAPA_FOGBAND
  5
2A3F
 10
-161.641
 20
-23.1764
 30
0.000000
  70
    32
  0
VERTEX
  8
SAPA_FOGBAND
  5
2A40
 10
-161.560
 20
-23.1018
 30
0.000000
  70
    32
  0
VERTEX
  8
SAPA_FOGBAND
  5
2A41
 10
-161.485
 20
-23.0249
 30
0.000000
  70
    32
  0
VERTEX
  8
SAPA_FOGBAND
  5
2A42
 10
-161.417
 20
-22.9460
 30
0.000000
  70
    32
  0
VERTEX
  8
SAPA_FOGBAND
  5
2A43
 10
-161.356
 20
-22.8652
 30
0.000000
  70
    32
  0
VERTEX
  8
SAPA_FOGBAND
  5
2A44
 10
-161.301
 20
-22.7828
 30
0.000000
  70
    32
  0
VERTEX
  8
SAPA_FOGBAND
  5
2A45
 10
-161.254
 20
-22.6989
 30
0.000000
  70
    32
  0
VERTEX
  8
SAPA_FOGBAND
  5
2A46
 10
-161.213
 20
-22.6138
 30
0.000000
  70
    32
  0
VERTEX
  8
SAPA_FOGBAND
  5
2A47
 10
-161.180
 20
-22.5276
 30
0.000000
  70
    32
  0
VERTEX
  8
SAPA_FOGBAND
  5
2A48
 10
-161.154
 20
-22.4405
 30
0.000000
  70
    32
  0
VERTEX
  8
SAPA_FOGBAND
  5
2A49
 10
-161.136
 20
-22.3528
 30
0.000000
  70
    32
  0
VERTEX
  8
SAPA_FOGBAND
  5
2A4A
 10
-161.124
 20
-22.2647
 30
0.000000
  70
    32
  0
VERTEX
  8
SAPA_FOGBAND
  5
2A4B
 10
-161.121
 20
-22.1764
 30
0.000000
  70
    32
  0
VERTEX
  8
SAPA_FOGBAND
  5
2A4C
 10
-161.124
 20
-22.0881
 30
0.000000
  70
    32
  0
VERTEX
  8
SAPA_FOGBAND
  5
2A4D
 10
-161.136
 20
-22.0000
 30
0.000000
  70
    32
  0
VERTEX
  8
SAPA_FOGBAND
  5
2A4E
 10
-161.154
 20
-21.9123
 30
0.000000
  70
    32
  0
VERTEX
  8
SAPA_FOGBAND
  5
2A4F
 10
-161.180
 20
-21.8252
 30
0.000000
  70
    32
  0
VERTEX
  8
SAPA_FOGBAND
  5
2A50
 10
-161.213
 20
-21.7390
 30
0.000000
  70
    32
  0
VERTEX
  8
SAPA_FOGBAND
  5
2A51
 10
-161.254
 20
-21.6539
 30
0.000000
  70
    32
  0
VERTEX
  8
SAPA_FOGBAND
  5
2A52
 10
-161.301
 20
-21.5700
 30
0.000000
  70
    32
  0
VERTEX
  8
SAPA_FOGBAND
  5
2A53
 10
-161.356
 20
-21.4876
 30
0.000000
  70
    32
  0
VERTEX
  8
SAPA_FOGBAND
  5
2A54
 10
-161.417
 20
-21.4068
 30
0.000000
  70
    32
  0
VERTEX
  8
SAPA_FOGBAND
  5
2A55
 10
-161.485
 20
-21.3279
 30
0.000000
  70
    32
  0
VERTEX
  8
SAPA_FOGBAND
  5
2A56
 10
-161.560
 20
-21.2510
 30
0.000000
  70
    32
  0
VERTEX
  8
SAPA_FOGBAND
  5
2A57
 10
-161.641
 20
-21.1764
 30
0.000000
  70
    32
  0
VERTEX
  8
SAPA_FOGBAND
  5
2A58
 10
-161.728
 20
-21.1041
 30
0.000000
  70
    32
  0
VERTEX
  8
SAPA_FOGBAND
  5
2A59
 10
-161.821
 20
-21.0345
 30
0.000000
  70
    32
  0
VERTEX
  8
SAPA_FOGBAND
  5
2A5A
 10
-161.920
 20
-20.9676
 30
0.000000
  70
    32
  0
VERTEX
  8
SAPA_FOGBAND
  5
2A5B
 10
-162.024
 20
-20.9036
 30
0.000000
  70
    32
  0
VERTEX
  8
SAPA_FOGBAND
  5
2A5C
 10
-162.134
 20
-20.8427
 30
0.000000
  70
    32
  0
VERTEX
  8
SAPA_FOGBAND
  5
2A5D
 10
-162.249
 20
-20.7850
 30
0.000000
  70
    32
  0
VERTEX
  8
SAPA_FOGBAND
  5
2A5E
 10
-162.368
 20
-20.7306
 30
0.000000
  70
    32
  0
VERTEX
  8
SAPA_FOGBAND
  5
2A5F
 10
-162.492
 20
-20.6798
 30
0.000000
  70
    32
  0
VERTEX
  8
SAPA_FOGBAND
  5
2A60
 10
-162.620
 20
-20.6325
 30
0.000000
  70
    32
  0
VERTEX
  8
SAPA_FOGBAND
  5
2A61
 10
-162.752
 20
-20.5889
 30
0.000000
  70
    32
  0
VERTEX
  8
SAPA_FOGBAND
  5
2A62
 10
-162.887
 20
-20.5492
 30
0.000000
  70
    32
  0
VERTEX
  8
SAPA_FOGBAND
  5
2A63
 10
-163.025
 20
-20.5134
 30
0.000000
  70
    32
  0
VERTEX
  8
SAPA_FOGBAND
  5
2A64
 10
-163.167
 20
-20.4816
 30
0.000000
  70
    32
  0
VERTEX
  8
SAPA_FOGBAND
  5
2A65
 10
-163.310
 20
-20.4539
 30
0.000000
  70
    32
  0
VERTEX
  8
SAPA_FOGBAND
  5
2A66
 10
-163.456
 20
-20.4304
 30
0.000000
  70
    32
  0
VERTEX
  8
SAPA_FOGBAND
  5
2A67
 10
-163.604
 20
-20.4110
 30
0.000000
  70
    32
  0
VERTEX
  8
SAPA_FOGBAND
  5
2A68
 10
-163.753
 20
-20.3959
 30
0.000000
  70
    32
  0
VERTEX
  8
SAPA_FOGBAND
  5
2A69
 10
-163.904
 20
-20.3851
 30
0.000000
  70
    32
  0
VERTEX
  8
SAPA_FOGBAND
  5
2A6A
 10
-164.055
 20
-20.3786
 30
0.000000
  70
    32
  0
VERTEX
  8
SAPA_FOGBAND
  5
2A6B
 10
-164.206
 20
-20.3764
 30
0.000000
  70
    32
  0
VERTEX
  8
SAPA_FOGBAND
  5
2A6C
 10
-164.357
 20
-20.3786
 30
0.000000
  70
    32
  0
VERTEX
  8
SAPA_FOGBAND
  5
2A6D
 10
-164.508
 20
-20.3851
 30
0.000000
  70
    32
  0
VERTEX
  8
SAPA_FOGBAND
  5
2A6E
 10
-164.659
 20
-20.3959
 30
0.000000
  70
    32
  0
VERTEX
  8
SAPA_FOGBAND
  5
2A6F
 10
-164.808
 20
-20.4110
 30
0.000000
  70
    32
  0
VERTEX
  8
SAPA_FOGBAND
  5
2A70
 10
-164.956
 20
-20.4304
 30
0.000000
  70
    32
  0
VERTEX
  8
SAPA_FOGBAND
  5
2A71
 10
-165.102
 20
-20.4539
 30
0.000000
  70
    32
  0
VERTEX
  8
SAPA_FOGBAND
  5
2A72
 10
-165.245
 20
-20.4816
 30
0.000000
  70
    32
  0
VERTEX
  8
SAPA_FOGBAND
  5
2A73
 10
-165.387
 20
-20.5134
 30
0.000000
  70
    32
  0
VERTEX
  8
SAPA_FOGBAND
  5
2A74
 10
-165.525
 20
-20.5492
 30
0.000000
  70
    32
  0
VERTEX
  8
SAPA_FOGBAND
  5
2A75
 10
-165.660
 20
-20.5889
 30
0.000000
  70
    32
  0
VERTEX
  8
SAPA_FOGBAND
  5
2A76
 10
-165.792
 20
-20.6325
 30
0.000000
  70
    32
  0
VERTEX
  8
SAPA_FOGBAND
  5
2A77
 10
-165.920
 20
-20.6798
 30
0.000000
  70
    32
  0
VERTEX
  8
SAPA_FOGBAND
  5
2A78
 10
-166.044
 20
-20.7306
 30
0.000000
  70
    32
  0
VERTEX
  8
SAPA_FOGBAND
  5
2A79
 10
-166.163
 20
-20.7850
 30
0.000000
  70
    32
  0
VERTEX
  8
SAPA_FOGBAND
  5
2A7A
 10
-166.278
 20
-20.8427
 30
0.000000
  70
    32
  0
VERTEX
  8
SAPA_FOGBAND
  5
2A7B
 10
-166.388
 20
-20.9036
 30
0.000000
  70
    32
  0
VERTEX
  8
SAPA_FOGBAND
  5
2A7C
 10
-166.492
 20
-20.9676
 30
0.000000
  70
    32
  0
VERTEX
  8
SAPA_FOGBAND
  5
2A7D
 10
-166.591
 20
-21.0345
 30
0.000000
  70
    32
  0
VERTEX
  8
SAPA_FOGBAND
  5
2A7E
 10
-166.684
 20
-21.1041
 30
0.000000
  70
    32
  0
VERTEX
  8
SAPA_FOGBAND
  5
2A7F
 10
-166.771
 20
-21.1764
 30
0.000000
  70
    32
  0
VERTEX
  8
SAPA_FOGBAND
  5
2A80
 10
-166.852
 20
-21.2510
 30
0.000000
  70
    32
  0
VERTEX
  8
SAPA_FOGBAND
  5
2A81
 10
-166.927
 20
-21.3279
 30
0.000000
  70
    32
  0
VERTEX
  8
SAPA_FOGBAND
  5
2A82
 10
-166.995
 20
-21.4068
 30
0.000000
  70
    32
  0
VERTEX
  8
SAPA_FOGBAND
  5
2A83
 10
-167.056
 20
-21.4876
 30
0.000000
  70
    32
  0
VERTEX
  8
SAPA_FOGBAND
  5
2A84
 10
-167.111
 20
-21.5700
 30
0.000000
  70
    32
  0
VERTEX
  8
SAPA_FOGBAND
  5
2A85
 10
-167.158
 20
-21.6539
 30
0.000000
  70
    32
  0
VERTEX
  8
SAPA_FOGBAND
  5
2A86
 10
-167.199
 20
-21.7390
 30
0.000000
  70
    32
  0
VERTEX
  8
SAPA_FOGBAND
  5
2A87
 10
-167.232
 20
-21.8252
 30
0.000000
  70
    32
  0
VERTEX
  8
SAPA_FOGBAND
  5
2A88
 10
-167.258
 20
-21.9123
 30
0.000000
  70
    32
  0
VERTEX
  8
SAPA_FOGBAND
  5
2A89
 10
-167.276
 20
-22.0000
 30
0.000000
  70
    32
  0
VERTEX
  8
SAPA_FOGBAND
  5
2A8A
 10
-167.287
 20
-22.0881
 30
0.000000
  70
    32
  0
VERTEX
  8
SAPA_FOGBAND
  5
2A8B
 10
-167.291
 20
-22.1764
 30
0.000000
  70
    32
  0
SEQEND
  8
SAPA_FOGBAND
  5
2A8C
  0
POLYLINE
  5
188A
  8
SAPA_FOGBAND
 62
     2
 66
     1
 10
0.0
 20
0.0
 30
0.0
 70
     1
  0
VERTEX
  5
2842
  8
SAPA_FOGBAND
 62
     2
 10
-156.76224953097031
 20
-27.476407700873089
 30
0.0
  0
VERTEX
  5
2843
  8
SAPA_FOGBAND
 62
     2
 10
-170.44271418026901
 20
-27.476407700873089
 30
0.0
 42
-0.427966335106886
  0
VERTEX
  5
2844
  8
SAPA_FOGBAND
 62
     2
 10
-170.742386747989
 20
-27.162395129513829
 30
0.0
  0
VERTEX
  5
2845
  8
SAPA_FOGBAND
 62
     2
 10
-170.25608683990939
 20
-18.96239512951384
 30
0.0
 42
-0.4005932428724212
  0
VERTEX
  5
2846
  8
SAPA_FOGBAND
 62
     2
 10
-169.95641427218931
 20
-18.676407700873089
 30
0.0
  0
VERTEX
  5
2847
  8
SAPA_FOGBAND
 62
     2
 10
-168.142714180269
 20
-18.676407700873089
 30
0.0
  0
VERTEX
  5
2848
  8
SAPA_FOGBAND
 62
     2
 10
-168.142714180269
 20
-16.9764077008731
 30
0.0
 42
-0.4142135623730951
  0
VERTEX
  5
2849
  8
SAPA_FOGBAND
 62
     2
 10
-167.84271418026901
 20
-16.676407700873089
 30
0.0
  0
VERTEX
  5
284A
  8
SAPA_FOGBAND
 62
     2
 10
-160.42393341664311
 20
-16.676407700873089
 30
0.0
 42
-0.1379343940649207
  0
VERTEX
  5
284B
  8
SAPA_FOGBAND
 62
     2
 10
-159.9027151075947
 20
-16.822984315727879
 30
0.0
  0
VERTEX
  5
284C
  8
SAPA_FOGBAND
 62
     2
 10
-147.9821050257448
 20
-24.2302025536362
 30
0.0
 42
-0.2613472755167645
  0
VERTEX
  5
284D
  8
SAPA_FOGBAND
 62
     2
 10
-147.74271418026899
 20
-24.65691424620881
 30
0.0
  0
VERTEX
  5
284E
  8
SAPA_FOGBAND
 62
     2
 10
-147.74271418026899
 20
-25.651610863372021
 30
0.0
 42
-0.3915187749346393
  0
VERTEX
  5
284F
  8
SAPA_FOGBAND
 62
     2
 10
-148.66469188004251
 20
-26.648562477377119
 30
0.0
  0
VERTEX
  5
2850
  8
SAPA_FOGBAND
 62
     2
 10
-156.723238380857
 20
-27.474883507875639
 30
0.0
 42
-0.0195279011117891
  0
SEQEND
  5
2851
  8
SAPA_FOGBAND
 62
     2
  0
CIRCLE
  5
188B
  8
SAPA_FOGBAND
 10
-18.616845196720082
 20
-84.637568177760485
 30
0.0
 40
0.2549509756796394
  0
INSERT
  5
188C
  8
SAPA_FOGBAND
  6
CONTINUOUS
  2
*U158
 10
0.0
 20
0.0
 30
0.0
1001
ACAD
1002
{
1000
R14_HATCH_DATA
1000
188C
1011
1.0
1021
0.0
1031
0.0
1021
0.0
1031
0.0
1011
0.0
1021
0.0
1031
0.0
1021
1.0
1031
0.0
1011
0.0
1021
0.0
1031
0.0
1021
0.0
1031
1.0
1040
0.0
1010
0.0
1020
0.0
1030
1.0
1000
SOLID
1070
     1
1070
     1
1071
        1
1071
        1
1071
        1
1070
     2
1040
-18.616845196720082
1040
-84.637568177760485
1040
0.2549509756796394
1040
0.0
1040
6.2831853071795862
1070
     1
1071
        1
1005
188B
1070
     0
1070
     1
1071
        1
1040
-18.853584098290181
1040
-84.555716680431615
1040
0.0
1002
}
  0
POLYLINE
  5
188D
  8
SAPA_FOGBAND
 66
     1
 10
0.0
 20
0.0
 30
0.0
 70
     1
  0
VERTEX
  5
2863
  8
SAPA_FOGBAND
 10
-17.716845196720101
 20
-87.599999957005025
 30
0.0
 42
0.9999999999999998
  0
VERTEX
  5
2864
  8
SAPA_FOGBAND
 10
-19.516845196720048
 20
-87.599999957005025
 30
0.0
  0
VERTEX
  5
2865
  8
SAPA_FOGBAND
 10
-19.516845196720048
 20
-88.199999957005033
 30
0.0
 42
0.9999999999999998
  0
VERTEX
  5
2866
  8
SAPA_FOGBAND
 10
-17.716845196720101
 20
-88.199999957005033
 30
0.0
  0
SEQEND
  5
2867
  8
SAPA_FOGBAND
  0
POLYLINE
  5
188E
  8
SAPA_FOGBAND
 66
     1
 10
0.0
 20
0.0
 30
0.0
 70
     1
  0
VERTEX
  5
2868
  8
SAPA_FOGBAND
 10
-27.244721504893281
 20
-82.499999957005002
 30
0.0
 42
0.0775891054856093
  0
VERTEX
  5
2869
  8
SAPA_FOGBAND
 10
-23.777939774470731
 20
-82.816635941066352
 30
0.0
  0
VERTEX
  5
286A
  8
SAPA_FOGBAND
 10
-23.540050281641928
 20
-82.599999957004954
 30
0.0
 42
-0.5773502691896298
  0
VERTEX
  5
286B
  8
SAPA_FOGBAND
 10
-23.193640120128059
 20
-82.599999957004954
 30
0.0
  0
VERTEX
  5
286C
  8
SAPA_FOGBAND
 10
-22.95559250339727
 20
-82.816909811228015
 30
0.0
  0
VERTEX
  5
286D
  8
SAPA_FOGBAND
 10
-22.17809789348064
 20
-82.816909811228015
 30
0.0
  0
VERTEX
  5
286E
  8
SAPA_FOGBAND
 10
-21.940050281641899
 20
-82.599999957004954
 30
0.0
 42
-0.577350269189699
  0
VERTEX
  5
286F
  8
SAPA_FOGBAND
 10
-21.59364012012816
 20
-82.599999957004954
 30
0.0
  0
VERTEX
  5
2870
  8
SAPA_FOGBAND
 10
-21.355592503397361
 20
-82.816909811228015
 30
0.0
  0
VERTEX
  5
2871
  8
SAPA_FOGBAND
 10
-20.578097893480621
 20
-82.816909811228015
 30
0.0
  0
VERTEX
  5
2872
  8
SAPA_FOGBAND
 10
-20.340050281641879
 20
-82.599999957004954
 30
0.0
 42
-0.577350269189699
  0
VERTEX
  5
2873
  8
SAPA_FOGBAND
 10
-19.993640120128131
 20
-82.599999957004954
 30
0.0
  0
VERTEX
  5
2874
  8
SAPA_FOGBAND
 10
-19.755592503397342
 20
-82.816909811228015
 30
0.0
  0
VERTEX
  5
2875
  8
SAPA_FOGBAND
 10
-18.978097893480591
 20
-82.816909811228015
 30
0.0
  0
VERTEX
  5
2876
  8
SAPA_FOGBAND
 10
-18.74005028164197
 20
-82.599999957004954
 30
0.0
 42
-0.5773502691896298
  0
VERTEX
  5
2877
  8
SAPA_FOGBAND
 10
-18.393640120128111
 20
-82.599999957004954
 30
0.0
  0
VERTEX
  5
2878
  8
SAPA_FOGBAND
 10
-18.155592503397308
 20
-82.816909811228015
 30
0.0
  0
VERTEX
  5
2879
  8
SAPA_FOGBAND
 10
-17.378097893480572
 20
-82.816909811228015
 30
0.0
  0
VERTEX
  5
287A
  8
SAPA_FOGBAND
 10
-17.14005028164194
 20
-82.599999957004954
 30
0.0
 42
-0.5773502691896298
  0
VERTEX
  5
287B
  8
SAPA_FOGBAND
 10
-16.793640120128089
 20
-82.599999957004954
 30
0.0
  0
VERTEX
  5
287C
  8
SAPA_FOGBAND
 10
-16.555592503397289
 20
-82.816909811228015
 30
0.0
  0
VERTEX
  5
287D
  8
SAPA_FOGBAND
 10
-15.77809788931563
 20
-82.816909811228015
 30
0.0
  0
VERTEX
  5
287E
  8
SAPA_FOGBAND
 10
-15.54005027747689
 20
-82.599999957004954
 30
0.0
 42
-0.577350269189699
  0
VERTEX
  5
287F
  8
SAPA_FOGBAND
 10
-15.19364011596315
 20
-82.599999957004954
 30
0.0
  0
VERTEX
  5
2880
  8
SAPA_FOGBAND
 10
-14.393640116408051
 20
-83.673330025489463
 30
0.0
 42
-0.1316524987190269
  0
VERTEX
  5
2881
  8
SAPA_FOGBAND
 10
-14.36684519672008
 20
-83.773330026260155
 30
0.0
  0
VERTEX
  5
2882
  8
SAPA_FOGBAND
 10
-14.366845196719961
 20
-86.299999957004957
 30
0.0
 42
-0.4142135623730951
  0
VERTEX
  5
2883
  8
SAPA_FOGBAND
 10
-14.56684519672001
 20
-86.499999957005002
 30
0.0
  0
VERTEX
  5
2884
  8
SAPA_FOGBAND
 10
-16.616845196720071
 20
-86.499999957005002
 30
0.0
 42
0.4142135623730951
  0
VERTEX
  5
2885
  8
SAPA_FOGBAND
 10
-17.116845196720082
 20
-86.999999957004988
 30
0.0
  0
VERTEX
  5
2886
  8
SAPA_FOGBAND
 10
-17.116845196720082
 20
-87.726794876248164
 30
0.0
  0
VERTEX
  5
2887
  8
SAPA_FOGBAND
 10
-16.86508138769954
 20
-87.794254785558564
 30
0.0
 42
-0.4740571810232869
  0
VERTEX
  5
2888
  8
SAPA_FOGBAND
 10
-16.737787525335989
 20
-88.076537371197205
 30
0.0
  0
VERTEX
  5
2889
  8
SAPA_FOGBAND
 10
-17.357888028094521
 20
-89.522743507956989
 30
0.0
 42
-0.2846003776495916
  0
VERTEX
  5
288A
  8
SAPA_FOGBAND
 10
-17.805532206554741
 20
-89.799999957004957
 30
0.0
  0
VERTEX
  5
288B
  8
SAPA_FOGBAND
 10
-19.428158186885291
 20
-89.799999957004957
 30
0.0
 42
-0.2846003776495917
  0
VERTEX
  5
288C
  8
SAPA_FOGBAND
 10
-19.875802365345521
 20
-89.522743507956989
 30
0.0
  0
VERTEX
  5
288D
  8
SAPA_FOGBAND
 10
-20.49590286810405
 20
-88.076537371197205
 30
0.0
 42
-0.4740571810232869
  0
VERTEX
  5
288E
  8
SAPA_FOGBAND
 10
-20.368609005740488
 20
-87.794254785558564
 30
0.0
  0
VERTEX
  5
288F
  8
SAPA_FOGBAND
 10
-20.116845196720082
 20
-87.726794876248164
 30
0.0
  0
VERTEX
  5
2890
  8
SAPA_FOGBAND
 10
-20.116845196720082
 20
-86.999999957004988
 30
0.0
 42
0.4142135623730951
  0
VERTEX
  5
2891
  8
SAPA_FOGBAND
 10
-20.616845196720082
 20
-86.499999957005002
 30
0.0
  0
VERTEX
  5
2892
  8
SAPA_FOGBAND
 10
-23.666845196720029
 20
-86.499999957005002
 30
0.0
 42
0.4142135623730951
  0
VERTEX
  5
2893
  8
SAPA_FOGBAND
 10
-23.866845196720082
 20
-86.699999957005048
 30
0.0
  0
VERTEX
  5
2894
  8
SAPA_FOGBAND
 10
-23.866845196719961
 20
-87.599999957005025
 30
0.0
 42
-0.4142135623731784
  0
VERTEX
  5
2895
  8
SAPA_FOGBAND
 10
-24.06684519672001
 20
-87.799999957004957
 30
0.0
  0
VERTEX
  5
2896
  8
SAPA_FOGBAND
 10
-24.766845196720048
 20
-87.79999995700507
 30
0.0
 42
-0.4142135623730398
  0
VERTEX
  5
2897
  8
SAPA_FOGBAND
 10
-25.06684519672001
 20
-87.499999957005002
 30
0.0
  0
VERTEX
  5
2898
  8
SAPA_FOGBAND
 10
-25.06684519672001
 20
-86.689488180353464
 30
0.0
 42
0.1316524975873973
  0
VERTEX
  5
2899
  8
SAPA_FOGBAND
 10
-25.33479438915117
 20
-85.689488180353464
 30
0.0
  0
VERTEX
  5
289A
  8
SAPA_FOGBAND
 10
-30.497639539191599
 20
-83.099920188261535
 30
0.0
 42
-0.7057658529986604
  0
VERTEX
  5
289B
  8
SAPA_FOGBAND
 10
-30.23004636383325
 20
-82.499999957005002
 30
0.0
  0
SEQEND
  5
289C
  8
SAPA_FOGBAND
  0
POLYLINE
  5
188F
  8
SAPA_FOGBAND
 66
     1
 10
0.0
 20
0.0
 30
0.0
 70
     1
  0
VERTEX
  5
289D
  8
SAPA_FOGBAND
 10
-19.30339354938252
 20
-34.185369460357037
 30
0.0
 42
-0.9999999999999998
  0
VERTEX
  5
289E
  8
SAPA_FOGBAND
 10
-21.103393549382531
 20
-34.185369460357037
 30
0.0
  0
VERTEX
  5
289F
  8
SAPA_FOGBAND
 10
-21.103393549382531
 20
-33.585369460357022
 30
0.0
 42
-0.9999999999999998
  0
VERTEX
  5
28A0
  8
SAPA_FOGBAND
 10
-19.30339354938252
 20
-33.585369460357022
 30
0.0
  0
SEQEND
  5
28A1
  8
SAPA_FOGBAND
  0
POLYLINE
  5
1890
  8
SAPA_FOGBAND
 66
     1
 10
0.0
 20
0.0
 30
0.0
  0
VERTEX
  5
28A2
  8
SAPA_FOGBAND
 10
-23.80339354938252
 20
-35.799999957995851
 30
0.0
  0
VERTEX
  5
28A3
  8
SAPA_FOGBAND
 10
-23.80339354938252
 20
-35.499999957995783
 30
0.0
  0
VERTEX
  5
28A4
  8
SAPA_FOGBAND
 10
-23.80339354938252
 20
-35.799999957995851
 30
0.0
 42
0.4142135623730951
  0
VERTEX
  5
28A5
  8
SAPA_FOGBAND
 10
-23.30339354938252
 20
-36.299999957995851
 30
0.0
  0
VERTEX
  5
28A6
  8
SAPA_FOGBAND
 10
-16.003393549382562
 20
-36.299999957995851
 30
0.0
 42
0.4142135623730951
  0
VERTEX
  5
28A7
  8
SAPA_FOGBAND
 10
-15.50339354938256
 20
-35.799999957995851
 30
0.0
  0
VERTEX
  5
28A8
  8
SAPA_FOGBAND
 10
-15.50339354938256
 20
-35.499999957995783
 30
0.0
  0
SEQEND
  5
28A9
  8
SAPA_FOGBAND
  0
POLYLINE
  5
1891
  8
SAPA_FOGBAND
 66
     1
 10
0.0
 20
0.0
 30
0.0
 70
     1
  0
VERTEX
  5
28AA
  8
SAPA_FOGBAND
 10
-17.151678439678861
 20
-40.099999957995777
 30
0.0
  0
VERTEX
  5
28AB
  8
SAPA_FOGBAND
 10
-20.246322549004699
 20
-40.099999957995777
 30
0.0
 42
1.024758115298622
  0
VERTEX
  5
28AC
  8
SAPA_FOGBAND
 10
-20.246322549004699
 20
-43.281531750781269
 30
0.0
  0
VERTEX
  5
28AD
  8
SAPA_FOGBAND
 10
-17.151678439678861
 20
-43.281531750781269
 30
0.0
 42
0.9558128803175696
  0
SEQEND
  5
28AE
  8
SAPA_FOGBAND
  0
POLYLINE
  5
1892
  8
SAPA_FOGBAND
 66
     1
 10
0.0
 20
0.0
 30
0.0
 70
     1
  0
VERTEX
  5
28AF
  8
SAPA_FOGBAND
 10
-7.9203481005595746
 20
-41.936054084741443
 30
0.0
 42
-0.6274939020253784
  0
VERTEX
  5
28B0
  8
SAPA_FOGBAND
 10
-7.9312729229927159
 20
-43.494698578703172
 30
0.0
  0
VERTEX
  5
28B1
  8
SAPA_FOGBAND
 10
-11.907132916357369
 20
-44.05844158262591
 30
0.0
 42
-0.4459602482749359
  0
VERTEX
  5
28B2
  8
SAPA_FOGBAND
 10
-12.903393549382571
 20
-43.163604228393552
 30
0.0
  0
VERTEX
  5
28B3
  8
SAPA_FOGBAND
 10
-12.903393549382571
 20
-40.440292903528842
 30
0.0
 42
-0.6245270939358744
  0
VERTEX
  5
28B4
  8
SAPA_FOGBAND
 10
-11.44999687686736
 20
-39.730537929718139
 30
0.0
  0
SEQEND
  5
28B5
  8
SAPA_FOGBAND
  0
POLYLINE
  5
1893
  8
SAPA_FOGBAND
 66
     1
 10
0.0
 20
0.0
 30
0.0
 70
     1
  0
VERTEX
  5
28B6
  8
SAPA_FOGBAND
 10
-18.70339354938255
 20
-34.058574541113899
 30
0.0
  0
VERTEX
  5
28B7
  8
SAPA_FOGBAND
 10
-18.45162974036208
 20
-33.991114631803498
 30
0.0
 42
0.4740571810232144
  0
VERTEX
  5
28B8
  8
SAPA_FOGBAND
 10
-18.324335877998461
 20
-33.708832046164851
 30
0.0
  0
VERTEX
  5
28B9
  8
SAPA_FOGBAND
 10
-18.94443638075705
 20
-32.26262590940496
 30
0.0
 42
0.2846003776496053
  0
VERTEX
  5
28BA
  8
SAPA_FOGBAND
 10
-19.39208055921722
 20
-31.985369460356988
 30
0.0
  0
VERTEX
  5
28BB
  8
SAPA_FOGBAND
 10
-21.014706539547831
 20
-31.985369460356988
 30
0.0
 42
0.2846003776496027
  0
VERTEX
  5
28BC
  8
SAPA_FOGBAND
 10
-21.462350718008
 20
-32.26262590940496
 30
0.0
  0
VERTEX
  5
28BD
  8
SAPA_FOGBAND
 10
-22.08245122076659
 20
-33.7088320461649
 30
0.0
 42
0.4740571810232332
  0
VERTEX
  5
28BE
  8
SAPA_FOGBAND
 10
-21.955157358403032
 20
-33.991114631803498
 30
0.0
  0
VERTEX
  5
28BF
  8
SAPA_FOGBAND
 10
-21.70339354938255
 20
-34.058574541113899
 30
0.0
  0
VERTEX
  5
28C0
  8
SAPA_FOGBAND
 10
-21.70339354938255
 20
-34.99999995799579
 30
0.0
 42
-0.4142135623730951
  0
VERTEX
  5
28C1
  8
SAPA_FOGBAND
 10
-22.20339354938255
 20
-35.499999957995783
 30
0.0
  0
VERTEX
  5
28C2
  8
SAPA_FOGBAND
 10
-24.715553712764009
 20
-35.49999995799584
 30
0.0
 42
0.4027293761437467
  0
VERTEX
  5
28C3
  8
SAPA_FOGBAND
 10
-25.01532126636187
 20
-35.788192595465148
 30
0.0
  0
VERTEX
  5
28C4
  8
SAPA_FOGBAND
 10
-25.503161081031301
 20
-45.188192595465182
 30
0.0
 42
0.4257917699693538
  0
VERTEX
  5
28C5
  8
SAPA_FOGBAND
 10
-25.203393527433441
 20
-45.499999957995833
 30
0.0
  0
VERTEX
  5
28C6
  8
SAPA_FOGBAND
 10
-11.497859868209559
 20
-45.499999957995833
 30
0.0
  0
VERTEX
  5
28C7
  8
SAPA_FOGBAND
 10
-5.8947182704826862
 20
-44.723465040313208
 30
0.0
 42
0.322530093016903
  0
VERTEX
  5
28C8
  8
SAPA_FOGBAND
 10
-5.2033935274334171
 20
-43.72938773520724
 30
0.0
  0
VERTEX
  5
28C9
  8
SAPA_FOGBAND
 10
-5.2033935274334171
 20
-42.498644178769659
 30
0.0
 42
0.2325311832130604
  0
VERTEX
  5
28CA
  8
SAPA_FOGBAND
 10
-5.3980562841266373
 20
-42.102703314687858
 30
0.0
  0
VERTEX
  5
28CB
  8
SAPA_FOGBAND
 10
-14.56461951203414
 20
-35.708118229832337
 30
0.0
 42
0.1657205760184606
  0
VERTEX
  5
28CC
  8
SAPA_FOGBAND
 10
-15.17529399864776
 20
-35.499999957995783
 30
0.0
  0
VERTEX
  5
28CD
  8
SAPA_FOGBAND
 10
-18.20339354938255
 20
-35.499999957995783
 30
0.0
 42
-0.4142135623730951
  0
VERTEX
  5
28CE
  8
SAPA_FOGBAND
 10
-18.70339354938255
 20
-34.99999995799579
 30
0.0
  0
SEQEND
  5
28CF
  8
SAPA_FOGBAND
  0
CIRCLE
  5
1894
  8
SAPA_FOGBAND
 10
18.629356795613329
 20
-85.028466855359767
 30
0.0
 40
0.2549509756796394
  0
INSERT
  5
1895
  8
SAPA_FOGBAND
  6
CONTINUOUS
  2
*U159
 10
0.0
 20
0.0
 30
0.0
1001
ACAD
1002
{
1000
R14_HATCH_DATA
1000
1895
1011
1.0
1021
0.0
1031
0.0
1021
0.0
1031
0.0
1011
0.0
1021
0.0
1031
0.0
1021
1.0
1031
0.0
1011
0.0
1021
0.0
1031
0.0
1021
0.0
1031
1.0
1040
0.0
1010
0.0
1020
0.0
1030
1.0
1000
SOLID
1070
     1
1070
     1
1071
        1
1071
        1
1071
        1
1070
     2
1040
18.629356795613329
1040
-85.028466855359767
1040
0.2549509756796394
1040
-3.1415926535897931
1040
3.1415926535897931
1070
     0
1071
        1
1005
1894
1070
     0
1070
     1
1071
        1
1040
577.52116078463007
1040
-436.1916187600666
1040
0.0
1002
}
  0
POLYLINE
  5
1896
  8
SAPA_FOGBAND
 66
     1
 10
0.0
 20
0.0
 30
0.0
 70
     1
  0
VERTEX
  5
28E1
  8
SAPA_FOGBAND
 10
17.72935679561369
 20
-87.599999999011075
 30
0.0
 42
-0.9999999999999998
  0
VERTEX
  5
28E2
  8
SAPA_FOGBAND
 10
19.529356795613872
 20
-87.599999999011075
 30
0.0
  0
VERTEX
  5
28E3
  8
SAPA_FOGBAND
 10
19.529356795613872
 20
-88.199999999011439
 30
0.0
 42
-0.9999999999999998
  0
VERTEX
  5
28E4
  8
SAPA_FOGBAND
 10
17.72935679561369
 20
-88.199999999011439
 30
0.0
  0
SEQEND
  5
28E5
  8
SAPA_FOGBAND
  0
POLYLINE
  5
1897
  8
SAPA_FOGBAND
 66
     1
 10
0.0
 20
0.0
 30
0.0
 70
     1
  0
VERTEX
  5
28E6
  8
SAPA_FOGBAND
 10
14.379356795613329
 20
-84.164228703859635
 30
0.0
  0
VERTEX
  5
28E7
  8
SAPA_FOGBAND
 10
14.379356795613329
 20
-86.299999999010893
 30
0.0
 42
0.4142135623730951
  0
VERTEX
  5
28E8
  8
SAPA_FOGBAND
 10
14.57935679561314
 20
-86.499999999010711
 30
0.0
  0
VERTEX
  5
28E9
  8
SAPA_FOGBAND
 10
16.629356795613329
 20
-86.499999999010711
 30
0.0
 42
-0.4142135623730951
  0
VERTEX
  5
28EA
  8
SAPA_FOGBAND
 10
17.129356795613329
 20
-86.999999999010726
 30
0.0
  0
VERTEX
  5
28EB
  8
SAPA_FOGBAND
 10
17.129356795613329
 20
-87.726794918254441
 30
0.0
  0
VERTEX
  5
28EC
  8
SAPA_FOGBAND
 10
16.877592986593019
 20
-87.794254827564387
 30
0.0
 42
0.4740571810232154
  0
VERTEX
  5
28ED
  8
SAPA_FOGBAND
 10
16.750299124229691
 20
-88.076537413202715
 30
0.0
  0
VERTEX
  5
28EE
  8
SAPA_FOGBAND
 10
17.370399626988451
 20
-89.522743549963025
 30
0.0
 42
0.2846003776496056
  0
VERTEX
  5
28EF
  8
SAPA_FOGBAND
 10
17.81804380544845
 20
-89.799999999010893
 30
0.0
  0
VERTEX
  5
28F0
  8
SAPA_FOGBAND
 10
19.440669785779122
 20
-89.799999999010893
 30
0.0
 42
0.2846003776496054
  0
VERTEX
  5
28F1
  8
SAPA_FOGBAND
 10
19.88831396423911
 20
-89.522743549963025
 30
0.0
  0
VERTEX
  5
28F2
  8
SAPA_FOGBAND
 10
20.50841446699787
 20
-88.076537413202715
 30
0.0
 42
0.4740571810232154
  0
VERTEX
  5
28F3
  8
SAPA_FOGBAND
 10
20.38112060463364
 20
-87.794254827564387
 30
0.0
  0
VERTEX
  5
28F4
  8
SAPA_FOGBAND
 10
20.129356795613329
 20
-87.726794918254441
 30
0.0
  0
VERTEX
  5
28F5
  8
SAPA_FOGBAND
 10
20.129356795613329
 20
-86.999999999010726
 30
0.0
 42
-0.4142135623730951
  0
VERTEX
  5
28F6
  8
SAPA_FOGBAND
 10
20.629356795613329
 20
-86.499999999010711
 30
0.0
  0
VERTEX
  5
28F7
  8
SAPA_FOGBAND
 10
23.679356795613511
 20
-86.499999999010711
 30
0.0
 42
-0.4142135623730951
  0
VERTEX
  5
28F8
  8
SAPA_FOGBAND
 10
23.879356795613329
 20
-86.699999999011425
 30
0.0
  0
VERTEX
  5
28F9
  8
SAPA_FOGBAND
 10
23.879356795613329
 20
-87.599999999011075
 30
0.0
 42
0.4142135623730951
  0
VERTEX
  5
28FA
  8
SAPA_FOGBAND
 10
24.079356795613151
 20
-87.799999999010893
 30
0.0
  0
VERTEX
  5
28FB
  8
SAPA_FOGBAND
 10
24.779356795613879
 20
-87.799999999010893
 30
0.0
 42
0.4142135623730951
  0
VERTEX
  5
28FC
  8
SAPA_FOGBAND
 10
25.079356795613151
 20
-87.499999999010711
 30
0.0
  0
VERTEX
  5
28FD
  8
SAPA_FOGBAND
 10
25.079356795613151
 20
-86.689488222358946
 30
0.0
 42
-0.1316524975873982
  0
VERTEX
  5
28FE
  8
SAPA_FOGBAND
 10
25.34730598804499
 20
-85.689488222358946
 30
0.0
  0
VERTEX
  5
28FF
  8
SAPA_FOGBAND
 10
29.31801852514646
 20
-83.054121304015325
 30
0.0
 42
0.876976462992761
  0
VERTEX
  5
2900
  8
SAPA_FOGBAND
 10
29.215112935236629
 20
-82.536779967899079
 30
0.0
  0
VERTEX
  5
2901
  8
SAPA_FOGBAND
 10
23.79045137336443
 20
-83.090624764442751
 30
0.0
 42
-0.1353185728426623
  0
VERTEX
  5
2902
  8
SAPA_FOGBAND
 10
23.79045137336443
 20
-83.090624764442751
 30
0.0
  0
VERTEX
  5
2903
  8
SAPA_FOGBAND
 10
23.552561880535631
 20
-82.678588072042885
 30
0.0
 42
0.5773502691896196
  0
VERTEX
  5
2904
  8
SAPA_FOGBAND
 10
23.20615171902109
 20
-82.678588072042885
 30
0.0
  0
VERTEX
  5
2905
  8
SAPA_FOGBAND
 10
22.96810410229018
 20
-83.090898634604187
 30
0.0
  0
VERTEX
  5
2906
  8
SAPA_FOGBAND
 10
22.190609492374001
 20
-83.090898634604187
 30
0.0
  0
VERTEX
  5
2907
  8
SAPA_FOGBAND
 10
21.952561880535271
 20
-82.678588072042885
 30
0.0
 42
0.5773502691896196
  0
VERTEX
  5
2908
  8
SAPA_FOGBAND
 10
21.606151719021639
 20
-82.678588072042885
 30
0.0
  0
VERTEX
  5
2909
  8
SAPA_FOGBAND
 10
21.368104102290729
 20
-83.090898634604187
 30
0.0
  0
VERTEX
  5
290A
  8
SAPA_FOGBAND
 10
20.590609492373641
 20
-83.090898634604187
 30
0.0
  0
VERTEX
  5
290B
  8
SAPA_FOGBAND
 10
20.352561880535809
 20
-82.678588072042885
 30
0.0
 42
0.5773502691896196
  0
VERTEX
  5
290C
  8
SAPA_FOGBAND
 10
20.006151719021268
 20
-82.678588072042885
 30
0.0
  0
VERTEX
  5
290D
  8
SAPA_FOGBAND
 10
19.768104102291272
 20
-83.090898634604187
 30
0.0
  0
VERTEX
  5
290E
  8
SAPA_FOGBAND
 10
18.99060949237419
 20
-83.090898634604187
 30
0.0
  0
VERTEX
  5
290F
  8
SAPA_FOGBAND
 10
18.752561880535449
 20
-82.678588072042885
 30
0.0
 42
0.5773502691896196
  0
VERTEX
  5
2910
  8
SAPA_FOGBAND
 10
18.406151719021821
 20
-82.678588072042885
 30
0.0
  0
VERTEX
  5
2911
  8
SAPA_FOGBAND
 10
18.168104102290911
 20
-83.090898634604187
 30
0.0
  0
VERTEX
  5
2912
  8
SAPA_FOGBAND
 10
17.390609492373819
 20
-83.090898634604187
 30
0.0
  0
VERTEX
  5
2913
  8
SAPA_FOGBAND
 10
17.152561880535082
 20
-82.678588072042885
 30
0.0
 42
0.5773502691896196
  0
VERTEX
  5
2914
  8
SAPA_FOGBAND
 10
16.80615171902145
 20
-82.678588072042885
 30
0.0
  0
VERTEX
  5
2915
  8
SAPA_FOGBAND
 10
16.56810410229054
 20
-83.090898634604187
 30
0.0
  0
VERTEX
  5
2916
  8
SAPA_FOGBAND
 10
15.790609488208879
 20
-83.090898634604187
 30
0.0
  0
VERTEX
  5
2917
  8
SAPA_FOGBAND
 10
15.55256187637014
 20
-82.678588072042885
 30
0.0
 42
0.5773502691896196
  0
VERTEX
  5
2918
  8
SAPA_FOGBAND
 10
15.20615171485651
 20
-82.678588072042885
 30
0.0
  0
VERTEX
  5
2919
  8
SAPA_FOGBAND
 10
14.406151715301981
 20
-84.064228703088943
 30
0.0
 42
0.1316524987190407
  0
SEQEND
  5
291A
  8
SAPA_FOGBAND
  0
POLYLINE
  5
1898
  8
SAPA_FOGBAND
 66
     1
 10
0.0
 20
0.0
 30
0.0
 70
     1
  0
VERTEX
  5
291B
  8
SAPA_FOGBAND
 10
21.953090993536261
 20
-33.991114672817289
 30
0.0
 42
0.4740571810231764
  0
VERTEX
  5
291C
  8
SAPA_FOGBAND
 10
22.080384855899592
 20
-33.708832087178983
 30
0.0
  0
VERTEX
  5
291D
  8
SAPA_FOGBAND
 10
21.460284353140828
 20
-32.262625950418638
 30
0.0
 42
0.2846003776496257
  0
VERTEX
  5
291E
  8
SAPA_FOGBAND
 10
21.01264017468084
 20
-31.985369501370791
 30
0.0
  0
VERTEX
  5
291F
  8
SAPA_FOGBAND
 10
19.390014194350169
 20
-31.985369501370791
 30
0.0
 42
0.2846003776496159
  0
VERTEX
  5
2920
  8
SAPA_FOGBAND
 10
18.94237001589017
 20
-32.262625950418638
 30
0.0
  0
VERTEX
  5
2921
  8
SAPA_FOGBAND
 10
18.32226951313141
 20
-33.708832087178983
 30
0.0
 42
0.4740571810232354
  0
VERTEX
  5
2922
  8
SAPA_FOGBAND
 10
18.449563375494741
 20
-33.991114672817289
 30
0.0
  0
VERTEX
  5
2923
  8
SAPA_FOGBAND
 10
18.701327184515961
 20
-34.058574582128138
 30
0.0
  0
VERTEX
  5
2924
  8
SAPA_FOGBAND
 10
18.701327184515961
 20
-34.999999999009567
 30
0.0
 42
-0.4142135623730951
  0
VERTEX
  5
2925
  8
SAPA_FOGBAND
 10
18.201327184515961
 20
-35.499999999009582
 30
0.0
  0
VERTEX
  5
2926
  8
SAPA_FOGBAND
 10
15.17322763378133
 20
-35.499999999009582
 30
0.0
 42
0.1657205760184635
  0
VERTEX
  5
2927
  8
SAPA_FOGBAND
 10
14.56255314716754
 20
-35.708118270846178
 30
0.0
  0
VERTEX
  5
2928
  8
SAPA_FOGBAND
 10
5.1946627566901027
 20
-40.60270335570182
 30
0.0
 42
0.2325311832130358
  0
VERTEX
  5
2929
  8
SAPA_FOGBAND
 10
4.9999999999969971
 20
-40.998644219783969
 30
0.0
  0
VERTEX
  5
292A
  8
SAPA_FOGBAND
 10
4.9999999999969971
 20
-42.729387776221081
 30
0.0
 42
0.3826682380870913
  0
VERTEX
  5
292B
  8
SAPA_FOGBAND
 10
5.8913247430461508
 20
-43.723465081326829
 30
0.0
  0
VERTEX
  5
292C
  8
SAPA_FOGBAND
 10
11.495793503343251
 20
-44.499999999010257
 30
0.0
  0
VERTEX
  5
292D
  8
SAPA_FOGBAND
 10
25.201327162566209
 20
-44.499999999010257
 30
0.0
 42
0.4257917699693507
  0
VERTEX
  5
292E
  8
SAPA_FOGBAND
 10
25.501094716164239
 20
-44.188192636479251
 30
0.0
  0
VERTEX
  5
292F
  8
SAPA_FOGBAND
 10
25.013254901494928
 20
-35.788192636478939
 30
0.0
 42
0.4027293761437475
  0
VERTEX
  5
2930
  8
SAPA_FOGBAND
 10
24.713487347896901
 20
-35.499999999009582
 30
0.0
  0
VERTEX
  5
2931
  8
SAPA_FOGBAND
 10
22.201327184515961
 20
-35.499999999009582
 30
0.0
 42
-0.4142135623730951
  0
VERTEX
  5
2932
  8
SAPA_FOGBAND
 10
21.701327184515051
 20
-34.999999999009567
 30
0.0
  0
VERTEX
  5
2933
  8
SAPA_FOGBAND
 10
21.701327184515051
 20
-34.058574582128138
 30
0.0
  0
SEQEND
  5
2934
  8
SAPA_FOGBAND
  0
POLYLINE
  5
1899
  8
SAPA_FOGBAND
 66
     1
 10
0.0
 20
0.0
 30
0.0
 70
     1
  0
VERTEX
  5
2935
  8
SAPA_FOGBAND
 10
19.301327184515412
 20
-33.585369501371147
 30
0.0
  0
VERTEX
  5
2936
  8
SAPA_FOGBAND
 10
19.301327184515412
 20
-34.185369501370602
 30
0.0
 42
0.9999999999999998
  0
VERTEX
  5
2937
  8
SAPA_FOGBAND
 10
21.10132718451559
 20
-34.185369501370602
 30
0.0
  0
VERTEX
  5
2938
  8
SAPA_FOGBAND
 10
21.10132718451559
 20
-33.585369501371147
 30
0.0
 42
0.9999999999999998
  0
SEQEND
  5
2939
  8
SAPA_FOGBAND
  0
POLYLINE
  5
189A
  8
SAPA_FOGBAND
 66
     1
 10
0.0
 20
0.0
 30
0.0
  0
VERTEX
  5
293A
  8
SAPA_FOGBAND
 10
23.801327184515412
 20
-35.499999999009582
 30
0.0
  0
VERTEX
  5
293B
  8
SAPA_FOGBAND
 10
23.801327184515412
 20
-35.799999999009763
 30
0.0
 42
-0.4142135623730951
  0
VERTEX
  5
293C
  8
SAPA_FOGBAND
 10
23.301327184515412
 20
-36.299999999009763
 30
0.0
  0
VERTEX
  5
293D
  8
SAPA_FOGBAND
 10
16.00132718451523
 20
-36.299999999009763
 30
0.0
 42
-0.4142135623730951
  0
VERTEX
  5
293E
  8
SAPA_FOGBAND
 10
15.50132718451523
 20
-35.799999999009763
 30
0.0
  0
VERTEX
  5
293F
  8
SAPA_FOGBAND
 10
15.501327184516139
 20
-35.499999999009582
 30
0.0
  0
SEQEND
  5
2940
  8
SAPA_FOGBAND
  0
POLYLINE
  5
189B
  8
SAPA_FOGBAND
 10
18.983103333429415
 20
-38.341392140065189
 30
0.0
 66
     1
 70
     8
  0
VERTEX
  8
SAPA_FOGBAND
  5
2A8D
 10
18.9831
 20
-38.3414
 30
0.000000
  70
    32
  0
VERTEX
  8
SAPA_FOGBAND
  5
2A8E
 10
19.1449
 20
-38.3450
 30
0.000000
  70
    32
  0
VERTEX
  8
SAPA_FOGBAND
  5
2A8F
 10
19.3063
 20
-38.3527
 30
0.000000
  70
    32
  0
VERTEX
  8
SAPA_FOGBAND
  5
2A90
 10
19.4669
 20
-38.3645
 30
0.000000
  70
    32
  0
VERTEX
  8
SAPA_FOGBAND
  5
2A91
 10
19.6262
 20
-38.3802
 30
0.000000
  70
    32
  0
VERTEX
  8
SAPA_FOGBAND
  5
2A92
 10
19.7840
 20
-38.3999
 30
0.000000
  70
    32
  0
VERTEX
  8
SAPA_FOGBAND
  5
2A93
 10
19.9398
 20
-38.4236
 30
0.000000
  70
    32
  0
VERTEX
  8
SAPA_FOGBAND
  5
2A94
 10
20.0933
 20
-38.4511
 30
0.000000
  70
    32
  0
VERTEX
  8
SAPA_FOGBAND
  5
2A95
 10
20.2440
 20
-38.4824
 30
0.000000
  70
    32
  0
VERTEX
  8
SAPA_FOGBAND
  5
2A96
 10
20.3917
 20
-38.5175
 30
0.000000
  70
    32
  0
VERTEX
  8
SAPA_FOGBAND
  5
2A97
 10
20.5359
 20
-38.5561
 30
0.000000
  70
    32
  0
VERTEX
  8
SAPA_FOGBAND
  5
2A98
 10
20.6764
 20
-38.5984
 30
0.000000
  70
    32
  0
VERTEX
  8
SAPA_FOGBAND
  5
2A99
 10
20.8127
 20
-38.6440
 30
0.000000
  70
    32
  0
VERTEX
  8
SAPA_FOGBAND
  5
2A9A
 10
20.9446
 20
-38.6931
 30
0.000000
  70
    32
  0
VERTEX
  8
SAPA_FOGBAND
  5
2A9B
 10
21.0717
 20
-38.7453
 30
0.000000
  70
    32
  0
VERTEX
  8
SAPA_FOGBAND
  5
2A9C
 10
21.1937
 20
-38.8006
 30
0.000000
  70
    32
  0
VERTEX
  8
SAPA_FOGBAND
  5
2A9D
 10
21.3104
 20
-38.8589
 30
0.000000
  70
    32
  0
VERTEX
  8
SAPA_FOGBAND
  5
2A9E
 10
21.4214
 20
-38.9200
 30
0.000000
  70
    32
  0
VERTEX
  8
SAPA_FOGBAND
  5
2A9F
 10
21.5266
 20
-38.9838
 30
0.000000
  70
    32
  0
VERTEX
  8
SAPA_FOGBAND
  5
2AA0
 10
21.6255
 20
-39.0501
 30
0.000000
  70
    32
  0
VERTEX
  8
SAPA_FOGBAND
  5
2AA1
 10
21.7180
 20
-39.1187
 30
0.000000
  70
    32
  0
VERTEX
  8
SAPA_FOGBAND
  5
2AA2
 10
21.8040
 20
-39.1896
 30
0.000000
  70
    32
  0
VERTEX
  8
SAPA_FOGBAND
  5
2AA3
 10
21.8830
 20
-39.2624
 30
0.000000
  70
    32
  0
VERTEX
  8
SAPA_FOGBAND
  5
2AA4
 10
21.9551
 20
-39.3371
 30
0.000000
  70
    32
  0
VERTEX
  8
SAPA_FOGBAND
  5
2AA5
 10
22.0199
 20
-39.4135
 30
0.000000
  70
    32
  0
VERTEX
  8
SAPA_FOGBAND
  5
2AA6
 10
22.0774
 20
-39.4914
 30
0.000000
  70
    32
  0
VERTEX
  8
SAPA_FOGBAND
  5
2AA7
 10
22.1274
 20
-39.5705
 30
0.000000
  70
    32
  0
VERTEX
  8
SAPA_FOGBAND
  5
2AA8
 10
22.1698
 20
-39.6508
 30
0.000000
  70
    32
  0
VERTEX
  8
SAPA_FOGBAND
  5
2AA9
 10
22.2045
 20
-39.7320
 30
0.000000
  70
    32
  0
VERTEX
  8
SAPA_FOGBAND
  5
2AAA
 10
22.2313
 20
-39.8139
 30
0.000000
  70
    32
  0
VERTEX
  8
SAPA_FOGBAND
  5
2AAB
 10
22.2503
 20
-39.8963
 30
0.000000
  70
    32
  0
VERTEX
  8
SAPA_FOGBAND
  5
2AAC
 10
22.2614
 20
-39.9790
 30
0.000000
  70
    32
  0
VERTEX
  8
SAPA_FOGBAND
  5
2AAD
 10
22.2646
 20
-40.0618
 30
0.000000
  70
    32
  0
VERTEX
  8
SAPA_FOGBAND
  5
2AAE
 10
22.2598
 20
-40.1446
 30
0.000000
  70
    32
  0
VERTEX
  8
SAPA_FOGBAND
  5
2AAF
 10
22.2470
 20
-40.2271
 30
0.000000
  70
    32
  0
VERTEX
  8
SAPA_FOGBAND
  5
2AB0
 10
22.2264
 20
-40.3091
 30
0.000000
  70
    32
  0
VERTEX
  8
SAPA_FOGBAND
  5
2AB1
 10
22.1979
 20
-40.3904
 30
0.000000
  70
    32
  0
VERTEX
  8
SAPA_FOGBAND
  5
2AB2
 10
22.1616
 20
-40.4709
 30
0.000000
  70
    32
  0
VERTEX
  8
SAPA_FOGBAND
  5
2AB3
 10
22.1177
 20
-40.5503
 30
0.000000
  70
    32
  0
VERTEX
  8
SAPA_FOGBAND
  5
2AB4
 10
22.0661
 20
-40.6285
 30
0.000000
  70
    32
  0
VERTEX
  8
SAPA_FOGBAND
  5
2AB5
 10
22.0071
 20
-40.7052
 30
0.000000
  70
    32
  0
VERTEX
  8
SAPA_FOGBAND
  5
2AB6
 10
21.9407
 20
-40.7802
 30
0.000000
  70
    32
  0
VERTEX
  8
SAPA_FOGBAND
  5
2AB7
 10
21.8672
 20
-40.8535
 30
0.000000
  70
    32
  0
VERTEX
  8
SAPA_FOGBAND
  5
2AB8
 10
21.7867
 20
-40.9248
 30
0.000000
  70
    32
  0
VERTEX
  8
SAPA_FOGBAND
  5
2AB9
 10
21.6994
 20
-40.9939
 30
0.000000
  70
    32
  0
VERTEX
  8
SAPA_FOGBAND
  5
2ABA
 10
21.6055
 20
-41.0607
 30
0.000000
  70
    32
  0
VERTEX
  8
SAPA_FOGBAND
  5
2ABB
 10
21.5052
 20
-41.1250
 30
0.000000
  70
    32
  0
VERTEX
  8
SAPA_FOGBAND
  5
2ABC
 10
21.3989
 20
-41.1867
 30
0.000000
  70
    32
  0
VERTEX
  8
SAPA_FOGBAND
  5
2ABD
 10
21.2867
 20
-41.2455
 30
0.000000
  70
    32
  0
VERTEX
  8
SAPA_FOGBAND
  5
2ABE
 10
21.1688
 20
-41.3015
 30
0.000000
  70
    32
  0
VERTEX
  8
SAPA_FOGBAND
  5
2ABF
 10
21.0457
 20
-41.3544
 30
0.000000
  70
    32
  0
VERTEX
  8
SAPA_FOGBAND
  5
2AC0
 10
20.9176
 20
-41.4041
 30
0.000000
  70
    32
  0
VERTEX
  8
SAPA_FOGBAND
  5
2AC1
 10
20.7848
 20
-41.4504
 30
0.000000
  70
    32
  0
VERTEX
  8
SAPA_FOGBAND
  5
2AC2
 10
20.6475
 20
-41.4934
 30
0.000000
  70
    32
  0
VERTEX
  8
SAPA_FOGBAND
  5
2AC3
 10
20.5063
 20
-41.5328
 30
0.000000
  70
    32
  0
VERTEX
  8
SAPA_FOGBAND
  5
2AC4
 10
20.3613
 20
-41.5686
 30
0.000000
  70
    32
  0
VERTEX
  8
SAPA_FOGBAND
  5
2AC5
 10
20.2130
 20
-41.6007
 30
0.000000
  70
    32
  0
VERTEX
  8
SAPA_FOGBAND
  5
2AC6
 10
20.0616
 20
-41.6290
 30
0.000000
  70
    32
  0
VERTEX
  8
SAPA_FOGBAND
  5
2AC7
 10
19.9077
 20
-41.6535
 30
0.000000
  70
    32
  0
VERTEX
  8
SAPA_FOGBAND
  5
2AC8
 10
19.7514
 20
-41.6740
 30
0.000000
  70
    32
  0
VERTEX
  8
SAPA_FOGBAND
  5
2AC9
 10
19.5933
 20
-41.6906
 30
0.000000
  70
    32
  0
VERTEX
  8
SAPA_FOGBAND
  5
2ACA
 10
19.4336
 20
-41.7032
 30
0.000000
  70
    32
  0
VERTEX
  8
SAPA_FOGBAND
  5
2ACB
 10
19.2729
 20
-41.7117
 30
0.000000
  70
    32
  0
VERTEX
  8
SAPA_FOGBAND
  5
2ACC
 10
19.1114
 20
-41.7162
 30
0.000000
  70
    32
  0
VERTEX
  8
SAPA_FOGBAND
  5
2ACD
 10
18.9495
 20
-41.7166
 30
0.000000
  70
    32
  0
VERTEX
  8
SAPA_FOGBAND
  5
2ACE
 10
18.7877
 20
-41.7130
 30
0.000000
  70
    32
  0
VERTEX
  8
SAPA_FOGBAND
  5
2ACF
 10
18.6263
 20
-41.7053
 30
0.000000
  70
    32
  0
VERTEX
  8
SAPA_FOGBAND
  5
2AD0
 10
18.4657
 20
-41.6935
 30
0.000000
  70
    32
  0
VERTEX
  8
SAPA_FOGBAND
  5
2AD1
 10
18.3064
 20
-41.6778
 30
0.000000
  70
    32
  0
VERTEX
  8
SAPA_FOGBAND
  5
2AD2
 10
18.1486
 20
-41.6581
 30
0.000000
  70
    32
  0
VERTEX
  8
SAPA_FOGBAND
  5
2AD3
 10
17.9928
 20
-41.6344
 30
0.000000
  70
    32
  0
VERTEX
  8
SAPA_FOGBAND
  5
2AD4
 10
17.8393
 20
-41.6069
 30
0.000000
  70
    32
  0
VERTEX
  8
SAPA_FOGBAND
  5
2AD5
 10
17.6886
 20
-41.5756
 30
0.000000
  70
    32
  0
VERTEX
  8
SAPA_FOGBAND
  5
2AD6
 10
17.5409
 20
-41.5406
 30
0.000000
  70
    32
  0
VERTEX
  8
SAPA_FOGBAND
  5
2AD7
 10
17.3967
 20
-41.5019
 30
0.000000
  70
    32
  0
VERTEX
  8
SAPA_FOGBAND
  5
2AD8
 10
17.2562
 20
-41.4596
 30
0.000000
  70
    32
  0
VERTEX
  8
SAPA_FOGBAND
  5
2AD9
 10
17.1199
 20
-41.4140
 30
0.000000
  70
    32
  0
VERTEX
  8
SAPA_FOGBAND
  5
2ADA
 10
16.9880
 20
-41.3650
 30
0.000000
  70
    32
  0
VERTEX
  8
SAPA_FOGBAND
  5
2ADB
 10
16.8609
 20
-41.3127
 30
0.000000
  70
    32
  0
VERTEX
  8
SAPA_FOGBAND
  5
2ADC
 10
16.7389
 20
-41.2574
 30
0.000000
  70
    32
  0
VERTEX
  8
SAPA_FOGBAND
  5
2ADD
 10
16.6222
 20
-41.1991
 30
0.000000
  70
    32
  0
VERTEX
  8
SAPA_FOGBAND
  5
2ADE
 10
16.5112
 20
-41.1380
 30
0.000000
  70
    32
  0
VERTEX
  8
SAPA_FOGBAND
  5
2ADF
 10
16.4061
 20
-41.0742
 30
0.000000
  70
    32
  0
VERTEX
  8
SAPA_FOGBAND
  5
2AE0
 10
16.3071
 20
-41.0079
 30
0.000000
  70
    32
  0
VERTEX
  8
SAPA_FOGBAND
  5
2AE1
 10
16.2146
 20
-40.9393
 30
0.000000
  70
    32
  0
VERTEX
  8
SAPA_FOGBAND
  5
2AE2
 10
16.1287
 20
-40.8685
 30
0.000000
  70
    32
  0
VERTEX
  8
SAPA_FOGBAND
  5
2AE3
 10
16.0496
 20
-40.7956
 30
0.000000
  70
    32
  0
VERTEX
  8
SAPA_FOGBAND
  5
2AE4
 10
15.9775
 20
-40.7209
 30
0.000000
  70
    32
  0
VERTEX
  8
SAPA_FOGBAND
  5
2AE5
 10
15.9127
 20
-40.6445
 30
0.000000
  70
    32
  0
VERTEX
  8
SAPA_FOGBAND
  5
2AE6
 10
15.8552
 20
-40.5666
 30
0.000000
  70
    32
  0
VERTEX
  8
SAPA_FOGBAND
  5
2AE7
 10
15.8052
 20
-40.4875
 30
0.000000
  70
    32
  0
VERTEX
  8
SAPA_FOGBAND
  5
2AE8
 10
15.7628
 20
-40.4072
 30
0.000000
  70
    32
  0
VERTEX
  8
SAPA_FOGBAND
  5
2AE9
 10
15.7281
 20
-40.3260
 30
0.000000
  70
    32
  0
VERTEX
  8
SAPA_FOGBAND
  5
2AEA
 10
15.7013
 20
-40.2442
 30
0.000000
  70
    32
  0
VERTEX
  8
SAPA_FOGBAND
  5
2AEB
 10
15.6823
 20
-40.1617
 30
0.000000
  70
    32
  0
VERTEX
  8
SAPA_FOGBAND
  5
2AEC
 10
15.6712
 20
-40.0790
 30
0.000000
  70
    32
  0
VERTEX
  8
SAPA_FOGBAND
  5
2AED
 10
15.6680
 20
-39.9962
 30
0.000000
  70
    32
  0
VERTEX
  8
SAPA_FOGBAND
  5
2AEE
 10
15.6728
 20
-39.9134
 30
0.000000
  70
    32
  0
VERTEX
  8
SAPA_FOGBAND
  5
2AEF
 10
15.6856
 20
-39.8309
 30
0.000000
  70
    32
  0
VERTEX
  8
SAPA_FOGBAND
  5
2AF0
 10
15.7062
 20
-39.7489
 30
0.000000
  70
    32
  0
VERTEX
  8
SAPA_FOGBAND
  5
2AF1
 10
15.7347
 20
-39.6676
 30
0.000000
  70
    32
  0
VERTEX
  8
SAPA_FOGBAND
  5
2AF2
 10
15.7710
 20
-39.5871
 30
0.000000
  70
    32
  0
VERTEX
  8
SAPA_FOGBAND
  5
2AF3
 10
15.8149
 20
-39.5077
 30
0.000000
  70
    32
  0
VERTEX
  8
SAPA_FOGBAND
  5
2AF4
 10
15.8665
 20
-39.4296
 30
0.000000
  70
    32
  0
VERTEX
  8
SAPA_FOGBAND
  5
2AF5
 10
15.9255
 20
-39.3529
 30
0.000000
  70
    32
  0
VERTEX
  8
SAPA_FOGBAND
  5
2AF6
 10
15.9919
 20
-39.2778
 30
0.000000
  70
    32
  0
VERTEX
  8
SAPA_FOGBAND
  5
2AF7
 10
16.0654
 20
-39.2045
 30
0.000000
  70
    32
  0
VERTEX
  8
SAPA_FOGBAND
  5
2AF8
 10
16.1459
 20
-39.1332
 30
0.000000
  70
    32
  0
VERTEX
  8
SAPA_FOGBAND
  5
2AF9
 10
16.2332
 20
-39.0641
 30
0.000000
  70
    32
  0
VERTEX
  8
SAPA_FOGBAND
  5
2AFA
 10
16.3271
 20
-38.9973
 30
0.000000
  70
    32
  0
VERTEX
  8
SAPA_FOGBAND
  5
2AFB
 10
16.4274
 20
-38.9330
 30
0.000000
  70
    32
  0
VERTEX
  8
SAPA_FOGBAND
  5
2AFC
 10
16.5337
 20
-38.8713
 30
0.000000
  70
    32
  0
VERTEX
  8
SAPA_FOGBAND
  5
2AFD
 10
16.6460
 20
-38.8125
 30
0.000000
  70
    32
  0
VERTEX
  8
SAPA_FOGBAND
  5
2AFE
 10
16.7638
 20
-38.7565
 30
0.000000
  70
    32
  0
VERTEX
  8
SAPA_FOGBAND
  5
2AFF
 10
16.8869
 20
-38.7036
 30
0.000000
  70
    32
  0
VERTEX
  8
SAPA_FOGBAND
  5
2B00
 10
17.0150
 20
-38.6539
 30
0.000000
  70
    32
  0
VERTEX
  8
SAPA_FOGBAND
  5
2B01
 10
17.1479
 20
-38.6076
 30
0.000000
  70
    32
  0
VERTEX
  8
SAPA_FOGBAND
  5
2B02
 10
17.2851
 20
-38.5646
 30
0.000000
  70
    32
  0
VERTEX
  8
SAPA_FOGBAND
  5
2B03
 10
17.4263
 20
-38.5252
 30
0.000000
  70
    32
  0
VERTEX
  8
SAPA_FOGBAND
  5
2B04
 10
17.5713
 20
-38.4894
 30
0.000000
  70
    32
  0
VERTEX
  8
SAPA_FOGBAND
  5
2B05
 10
17.7196
 20
-38.4573
 30
0.000000
  70
    32
  0
VERTEX
  8
SAPA_FOGBAND
  5
2B06
 10
17.8710
 20
-38.4290
 30
0.000000
  70
    32
  0
VERTEX
  8
SAPA_FOGBAND
  5
2B07
 10
18.0249
 20
-38.4045
 30
0.000000
  70
    32
  0
VERTEX
  8
SAPA_FOGBAND
  5
2B08
 10
18.1812
 20
-38.3840
 30
0.000000
  70
    32
  0
VERTEX
  8
SAPA_FOGBAND
  5
2B09
 10
18.3393
 20
-38.3674
 30
0.000000
  70
    32
  0
VERTEX
  8
SAPA_FOGBAND
  5
2B0A
 10
18.4990
 20
-38.3548
 30
0.000000
  70
    32
  0
VERTEX
  8
SAPA_FOGBAND
  5
2B0B
 10
18.6597
 20
-38.3463
 30
0.000000
  70
    32
  0
VERTEX
  8
SAPA_FOGBAND
  5
2B0C
 10
18.8212
 20
-38.3418
 30
0.000000
  70
    32
  0
VERTEX
  8
SAPA_FOGBAND
  5
2B0D
 10
18.9831
 20
-38.3414
 30
0.000000
  70
    32
  0
SEQEND
  8
SAPA_FOGBAND
  5
2B0E
  0
POLYLINE
  5
189C
  8
SAPA_FOGBAND
 66
     1
 10
0.0
 20
0.0
 30
0.0
 70
     1
  0
VERTEX
  5
2941
  8
SAPA_FOGBAND
 10
8.8913247649949874
 20
-42.95332486497206
 30
0.0
  0
VERTEX
  5
2942
  8
SAPA_FOGBAND
 10
11.89265192756438
 20
-43.445277204862357
 30
0.0
 42
0.4464785874932524
  0
VERTEX
  5
2943
  8
SAPA_FOGBAND
 10
13.001327184516139
 20
-42.451199899756617
 30
0.0
  0
VERTEX
  5
2944
  8
SAPA_FOGBAND
 10
13.001327184516139
 20
-39.350147745599102
 30
0.0
 42
0.622676997742357
  0
VERTEX
  5
2945
  8
SAPA_FOGBAND
 10
11.39065269790235
 20
-38.558266017435713
 30
0.0
  0
VERTEX
  5
2946
  8
SAPA_FOGBAND
 10
8.3893255353329543
 20
-41.033301339952921
 30
0.0
 42
0.6488456670267916
  0
VERTEX
  5
2947
  8
SAPA_FOGBAND
 10
8.8913247649949874
 20
-42.95332486497206
 30
0.0
  0
VERTEX
  5
2948
  8
SAPA_FOGBAND
 10
8.8913247649949874
 20
-42.95332486497206
 30
0.0
 42
0.7183425420956111
  0
SEQEND
  5
2949
  8
SAPA_FOGBAND
  0
POLYLINE
  5
189D
  8
SAPA_FOGBAND
 66
     1
 10
0.0
 20
0.0
 30
0.0
 70
     1
  0
VERTEX
  5
294A
  8
SAPA_FOGBAND
 10
-28.49999999534117
 20
3.0607739888917811
 30
0.0
  0
VERTEX
  5
294B
  8
SAPA_FOGBAND
 10
-28.49999999534117
 20
0.2274550244720501
 30
0.0
 42
0.577350269189628
  0
VERTEX
  5
294C
  8
SAPA_FOGBAND
 10
-28.049999995341128
 20
-0.0323525966634009
 30
0.0
  0
VERTEX
  5
294D
  8
SAPA_FOGBAND
 10
-25.393650498497159
 20
2.1093616138215618
 30
0.0
 42
-0.8769764629927237
  0
VERTEX
  5
294E
  8
SAPA_FOGBAND
 10
-25.031518464141239
 20
1.6374219583302929
 30
0.0
  0
VERTEX
  5
294F
  8
SAPA_FOGBAND
 10
-28.20710677652761
 20
-2.3323915506477131
 30
0.0
 42
0.1989123673796493
  0
VERTEX
  5
2950
  8
SAPA_FOGBAND
 10
-28.49999999534117
 20
-3.0394983318341531
 30
0.0
  0
VERTEX
  5
2951
  8
SAPA_FOGBAND
 10
-28.49999999534117
 20
-4.7904544612686939
 30
0.0
 42
0.577350269189628
  0
VERTEX
  5
2952
  8
SAPA_FOGBAND
 10
-28.049999995341128
 20
-5.0502620824039184
 30
0.0
  0
VERTEX
  5
2953
  8
SAPA_FOGBAND
 10
-25.39451925167754
 20
-2.9692140309238928
 30
0.0
 42
-0.8769764629928424
  0
VERTEX
  5
2954
  8
SAPA_FOGBAND
 10
-25.032387217321631
 20
-3.4411536864151619
 30
0.0
  0
VERTEX
  5
2955
  8
SAPA_FOGBAND
 10
-29.282961423841531
 20
-7.9071067381914011
 30
0.0
 42
-0.1989123673796579
  0
VERTEX
  5
2956
  8
SAPA_FOGBAND
 10
-29.990068205027971
 20
-8.1999999570047351
 30
0.0
  0
VERTEX
  5
2957
  8
SAPA_FOGBAND
 10
-29.99999999534117
 20
-8.1999999570047351
 30
0.0
 42
-0.4142135623730951
  0
VERTEX
  5
2958
  8
SAPA_FOGBAND
 10
-30.99999999534117
 20
-7.1999999570047351
 30
0.0
  0
VERTEX
  5
2959
  8
SAPA_FOGBAND
 10
-32.164084594464668
 20
0.0349925437625132
 30
0.0
 42
-0.6261632875160376
  0
VERTEX
  5
295A
  8
SAPA_FOGBAND
 10
-31.722117791038329
 20
0.3448494722811972
 30
0.0
  0
VERTEX
  5
295B
  8
SAPA_FOGBAND
 10
-31.445776145052211
 20
0.1912114774923736
 30
0.0
 42
0.5719685712689121
  0
VERTEX
  5
295C
  8
SAPA_FOGBAND
 10
-30.999999995341291
 20
0.453412381715765
 30
0.0
  0
VERTEX
  5
295D
  8
SAPA_FOGBAND
 10
-30.99999999534117
 20
3.2000000429951281
 30
0.0
 42
0.4142135623730118
  0
VERTEX
  5
295E
  8
SAPA_FOGBAND
 10
-31.299999995341128
 20
3.50000004299531
 30
0.0
  0
VERTEX
  5
295F
  8
SAPA_FOGBAND
 10
-32.699999995341223
 20
3.500000042995083
 30
0.0
 42
-0.7754026414785753
  0
VERTEX
  5
2960
  8
SAPA_FOGBAND
 10
-32.844707863647102
 20
4.0627920384029892
 30
0.0
  0
VERTEX
  5
2961
  8
SAPA_FOGBAND
 10
-25.38455096455613
 20
8.2164257110668188
 30
0.0
 42
-0.8680589103333867
  0
VERTEX
  5
2962
  8
SAPA_FOGBAND
 10
-25.027711061894198
 20
7.7415016813030491
 30
0.0
  0
VERTEX
  5
2963
  8
SAPA_FOGBAND
 10
-28.20710677652761
 20
3.7678807700782211
 30
0.0
 42
0.1989123673796493
  0
SEQEND
  5
2964
  8
SAPA_FOGBAND
  0
DIMENSION
  5
18A6
  8
SAPA_MATT
  2
*D145
 10
-169.99997618387721
 20
-125.8557794594701
 30
0.0
 11
-125.4999761819237
 21
-123.3557794594702
 31
0.0
 70
     0
 13
-80.999976179970076
 23
-80.499999963795972
 33
0.0
 14
-169.99997618387721
 24
-81.999999996299564
 34
0.0
 50
180.0
1001
ACAD
1000
DSTYLE
1002
{
1070
   287
1070
     4
1070
    40
1040
1.0
1070
   279
1070
     1
1002
}
  0
DIMENSION
  5
18A7
  8
SAPA_MATT
  2
*D144
 10
-80.999999999999645
 20
-125.8557794594702
 30
0.0
 11
-78.499999999999645
 21
-123.3557794594702
 31
0.0
 70
     0
 13
-75.999999999999645
 23
-74.799999251909526
 33
0.0
 14
-80.999999999999645
 24
-80.223359969941995
 34
0.0
 50
180.0
1001
ACAD
1000
DSTYLE
1002
{
1070
   287
1070
     4
1070
    40
1040
1.0
1070
   279
1070
     1
1002
}
  0
DIMENSION
  5
18A8
  8
SAPA_MATT
  2
*D143
 10
-75.999999999999645
 20
-125.8557794594702
 30
0.0
 11
-50.499999999999737
 21
-123.3557794594702
 31
0.0
 70
     0
 13
-24.99999999999984
 23
-105.9999999990104
 33
0.0
 14
-75.999999999999645
 24
-74.799999251909526
 34
0.0
 50
180.0
1001
ACAD
1000
DSTYLE
1002
{
1070
   287
1070
     4
1070
    40
1040
1.0
1070
   279
1070
     1
1002
}
  0
DIMENSION
  5
18A9
  8
SAPA_MATT
  2
*D142
 10
-25.000000000000231
 20
-125.8731908254038
 30
0.0
 11
-0.0000000000002254
 21
-123.3731908254038
 31
0.0
 70
     0
 13
24.99999999999978
 23
-105.9999999990104
 33
0.0
 14
-25.000000000000231
 24
-105.9999999990104
 34
0.0
 50
180.0
1001
ACAD
1000
DSTYLE
1002
{
1070
    40
1040
1.0
1002
}
  0
VIEWPORT
  5
C4
 67
     1
  8
0
 10
143.06236603067589
 20
116.00969601843509
 30
0.0
 40
369.98580003443811
 41
256.8421457311839
 68
     1
 69
     1
1001
ACAD
1000
MVIEW
1002
{
1070
    16
1010
0.0
1020
0.0
1030
0.0
1010
0.0
1020
0.0
1030
1.0
1040
0.0
1040
256.8421457311839
1040
99.112914085388169
1040
143.07606935501099
1040
50.0
1040
0.0
1040
0.0
1070
     0
1070
     0
1070
     1
1070
     1
1070
     0
1070
     0
1070
     0
1070
     0
1040
0.0
1040
0.0
1040
0.0
1040
10.0
1040
10.0
1040
10.0
1040
10.0
1070
     0
1002
{
1002
}
1002
}
  0
ENDSEC
  0
EOF
