  0
SECTION
  2
HEADER
  9
$ACADVER
  1
AC1009
  9
$INSBASE
 10
0.0
 20
0.0
 30
0.0
  9
$EXTMIN
 10
-212.8241643126311
 20
-126.8256531728245
 30
0.0
  9
$EXTMAX
 10
61.9878480036732
 20
82.009403434165677
 30
0.0
  9
$LIMMIN
 10
0.0
 20
0.0
  9
$LIMMAX
 10
790.0
 20
790.0
  9
$ORTHOMODE
 70
     0
  9
$REGENMODE
 70
     1
  9
$FILLMODE
 70
     1
  9
$QTEXTMODE
 70
     0
  9
$MIRRTEXT
 70
     1
  9
$DRAGMODE
 70
     2
  9
$LTSCALE
 40
4.0
  9
$OSMODE
 70
   167
  9
$ATTMODE
 70
     1
  9
$TEXTSIZE
 40
3.5
  9
$TRACEWID
 40
0.05
  9
$TEXTSTYLE
  7
ISO
  9
$CLAYER
  8
0
  9
$CELTYPE
  6
BYLAYER
  9
$CECOLOR
 62
   256
  9
$DIMSCALE
 40
0.0
  9
$DIMASZ
 40
3.0
  9
$DIMEXO
 40
1.5
  9
$DIMDLI
 40
10.0
  9
$DIMRND
 40
0.0
  9
$DIMDLE
 40
0.0
  9
$DIMEXE
 40
1.5
  9
$DIMTP
 40
0.0
  9
$DIMTM
 40
0.0
  9
$DIMTXT
 40
3.0
  9
$DIMCEN
 40
-5.0
  9
$DIMTSZ
 40
0.0
  9
$DIMTOL
 70
     0
  9
$DIMLIM
 70
     0
  9
$DIMTIH
 70
     0
  9
$DIMTOH
 70
     0
  9
$DIMSE1
 70
     0
  9
$DIMSE2
 70
     0
  9
$DIMTAD
 70
     1
  9
$DIMZIN
 70
     8
  9
$DIMBLK
  1

  9
$DIMASO
 70
     1
  9
$DIMSHO
 70
     1
  9
$DIMPOST
  1

  9
$DIMAPOST
  1

  9
$DIMALT
 70
     0
  9
$DIMALTD
 70
     0
  9
$DIMALTF
 40
25.399999999999999
  9
$DIMLFAC
 40
-1.0
  9
$DIMTOFL
 70
     1
  9
$DIMTVP
 40
0.0
  9
$DIMTIX
 70
     0
  9
$DIMSOXD
 70
     0
  9
$DIMSAH
 70
     0
  9
$DIMBLK1
  1

  9
$DIMBLK2
  1

  9
$DIMSTYLE
  2
MASKIN
  9
$DIMCLRD
 70
   256
  9
$DIMCLRE
 70
   256
  9
$DIMCLRT
 70
     2
  9
$DIMTFAC
 40
1.0
  9
$DIMGAP
 40
1.0
  9
$LUNITS
 70
     2
  9
$LUPREC
 70
     8
  9
$SKETCHINC
 40
0.1
  9
$FILLETRAD
 40
0.0
  9
$AUNITS
 70
     0
  9
$AUPREC
 70
     8
  9
$MENU
  1
ACAD
  9
$ELEVATION
 40
0.0
  9
$PELEVATION
 40
0.0
  9
$THICKNESS
 40
0.0
  9
$LIMCHECK
 70
     0
  9
$BLIPMODE
 70
     0
  9
$CHAMFERA
 40
0.0
  9
$CHAMFERB
 40
0.0
  9
$SKPOLY
 70
     0
  9
$TDCREATE
 40
2454895.6173328939
  9
$TDUPDATE
 40
2458458.6653811112
  9
$TDINDWG
 40
0.01867375
  9
$TDUSRTIMER
 40
0.01867375
  9
$USRTIMER
 70
     1
  9
$ANGBASE
 50
0.0
  9
$ANGDIR
 70
     0
  9
$PDMODE
 70
     0
  9
$PDSIZE
 40
0.0
  9
$PLINEWID
 40
0.0
  9
$COORDS
 70
     1
  9
$SPLFRAME
 70
     0
  9
$SPLINETYPE
 70
     6
  9
$SPLINESEGS
 70
     8
  9
$ATTDIA
 70
     1
  9
$ATTREQ
 70
     1
  9
$HANDLING
 70
     1
  9
$HANDSEED
  5
2B10
  9
$SURFTAB1
 70
     6
  9
$SURFTAB2
 70
     6
  9
$SURFTYPE
 70
     6
  9
$SURFU
 70
     6
  9
$SURFV
 70
     6
  9
$UCSNAME
  2

  9
$UCSORG
 10
0.0
 20
0.0
 30
0.0
  9
$UCSXDIR
 10
1.0
 20
0.0
 30
0.0
  9
$UCSYDIR
 10
0.0
 20
1.0
 30
0.0
  9
$PUCSNAME
  2

  9
$PUCSORG
 10
0.0
 20
0.0
 30
0.0
  9
$PUCSXDIR
 10
1.0
 20
0.0
 30
0.0
  9
$PUCSYDIR
 10
0.0
 20
1.0
 30
0.0
  9
$USERI1
 70
     0
  9
$USERI2
 70
     0
  9
$USERI3
 70
     0
  9
$USERI4
 70
     0
  9
$USERI5
 70
     0
  9
$USERR1
 40
0.0
  9
$USERR2
 40
0.0
  9
$USERR3
 40
0.0
  9
$USERR4
 40
0.0
  9
$USERR5
 40
0.0
  9
$WORLDVIEW
 70
     1
  9
$SHADEDGE
 70
     3
  9
$SHADEDIF
 70
    70
  9
$TILEMODE
 70
     1
  9
$MAXACTVP
 70
    16
  9
$PLIMCHECK
 70
     0
  9
$PEXTMIN
 10
1.0000000000000000E+020
 20
1.0000000000000000E+020
 30
1.0000000000000000E+020
  9
$PEXTMAX
 10
-1.0000000000000000E+020
 20
-1.0000000000000000E+020
 30
-1.0000000000000000E+020
  9
$PLIMMIN
 10
-5.069427490234375
 20
-5.8737497329711914
  9
$PLIMMAX
 10
291.89889526367187
 20
204.0995779037475
  9
$UNITMODE
 70
     0
  9
$VISRETAIN
 70
     1
  9
$PLINEGEN
 70
     0
  9
$PSLTSCALE
 70
     1
  0
ENDSEC
  0
SECTION
  2
TABLES
  0
TABLE
  2
VPORT
 70
     1
  0
VPORT
  2
*ACTIVE
 70
     0
 10
0.0
 20
0.0
 11
1.0
 21
1.0
 12
329.20218837943708
 22
261.9117863639193
 13
0.0
 23
0.0
 14
1.0
 24
1.0
 15
0.0
 25
0.0
 16
0.0
 26
0.0
 36
1.0
 17
0.0
 27
0.0
 37
0.0
 40
593.11640621292668
 41
2.3595505617977519
 42
50.0
 43
0.0
 44
0.0
 50
0.0
 51
0.0
 71
     0
 72
   100
 73
     1
 74
     1
 75
     0
 76
     0
 77
     0
 78
     0
  0
ENDTAB
  0
TABLE
  2
LTYPE
 70
    44
  0
LTYPE
  2
CONTINUOUS
 70
     0
  3
Solid line
 72
    65
 73
     0
 40
0.0
  0
LTYPE
  2
BYGG-01482201$0$NEWDOT
 70
     0
  3
____ . ____ . ____ . ____ . ____ . ____ . ____
 72
    65
 73
     4
 40
2.0
 49
1.0
 49
-0.5
 49
0.0
 49
-0.5
  0
LTYPE
  2
BYGG-014357$0$NEWDOT
 70
     0
  3
____ . ____ . ____ . ____ . ____ . ____ . ____
 72
    65
 73
     4
 40
2.0
 49
1.0
 49
-0.5
 49
0.0
 49
-0.5
  0
LTYPE
  2
BYGG-014357$0$DASHDOT
 70
     0
  3
__ . __ . __ . __ . __ . __ . __ . __ . __ . __
 72
    65
 73
     4
 40
1.0
 49
0.5
 49
-0.25
 49
0.0
 49
-0.25
  0
LTYPE
  2
BYGG-014357$0$DASHED
 70
     0
  3
__ __ __ __ __ __ __ __ __ __ __ __ __ __ __
 72
    65
 73
     2
 40
0.75
 49
0.5
 49
-0.25
  0
LTYPE
  2
BYGG-014279$0$NEWDOT
 70
     0
  3
____ . ____ . ____ . ____ . ____ . ____ . ____
 72
    65
 73
     4
 40
2.0
 49
1.0
 49
-0.5
 49
0.0
 49
-0.5
  0
LTYPE
  2
BYGG-014247$0$DASHDOT
 70
     0
  3
__ . __ . __ . __ . __ . __ . __ . __ . __ . __
 72
    65
 73
     4
 40
1.0
 49
0.5
 49
-0.25
 49
0.0
 49
-0.25
  0
LTYPE
  2
BYGG-014568$0$NEWDOT
 70
     0
  3
____ . ____ . ____ . ____ . ____ . ____ . ____
 72
    65
 73
     4
 40
2.0
 49
1.0
 49
-0.5
 49
0.0
 49
-0.5
  0
LTYPE
  2
BYGG-01482201$0$ZIGZAG
 70
     0
  3
Zig zag /\/\/\/\/\/\/\/\/\/\/\/\/\/\/\/\/\/\/\/\/\/\/\/
 72
    65
 73
     4
 40
20.32254
 49
0.00254
 49
-5.0800000000000001
 49
-10.16
 49
-5.0800000000000001
  0
LTYPE
  2
BYGG-014279$0$ZIGZAG
 70
     0
  3
Zig zag /\/\/\/\/\/\/\/\/\/\/\/\/\/\/\/\/\/\/\/\/\/\/\/
 72
    65
 73
     4
 40
20.32254
 49
0.00254
 49
-5.0800000000000001
 49
-10.16
 49
-5.0800000000000001
  0
LTYPE
  2
BYGG-024817$0$NEWDOT
 70
     0
  3
____ . ____ . ____ . ____ . ____ . ____ . ____
 72
    65
 73
     4
 40
2.0
 49
1.0
 49
-0.5
 49
0.0
 49
-0.5
  0
LTYPE
  2
BYGG-024791$0$NEWDOT
 70
     0
  3
____ . ____ . ____ . ____ . ____ . ____ . ____
 72
    65
 73
     4
 40
2.0
 49
1.0
 49
-0.5
 49
0.0
 49
-0.5
  0
LTYPE
  2
BYGG-024791$0$DASHDOT
 70
     0
  3
__ . __ . __ . __ . __ . __ . __ . __ . __ . __
 72
    65
 73
     4
 40
1.0
 49
0.5
 49
-0.25
 49
0.0
 49
-0.25
  0
LTYPE
  2
BYGG-014568$0$ZIGZAG
 70
     0
  3
Zig zag /\/\/\/\/\/\/\/\/\/\/\/\/\/\/\/\/\/\/\/\/\/\/\/
 72
    65
 73
     4
 40
20.32254
 49
0.00254
 49
-5.0800000000000001
 49
-10.16
 49
-5.0800000000000001
  0
LTYPE
  2
BYGG-020805$0$NEWDOT
 70
     0
  3
____ . ____ . ____ . ____ . ____ . ____ . ____
 72
    65
 73
     4
 40
2.0
 49
1.0
 49
-0.5
 49
0.0
 49
-0.5
  0
LTYPE
  2
BYGG-020805$0$DASHDOT
 70
     0
  3
__ . __ . __ . __ . __ . __ . __ . __ . __ . __
 72
    65
 73
     4
 40
1.0
 49
0.5
 49
-0.25
 49
0.0
 49
-0.25
  0
LTYPE
  2
BYGG-020805$0$DASHED
 70
     0
  3
__ __ __ __ __ __ __ __ __ __ __ __ __ __ __
 72
    65
 73
     2
 40
0.75
 49
0.5
 49
-0.25
  0
LTYPE
  2
BYGG-020805$0$PHANTOM
 70
     0
  3
Phantom ______  __  __  ______  __  __  ______
 72
    65
 73
     6
 40
63.5
 49
31.75
 49
-6.3499999999999988
 49
6.3499999999999988
 49
-6.3499999999999988
 49
6.3499999999999988
 49
-6.3499999999999988
  0
LTYPE
  2
BYGG-028766$0$NEWDOT
 70
     0
  3
____ . ____ . ____ . ____ . ____ . ____ . ____
 72
    65
 73
     4
 40
2.0
 49
1.0
 49
-0.5
 49
0.0
 49
-0.5
  0
LTYPE
  2
BYGG-028766$0$DASHDOT
 70
     0
  3
__ . __ . __ . __ . __ . __ . __ . __ . __ . __
 72
    65
 73
     4
 40
1.0
 49
0.5
 49
-0.25
 49
0.0
 49
-0.25
  0
LTYPE
  2
BYGG-028766$0$DASHED
 70
     0
  3
__ __ __ __ __ __ __ __ __ __ __ __ __ __ __
 72
    65
 73
     2
 40
0.75
 49
0.5
 49
-0.25
  0
LTYPE
  2
BYGG-028766$0$PHANTOM
 70
     0
  3
Phantom ______  __  __  ______  __  __  ______
 72
    65
 73
     6
 40
63.5
 49
31.75
 49
-6.3499999999999988
 49
6.3499999999999988
 49
-6.3499999999999988
 49
6.3499999999999988
 49
-6.3499999999999988
  0
LTYPE
  2
BYGG-038598$0$NEWDOT
 70
     0
  3
____ . ____ . ____ . ____ . ____ . ____ . ____
 72
    65
 73
     4
 40
2.0
 49
1.0
 49
-0.5
 49
0.0
 49
-0.5
  0
LTYPE
  2
BYGG-038598$0$DASHDOT
 70
     0
  3
__ . __ . __ . __ . __ . __ . __ . __ . __ . __
 72
    65
 73
     4
 40
1.0
 49
0.5
 49
-0.25
 49
0.0
 49
-0.25
  0
LTYPE
  2
BYGG-038598$0$DASHED
 70
     0
  3
__ __ __ __ __ __ __ __ __ __ __ __ __ __ __
 72
    65
 73
     2
 40
0.75
 49
0.5
 49
-0.25
  0
LTYPE
  2
BYGG-038598$0$PHANTOM
 70
     0
  3
Phantom ______  __  __  ______  __  __  ______
 72
    65
 73
     6
 40
63.5
 49
31.75
 49
-6.3499999999999988
 49
6.3499999999999988
 49
-6.3499999999999988
 49
6.3499999999999988
 49
-6.3499999999999988
  0
LTYPE
  2
BYGG-033167$0$NEWDOT
 70
     0
  3
____ . ____ . ____ . ____ . ____ . ____ . ____
 72
    65
 73
     4
 40
2.0
 49
1.0
 49
-0.5
 49
0.0
 49
-0.5
  0
LTYPE
  2
BYGG-033167$0$DASHDOT
 70
     0
  3
__ . __ . __ . __ . __ . __ . __ . __ . __ . __
 72
    65
 73
     4
 40
1.0
 49
0.5
 49
-0.25
 49
0.0
 49
-0.25
  0
LTYPE
  2
BYGG-033167$0$DASHED
 70
     0
  3
__ __ __ __ __ __ __ __ __ __ __ __ __ __ __
 72
    65
 73
     2
 40
0.75
 49
0.5
 49
-0.25
  0
LTYPE
  2
BYGG-033167$0$PHANTOM
 70
     0
  3
Phantom ______  __  __  ______  __  __  ______
 72
    65
 73
     6
 40
63.5
 49
31.75
 49
-6.3499999999999988
 49
6.3499999999999988
 49
-6.3499999999999988
 49
6.3499999999999988
 49
-6.3499999999999988
  0
LTYPE
  2
BYGG-033167$0$BYGG-020132$
 70
     0
  3
____ . ____ . ____ . ____ . ____ . ____ . ____
 72
    65
 73
     4
 40
2.0
 49
1.0
 49
-0.5
 49
0.0
 49
-0.5
  0
LTYPE
  2
BYGG-033167$0$BYGG-024943$
 70
     0
  3
____ . ____ . ____ . ____ . ____ . ____ . ____
 72
    65
 73
     4
 40
2.0
 49
1.0
 49
-0.5
 49
0.0
 49
-0.5
  0
LTYPE
  2
BYGG-026410$0$NEWDOT
 70
     0
  3
____ . ____ . ____ . ____ . ____ . ____ . ____
 72
    65
 73
     4
 40
2.0
 49
1.0
 49
-0.5
 49
0.0
 49
-0.5
  0
LTYPE
  2
BYGG-026410$0$DASHDOT
 70
     0
  3
__ . __ . __ . __ . __ . __ . __ . __ . __ . __
 72
    65
 73
     4
 40
1.0
 49
0.5
 49
-0.25
 49
0.0
 49
-0.25
  0
LTYPE
  2
BYGG-026410$0$DASHED
 70
     0
  3
__ __ __ __ __ __ __ __ __ __ __ __ __ __ __
 72
    65
 73
     2
 40
0.75
 49
0.5
 49
-0.25
  0
LTYPE
  2
BYGG-026410$0$PHANTOM
 70
     0
  3
Phantom ______  __  __  ______  __  __  ______
 72
    65
 73
     6
 40
63.5
 49
31.75
 49
-6.3499999999999988
 49
6.3499999999999988
 49
-6.3499999999999988
 49
6.3499999999999988
 49
-6.3499999999999988
  0
LTYPE
  2
BYGG-037704$0$NEWDOT
 70
     0
  3
____ . ____ . ____ . ____ . ____ . ____ . ____
 72
    65
 73
     4
 40
2.0
 49
1.0
 49
-0.5
 49
0.0
 49
-0.5
  0
LTYPE
  2
BYGG-037704$0$ZIGZAG
 70
     0
  3
Zig zag /\/\/\/\/\/\/\/\/\/\/\/\/\/\/\/\/\/\/\/\/\/\/\/
 72
    65
 73
     4
 40
20.32254
 49
0.00254
 49
-5.0800000000000001
 49
-10.16
 49
-5.0800000000000001
  0
LTYPE
  2
BYGG-014199$0$ZIGZAG
 70
     0
  3
Zig zag /\/\/\/\/\/\/\/\/\/\/\/\/\/\/\/\/\/\/\/\/\/\/\/
 72
    65
 73
     4
 40
20.32254
 49
0.00254
 49
-5.0800000000000001
 49
-10.16
 49
-5.0800000000000001
  0
LTYPE
  2
BYGG-014199$0$NEWDOT
 70
     0
  3
____ . ____ . ____ . ____ . ____ . ____ . ____
 72
    65
 73
     4
 40
2.0
 49
1.0
 49
-0.5
 49
0.0
 49
-0.5
  0
LTYPE
  2
BYGG-021745$0$PHANTOM2
 70
     0
  3
___ _ _ ___ _ _ ___ _ _ ___ _ _
 72
    65
 73
     6
 40
1.25
 49
0.625
 49
-0.125
 49
0.125
 49
-0.125
 49
0.125
 49
-0.125
  0
LTYPE
  2
BYGG-024817$0$DASHDOT
 70
     0
  3
__ . __ . __ . __ . __ . __ . __ . __ . __ . __
 72
    65
 73
     4
 40
1.0
 49
0.5
 49
-0.25
 49
0.0
 49
-0.25
  0
LTYPE
  2
BYGG-037704$0$DOT_CENTER
 70
     0
  3
Dot_Center
 72
    65
 73
     4
 40
14.0
 49
12.0
 49
-1.0
 49
0.0
 49
-1.0
  0
LTYPE
  2
BYGG-021741$0$PHANTOM2
 70
     0
  3
___ _ _ ___ _ _ ___ _ _ ___ _ _
 72
    65
 73
     6
 40
1.25
 49
0.625
 49
-0.125
 49
0.125
 49
-0.125
 49
0.125
 49
-0.125
  0
ENDTAB
  0
TABLE
  2
LAYER
 70
   252
  0
LAYER
  2
0
 70
     0
 62
     7
  6
CONTINUOUS
  0
LAYER
  2
DEFPOINTS
 70
     0
 62
     7
  6
CONTINUOUS
  0
LAYER
  2
SAPA_ARTIKELNR
 70
     0
 62
     4
  6
CONTINUOUS
  0
LAYER
  2
SAPA_LIGHT
 70
     1
 62
     1
  6
CONTINUOUS
  0
LAYER
  2
SAPA_ANSLUTNING
 70
     0
 62
     6
  6
CONTINUOUS
  0
LAYER
  2
SAPA_PROFIL
 70
     0
 62
     7
  6
CONTINUOUS
  0
LAYER
  2
SAPA_ISOLATOR
 70
     0
 62
     4
  6
CONTINUOUS
  0
LAYER
  2
SAPA_MATT
 70
     0
 62
     1
  6
CONTINUOUS
  0
LAYER
  2
SAPA_GLAS
 70
     0
 62
     4
  6
CONTINUOUS
  0
LAYER
  2
SAPA_FOGBAND
 70
     0
 62
     2
  6
CONTINUOUS
  0
ENDTAB
  0
TABLE
  2
STYLE
 70
    48
  0
STYLE
  2
STANDARD
 70
     0
 40
0.0
 41
1.0
 50
0.0
 71
     0
 42
0.2
  3
txt
  4

  0
STYLE
  2
ISO
 70
     0
 40
0.0
 41
1.0
 50
0.0
 71
     0
 42
3.5
  3
txt
  4

  0
STYLE
  2

 70
     1
 40
0.0
 41
1.0
 50
0.0
 71
     0
 42
0.2
  3
ltypeshp.shx
  4

  0
STYLE
  2
BYGG-021589$0$STANDARD
 70
     0
 40
0.0
 41
1.0
 50
0.0
 71
     0
 42
0.2
  3
txt
  4

  0
STYLE
  2
BYGG-021589$0$ISO
 70
     0
 40
0.0
 41
1.0
 50
0.0
 71
     0
 42
3.5
  3
isocp3.shx
  4

  0
STYLE
  2
BYGG-01482201$0$STANDARD
 70
     0
 40
0.0
 41
1.0
 50
0.0
 71
     0
 42
0.2
  3
txt
  4

  0
STYLE
  2
BYGG-01482201$0$ISO
 70
     0
 40
0.0
 41
1.0
 50
0.0
 71
     0
 42
3.5
  3
isocp3.shx
  4

  0
STYLE
  2
BYGG-021802$0$STANDARD
 70
     0
 40
0.0
 41
1.0
 50
0.0
 71
     0
 42
0.2
  3
txt
  4

  0
STYLE
  2
BYGG-021802$0$ISO
 70
     0
 40
0.0
 41
1.0
 50
0.0
 71
     0
 42
3.5
  3
isocp3.shx
  4

  0
STYLE
  2
BYGG-014357$0$STANDARD
 70
     0
 40
0.0
 41
1.0
 50
0.0
 71
     0
 42
0.2
  3
txt
  4

  0
STYLE
  2
BYGG-014357$0$ISO
 70
     0
 40
0.0
 41
1.0
 50
0.0
 71
     0
 42
3.5
  3
isocp3.shx
  4

  0
STYLE
  2
BYGG-014063$0$STANDARD
 70
     0
 40
0.0
 41
1.0
 50
0.0
 71
     0
 42
0.2
  3
txt
  4

  0
STYLE
  2
BYGG-014063$0$ISO
 70
     0
 40
0.0
 41
1.0
 50
0.0
 71
     0
 42
3.5
  3
isocp3.shx
  4

  0
STYLE
  2
BYGG-021582$0$STANDARD
 70
     0
 40
0.0
 41
1.0
 50
0.0
 71
     0
 42
0.2
  3
txt
  4

  0
STYLE
  2
BYGG-021582$0$ISO
 70
     0
 40
0.0
 41
1.0
 50
0.0
 71
     0
 42
3.5
  3
isocp3.shx
  4

  0
STYLE
  2
BYGG-014279$0$STANDARD
 70
     0
 40
0.0
 41
1.0
 50
0.0
 71
     0
 42
0.2
  3
TXT.shx
  4

  0
STYLE
  2
BYGG-014279$0$ISO
 70
     0
 40
0.0
 41
1.0
 50
0.0
 71
     0
 42
3.5
  3
iso
  4

  0
STYLE
  2
BYGG-021745$0$STANDARD
 70
     0
 40
0.0
 41
1.0
 50
0.0
 71
     0
 42
0.2
  3
txt
  4

  0
STYLE
  2
BYGG-021745$0$ISO
 70
     0
 40
0.0
 41
1.0
 50
0.0
 71
     0
 42
3.5
  3
iso
  4

  0
STYLE
  2
BYGG-014568$0$STANDARD
 70
     0
 40
0.0
 41
1.0
 50
0.0
 71
     0
 42
0.2
  3
txt
  4

  0
STYLE
  2
BYGG-014568$0$ISO
 70
     0
 40
0.0
 41
1.0
 50
0.0
 71
     0
 42
3.5
  3
isocp3.shx
  4

  0
STYLE
  2
BYGG-038598$0$STANDARD
 70
     0
 40
0.0
 41
1.0
 50
0.0
 71
     0
 42
0.2
  3
txt
  4

  0
STYLE
  2
BYGG-038598$0$ISO
 70
     0
 40
0.0
 41
1.0
 50
0.0
 71
     0
 42
3.5
  3
txt
  4

  0
STYLE
  2
BYGG-028980$0$STANDARD
 70
     0
 40
0.0
 41
1.0
 50
0.0
 71
     0
 42
0.2
  3
txt
  4

  0
STYLE
  2
BYGG-028980$0$ISO
 70
     0
 40
0.0
 41
1.0
 50
0.0
 71
     0
 42
3.5
  3
txt
  4

  0
STYLE
  2
BYGG-024791$0$STANDARD
 70
     0
 40
0.0
 41
1.0
 50
0.0
 71
     0
 42
0.2
  3
txt
  4

  0
STYLE
  2
BYGG-024791$0$ISO
 70
     0
 40
0.0
 41
1.0
 50
0.0
 71
     0
 42
3.5
  3
txt
  4

  0
STYLE
  2
BYGG-024817$0$STANDARD
 70
     0
 40
0.0
 41
1.0
 50
0.0
 71
     0
 42
0.2
  3
txt
  4

  0
STYLE
  2
BYGG-024817$0$ISO
 70
     0
 40
0.0
 41
1.0
 50
0.0
 71
     0
 42
3.5
  3
txt
  4

  0
STYLE
  2
BYGG-020805$0$STANDARD
 70
     0
 40
0.0
 41
1.0
 50
0.0
 71
     0
 42
0.2
  3
txt
  4

  0
STYLE
  2
BYGG-020805$0$ISO
 70
     0
 40
0.0
 41
1.0
 50
0.0
 71
     0
 42
3.5
  3
txt
  4

  0
STYLE
  2
BYGG-033167$0$STANDARD
 70
     0
 40
0.0
 41
1.0
 50
0.0
 71
     0
 42
0.2
  3
txt
  4

  0
STYLE
  2
BYGG-033167$0$ISO
 70
     0
 40
0.0
 41
1.0
 50
0.0
 71
     0
 42
3.5
  3
txt
  4

  0
STYLE
  2
BYGG-033167$0$BYGG-020132$
 70
     0
 40
0.0
 41
1.0
 50
0.0
 71
     0
 42
3.5
  3
txt
  4

  0
STYLE
  2
BYGG-033167$0$BYGG-024943$
 70
     0
 40
0.0
 41
1.0
 50
0.0
 71
     0
 42
3.5
  3
txt
  4

  0
STYLE
  2
BYGG-026410$0$STANDARD
 70
     0
 40
0.0
 41
1.0
 50
0.0
 71
     0
 42
0.2
  3
txt
  4

  0
STYLE
  2
BYGG-026410$0$ISO
 70
     0
 40
0.0
 41
1.0
 50
0.0
 71
     0
 42
3.5
  3
txt
  4

  0
STYLE
  2
BYGG-037704$0$STANDARD
 70
     0
 40
0.0
 41
1.0
 50
0.0
 71
     0
 42
0.2
  3
txt
  4

  0
STYLE
  2
BYGG-037704$0$ISO
 70
     0
 40
0.0
 41
1.0
 50
0.0
 71
     0
 42
3.5
  3
txt
  4

  0
STYLE
  2
BYGG-021741$0$STANDARD
 70
     0
 40
0.0
 41
1.0
 50
0.0
 71
     0
 42
0.2
  3
txt
  4

  0
STYLE
  2
BYGG-014247$0$STANDARD
 70
     0
 40
0.0
 41
1.0
 50
0.0
 71
     0
 42
0.2
  3
txt
  4

  0
STYLE
  2
BYGG-014247$0$ISO
 70
     0
 40
0.0
 41
1.0
 50
0.0
 71
     0
 42
3.5
  3
isocp3.shx
  4

  0
STYLE
  2
BYGG-028766$0$STANDARD
 70
     0
 40
0.0
 41
1.0
 50
0.0
 71
     0
 42
0.2
  3
txt
  4

  0
STYLE
  2
BYGG-028766$0$ISO
 70
     0
 40
0.0
 41
1.0
 50
0.0
 71
     0
 42
3.5
  3
txt
  4

  0
STYLE
  2
BYGG-021754$0$STANDARD
 70
     0
 40
0.0
 41
1.0
 50
0.0
 71
     0
 42
0.2
  3
txt
  4

  0
STYLE
  2
BYGG-021754$0$ISO
 70
     0
 40
0.0
 41
1.0
 50
0.0
 71
     0
 42
3.5
  3
txt
  4

  0
STYLE
  2
BYGG-014199$0$STANDARD
 70
     0
 40
0.0
 41
1.0
 50
0.0
 71
     0
 42
0.2
  3
txt
  4

  0
STYLE
  2
BYGG-014199$0$ISO
 70
     0
 40
0.0
 41
1.0
 50
0.0
 71
     0
 42
3.5
  3
isocp3.shx
  4

  0
ENDTAB
  0
TABLE
  2
VIEW
 70
     0
  0
ENDTAB
  0
TABLE
  2
UCS
 70
     0
  0
ENDTAB
  0
TABLE
  2
APPID
 70
    36
  0
APPID
  2
ACAD
 70
     0
  0
APPID
  2
ACAD_DSTYLE_DIMTEXT_FILL
 70
     0
  0
APPID
  2
ACAD_DSTYLE_DIMEXT_LENGTH
 70
     0
  0
APPID
  2
ACAD_DSTYLE_DIMEXT_ENABLED
 70
     0
  0
APPID
  2
ACAD_DSTYLE_DIM_LINETYPE
 70
     0
  0
APPID
  2
ACAD_DSTYLE_DIM_EXT1_LINETYPE
 70
     0
  0
APPID
  2
ACAD_DSTYLE_DIM_EXT2_LINETYPE
 70
     0
  0
APPID
  2
ACAD_DSTYLE_DIMJOGGED_JOGA
 70
     0
  0
APPID
  2
ACAD_DSTYLE_DIMARC_LENGTH_
 70
     0
  0
APPID
  2
ACAD_PSEXT
 70
     0
  0
APPID
  2
ACAD_MLEADERVER
 70
     0
  0
APPID
  2
AMG_ARCHIVE11
 70
     0
  0
APPID
  2
ACAD_EXEMPT_FROM_CAD_STANDARDS
 70
     0
  0
APPID
  2
ACADANNOTATIVE
 70
     0
  0
APPID
  2
ACAECLAYERSTANDARD
 70
     0
  0
APPID
  2
ACDBDYNAMICBLOCKGUID
 70
     0
  0
APPID
  2
ACDBBLOCKREPETAG
 70
     0
  0
APPID
  2
ACAD_DSTYLE_DIMJAG
 70
     0
  0
APPID
  2
ACAD_DSTYLE_DIMTALN
 70
     0
  0
APPID
  2
GENIUS_GENODEF_13
 70
     0
  0
APPID
  2
GENIUS_GENTRA_14
 70
     0
  0
APPID
  2
GENIUS_GENOLIS_13
 70
     0
  0
APPID
  2
GENIUS_GENOENT_13
 70
     0
  0
APPID
  2
GENIUS_GENOBJ-N-TIT_13
 70
     0
  0
APPID
  2
GENIUS_GENTITLE_13
 70
     0
  0
APPID
  2
GENIUS_GENOREF_13
 70
     0
  0
APPID
  2
GENIUS_GENSCREG_15
 70
     0
  0
APPID
  2
GENIUS_GENOBJ-N-SDF_13
 70
     0
  0
APPID
  2
GENIUS_GENOBJ-N-CRS_13
 70
     0
  0
APPID
  2
ACAUTHENVIRON
 70
     0
  0
APPID
  2
ACDBDYNAMICBLOCKTRUENAME
 70
     0
  0
APPID
  2
ACAD_NAV_VCDISPLAY
 70
     0
  0
APPID
  2
ACAD_DSTYLE_DIMRADIAL_EXTENSION
 70
     0
  0
APPID
  2
ACAD_OBJECT_CHANGE_GUID
 70
     0
  0
APPID
  2
ACCMTRANSPARENCY
 70
     0
  0
APPID
  2
AEC_XDATA_BOUND_SPACE
 70
     0
  0
ENDTAB
  0
TABLE
  2
DIMSTYLE
 70
    44
  0
DIMSTYLE
  2
MASKIN
 70
     0
  3

  4

  5

  6

  7

 40
0.0
 41
3.0
 42
1.5
 43
10.0
 44
1.5
 45
0.0
 46
0.0
 47
0.0
 48
0.0
140
3.0
141
-5.0
142
0.0
143
25.399999999999999
144
-1.0
145
0.0
146
1.0
147
1.0
 71
     0
 72
     0
 73
     0
 74
     0
 75
     0
 76
     0
 77
     1
 78
     8
170
     0
171
     0
172
     1
173
     0
174
     0
175
     0
176
   256
177
   256
178
     2
  0
DIMSTYLE
  2
BYGG-021589$0$MASKIN
 70
     0
  3

  4

  5

  6

  7

 40
0.0
 41
3.0
 42
1.5
 43
10.0
 44
1.5
 45
0.0
 46
0.0
 47
0.0
 48
0.0
140
3.0
141
-5.0
142
0.0
143
25.399999999999999
144
-1.0
145
0.0
146
1.0
147
1.0
 71
     0
 72
     0
 73
     0
 74
     0
 75
     0
 76
     0
 77
     1
 78
     8
170
     0
171
     0
172
     1
173
     0
174
     0
175
     0
176
   256
177
   256
178
   256
  0
DIMSTYLE
  2
BYGG-01482201$0$STANDARD
 70
     0
  3

  4

  5

  6

  7

 40
1.0
 41
0.18
 42
0.0625
 43
0.38
 44
0.18
 45
0.0
 46
0.0
 47
0.0
 48
0.0
140
0.18
141
0.09
142
0.0
143
25.399999999999999
144
1.0
145
0.0
146
1.0
147
0.09
 71
     0
 72
     0
 73
     1
 74
     1
 75
     0
 76
     0
 77
     0
 78
     0
170
     0
171
     2
172
     0
173
     0
174
     0
175
     0
176
     0
177
     0
178
     0
  0
DIMSTYLE
  2
BYGG-01482201$0$MASKIN
 70
     0
  3

  4

  5

  6

  7

 40
0.0
 41
3.0
 42
1.5
 43
10.0
 44
1.5
 45
0.0
 46
0.0
 47
0.0
 48
0.0
140
3.0
141
-5.0
142
0.0
143
25.399999999999999
144
-1.0
145
0.0
146
1.0
147
1.0
 71
     0
 72
     0
 73
     0
 74
     1
 75
     0
 76
     0
 77
     1
 78
     8
170
     0
171
     0
172
     1
173
     0
174
     0
175
     0
176
   256
177
   256
178
     2
  0
DIMSTYLE
  2
BYGG-021802$0$MASKIN
 70
     0
  3

  4

  5

  6

  7

 40
0.0
 41
3.0
 42
1.5
 43
10.0
 44
1.5
 45
0.0
 46
0.0
 47
0.0
 48
0.0
140
3.0
141
-5.0
142
0.0
143
25.399999999999999
144
-1.0
145
0.0
146
1.0
147
1.0
 71
     0
 72
     0
 73
     0
 74
     0
 75
     0
 76
     0
 77
     1
 78
     8
170
     0
171
     0
172
     1
173
     0
174
     0
175
     0
176
   256
177
   256
178
   256
  0
DIMSTYLE
  2
BYGG-014357$0$MASKIN
 70
     0
  3

  4

  5

  6

  7

 40
0.0
 41
3.0
 42
1.5
 43
10.0
 44
1.5
 45
0.0
 46
0.0
 47
0.0
 48
0.0
140
3.0
141
-5.0
142
0.0
143
25.399999999999999
144
-1.0
145
0.0
146
1.0
147
1.0
 71
     0
 72
     0
 73
     0
 74
     0
 75
     0
 76
     0
 77
     1
 78
     8
170
     0
171
     0
172
     1
173
     0
174
     0
175
     0
176
   256
177
   256
178
   256
  0
DIMSTYLE
  2
BYGG-014357$0$MASKIN1
 70
     0
  3

  4

  5

  6

  7

 40
1.0
 41
3.0
 42
1.5
 43
10.0
 44
1.5
 45
0.0
 46
0.0
 47
0.0
 48
0.0
140
3.0
141
-5.0
142
0.0
143
25.399999999999999
144
1.0
145
0.0
146
1.0
147
0.9
 71
     0
 72
     0
 73
     0
 74
     0
 75
     0
 76
     0
 77
     1
 78
     8
170
     0
171
     0
172
     1
173
     0
174
     0
175
     0
176
   256
177
   256
178
   256
  0
DIMSTYLE
  2
BYGG-014357$0$MASKIN2
 70
     0
  3

  4

  5

  6

  7

 40
1.0
 41
3.0
 42
1.5
 43
10.0
 44
1.5
 45
0.0
 46
0.0
 47
0.0
 48
0.0
140
3.0
141
-5.0
142
0.0
143
25.399999999999999
144
1.0
145
0.0
146
1.0
147
0.9
 71
     0
 72
     0
 73
     0
 74
     0
 75
     0
 76
     0
 77
     1
 78
     8
170
     0
171
     0
172
     1
173
     0
174
     0
175
     0
176
   256
177
   256
178
   256
  0
DIMSTYLE
  2
BYGG-014357$0$MASKIN3
 70
     0
  3

  4

  5

  6

  7

 40
1.0
 41
3.0
 42
1.5
 43
10.0
 44
1.5
 45
0.0
 46
0.0
 47
0.0
 48
0.0
140
3.0
141
-5.0
142
0.0
143
25.399999999999999
144
1.0
145
0.0
146
1.0
147
0.9
 71
     0
 72
     0
 73
     0
 74
     0
 75
     0
 76
     0
 77
     1
 78
     8
170
     0
171
     0
172
     1
173
     0
174
     0
175
     0
176
   256
177
   256
178
   256
  0
DIMSTYLE
  2
BYGG-014357$0$DMST_1
 70
     0
  3

  4

  5

  6

  7

 40
1.0
 41
0.7000000000000002
 42
0.0
 43
7.0
 44
0.4
 45
0.0
 46
0.0
 47
0.15
 48
0.15
140
0.7000000000000002
141
0.0
142
0.0
143
25.399999999999999
144
1.0
145
0.0
146
0.7
147
0.09
 71
     1
 72
     0
 73
     0
 74
     0
 75
     0
 76
     0
 77
     1
 78
     9
170
     0
171
     2
172
     0
173
     0
174
     0
175
     0
176
     1
177
     1
178
     2
  0
DIMSTYLE
  2
BYGG-014063$0$MASKIN
 70
     0
  3

  4

  5

  6

  7

 40
0.0
 41
3.0
 42
1.5
 43
10.0
 44
1.5
 45
0.0
 46
0.0
 47
0.0
 48
0.0
140
3.0
141
-5.0
142
0.0
143
25.399999999999999
144
-1.0
145
0.0
146
1.0
147
1.0
 71
     0
 72
     0
 73
     0
 74
     0
 75
     0
 76
     0
 77
     1
 78
     8
170
     0
171
     0
172
     1
173
     0
174
     0
175
     0
176
   256
177
   256
178
   256
  0
DIMSTYLE
  2
BYGG-014063$0$STANDARD
 70
     0
  3

  4

  5

  6

  7

 40
1.0
 41
0.18
 42
0.0625
 43
0.38
 44
0.18
 45
0.0
 46
0.0
 47
0.0
 48
0.0
140
0.18
141
0.09
142
0.0
143
25.399999999999999
144
1.0
145
0.0
146
1.0
147
0.09
 71
     0
 72
     0
 73
     1
 74
     1
 75
     0
 76
     0
 77
     0
 78
     0
170
     0
171
     2
172
     0
173
     0
174
     0
175
     0
176
     0
177
     0
178
     0
  0
DIMSTYLE
  2
BYGG-021582$0$MASKIN
 70
     0
  3

  4

  5

  6

  7

 40
0.0
 41
3.0
 42
1.5
 43
10.0
 44
1.5
 45
0.0
 46
0.0
 47
0.0
 48
0.0
140
3.0
141
-5.0
142
0.0
143
25.399999999999999
144
-1.0
145
0.0
146
1.0
147
1.0
 71
     0
 72
     0
 73
     0
 74
     0
 75
     0
 76
     0
 77
     1
 78
     8
170
     0
171
     0
172
     1
173
     0
174
     0
175
     0
176
   256
177
   256
178
   256
  0
DIMSTYLE
  2
BYGG-014279$0$STANDARD
 70
     0
  3

  4

  5

  6

  7

 40
1.0
 41
0.18
 42
0.0625
 43
0.38
 44
0.18
 45
0.0
 46
0.0
 47
0.0
 48
0.0
140
0.18
141
0.09
142
0.0
143
25.399999999999999
144
1.0
145
0.0
146
1.0
147
0.09
 71
     0
 72
     0
 73
     1
 74
     1
 75
     0
 76
     0
 77
     0
 78
     0
170
     0
171
     2
172
     0
173
     0
174
     0
175
     0
176
     0
177
     0
178
     0
  0
DIMSTYLE
  2
BYGG-014279$0$MASKIN
 70
     0
  3

  4

  5

  6

  7

 40
0.0
 41
3.0
 42
1.5
 43
10.0
 44
1.5
 45
0.0
 46
0.0
 47
0.0
 48
0.0
140
3.0
141
-5.0
142
0.0
143
25.399999999999999
144
-1.0
145
0.0
146
1.0
147
1.0
 71
     0
 72
     0
 73
     0
 74
     1
 75
     0
 76
     0
 77
     1
 78
     8
170
     0
171
     0
172
     1
173
     0
174
     0
175
     0
176
   256
177
   256
178
     2
  0
DIMSTYLE
  2
BYGG-021745$0$STANDARD
 70
     0
  3

  4

  5

  6

  7

 40
1.0
 41
0.18
 42
0.0625
 43
0.38
 44
0.18
 45
0.0
 46
0.0
 47
0.0
 48
0.0
140
0.18
141
0.09
142
0.0
143
25.399999999999999
144
1.0
145
0.0
146
1.0
147
0.09
 71
     0
 72
     0
 73
     1
 74
     1
 75
     0
 76
     0
 77
     0
 78
     0
170
     0
171
     2
172
     0
173
     0
174
     0
175
     0
176
     0
177
     0
178
     0
  0
DIMSTYLE
  2
BYGG-014568$0$STANDARD
 70
     0
  3

  4

  5

  6

  7

 40
1.0
 41
0.18
 42
0.0625
 43
0.38
 44
0.18
 45
0.0
 46
0.0
 47
0.0
 48
0.0
140
0.18
141
0.09
142
0.0
143
25.399999999999999
144
1.0
145
0.0
146
1.0
147
0.09
 71
     0
 72
     0
 73
     1
 74
     1
 75
     0
 76
     0
 77
     0
 78
     0
170
     0
171
     2
172
     0
173
     0
174
     0
175
     0
176
     0
177
     0
178
     0
  0
DIMSTYLE
  2
BYGG-014568$0$MASKIN
 70
     0
  3

  4

  5

  6

  7

 40
0.0
 41
3.0
 42
1.5
 43
10.0
 44
1.5
 45
0.0
 46
0.0
 47
0.0
 48
0.0
140
3.0
141
-5.0
142
0.0
143
25.399999999999999
144
-1.0
145
0.0
146
1.0
147
1.0
 71
     0
 72
     0
 73
     0
 74
     0
 75
     0
 76
     0
 77
     1
 78
     8
170
     0
171
     0
172
     1
173
     0
174
     0
175
     0
176
   256
177
   256
178
     2
  0
DIMSTYLE
  2
BYGG-038598$0$STANDARD
 70
     0
  3

  4

  5

  6

  7

 40
1.0
 41
0.18
 42
0.0625
 43
0.38
 44
0.18
 45
0.0
 46
0.0
 47
0.0
 48
0.0
140
0.18
141
0.09
142
0.0
143
25.399999999999999
144
1.0
145
0.0
146
1.0
147
0.09
 71
     0
 72
     0
 73
     1
 74
     1
 75
     0
 76
     0
 77
     0
 78
     0
170
     0
171
     2
172
     0
173
     0
174
     0
175
     0
176
     0
177
     0
178
     0
  0
DIMSTYLE
  2
BYGG-038598$0$MASKIN
 70
     0
  3

  4

  5

  6

  7

 40
0.0
 41
3.0
 42
1.5
 43
10.0
 44
1.5
 45
0.0
 46
0.0
 47
0.0
 48
0.0
140
3.0
141
-5.0
142
0.0
143
25.399999999999999
144
-1.0
145
0.0
146
1.0
147
1.0
 71
     0
 72
     0
 73
     0
 74
     0
 75
     0
 76
     0
 77
     1
 78
     8
170
     0
171
     0
172
     1
173
     0
174
     0
175
     0
176
   256
177
   256
178
     2
  0
DIMSTYLE
  2
BYGG-028980$0$STANDARD
 70
     0
  3

  4

  5

  6

  7

 40
1.0
 41
0.18
 42
0.0625
 43
0.38
 44
0.18
 45
0.0
 46
0.0
 47
0.0
 48
0.0
140
0.18
141
0.09
142
0.0
143
25.399999999999999
144
1.0
145
0.0
146
1.0
147
0.09
 71
     0
 72
     0
 73
     1
 74
     1
 75
     0
 76
     0
 77
     0
 78
     0
170
     0
171
     2
172
     0
173
     0
174
     0
175
     0
176
     0
177
     0
178
     0
  0
DIMSTYLE
  2
BYGG-028980$0$MASKIN
 70
     0
  3

  4

  5

  6

  7

 40
0.0
 41
3.0
 42
1.5
 43
10.0
 44
1.5
 45
0.0
 46
0.0
 47
0.0
 48
0.0
140
3.0
141
-5.0
142
0.0
143
25.399999999999999
144
-1.0
145
0.0
146
1.0
147
1.0
 71
     0
 72
     0
 73
     0
 74
     0
 75
     0
 76
     0
 77
     1
 78
     8
170
     0
171
     0
172
     1
173
     0
174
     0
175
     0
176
   256
177
   256
178
     2
  0
DIMSTYLE
  2
BYGG-024791$0$MASKIN
 70
     0
  3

  4

  5

  6

  7

 40
0.0
 41
3.0
 42
1.5
 43
10.0
 44
1.5
 45
0.0
 46
0.0
 47
0.0
 48
0.0
140
3.0
141
-5.0
142
0.0
143
25.399999999999999
144
-1.0
145
0.0
146
1.0
147
1.0
 71
     0
 72
     0
 73
     0
 74
     0
 75
     0
 76
     0
 77
     1
 78
     8
170
     0
171
     0
172
     1
173
     0
174
     0
175
     0
176
   256
177
   256
178
     2
  0
DIMSTYLE
  2
BYGG-024791$0$STANDARD
 70
     0
  3

  4

  5

  6

  7

 40
1.0
 41
0.18
 42
0.0625
 43
0.38
 44
0.18
 45
0.0
 46
0.0
 47
0.0
 48
0.0
140
0.18
141
0.09
142
0.0
143
25.399999999999999
144
1.0
145
0.0
146
1.0
147
0.09
 71
     0
 72
     0
 73
     1
 74
     1
 75
     0
 76
     0
 77
     0
 78
     0
170
     0
171
     2
172
     0
173
     0
174
     0
175
     0
176
     0
177
     0
178
     0
  0
DIMSTYLE
  2
BYGG-024817$0$MASKIN
 70
     0
  3

  4

  5

  6

  7

 40
0.0
 41
3.0
 42
1.5
 43
10.0
 44
1.5
 45
0.0
 46
0.0
 47
0.0
 48
0.0
140
3.0
141
-5.0
142
0.0
143
25.399999999999999
144
-1.0
145
0.0
146
1.0
147
1.0
 71
     0
 72
     0
 73
     0
 74
     0
 75
     0
 76
     0
 77
     1
 78
     8
170
     0
171
     0
172
     1
173
     0
174
     0
175
     0
176
   256
177
   256
178
     2
  0
DIMSTYLE
  2
BYGG-024817$0$STANDARD
 70
     0
  3

  4

  5

  6

  7

 40
1.0
 41
0.18
 42
0.0625
 43
0.38
 44
0.18
 45
0.0
 46
0.0
 47
0.0
 48
0.0
140
0.18
141
0.09
142
0.0
143
25.399999999999999
144
1.0
145
0.0
146
1.0
147
0.09
 71
     0
 72
     0
 73
     1
 74
     1
 75
     0
 76
     0
 77
     0
 78
     0
170
     0
171
     2
172
     0
173
     0
174
     0
175
     0
176
     0
177
     0
178
     0
  0
DIMSTYLE
  2
BYGG-020805$0$STANDARD
 70
     0
  3

  4

  5

  6

  7

 40
1.0
 41
0.18
 42
0.0625
 43
0.38
 44
0.18
 45
0.0
 46
0.0
 47
0.0
 48
0.0
140
0.18
141
0.09
142
0.0
143
25.399999999999999
144
1.0
145
0.0
146
1.0
147
0.09
 71
     0
 72
     0
 73
     1
 74
     1
 75
     0
 76
     0
 77
     0
 78
     0
170
     0
171
     2
172
     0
173
     0
174
     0
175
     0
176
     0
177
     0
178
     0
  0
DIMSTYLE
  2
BYGG-020805$0$MASKIN
 70
     0
  3

  4

  5

  6

  7

 40
0.0
 41
3.0
 42
1.5
 43
10.0
 44
1.5
 45
0.0
 46
0.0
 47
0.0
 48
0.0
140
3.0
141
-5.0
142
0.0
143
25.399999999999999
144
-1.0
145
0.0
146
1.0
147
1.0
 71
     0
 72
     0
 73
     0
 74
     0
 75
     0
 76
     0
 77
     1
 78
     8
170
     0
171
     0
172
     1
173
     0
174
     0
175
     0
176
   256
177
   256
178
     2
  0
DIMSTYLE
  2
BYGG-033167$0$STANDARD
 70
     0
  3

  4

  5

  6

  7

 40
1.0
 41
0.18
 42
0.0625
 43
0.38
 44
0.18
 45
0.0
 46
0.0
 47
0.0
 48
0.0
140
0.18
141
0.09
142
0.0
143
25.399999999999999
144
1.0
145
0.0
146
1.0
147
0.09
 71
     0
 72
     0
 73
     1
 74
     1
 75
     0
 76
     0
 77
     0
 78
     0
170
     0
171
     2
172
     0
173
     0
174
     0
175
     0
176
     0
177
     0
178
     0
  0
DIMSTYLE
  2
BYGG-033167$0$MASKIN
 70
     0
  3

  4

  5

  6

  7

 40
0.0
 41
3.0
 42
1.5
 43
10.0
 44
1.5
 45
0.0
 46
0.0
 47
0.0
 48
0.0
140
3.0
141
-5.0
142
0.0
143
25.399999999999999
144
-1.0
145
0.0
146
1.0
147
1.0
 71
     0
 72
     0
 73
     0
 74
     0
 75
     0
 76
     0
 77
     1
 78
     8
170
     0
171
     0
172
     1
173
     0
174
     0
175
     0
176
   256
177
   256
178
     2
  0
DIMSTYLE
  2
BYGG-033167$0$BYGG-020132$
 70
     0
  3

  4

  5

  6

  7

 40
0.0
 41
3.0
 42
1.5
 43
10.0
 44
1.5
 45
0.0
 46
0.0
 47
0.0
 48
0.0
140
3.0
141
-5.0
142
0.0
143
25.399999999999999
144
-1.0
145
0.0
146
1.0
147
1.0
 71
     0
 72
     0
 73
     0
 74
     0
 75
     0
 76
     0
 77
     1
 78
     8
170
     0
171
     0
172
     1
173
     0
174
     0
175
     0
176
   256
177
   256
178
     2
  0
DIMSTYLE
  2
BYGG-033167$0$BYGG-024943$
 70
     0
  3

  4

  5

  6

  7

 40
0.0
 41
3.0
 42
1.5
 43
10.0
 44
1.5
 45
0.0
 46
0.0
 47
0.0
 48
0.0
140
3.0
141
-5.0
142
0.0
143
25.399999999999999
144
-1.0
145
0.0
146
1.0
147
1.0
 71
     0
 72
     0
 73
     0
 74
     0
 75
     0
 76
     0
 77
     1
 78
     8
170
     0
171
     0
172
     1
173
     0
174
     0
175
     0
176
   256
177
   256
178
     2
  0
DIMSTYLE
  2
BYGG-026410$0$STANDARD
 70
     0
  3

  4

  5

  6

  7

 40
1.0
 41
0.18
 42
0.0625
 43
0.38
 44
0.18
 45
0.0
 46
0.0
 47
0.0
 48
0.0
140
0.18
141
0.09
142
0.0
143
25.399999999999999
144
1.0
145
0.0
146
1.0
147
0.09
 71
     0
 72
     0
 73
     1
 74
     1
 75
     0
 76
     0
 77
     0
 78
     0
170
     0
171
     2
172
     0
173
     0
174
     0
175
     0
176
     0
177
     0
178
     0
  0
DIMSTYLE
  2
BYGG-026410$0$MASKIN
 70
     0
  3

  4

  5

  6

  7

 40
0.0
 41
3.0
 42
1.5
 43
10.0
 44
1.5
 45
0.0
 46
0.0
 47
0.0
 48
0.0
140
3.0
141
-5.0
142
0.0
143
25.399999999999999
144
-1.0
145
0.0
146
1.0
147
1.0
 71
     0
 72
     0
 73
     0
 74
     0
 75
     0
 76
     0
 77
     1
 78
     8
170
     0
171
     0
172
     1
173
     0
174
     0
175
     0
176
   256
177
   256
178
     2
  0
DIMSTYLE
  2
BYGG-037704$0$STANDARD
 70
     0
  3

  4

  5

  6

  7

 40
1.0
 41
0.18
 42
0.0625
 43
0.38
 44
0.18
 45
0.0
 46
0.0
 47
0.0
 48
0.0
140
0.18
141
0.09
142
0.0
143
25.399999999999999
144
1.0
145
0.0
146
1.0
147
0.09
 71
     0
 72
     0
 73
     1
 74
     1
 75
     0
 76
     0
 77
     0
 78
     0
170
     0
171
     2
172
     0
173
     0
174
     0
175
     0
176
     0
177
     0
178
     0
  0
DIMSTYLE
  2
BYGG-037704$0$MASKIN
 70
     0
  3

  4

  5

  6

  7

 40
0.0
 41
3.0
 42
1.5
 43
10.0
 44
1.5
 45
0.0
 46
0.0
 47
0.0
 48
0.0
140
3.0
141
-5.0
142
0.0
143
25.399999999999999
144
-1.0
145
0.0
146
1.0
147
1.0
 71
     0
 72
     0
 73
     0
 74
     0
 75
     0
 76
     0
 77
     1
 78
     8
170
     0
171
     0
172
     1
173
     0
174
     0
175
     0
176
   256
177
   256
178
     2
  0
DIMSTYLE
  2
BYGG-021741$0$STANDARD
 70
     0
  3

  4

  5

  6

  7

 40
1.0
 41
0.18
 42
0.0625
 43
0.38
 44
0.18
 45
0.0
 46
0.0
 47
0.0
 48
0.0
140
0.18
141
0.09
142
0.0
143
25.399999999999999
144
1.0
145
0.0
146
1.0
147
0.09
 71
     0
 72
     0
 73
     1
 74
     1
 75
     0
 76
     0
 77
     0
 78
     0
170
     0
171
     2
172
     0
173
     0
174
     0
175
     0
176
     0
177
     0
178
     0
  0
DIMSTYLE
  2
BYGG-014247$0$MASKIN
 70
     0
  3

  4

  5

  6

  7

 40
0.0
 41
3.0
 42
1.5
 43
10.0
 44
1.5
 45
0.0
 46
0.0
 47
0.0
 48
0.0
140
3.0
141
-5.0
142
0.0
143
25.399999999999999
144
-1.0
145
0.0
146
1.0
147
1.0
 71
     0
 72
     0
 73
     0
 74
     0
 75
     0
 76
     0
 77
     1
 78
     8
170
     0
171
     0
172
     1
173
     0
174
     0
175
     0
176
   256
177
   256
178
   256
  0
DIMSTYLE
  2
BYGG-028766$0$STANDARD
 70
     0
  3

  4

  5

  6

  7

 40
1.0
 41
0.18
 42
0.0625
 43
0.38
 44
0.18
 45
0.0
 46
0.0
 47
0.0
 48
0.0
140
0.18
141
0.09
142
0.0
143
25.399999999999999
144
1.0
145
0.0
146
1.0
147
0.09
 71
     0
 72
     0
 73
     1
 74
     1
 75
     0
 76
     0
 77
     0
 78
     0
170
     0
171
     2
172
     0
173
     0
174
     0
175
     0
176
     0
177
     0
178
     0
  0
DIMSTYLE
  2
BYGG-028766$0$MASKIN
 70
     0
  3

  4

  5

  6

  7

 40
0.0
 41
3.0
 42
1.5
 43
10.0
 44
1.5
 45
0.0
 46
0.0
 47
0.0
 48
0.0
140
3.0
141
-5.0
142
0.0
143
25.399999999999999
144
-1.0
145
0.0
146
1.0
147
1.0
 71
     0
 72
     0
 73
     0
 74
     0
 75
     0
 76
     0
 77
     1
 78
     8
170
     0
171
     0
172
     1
173
     0
174
     0
175
     0
176
   256
177
   256
178
     2
  0
DIMSTYLE
  2
BYGG-021754$0$STANDARD
 70
     0
  3

  4

  5

  6

  7

 40
1.0
 41
0.18
 42
0.0625
 43
0.38
 44
0.18
 45
0.0
 46
0.0
 47
0.0
 48
0.0
140
0.18
141
0.09
142
0.0
143
25.399999999999999
144
1.0
145
0.0
146
1.0
147
0.09
 71
     0
 72
     0
 73
     1
 74
     1
 75
     0
 76
     0
 77
     0
 78
     0
170
     0
171
     2
172
     0
173
     0
174
     0
175
     0
176
     0
177
     0
178
     0
  0
DIMSTYLE
  2
BYGG-021754$0$MASKIN
 70
     0
  3

  4

  5

  6

  7

 40
0.0
 41
3.0
 42
1.5
 43
10.0
 44
1.5
 45
0.0
 46
0.0
 47
0.0
 48
0.0
140
3.0
141
-5.0
142
0.0
143
25.399999999999999
144
-1.0
145
0.0
146
1.0
147
1.0
 71
     0
 72
     0
 73
     0
 74
     0
 75
     0
 76
     0
 77
     1
 78
     8
170
     0
171
     0
172
     1
173
     0
174
     0
175
     0
176
   256
177
   256
178
     2
  0
DIMSTYLE
  2
BYGG-014199$0$STANDARD
 70
     0
  3

  4

  5

  6

  7

 40
1.0
 41
0.18
 42
0.0625
 43
0.38
 44
0.18
 45
0.0
 46
0.0
 47
0.0
 48
0.0
140
0.18
141
0.09
142
0.0
143
25.399999999999999
144
1.0
145
0.0
146
1.0
147
0.09
 71
     0
 72
     0
 73
     1
 74
     1
 75
     0
 76
     0
 77
     0
 78
     0
170
     0
171
     2
172
     0
173
     0
174
     0
175
     0
176
     0
177
     0
178
     0
  0
DIMSTYLE
  2
BYGG-014199$0$MASKIN
 70
     0
  3

  4

  5

  6

  7

 40
0.0
 41
3.0
 42
1.5
 43
10.0
 44
1.5
 45
0.0
 46
0.0
 47
0.0
 48
0.0
140
3.0
141
-5.0
142
0.0
143
25.399999999999999
144
-1.0
145
0.0
146
1.0
147
1.0
 71
     0
 72
     0
 73
     0
 74
     0
 75
     0
 76
     0
 77
     1
 78
     8
170
     0
171
     0
172
     1
173
     0
174
     0
175
     0
176
   256
177
   256
178
   256
  0
ENDTAB
  0
ENDSEC
  0
SECTION
  2
BLOCKS
  0
BLOCK
  8
0
  2
$MODEL_SPACE
 70
     0
 10
0.0
 20
0.0
 30
0.0
  3
$MODEL_SPACE
  1

  0
ENDBLK
  5
37
  8
0
  0
BLOCK
 67
     1
  8
0
  2
$PAPER_SPACE
 70
     0
 10
0.0
 20
0.0
 30
0.0
  3
$PAPER_SPACE
  1

  0
ENDBLK
  5
35
 67
     1
  8
0
  0
BLOCK
  8
0
  2
*D142
 70
     1
 10
0.0
 20
0.0
 30
0.0
  3
*D142
  1

  0
LINE
  5
1925
  8
SAPA_MATT
 10
24.999999999999549
 20
-107.4999999990106
 30
0.0
 11
24.999999999999549
 21
-126.8256531728245
 31
0.0
  0
LINE
  5
1926
  8
SAPA_MATT
 10
-25.000000000000458
 20
-107.4999999990106
 30
0.0
 11
-25.000000000000458
 21
-126.8256531728245
 31
0.0
  0
LINE
  5
1927
  8
SAPA_MATT
 10
21.999999999999542
 20
-125.3256531728245
 30
0.0
 11
-22.000000000000451
 21
-125.3256531728245
 31
0.0
  0
SOLID
  5
1928
  8
SAPA_MATT
 10
21.999999999999542
 20
-124.8256531728245
 30
0.0
 11
21.999999999999542
 21
-125.8256531728245
 31
0.0
 12
24.999999999999549
 22
-125.3256531728245
 32
0.0
 13
24.999999999999549
 23
-125.3256531728245
 33
0.0
  0
SOLID
  5
1929
  8
SAPA_MATT
 10
-22.000000000000451
 20
-124.8256531728245
 30
0.0
 11
-22.000000000000451
 21
-125.8256531728245
 31
0.0
 12
-25.000000000000458
 22
-125.3256531728245
 32
0.0
 13
-25.000000000000458
 23
-125.3256531728245
 33
0.0
  0
INSERT
  5
192A
  8
0
  2
*U161
 10
0.0
 20
0.0
 30
0.0
  0
POINT
  5
192B
  8
DEFPOINTS
 62
     0
 10
24.999999999999549
 20
-105.9999999990105
 30
0.0
  0
POINT
  5
192C
  8
DEFPOINTS
 62
     0
 10
-25.000000000000458
 20
-105.9999999990105
 30
0.0
  0
POINT
  5
192D
  8
DEFPOINTS
 62
     0
 10
-25.000000000000458
 20
-125.3256531728245
 30
0.0
  0
ENDBLK
  5
18DC
  8
0
  0
BLOCK
  8
0
  2
*D143
 70
     1
 10
0.0
 20
0.0
 30
0.0
  3
*D143
  1

  0
LINE
  5
2B00
  8
SAPA_MATT
 10
-25.000000000000458
 20
-107.4999999990106
 30
0.0
 11
-25.000000000000458
 21
-126.8256531728245
 31
0.0
  0
LINE
  5
2B01
  8
SAPA_MATT
 10
-88.499999995497419
 20
-78.699999952131861
 30
0.0
 11
-88.499999995497419
 21
-126.8256531728245
 31
0.0
  0
LINE
  5
2B02
  8
SAPA_MATT
 10
-28.000000000000458
 20
-125.3256531728245
 30
0.0
 11
-85.499999995497433
 21
-125.3256531728245
 31
0.0
  0
SOLID
  5
2B03
  8
SAPA_MATT
 10
-28.000000000000458
 20
-124.8256531728245
 30
0.0
 11
-28.000000000000458
 21
-125.8256531728245
 31
0.0
 12
-25.000000000000458
 22
-125.3256531728245
 32
0.0
 13
-25.000000000000458
 23
-125.3256531728245
 33
0.0
  0
SOLID
  5
2B04
  8
SAPA_MATT
 10
-85.499999995497433
 20
-124.8256531728245
 30
0.0
 11
-85.499999995497433
 21
-125.8256531728245
 31
0.0
 12
-88.499999995497419
 22
-125.3256531728245
 32
0.0
 13
-88.499999995497419
 23
-125.3256531728245
 33
0.0
  0
TEXT
  8
SAPA_MATT
  40
3
  5
2B0D
  62
2
  72
0
  71
0
 10
-62.7500
 20
-128.136
 30
0.000000
  1
63.5
  7
ISO
  0
POINT
  5
2B06
  8
DEFPOINTS
 62
     0
 10
-25.000000000000458
 20
-105.9999999990105
 30
0.0
  0
POINT
  5
2B07
  8
DEFPOINTS
 62
     0
 10
-88.499999995497419
 20
-77.199999952131861
 30
0.0
  0
POINT
  5
2B08
  8
DEFPOINTS
 62
     0
 10
-88.499999995497419
 20
-125.3256531728245
 30
0.0
  0
ENDBLK
  5
18E8
  8
0
  0
BLOCK
  8
0
  2
*D144
 70
     1
 10
0.0
 20
0.0
 30
0.0
  3
*D144
  1

  0
LINE
  5
2AF7
  8
SAPA_MATT
 10
-88.499999995497419
 20
-78.699999952131861
 30
0.0
 11
-88.499999995497419
 21
-126.8256531728245
 31
0.0
  0
LINE
  5
2AF8
  8
SAPA_MATT
 10
-118.4999999954973
 20
-79.585786873071314
 30
0.0
 11
-118.4999999954973
 21
-126.8256531728245
 31
0.0
  0
LINE
  5
2AF9
  8
SAPA_MATT
 10
-91.499999995497433
 20
-125.3256531728245
 30
0.0
 11
-115.4999999954973
 21
-125.3256531728245
 31
0.0
  0
SOLID
  5
2AFA
  8
SAPA_MATT
 10
-91.499999995497433
 20
-124.8256531728245
 30
0.0
 11
-91.499999995497433
 21
-125.8256531728245
 31
0.0
 12
-88.499999995497419
 22
-125.3256531728245
 32
0.0
 13
-88.499999995497419
 23
-125.3256531728245
 33
0.0
  0
SOLID
  5
2AFB
  8
SAPA_MATT
 10
-115.4999999954973
 20
-124.8256531728245
 30
0.0
 11
-115.4999999954973
 21
-125.8256531728245
 31
0.0
 12
-118.4999999954973
 22
-125.3256531728245
 32
0.0
 13
-118.4999999954973
 23
-125.3256531728245
 33
0.0
  0
TEXT
  8
SAPA_MATT
  40
3
  5
2B0E
  62
2
  72
0
  71
0
 10
-109.500
 20
-128.136
 30
0.000000
  1
30
  7
ISO
  0
POINT
  5
2AFD
  8
DEFPOINTS
 62
     0
 10
-88.499999995497419
 20
-77.199999952131861
 30
0.0
  0
POINT
  5
2AFE
  8
DEFPOINTS
 62
     0
 10
-118.4999999954973
 20
-78.085786873071314
 30
0.0
  0
POINT
  5
2AFF
  8
DEFPOINTS
 62
     0
 10
-118.4999999954973
 20
-125.3256531728245
 30
0.0
  0
ENDBLK
  5
18F4
  8
0
  0
BLOCK
  8
0
  2
*D145
 70
     1
 10
0.0
 20
0.0
 30
0.0
  3
*D145
  1

  0
LINE
  5
2AEE
  8
SAPA_MATT
 10
-118.4999999954973
 20
-79.585786873071314
 30
0.0
 11
-118.4999999954973
 21
-126.8256531728245
 31
0.0
  0
LINE
  5
2AEF
  8
SAPA_MATT
 10
-196.49999999549729
 20
-78.500000435443965
 30
0.0
 11
-196.49999999549729
 21
-126.8256531728245
 31
0.0
  0
LINE
  5
2AF0
  8
SAPA_MATT
 10
-121.4999999954973
 20
-125.3256531728245
 30
0.0
 11
-193.49999999549729
 21
-125.3256531728245
 31
0.0
  0
SOLID
  5
2AF1
  8
SAPA_MATT
 10
-121.4999999954973
 20
-124.8256531728245
 30
0.0
 11
-121.4999999954973
 21
-125.8256531728245
 31
0.0
 12
-118.4999999954973
 22
-125.3256531728245
 32
0.0
 13
-118.4999999954973
 23
-125.3256531728245
 33
0.0
  0
SOLID
  5
2AF2
  8
SAPA_MATT
 10
-193.49999999549729
 20
-124.8256531728245
 30
0.0
 11
-193.49999999549729
 21
-125.8256531728245
 31
0.0
 12
-196.49999999549729
 22
-125.3256531728245
 32
0.0
 13
-196.49999999549729
 23
-125.3256531728245
 33
0.0
  0
TEXT
  8
SAPA_MATT
  40
3
  5
2B0F
  62
2
  72
0
  71
0
 10
-163.500
 20
-128.136
 30
0.000000
  1
78
  7
ISO
  0
POINT
  5
2AF4
  8
DEFPOINTS
 62
     0
 10
-118.4999999954973
 20
-78.085786873071314
 30
0.0
  0
POINT
  5
2AF5
  8
DEFPOINTS
 62
     0
 10
-196.49999999549729
 20
-77.00000043544398
 30
0.0
  0
POINT
  5
2AF6
  8
DEFPOINTS
 62
     0
 10
-196.49999999549729
 20
-125.3256531728245
 30
0.0
  0
ENDBLK
  5
1900
  8
0
  0
BLOCK
  8
0
  2
*U146
 70
     1
 10
0.0
 20
0.0
 30
0.0
  3
*U146
  1

  0
TEXT
  5
19BF
  8
SAPA_ARTIKELNR
 10
-6.0870257706232902
 20
66.49989504518453
 30
0.0
 40
3.5
  1
68654
  7
ISO
  0
ENDBLK
  5
19C1
  8
0
  0
BLOCK
  8
0
  2
*U147
 70
     1
 10
0.0
 20
0.0
 30
0.0
  3
*U147
  1

  0
TEXT
  5
19C3
  8
SAPA_ARTIKELNR
 10
-6.0870257706232902
 20
-102.1496371978678
 30
0.0
 40
3.5
  1
42657
  7
ISO
  0
ENDBLK
  5
19C5
  8
0
  0
BLOCK
  8
0
  2
*U148
 70
     1
 10
0.0
 20
0.0
 30
0.0
  3
*U148
  1

  0
TEXT
  5
19C7
  8
SAPA_ARTIKELNR
 10
-6.0870257706232902
 20
-111.59123046074269
 30
0.0
 40
3.5
  1
42227
  7
ISO
  0
ENDBLK
  5
19C9
  8
0
  0
BLOCK
  8
0
  2
*X149
 70
     1
 10
0.0
 20
0.0
 30
0.0
  3
*X149
  1

  0
LINE
  5
19CB
  8
0
 62
     0
 10
38.641197096863337
 20
40.996611232303067
 30
0.0
 11
39.328604761117241
 21
41.393486232303083
 31
0.0
  0
LINE
  5
19CC
  8
0
 62
     0
 10
36.578974104101647
 20
39.805986232303077
 30
0.0
 11
37.266381768355537
 21
40.202861232303079
 31
0.0
  0
LINE
  5
19CD
  8
0
 62
     0
 10
34.516751111339957
 20
38.615361232303073
 30
0.0
 11
35.204158775593847
 21
39.012236232303081
 31
0.0
  0
LINE
  5
19CE
  8
0
 62
     0
 10
37.953789596864461
 20
42.187235947808588
 30
0.0
 11
38.641197261118357
 21
42.584110947808597
 31
0.0
  0
LINE
  5
19CF
  8
0
 62
     0
 10
35.891566604102771
 20
40.996610947808577
 30
0.0
 11
36.578974268356667
 21
41.393485947808593
 31
0.0
  0
LINE
  5
19D0
  8
0
 62
     0
 10
33.829343611341081
 20
39.805985947808587
 30
0.0
 11
34.516751275594977
 21
40.202860947808588
 31
0.0
  0
LINE
  5
19D1
  8
0
 62
     0
 10
31.767120618579391
 20
38.615360947808583
 30
0.0
 11
32.454528282833287
 21
39.012235947808591
 31
0.0
  0
LINE
  5
19D2
  8
0
 62
     0
 10
39.328605089625462
 20
44.568485663310661
 30
0.0
 11
40.000000000003013
 21
44.956115695549691
 31
0.0
  0
LINE
  5
19D3
  8
0
 62
     0
 10
37.266382096863772
 20
43.377860663310649
 30
0.0
 11
37.953789761117662
 21
43.774735663310651
 31
0.0
  0
LINE
  5
19D4
  8
0
 62
     0
 10
35.204159104102068
 20
42.187235663310652
 30
0.0
 11
35.891566768355972
 21
42.584110663310653
 31
0.0
  0
LINE
  5
19D5
  8
0
 62
     0
 10
33.141936111340392
 20
40.996610663310648
 30
0.0
 11
33.829343775594282
 21
41.393485663310642
 31
0.0
  0
LINE
  5
19D6
  8
0
 62
     0
 10
31.079713118578699
 20
39.805985663310643
 30
0.0
 11
31.767120782832588
 21
40.202860663310638
 31
0.0
  0
LINE
  5
19D7
  8
0
 62
     0
 10
29.493266976265659
 20
38.890050555991373
 30
0.0
 11
29.704897790070898
 21
39.012235663310641
 31
0.0
  0
LINE
  5
19D8
  8
0
 62
     0
 10
38.641197589627922
 20
45.759110378817077
 30
0.0
 11
39.328605253881818
 21
46.155985378817078
 31
0.0
  0
LINE
  5
19D9
  8
0
 62
     0
 10
36.578974596866232
 20
44.568485378817073
 30
0.0
 11
37.266382261120128
 21
44.965360378817067
 31
0.0
  0
LINE
  5
19DA
  8
0
 62
     0
 10
34.516751604104542
 20
43.377860378817068
 30
0.0
 11
35.204159268358438
 21
43.77473537881707
 31
0.0
  0
LINE
  5
19DB
  8
0
 62
     0
 10
32.454528611342852
 20
42.187235378817057
 30
0.0
 11
33.141936275596748
 21
42.584110378817059
 31
0.0
  0
LINE
  5
19DC
  8
0
 62
     0
 10
30.392305618581162
 20
40.996610378817053
 30
0.0
 11
31.079713282835058
 21
41.393485378817061
 31
0.0
  0
LINE
  5
19DD
  8
0
 62
     0
 10
28.330082625819468
 20
39.805985378817063
 30
0.0
 11
29.017490290073361
 21
40.202860378817057
 31
0.0
  0
LINE
  5
19DE
  8
0
 62
     0
 10
37.953790089628107
 20
46.949735094320943
 30
0.0
 11
38.641197753882011
 21
47.346610094320951
 31
0.0
  0
LINE
  5
19DF
  8
0
 62
     0
 10
35.891567096866432
 20
45.759110094320938
 30
0.0
 11
36.578974761120321
 21
46.155985094320947
 31
0.0
  0
LINE
  5
19E0
  8
0
 62
     0
 10
33.829344104104742
 20
44.568485094320941
 30
0.0
 11
34.516751768358631
 21
44.965360094320943
 31
0.0
  0
LINE
  5
19E1
  8
0
 62
     0
 10
31.767121111343052
 20
43.37786009432093
 30
0.0
 11
32.454528775596941
 21
43.774735094320938
 31
0.0
  0
LINE
  5
19E2
  8
0
 62
     0
 10
29.704898118581351
 20
42.187235094320933
 30
0.0
 11
30.392305782835251
 21
42.584110094320927
 31
0.0
  0
LINE
  5
19E3
  8
0
 62
     0
 10
27.642675125819661
 20
40.996610094320921
 30
0.0
 11
28.330082790073551
 21
41.393485094320923
 31
0.0
  0
LINE
  5
19E4
  8
0
 62
     0
 10
39.328605582388548
 20
49.330984809823008
 30
0.0
 11
39.403037666481922
 21
49.373958193610648
 31
0.0
  0
LINE
  5
19E5
  8
0
 62
     0
 10
37.266382589626858
 20
48.140359809823003
 30
0.0
 11
37.953790253880761
 21
48.537234809822998
 31
0.0
  0
LINE
  5
19E6
  8
0
 62
     0
 10
35.204159596865168
 20
46.949734809822999
 30
0.0
 11
35.891567261119071
 21
47.346609809823001
 31
0.0
  0
LINE
  5
19E7
  8
0
 62
     0
 10
33.141936604103478
 20
45.759109809822988
 30
0.0
 11
33.829344268357367
 21
46.155984809822989
 31
0.0
  0
LINE
  5
19E8
  8
0
 62
     0
 10
31.079713611341791
 20
44.568484809822991
 30
0.0
 11
31.767121275595681
 21
44.965359809822992
 31
0.0
  0
LINE
  5
19E9
  8
0
 62
     0
 10
29.017490618580091
 20
43.377859809822993
 30
0.0
 11
29.704898282833991
 21
43.774734809822981
 31
0.0
  0
LINE
  5
19EA
  8
0
 62
     0
 10
26.955267625818401
 20
42.187234809822982
 30
0.0
 11
27.64267529007229
 21
42.584109809822984
 31
0.0
  0
LINE
  5
19EB
  8
0
 62
     0
 10
36.578975089625423
 20
49.330984525326869
 30
0.0
 11
37.266382753879313
 21
49.727859525326878
 31
0.0
  0
LINE
  5
19EC
  8
0
 62
     0
 10
34.516752096863733
 20
48.140359525326872
 30
0.0
 11
35.204159761117623
 21
48.537234525326873
 31
0.0
  0
LINE
  5
19ED
  8
0
 62
     0
 10
32.454529104102043
 20
46.949734525326861
 30
0.0
 11
33.141936768355933
 21
47.346609525326869
 31
0.0
  0
LINE
  5
19EE
  8
0
 62
     0
 10
30.392306111340339
 20
45.759109525326863
 30
0.0
 11
31.079713775594239
 21
46.155984525326858
 31
0.0
  0
LINE
  5
19EF
  8
0
 62
     0
 10
28.330083118578649
 20
44.568484525326852
 30
0.0
 11
29.017490782832549
 21
44.965359525326861
 31
0.0
  0
LINE
  5
19F0
  8
0
 62
     0
 10
26.267860125816959
 20
43.377859525326848
 30
0.0
 11
26.955267790070859
 21
43.774734525326863
 31
0.0
  0
LINE
  5
19F1
  8
0
 62
     0
 10
35.891567589627513
 20
50.521609240831658
 30
0.0
 11
36.57897525388141
 21
50.91848424083166
 31
0.0
  0
LINE
  5
19F2
  8
0
 62
     0
 10
33.82934459686583
 20
49.330984240831661
 30
0.0
 11
34.51675226111972
 21
49.727859240831648
 31
0.0
  0
LINE
  5
19F3
  8
0
 62
     0
 10
31.76712160410414
 20
48.14035924083165
 30
0.0
 11
32.45452926835803
 21
48.537234240831651
 31
0.0
  0
LINE
  5
19F4
  8
0
 62
     0
 10
29.70489861134244
 20
46.949734240831653
 30
0.0
 11
30.39230627559634
 21
47.34660924083164
 31
0.0
  0
LINE
  5
19F5
  8
0
 62
     0
 10
27.64267561858075
 20
45.759109240831641
 30
0.0
 11
28.330083282834639
 21
46.155984240831643
 31
0.0
  0
LINE
  5
19F6
  8
0
 62
     0
 10
25.580452625819049
 20
44.568484240831637
 30
0.0
 11
26.267860290072949
 21
44.965359240831638
 31
0.0
  0
LINE
  5
19F7
  8
0
 62
     0
 10
35.204160089624168
 20
51.712233956333897
 30
0.0
 11
35.551456355922582
 21
51.912745549169827
 31
0.0
  0
LINE
  5
19F8
  8
0
 62
     0
 10
33.141937096862492
 20
50.521608956333893
 30
0.0
 11
33.829344761116381
 21
50.918483956333887
 31
0.0
  0
LINE
  5
19F9
  8
0
 62
     0
 10
31.079714104100791
 20
49.330983956333888
 30
0.0
 11
31.767121768354691
 21
49.72785895633389
 31
0.0
  0
LINE
  5
19FA
  8
0
 62
     0
 10
29.017491111339101
 20
48.140358956333877
 30
0.0
 11
29.704898775593001
 21
48.537233956333878
 31
0.0
  0
LINE
  5
19FB
  8
0
 62
     0
 10
26.955268118577411
 20
46.94973395633388
 30
0.0
 11
27.642675782831301
 21
47.346608956333881
 31
0.0
  0
LINE
  5
19FC
  8
0
 62
     0
 10
25.0
 20
45.82085938173531
 30
0.0
 11
25.580452790069611
 21
46.15598395633387
 31
0.0
  0
LINE
  5
19FD
  8
0
 62
     0
 10
32.454529596863757
 20
51.712233671838661
 30
0.0
 11
33.141937261117661
 21
52.109108671838669
 31
0.0
  0
LINE
  5
19FE
  8
0
 62
     0
 10
30.392306604102071
 20
50.521608671838663
 30
0.0
 11
31.079714268355971
 21
50.918483671838672
 31
0.0
  0
LINE
  5
19FF
  8
0
 62
     0
 10
28.330083611340381
 20
49.330983671838659
 30
0.0
 11
29.017491275594271
 21
49.727858671838661
 31
0.0
  0
LINE
  5
1A00
  8
0
 62
     0
 10
26.26786061857868
 20
48.140358671838648
 30
0.0
 11
26.955268282832581
 21
48.537233671838649
 31
0.0
  0
LINE
  5
1A01
  8
0
 62
     0
 10
29.704899104101049
 20
51.712233387341797
 30
0.0
 11
29.77974506974137
 21
51.755445725751997
 31
0.0
  0
LINE
  5
1A02
  8
0
 62
     0
 10
27.642676111339359
 20
50.5216083873418
 30
0.0
 11
28.330083775593248
 21
50.918483387341801
 31
0.0
  0
LINE
  5
1A03
  8
0
 62
     0
 10
29.70180899551508
 20
39.010498245643092
 30
0.0
 11
30.389216659768969
 21
38.61362324564309
 31
0.0
  0
LINE
  5
1A04
  8
0
 62
     0
 10
27.639586002753379
 20
40.201123245643082
 30
0.0
 11
28.326993667007279
 21
39.804248245643088
 31
0.0
  0
LINE
  5
1A05
  8
0
 62
     0
 10
32.451439488276847
 20
39.010497961147749
 30
0.0
 11
33.138847152530737
 21
38.613622961147748
 31
0.0
  0
LINE
  5
1A06
  8
0
 62
     0
 10
30.38921649551515
 20
40.201122961147739
 30
0.0
 11
31.07662415976905
 21
39.804247961147752
 31
0.0
  0
LINE
  5
1A07
  8
0
 62
     0
 10
28.32699350275346
 20
41.391747961147743
 30
0.0
 11
29.01440116700736
 21
40.994872961147742
 31
0.0
  0
LINE
  5
1A08
  8
0
 62
     0
 10
26.26477050999177
 20
42.582372961147733
 30
0.0
 11
26.95217817424567
 21
42.185497961147739
 31
0.0
  0
LINE
  5
1A09
  8
0
 62
     0
 10
35.201069981039517
 20
39.010497676650829
 30
0.0
 11
35.760655814138289
 21
38.687420645276561
 31
0.0
  0
LINE
  5
1A0A
  8
0
 62
     0
 10
33.138846988277827
 20
40.201122676650833
 30
0.0
 11
33.82625465253173
 21
39.804247676650832
 31
0.0
  0
LINE
  5
1A0B
  8
0
 62
     0
 10
31.07662399551614
 20
41.391747676650823
 30
0.0
 11
31.764031659770041
 21
40.994872676650807
 31
0.0
  0
LINE
  5
1A0C
  8
0
 62
     0
 10
29.01440100275445
 20
42.58237267665082
 30
0.0
 11
29.701808667008351
 21
42.185497676650819
 31
0.0
  0
LINE
  5
1A0D
  8
0
 62
     0
 10
26.95217800999275
 20
43.77299767665081
 30
0.0
 11
27.63958567424665
 21
43.376122676650823
 31
0.0
  0
LINE
  5
1A0E
  8
0
 62
     0
 10
24.999999999999179
 20
44.900088176226667
 30
0.0
 11
25.57736268148496
 21
44.566747676650813
 31
0.0
  0
LINE
  5
1A0F
  8
0
 62
     0
 10
35.888477481039118
 20
40.201122392154701
 30
0.0
 11
36.575885145293022
 21
39.8042473921547
 31
0.0
  0
LINE
  5
1A10
  8
0
 62
     0
 10
33.826254488277442
 20
41.391747392154691
 30
0.0
 11
34.513662152531332
 21
40.99487239215469
 31
0.0
  0
LINE
  5
1A11
  8
0
 62
     0
 10
31.764031495515741
 20
42.582372392154689
 30
0.0
 11
32.451439159769642
 21
42.185497392154687
 31
0.0
  0
LINE
  5
1A12
  8
0
 62
     0
 10
29.701808502754051
 20
43.772997392154693
 30
0.0
 11
30.389216167007952
 21
43.376122392154691
 31
0.0
  0
LINE
  5
1A13
  8
0
 62
     0
 10
27.639585509992362
 20
44.96362239215469
 30
0.0
 11
28.326993174246251
 21
44.566747392154682
 31
0.0
  0
LINE
  5
1A14
  8
0
 62
     0
 10
25.577362517230661
 20
46.154247392154687
 30
0.0
 11
26.264770181484561
 21
45.757372392154679
 31
0.0
  0
LINE
  5
1A15
  8
0
 62
     0
 10
36.575884981038733
 20
41.391747107658567
 30
0.0
 11
37.263292645292623
 21
40.994872107658573
 31
0.0
  0
LINE
  5
1A16
  8
0
 62
     0
 10
34.513661988277043
 20
42.582372107658571
 30
0.0
 11
35.20106965253094
 21
42.18549710765857
 31
0.0
  0
LINE
  5
1A17
  8
0
 62
     0
 10
32.451438995515353
 20
43.772997107658561
 30
0.0
 11
33.138846659769243
 21
43.376122107658567
 31
0.0
  0
LINE
  5
1A18
  8
0
 62
     0
 10
30.38921600275366
 20
44.963622107658558
 30
0.0
 11
31.076623667007549
 21
44.566747107658557
 31
0.0
  0
LINE
  5
1A19
  8
0
 62
     0
 10
28.326993009991959
 20
46.154247107658563
 30
0.0
 11
29.014400674245859
 21
45.757372107658561
 31
0.0
  0
LINE
  5
1A1A
  8
0
 62
     0
 10
26.264770017230269
 20
47.344872107658553
 30
0.0
 11
26.952177681484159
 21
46.947997107658551
 31
0.0
  0
LINE
  5
1A1B
  8
0
 62
     0
 10
39.325515473800031
 20
41.391746823162443
 30
0.0
 11
39.512522917405349
 21
41.283778025256453
 31
0.0
  0
LINE
  5
1A1C
  8
0
 62
     0
 10
37.263292481038341
 20
42.582371823162447
 30
0.0
 11
37.950700145292231
 21
42.185496823162438
 31
0.0
  0
LINE
  5
1A1D
  8
0
 62
     0
 10
35.201069488276651
 20
43.772996823162437
 30
0.0
 11
35.888477152530541
 21
43.376121823162443
 31
0.0
  0
LINE
  5
1A1E
  8
0
 62
     0
 10
33.138846495514947
 20
44.963621823162441
 30
0.0
 11
33.826254159768851
 21
44.566746823162433
 31
0.0
  0
LINE
  5
1A1F
  8
0
 62
     0
 10
31.076623502753261
 20
46.154246823162438
 30
0.0
 11
31.764031167007161
 21
45.757371823162437
 31
0.0
  0
LINE
  5
1A20
  8
0
 62
     0
 10
29.014400509991571
 20
47.344871823162428
 30
0.0
 11
29.701808174245471
 21
46.947996823162427
 31
0.0
  0
LINE
  5
1A21
  8
0
 62
     0
 10
26.95217751722987
 20
48.535496823162433
 30
0.0
 11
27.639585181483771
 21
48.138621823162431
 31
0.0
  0
LINE
  5
1A22
  8
0
 62
     0
 10
37.95069998103839
 20
43.772996538667108
 30
0.0
 11
38.638107645292287
 21
43.376121538667107
 31
0.0
  0
LINE
  5
1A23
  8
0
 62
     0
 10
35.8884769882767
 20
44.963621538667113
 30
0.0
 11
36.575884652530597
 21
44.566746538667111
 31
0.0
  0
LINE
  5
1A24
  8
0
 62
     0
 10
33.82625399551501
 20
46.154246538667103
 30
0.0
 11
34.513661659768907
 21
45.757371538667101
 31
0.0
  0
LINE
  5
1A25
  8
0
 62
     0
 10
31.76403100275332
 20
47.344871538667107
 30
0.0
 11
32.451438667007217
 21
46.947996538667098
 31
0.0
  0
LINE
  5
1A26
  8
0
 62
     0
 10
29.70180800999163
 20
48.535496538667111
 30
0.0
 11
30.38921567424552
 21
48.138621538667103
 31
0.0
  0
LINE
  5
1A27
  8
0
 62
     0
 10
27.63958501722993
 20
49.726121538667101
 30
0.0
 11
28.32699268148383
 21
49.329246538667093
 31
0.0
  0
LINE
  5
1A28
  8
0
 62
     0
 10
38.638107481039341
 20
44.963621254170206
 30
0.0
 11
39.325515145293238
 21
44.566746254170198
 31
0.0
  0
LINE
  5
1A29
  8
0
 62
     0
 10
36.575884488277651
 20
46.154246254170197
 30
0.0
 11
37.263292152531548
 21
45.757371254170202
 31
0.0
  0
LINE
  5
1A2A
  8
0
 62
     0
 10
34.513661495515962
 20
47.344871254170201
 30
0.0
 11
35.201069159769858
 21
46.947996254170199
 31
0.0
  0
LINE
  5
1A2B
  8
0
 62
     0
 10
32.451438502754272
 20
48.535496254170198
 30
0.0
 11
33.138846167008168
 21
48.138621254170197
 31
0.0
  0
LINE
  5
1A2C
  8
0
 62
     0
 10
30.389215509992582
 20
49.726121254170188
 30
0.0
 11
31.076623174246478
 21
49.329246254170187
 31
0.0
  0
LINE
  5
1A2D
  8
0
 62
     0
 10
28.326992517230881
 20
50.916746254170192
 30
0.0
 11
29.014400181484781
 21
50.519871254170191
 31
0.0
  0
LINE
  5
1A2E
  8
0
 62
     0
 10
39.325514981039007
 20
46.154245969674051
 30
0.0
 11
39.999999999998813
 21
45.764831862413253
 31
0.0
  0
LINE
  5
1A2F
  8
0
 62
     0
 10
37.263291988277317
 20
47.344870969674048
 30
0.0
 11
37.95069965253122
 21
46.947995969674047
 31
0.0
  0
LINE
  5
1A30
  8
0
 62
     0
 10
35.201068995515627
 20
48.535495969674038
 30
0.0
 11
35.88847665976953
 21
48.138620969674051
 31
0.0
  0
LINE
  5
1A31
  8
0
 62
     0
 10
33.138846002753937
 20
49.726120969674042
 30
0.0
 11
33.826253667007833
 21
49.329245969674041
 31
0.0
  0
LINE
  5
1A32
  8
0
 62
     0
 10
31.07662300999225
 20
50.916745969674039
 30
0.0
 11
31.76403067424614
 21
50.519870969674038
 31
0.0
  0
LINE
  5
1A33
  8
0
 62
     0
 10
29.686910384246321
 20
51.719096928244667
 30
0.0
 11
29.70180768148445
 21
51.710495969674028
 31
0.0
  0
LINE
  5
1A34
  8
0
 62
     0
 10
37.950699488276889
 20
48.535495685177928
 30
0.0
 11
38.638107152530793
 21
48.138620685177933
 31
0.0
  0
LINE
  5
1A35
  8
0
 62
     0
 10
35.888476495515199
 20
49.726120685177932
 30
0.0
 11
36.575884159769103
 21
49.329245685177931
 31
0.0
  0
LINE
  5
1A36
  8
0
 62
     0
 10
33.826253502753509
 20
50.916745685177929
 30
0.0
 11
34.513661167007413
 21
50.519870685177921
 31
0.0
  0
LINE
  5
1A37
  8
0
 62
     0
 10
31.764030509991819
 20
52.107370685177933
 30
0.0
 11
32.451438174245723
 21
51.710495685177918
 31
0.0
  0
LINE
  5
1A38
  8
0
 62
     0
 10
38.638106988276931
 20
49.726120400682603
 30
0.0
 11
39.325514652530828
 21
49.329245400682602
 31
0.0
  0
LINE
  5
1A39
  8
0
 62
     0
 10
36.575883995515241
 20
50.916745400682601
 30
0.0
 11
37.263291659769138
 21
50.519870400682599
 31
0.0
  0
LINE
  5
1A3A
  8
0
 62
     0
 10
34.513661002753551
 20
52.107370400682591
 30
0.0
 11
35.201068667007448
 21
51.710495400682603
 31
0.0
  0
LINE
  5
1A3B
  8
0
 62
     0
 10
38.638146409220113
 20
49.729666929026649
 30
0.0
 11
38.638146409220113
 21
50.145610915422367
 31
0.0
  0
LINE
  5
1A3C
  8
0
 62
     0
 10
38.638146409220113
 20
47.348416929026648
 30
0.0
 11
38.638146409220113
 21
48.142166929026651
 31
0.0
  0
LINE
  5
1A3D
  8
0
 62
     0
 10
38.638146409220113
 20
44.967166929026646
 30
0.0
 11
38.638146409220113
 21
45.760916929026642
 31
0.0
  0
LINE
  5
1A3E
  8
0
 62
     0
 10
38.638146409220113
 20
42.585916929026652
 30
0.0
 11
38.638146409220113
 21
43.379666929026641
 31
0.0
  0
LINE
  5
1A3F
  8
0
 62
     0
 10
38.638146409220113
 20
40.384170083169003
 30
0.0
 11
38.638146409220113
 21
40.998416929026639
 31
0.0
  0
LINE
  5
1A40
  8
0
 62
     0
 10
37.26333140921907
 20
49.729666929026287
 30
0.0
 11
37.26333140921907
 21
50.52341692902629
 31
0.0
  0
LINE
  5
1A41
  8
0
 62
     0
 10
37.26333140921907
 20
47.348416929026278
 30
0.0
 11
37.26333140921907
 21
48.142166929026288
 31
0.0
  0
LINE
  5
1A42
  8
0
 62
     0
 10
37.26333140921907
 20
44.967166929026277
 30
0.0
 11
37.26333140921907
 21
45.76091692902628
 31
0.0
  0
LINE
  5
1A43
  8
0
 62
     0
 10
37.26333140921907
 20
42.585916929026283
 30
0.0
 11
37.26333140921907
 21
43.379666929026278
 31
0.0
  0
LINE
  5
1A44
  8
0
 62
     0
 10
37.26333140921907
 20
40.204666929026281
 30
0.0
 11
37.26333140921907
 21
40.998416929026277
 31
0.0
  0
LINE
  5
1A45
  8
0
 62
     0
 10
35.888516409219861
 20
49.729666929026287
 30
0.0
 11
35.888516409219861
 21
50.52341692902629
 31
0.0
  0
LINE
  5
1A46
  8
0
 62
     0
 10
35.888516409219861
 20
47.348416929026278
 30
0.0
 11
35.888516409219861
 21
48.142166929026288
 31
0.0
  0
LINE
  5
1A47
  8
0
 62
     0
 10
35.888516409219861
 20
44.967166929026277
 30
0.0
 11
35.888516409219861
 21
45.76091692902628
 31
0.0
  0
LINE
  5
1A48
  8
0
 62
     0
 10
35.888516409219861
 20
42.585916929026283
 30
0.0
 11
35.888516409219861
 21
43.379666929026278
 31
0.0
  0
LINE
  5
1A49
  8
0
 62
     0
 10
35.888516409219861
 20
40.204666929026281
 30
0.0
 11
35.888516409219861
 21
40.998416929026277
 31
0.0
  0
LINE
  5
1A4A
  8
0
 62
     0
 10
34.513701409218818
 20
52.110916929026288
 30
0.0
 11
34.513701409218818
 21
52.17882249053401
 31
0.0
  0
LINE
  5
1A4B
  8
0
 62
     0
 10
34.513701409218818
 20
49.729666929026287
 30
0.0
 11
34.513701409218818
 21
50.52341692902629
 31
0.0
  0
LINE
  5
1A4C
  8
0
 62
     0
 10
34.513701409218818
 20
47.348416929026278
 30
0.0
 11
34.513701409218818
 21
48.142166929026288
 31
0.0
  0
LINE
  5
1A4D
  8
0
 62
     0
 10
34.513701409218818
 20
44.967166929026277
 30
0.0
 11
34.513701409218818
 21
45.76091692902628
 31
0.0
  0
LINE
  5
1A4E
  8
0
 62
     0
 10
34.513701409218818
 20
42.585916929026283
 30
0.0
 11
34.513701409218818
 21
43.379666929026278
 31
0.0
  0
LINE
  5
1A4F
  8
0
 62
     0
 10
34.513701409218818
 20
40.204666929026281
 30
0.0
 11
34.513701409218818
 21
40.998416929026277
 31
0.0
  0
LINE
  5
1A50
  8
0
 62
     0
 10
34.513701409218818
 20
38.35062880139958
 30
0.0
 11
34.513701409218818
 21
38.617166929026283
 31
0.0
  0
LINE
  5
1A51
  8
0
 62
     0
 10
33.138886409219602
 20
52.110916929026288
 30
0.0
 11
33.138886409219602
 21
52.329317464111227
 31
0.0
  0
LINE
  5
1A52
  8
0
 62
     0
 10
33.138886409219602
 20
49.729666929026287
 30
0.0
 11
33.138886409219602
 21
50.52341692902629
 31
0.0
  0
LINE
  5
1A53
  8
0
 62
     0
 10
33.138886409219602
 20
47.348416929026278
 30
0.0
 11
33.138886409219602
 21
48.142166929026288
 31
0.0
  0
LINE
  5
1A54
  8
0
 62
     0
 10
33.138886409219602
 20
44.967166929026277
 30
0.0
 11
33.138886409219602
 21
45.76091692902628
 31
0.0
  0
LINE
  5
1A55
  8
0
 62
     0
 10
33.138886409219602
 20
42.585916929026283
 30
0.0
 11
33.138886409219602
 21
43.379666929026278
 31
0.0
  0
LINE
  5
1A56
  8
0
 62
     0
 10
33.138886409219602
 20
40.204666929026281
 30
0.0
 11
33.138886409219602
 21
40.998416929026277
 31
0.0
  0
LINE
  5
1A57
  8
0
 62
     0
 10
33.138886409219602
 20
38.200081275073899
 30
0.0
 11
33.138886409219602
 21
38.617166929026283
 31
0.0
  0
LINE
  5
1A58
  8
0
 62
     0
 10
31.76407140921857
 20
52.110916929026288
 30
0.0
 11
31.76407140921857
 21
52.259676195364598
 31
0.0
  0
LINE
  5
1A59
  8
0
 62
     0
 10
31.76407140921857
 20
49.729666929026287
 30
0.0
 11
31.76407140921857
 21
50.52341692902629
 31
0.0
  0
LINE
  5
1A5A
  8
0
 62
     0
 10
31.76407140921857
 20
47.348416929026278
 30
0.0
 11
31.76407140921857
 21
48.142166929026288
 31
0.0
  0
LINE
  5
1A5B
  8
0
 62
     0
 10
31.76407140921857
 20
44.967166929026277
 30
0.0
 11
31.76407140921857
 21
45.76091692902628
 31
0.0
  0
LINE
  5
1A5C
  8
0
 62
     0
 10
31.76407140921857
 20
42.585916929026283
 30
0.0
 11
31.76407140921857
 21
43.379666929026278
 31
0.0
  0
LINE
  5
1A5D
  8
0
 62
     0
 10
31.76407140921857
 20
40.204666929026281
 30
0.0
 11
31.76407140921857
 21
40.998416929026277
 31
0.0
  0
LINE
  5
1A5E
  8
0
 62
     0
 10
31.76407140921857
 20
38.269681595395021
 30
0.0
 11
31.76407140921857
 21
38.617166929026283
 31
0.0
  0
LINE
  5
1A5F
  8
0
 62
     0
 10
30.38925640921935
 20
49.729666929026287
 30
0.0
 11
30.38925640921935
 21
50.52341692902629
 31
0.0
  0
LINE
  5
1A60
  8
0
 62
     0
 10
30.38925640921935
 20
47.348416929026278
 30
0.0
 11
30.38925640921935
 21
48.142166929026288
 31
0.0
  0
LINE
  5
1A61
  8
0
 62
     0
 10
30.38925640921935
 20
44.967166929026277
 30
0.0
 11
30.38925640921935
 21
45.76091692902628
 31
0.0
  0
LINE
  5
1A62
  8
0
 62
     0
 10
30.38925640921935
 20
42.585916929026283
 30
0.0
 11
30.38925640921935
 21
43.379666929026278
 31
0.0
  0
LINE
  5
1A63
  8
0
 62
     0
 10
30.38925640921935
 20
40.204666929026281
 30
0.0
 11
30.38925640921935
 21
40.998416929026277
 31
0.0
  0
LINE
  5
1A64
  8
0
 62
     0
 10
30.38925640921935
 20
38.564977306603403
 30
0.0
 11
30.38925640921935
 21
38.617166929026283
 31
0.0
  0
LINE
  5
1A65
  8
0
 62
     0
 10
29.014441409220129
 20
49.729666929026287
 30
0.0
 11
29.014441409220129
 21
50.52341692902629
 31
0.0
  0
LINE
  5
1A66
  8
0
 62
     0
 10
29.014441409220129
 20
47.348416929026278
 30
0.0
 11
29.014441409220129
 21
48.142166929026288
 31
0.0
  0
LINE
  5
1A67
  8
0
 62
     0
 10
29.014441409220129
 20
44.967166929026277
 30
0.0
 11
29.014441409220129
 21
45.76091692902628
 31
0.0
  0
LINE
  5
1A68
  8
0
 62
     0
 10
29.014441409220129
 20
42.585916929026283
 30
0.0
 11
29.014441409220129
 21
43.379666929026278
 31
0.0
  0
LINE
  5
1A69
  8
0
 62
     0
 10
29.014441409220129
 20
40.204666929026281
 30
0.0
 11
29.014441409220129
 21
40.998416929026277
 31
0.0
  0
LINE
  5
1A6A
  8
0
 62
     0
 10
27.639626409219101
 20
49.729666929026287
 30
0.0
 11
27.639626409219101
 21
50.52341692902629
 31
0.0
  0
LINE
  5
1A6B
  8
0
 62
     0
 10
27.639626409219101
 20
47.348416929026278
 30
0.0
 11
27.639626409219101
 21
48.142166929026288
 31
0.0
  0
LINE
  5
1A6C
  8
0
 62
     0
 10
27.639626409219101
 20
44.967166929026277
 30
0.0
 11
27.639626409219101
 21
45.76091692902628
 31
0.0
  0
LINE
  5
1A6D
  8
0
 62
     0
 10
27.639626409219101
 20
42.585916929026283
 30
0.0
 11
27.639626409219101
 21
43.379666929026278
 31
0.0
  0
LINE
  5
1A6E
  8
0
 62
     0
 10
27.639626409219101
 20
40.204666929026281
 30
0.0
 11
27.639626409219101
 21
40.998416929026277
 31
0.0
  0
LINE
  5
1A6F
  8
0
 62
     0
 10
26.264811409219881
 20
47.348416929026648
 30
0.0
 11
26.264811409219881
 21
48.142166929026651
 31
0.0
  0
LINE
  5
1A70
  8
0
 62
     0
 10
26.264811409219881
 20
44.967166929026646
 30
0.0
 11
26.264811409219881
 21
45.760916929026642
 31
0.0
  0
LINE
  5
1A71
  8
0
 62
     0
 10
26.264811409219881
 20
42.585916929026652
 30
0.0
 11
26.264811409219881
 21
43.379666929026641
 31
0.0
  0
ENDBLK
  5
1A73
  8
0
  0
BLOCK
  8
0
  2
*X150
 70
     1
 10
0.0
 20
0.0
 30
0.0
  3
*X150
  1

  0
LINE
  5
1A75
  8
0
 62
     0
 10
24.999999999999091
 20
47.757742815373149
 30
0.0
 11
25.168636788337611
 21
47.589106027035079
 31
0.0
  0
LINE
  5
1A76
  8
0
 62
     0
 10
24.999999999999091
 20
50.002806845641771
 30
0.0
 11
26.037188464846171
 21
48.965618380794687
 31
0.0
  0
LINE
  5
1A77
  8
0
 62
     0
 10
25.000000000000909
 20
52.247870875908582
 30
0.0
 11
27.118861292652131
 21
50.129009583257357
 31
0.0
  0
LINE
  5
1A78
  8
0
 62
     0
 10
24.999999999999549
 20
54.492934906176743
 30
0.0
 11
28.40925623740123
 21
51.083678668775057
 31
0.0
  0
LINE
  5
1A79
  8
0
 62
     0
 10
24.999999999999549
 20
56.737998936443539
 30
0.0
 11
29.927296034953539
 21
51.810702901489549
 31
0.0
  0
LINE
  5
1A7A
  8
0
 62
     0
 10
24.999999999999549
 20
58.983062966710349
 30
0.0
 11
31.728166366900499
 21
52.254896599809847
 31
0.0
  0
LINE
  5
1A7B
  8
0
 62
     0
 10
24.999999999998181
 20
61.228126996978517
 30
0.0
 11
33.962121431593921
 21
52.266005565382777
 31
0.0
  0
LINE
  5
1A7C
  8
0
 62
     0
 10
24.999999999998639
 20
63.473191027245321
 30
0.0
 11
37.425795640542667
 21
51.047395386700828
 31
0.0
  0
LINE
  5
1A7D
  8
0
 62
     0
 10
28.969157327112502
 20
61.749097730399633
 30
0.0
 11
39.999999999999552
 21
50.718255057512579
 31
0.0
  0
LINE
  5
1A7E
  8
0
 62
     0
 10
31.83241016666944
 20
61.130908921109949
 30
0.0
 11
39.999999999999552
 21
52.963319087779382
 31
0.0
  0
LINE
  5
1A7F
  8
0
 62
     0
 10
34.085187475313433
 20
61.123195642734117
 30
0.0
 11
40.000000000000448
 21
55.20838311804755
 31
0.0
  0
LINE
  5
1A80
  8
0
 62
     0
 10
36.007882757347041
 20
61.445564390967313
 30
0.0
 11
40.000000000000448
 21
57.453447148314361
 31
0.0
  0
LINE
  5
1A81
  8
0
 62
     0
 10
37.699024952229138
 20
61.999486226352467
 30
0.0
 11
40.000000000000448
 21
59.698511178581157
 31
0.0
  0
LINE
  5
1A82
  8
0
 62
     0
 10
39.205349761823072
 20
62.738225447024888
 30
0.0
 11
40.000000000000448
 21
61.94357520884796
 31
0.0
  0
LINE
  5
1A83
  8
0
 62
     0
 10
39.9845605756691
 20
48.630190143023349
 30
0.0
 11
40.0
 21
48.645629567354263
 31
0.0
  0
LINE
  5
1A84
  8
0
 62
     0
 10
38.956776921482742
 20
49.847470519101989
 30
0.0
 11
39.999999999998181
 21
50.890693597617428
 31
0.0
  0
LINE
  5
1A85
  8
0
 62
     0
 10
37.721248574935089
 20
50.857006202822951
 30
0.0
 11
40.0
 21
53.135757627887862
 31
0.0
  0
LINE
  5
1A86
  8
0
 62
     0
 10
36.265572530001009
 20
51.646394188155682
 30
0.0
 11
40.000000000001819
 21
55.380821658156492
 31
0.0
  0
LINE
  5
1A87
  8
0
 62
     0
 10
34.546580283435112
 20
52.172465971856582
 30
0.0
 11
40.0
 21
57.625885688421469
 31
0.0
  0
LINE
  5
1A88
  8
0
 62
     0
 10
32.450977124874044
 20
52.321926843564142
 30
0.0
 11
40.0
 21
59.870949718690099
 31
0.0
  0
LINE
  5
1A89
  8
0
 62
     0
 10
29.545193319247119
 20
51.661207068202202
 30
0.0
 11
40.0
 21
62.116013748955083
 31
0.0
  0
LINE
  5
1A8A
  8
0
 62
     0
 10
25.0
 20
49.361077779223699
 30
0.0
 11
37.597333002377127
 21
61.958410781600833
 31
0.0
  0
LINE
  5
1A8B
  8
0
 62
     0
 10
25.000000000001819
 20
51.606141809492328
 30
0.0
 11
34.569073400885827
 21
61.175215210376336
 31
0.0
  0
LINE
  5
1A8C
  8
0
 62
     0
 10
25.0
 20
53.851205839759132
 30
0.0
 11
32.247451093569907
 21
61.098656933329039
 31
0.0
  0
LINE
  5
1A8D
  8
0
 62
     0
 10
25.0
 20
56.096269870027747
 30
0.0
 11
30.281244490699471
 21
61.377514360725399
 31
0.0
  0
LINE
  5
1A8E
  8
0
 62
     0
 10
25.0
 20
58.341333900292739
 30
0.0
 11
28.557412855538129
 21
61.898746755830871
 31
0.0
  0
LINE
  5
1A8F
  8
0
 62
     0
 10
25.0
 20
60.586397930559542
 30
0.0
 11
27.023902234539491
 21
62.610300165099027
 31
0.0
  0
LINE
  5
1A90
  8
0
 62
     0
 10
25.0
 20
62.831461960826338
 30
0.0
 11
25.653615099086888
 21
63.48507705991323
 31
0.0
  0
ENDBLK
  5
1A92
  8
0
  0
BLOCK
  8
0
  2
*X151
 70
     1
 10
0.0
 20
0.0
 30
0.0
  3
*X151
  1

  0
LINE
  5
1A94
  8
0
 62
     0
 10
39.328594248869763
 20
-70.206495559945509
 30
0.0
 11
40.000000000000391
 21
-69.818859268794768
 31
0.0
  0
LINE
  5
1A95
  8
0
 62
     0
 10
38.641186748867561
 20
-69.01587084444273
 30
0.0
 11
39.328594413121451
 21
-68.618995844442736
 31
0.0
  0
LINE
  5
1A96
  8
0
 62
     0
 10
36.578963756105871
 20
-70.206495844442728
 30
0.0
 11
37.266371420359761
 21
-69.809620844442733
 31
0.0
  0
LINE
  5
1A97
  8
0
 62
     0
 10
37.953779248868507
 20
-67.825246128938133
 30
0.0
 11
38.641186913122411
 21
-67.428371128938139
 31
0.0
  0
LINE
  5
1A98
  8
0
 62
     0
 10
35.891556256106817
 20
-69.01587112893813
 30
0.0
 11
36.578963920360721
 21
-68.618996128938136
 31
0.0
  0
LINE
  5
1A99
  8
0
 62
     0
 10
33.829333263345127
 20
-70.206496128938113
 30
0.0
 11
34.516740927599031
 21
-69.809621128938133
 31
0.0
  0
LINE
  5
1A9A
  8
0
 62
     0
 10
39.328594741629573
 20
-65.443996413434448
 30
0.0
 11
40.000000000000981
 21
-65.056360406778381
 31
0.0
  0
LINE
  5
1A9B
  8
0
 62
     0
 10
37.266371748867883
 20
-66.634621413434445
 30
0.0
 11
37.953779413121779
 21
-66.237746413434451
 31
0.0
  0
LINE
  5
1A9C
  8
0
 62
     0
 10
35.204148756106193
 20
-67.825246413434442
 30
0.0
 11
35.891556420360089
 21
-67.428371413434448
 31
0.0
  0
LINE
  5
1A9D
  8
0
 62
     0
 10
33.14192576334451
 20
-69.015871413434439
 30
0.0
 11
33.829333427598399
 21
-68.618996413434445
 31
0.0
  0
LINE
  5
1A9E
  8
0
 62
     0
 10
31.079702770582809
 20
-70.206496413434436
 30
0.0
 11
31.767110434836709
 21
-69.809621413434442
 31
0.0
  0
LINE
  5
1A9F
  8
0
 62
     0
 10
38.64118724163211
 20
-64.253371697928941
 30
0.0
 11
39.328594905886
 21
-63.856496697928932
 31
0.0
  0
LINE
  5
1AA0
  8
0
 62
     0
 10
36.57896424887042
 20
-65.443996697928938
 30
0.0
 11
37.26637191312431
 21
-65.047121697928944
 31
0.0
  0
LINE
  5
1AA1
  8
0
 62
     0
 10
34.516741256108723
 20
-66.634621697928935
 30
0.0
 11
35.20414892036262
 21
-66.237746697928941
 31
0.0
  0
LINE
  5
1AA2
  8
0
 62
     0
 10
32.454518263347033
 20
-67.825246697928932
 30
0.0
 11
33.14192592760093
 21
-67.428371697928938
 31
0.0
  0
LINE
  5
1AA3
  8
0
 62
     0
 10
30.39229527058534
 20
-69.01587169792893
 30
0.0
 11
31.07970293483924
 21
-68.618996697928935
 31
0.0
  0
LINE
  5
1AA4
  8
0
 62
     0
 10
28.33007227782365
 20
-70.206496697928927
 30
0.0
 11
29.017479942077539
 21
-69.809621697928932
 31
0.0
  0
LINE
  5
1AA5
  8
0
 62
     0
 10
37.953779741630157
 20
-63.062746982427058
 30
0.0
 11
38.641187405884061
 21
-62.66587198242707
 31
0.0
  0
LINE
  5
1AA6
  8
0
 62
     0
 10
35.891556748868467
 20
-64.253371982427069
 30
0.0
 11
36.578964413122371
 21
-63.856496982427068
 31
0.0
  0
LINE
  5
1AA7
  8
0
 62
     0
 10
33.829333756106777
 20
-65.443996982427066
 30
0.0
 11
34.516741420360667
 21
-65.047121982427072
 31
0.0
  0
LINE
  5
1AA8
  8
0
 62
     0
 10
31.767110763345091
 20
-66.634621982427063
 30
0.0
 11
32.454518427598977
 21
-66.237746982427069
 31
0.0
  0
LINE
  5
1AA9
  8
0
 62
     0
 10
29.70488777058339
 20
-67.825246982427061
 30
0.0
 11
30.39229543483729
 21
-67.428371982427066
 31
0.0
  0
LINE
  5
1AAA
  8
0
 62
     0
 10
27.6426647778217
 20
-69.015871982427043
 30
0.0
 11
28.3300724420756
 21
-68.618996982427063
 31
0.0
  0
LINE
  5
1AAB
  8
0
 62
     0
 10
25.58044178506001
 20
-70.206496982427055
 30
0.0
 11
26.267849449313911
 21
-69.809621982427061
 31
0.0
  0
LINE
  5
1AAC
  8
0
 62
     0
 10
39.328595234392481
 20
-60.681497266922079
 30
0.0
 11
40.000000000000867
 21
-60.293861544762883
 31
0.0
  0
LINE
  5
1AAD
  8
0
 62
     0
 10
37.266372241630783
 20
-61.872122266922091
 30
0.0
 11
37.95377990588468
 21
-61.475247266922089
 31
0.0
  0
LINE
  5
1AAE
  8
0
 62
     0
 10
35.204149248869093
 20
-63.062747266922088
 30
0.0
 11
35.89155691312299
 21
-62.665872266922086
 31
0.0
  0
LINE
  5
1AAF
  8
0
 62
     0
 10
33.141926256107404
 20
-64.253372266922099
 30
0.0
 11
33.8293339203613
 21
-63.856497266922098
 31
0.0
  0
LINE
  5
1AB0
  8
0
 62
     0
 10
31.079703263345721
 20
-65.443997266922096
 30
0.0
 11
31.76711092759961
 21
-65.047122266922102
 31
0.0
  0
LINE
  5
1AB1
  8
0
 62
     0
 10
29.01748027058402
 20
-66.634622266922094
 30
0.0
 11
29.70488793483792
 21
-66.237747266922099
 31
0.0
  0
LINE
  5
1AB2
  8
0
 62
     0
 10
26.95525727782233
 20
-67.825247266922091
 30
0.0
 11
27.64266494207622
 21
-67.428372266922096
 31
0.0
  0
LINE
  5
1AB3
  8
0
 62
     0
 10
25.000000373538569
 20
-68.954115366945189
 30
0.0
 11
25.58044194931453
 21
-68.618997266922094
 31
0.0
  0
LINE
  5
1AB4
  8
0
 62
     0
 10
38.641187734392211
 20
-59.490872551418207
 30
0.0
 11
39.328595398646108
 21
-59.093997551418198
 31
0.0
  0
LINE
  5
1AB5
  8
0
 62
     0
 10
36.578964741630521
 20
-60.681497551418211
 30
0.0
 11
37.266372405884418
 21
-60.284622551418209
 31
0.0
  0
LINE
  5
1AB6
  8
0
 62
     0
 10
34.516741748868832
 20
-61.872122551418222
 30
0.0
 11
35.204149413122728
 21
-61.475247551418207
 31
0.0
  0
LINE
  5
1AB7
  8
0
 62
     0
 10
32.454518756107142
 20
-63.062747551418219
 30
0.0
 11
33.141926420361038
 21
-62.665872551418211
 31
0.0
  0
LINE
  5
1AB8
  8
0
 62
     0
 10
30.392295763345452
 20
-64.253372551418224
 30
0.0
 11
31.079703427599348
 21
-63.856497551418222
 31
0.0
  0
LINE
  5
1AB9
  8
0
 62
     0
 10
28.330072770583762
 20
-65.443997551418221
 30
0.0
 11
29.017480434837651
 21
-65.047122551418227
 31
0.0
  0
LINE
  5
1ABA
  8
0
 62
     0
 10
26.267849777822061
 20
-66.634622551418218
 30
0.0
 11
26.955257442075961
 21
-66.237747551418224
 31
0.0
  0
LINE
  5
1ABB
  8
0
 62
     0
 10
37.953780234391708
 20
-58.300247835915229
 30
0.0
 11
38.641187898645612
 21
-57.903372835915228
 31
0.0
  0
LINE
  5
1ABC
  8
0
 62
     0
 10
35.891557241630018
 20
-59.490872835915241
 30
0.0
 11
36.578964905883922
 21
-59.093997835915239
 31
0.0
  0
LINE
  5
1ABD
  8
0
 62
     0
 10
33.829334248868328
 20
-60.681497835915252
 30
0.0
 11
34.516741913122232
 21
-60.284622835915243
 31
0.0
  0
LINE
  5
1ABE
  8
0
 62
     0
 10
31.767111256106642
 20
-61.872122835915249
 30
0.0
 11
32.454518920360528
 21
-61.475247835915241
 31
0.0
  0
LINE
  5
1ABF
  8
0
 62
     0
 10
29.704888263344941
 20
-63.06274783591526
 30
0.0
 11
30.392295927598841
 21
-62.665872835915252
 31
0.0
  0
LINE
  5
1AC0
  8
0
 62
     0
 10
27.642665270583251
 20
-64.253372835915258
 30
0.0
 11
28.330072934837141
 21
-63.856497835915249
 31
0.0
  0
LINE
  5
1AC1
  8
0
 62
     0
 10
25.580442277821561
 20
-65.443997835915255
 30
0.0
 11
26.267849942075451
 21
-65.04712283591526
 31
0.0
  0
LINE
  5
1AC2
  8
0
 62
     0
 10
39.32859572715612
 20
-55.918998120408439
 30
0.0
 11
39.999999999999311
 21
-55.531362682747357
 31
0.0
  0
LINE
  5
1AC3
  8
0
 62
     0
 10
37.266372734394423
 20
-57.10962312040845
 30
0.0
 11
37.95378039864832
 21
-56.712748120408442
 31
0.0
  0
LINE
  5
1AC4
  8
0
 62
     0
 10
35.204149741632733
 20
-58.300248120408448
 30
0.0
 11
35.89155740588663
 21
-57.903373120408439
 31
0.0
  0
LINE
  5
1AC5
  8
0
 62
     0
 10
33.14192674887105
 20
-59.490873120408452
 30
0.0
 11
33.82933441312494
 21
-59.09399812040845
 31
0.0
  0
LINE
  5
1AC6
  8
0
 62
     0
 10
31.07970375610935
 20
-60.681498120408463
 30
0.0
 11
31.76711142036325
 21
-60.284623120408448
 31
0.0
  0
LINE
  5
1AC7
  8
0
 62
     0
 10
29.017480763347649
 20
-61.87212312040846
 30
0.0
 11
29.704888427601549
 21
-61.475248120408452
 31
0.0
  0
LINE
  5
1AC8
  8
0
 62
     0
 10
26.955257770585959
 20
-63.062748120408472
 30
0.0
 11
27.642665434839859
 21
-62.665873120408463
 31
0.0
  0
LINE
  5
1AC9
  8
0
 62
     0
 10
25.000000373538569
 20
-64.191616504928788
 30
0.0
 11
25.580442442078169
 21
-63.85649812040846
 31
0.0
  0
LINE
  5
1ACA
  8
0
 62
     0
 10
38.641188227156093
 20
-54.728373404906392
 30
0.0
 11
39.328595891409989
 21
-54.331498404906391
 31
0.0
  0
LINE
  5
1ACB
  8
0
 62
     0
 10
36.578965234394403
 20
-55.918998404906397
 30
0.0
 11
37.266372898648299
 21
-55.522123404906402
 31
0.0
  0
LINE
  5
1ACC
  8
0
 62
     0
 10
34.51674224163272
 20
-57.109623404906401
 30
0.0
 11
35.204149905886609
 21
-56.712748404906399
 31
0.0
  0
LINE
  5
1ACD
  8
0
 62
     0
 10
32.454519248871023
 20
-58.300248404906398
 30
0.0
 11
33.141926913124919
 21
-57.903373404906411
 31
0.0
  0
LINE
  5
1ACE
  8
0
 62
     0
 10
30.392296256109329
 20
-59.490873404906409
 30
0.0
 11
31.079703920363229
 21
-59.093998404906408
 31
0.0
  0
LINE
  5
1ACF
  8
0
 62
     0
 10
28.330073263347639
 20
-60.681498404906407
 30
0.0
 11
29.017480927601529
 21
-60.284623404906412
 31
0.0
  0
LINE
  5
1AD0
  8
0
 62
     0
 10
26.267850270585939
 20
-61.872123404906418
 30
0.0
 11
26.955257934839839
 21
-61.475248404906417
 31
0.0
  0
LINE
  5
1AD1
  8
0
 62
     0
 10
37.95378072715377
 20
-53.537748689403429
 30
0.0
 11
38.641188391407667
 21
-53.140873689403421
 31
0.0
  0
LINE
  5
1AD2
  8
0
 62
     0
 10
35.89155773439208
 20
-54.728373689403433
 30
0.0
 11
36.578965398645977
 21
-54.331498689403432
 31
0.0
  0
LINE
  5
1AD3
  8
0
 62
     0
 10
33.82933474163039
 20
-55.918998689403438
 30
0.0
 11
34.516742405884287
 21
-55.522123689403429
 31
0.0
  0
LINE
  5
1AD4
  8
0
 62
     0
 10
31.7671117488687
 20
-57.109623689403442
 30
0.0
 11
32.454519413122597
 21
-56.71274868940344
 31
0.0
  0
LINE
  5
1AD5
  8
0
 62
     0
 10
29.704888756107
 20
-58.300248689403453
 30
0.0
 11
30.3922964203609
 21
-57.903373689403452
 31
0.0
  0
LINE
  5
1AD6
  8
0
 62
     0
 10
27.64266576334531
 20
-59.49087368940345
 30
0.0
 11
28.33007342759921
 21
-59.093998689403449
 31
0.0
  0
LINE
  5
1AD7
  8
0
 62
     0
 10
25.58044277058362
 20
-60.681498689403448
 30
0.0
 11
26.26785043483752
 21
-60.28462368940346
 31
0.0
  0
LINE
  5
1AD8
  8
0
 62
     0
 10
39.328596219915269
 20
-51.15649897389936
 30
0.0
 11
40.000000000001123
 21
-50.768863820731873
 31
0.0
  0
LINE
  5
1AD9
  8
0
 62
     0
 10
37.266373227153579
 20
-52.347123973899372
 30
0.0
 11
37.953780891407483
 21
-51.95024897389937
 31
0.0
  0
LINE
  5
1ADA
  8
0
 62
     0
 10
35.204150234391889
 20
-53.537748973899369
 30
0.0
 11
35.891557898645793
 21
-53.140873973899367
 31
0.0
  0
LINE
  5
1ADB
  8
0
 62
     0
 10
33.141927241630199
 20
-54.72837397389938
 30
0.0
 11
33.829334905884103
 21
-54.331498973899379
 31
0.0
  0
LINE
  5
1ADC
  8
0
 62
     0
 10
31.079704248868509
 20
-55.918998973899377
 30
0.0
 11
31.767111913122399
 21
-55.522123973899383
 31
0.0
  0
LINE
  5
1ADD
  8
0
 62
     0
 10
29.017481256106809
 20
-57.109623973899389
 30
0.0
 11
29.704888920360709
 21
-56.71274897389938
 31
0.0
  0
LINE
  5
1ADE
  8
0
 62
     0
 10
26.955258263345119
 20
-58.3002489738994
 30
0.0
 11
27.642665927599019
 21
-57.903373973899392
 31
0.0
  0
LINE
  5
1ADF
  8
0
 62
     0
 10
25.000000373540392
 20
-59.429117642913297
 30
0.0
 11
25.580442934837318
 21
-59.093998973899389
 31
0.0
  0
LINE
  5
1AE0
  8
0
 62
     0
 10
36.57896572715174
 20
-51.156499258396408
 30
0.0
 11
37.266373391405637
 21
-50.759624258396407
 31
0.0
  0
LINE
  5
1AE1
  8
0
 62
     0
 10
34.51674273439005
 20
-52.34712425839642
 30
0.0
 11
35.204150398643947
 21
-51.950249258396418
 31
0.0
  0
LINE
  5
1AE2
  8
0
 62
     0
 10
32.45451974162836
 20
-53.537749258396417
 30
0.0
 11
33.141927405882257
 21
-53.140874258396423
 31
0.0
  0
LINE
  5
1AE3
  8
0
 62
     0
 10
30.39229674886667
 20
-54.728374258396421
 30
0.0
 11
31.07970441312057
 21
-54.331499258396427
 31
0.0
  0
LINE
  5
1AE4
  8
0
 62
     0
 10
28.33007375610498
 20
-55.918999258396433
 30
0.0
 11
29.01748142035887
 21
-55.522124258396431
 31
0.0
  0
LINE
  5
1AE5
  8
0
 62
     0
 10
26.267850763343279
 20
-57.10962425839643
 30
0.0
 11
26.95525842759718
 21
-56.712749258396428
 31
0.0
  0
LINE
  5
1AE6
  8
0
 62
     0
 10
33.829335234392197
 20
-51.156499542889819
 30
0.0
 11
34.5167428986461
 21
-50.759624542889817
 31
0.0
  0
LINE
  5
1AE7
  8
0
 62
     0
 10
31.767112241630521
 20
-52.347124542889823
 30
0.0
 11
32.45451990588441
 21
-51.950249542889821
 31
0.0
  0
LINE
  5
1AE8
  8
0
 62
     0
 10
29.70488924886882
 20
-53.537749542889827
 30
0.0
 11
30.392296913122721
 21
-53.140874542889833
 31
0.0
  0
LINE
  5
1AE9
  8
0
 62
     0
 10
27.64266625610713
 20
-54.728374542889831
 30
0.0
 11
28.330073920361031
 21
-54.33149954288983
 31
0.0
  0
LINE
  5
1AEA
  8
0
 62
     0
 10
25.58044326334544
 20
-55.918999542889829
 30
0.0
 11
26.26785092759933
 21
-55.522124542889841
 31
0.0
  0
LINE
  5
1AEB
  8
0
 62
     0
 10
31.079704741629239
 20
-51.156499827388487
 30
0.0
 11
31.767112405883129
 21
-50.759624827388492
 31
0.0
  0
LINE
  5
1AEC
  8
0
 62
     0
 10
29.017481748867539
 20
-52.347124827388491
 30
0.0
 11
29.704889413121439
 21
-51.950249827388497
 31
0.0
  0
LINE
  5
1AED
  8
0
 62
     0
 10
26.955258756105849
 20
-53.537749827388502
 30
0.0
 11
27.642666420359749
 21
-53.140874827388501
 31
0.0
  0
LINE
  5
1AEE
  8
0
 62
     0
 10
25.00000037354221
 20
-54.666618780896897
 30
0.0
 11
25.580443427598048
 21
-54.331499827388498
 31
0.0
  0
LINE
  5
1AEF
  8
0
 62
     0
 10
28.330074248868371
 20
-51.156500111882814
 30
0.0
 11
29.017481913122261
 21
-50.759625111882812
 31
0.0
  0
LINE
  5
1AF0
  8
0
 62
     0
 10
26.26785125610667
 20
-52.347125111882811
 30
0.0
 11
26.955258920360571
 21
-51.950250111882809
 31
0.0
  0
LINE
  5
1AF1
  8
0
 62
     0
 10
25.58044375610617
 20
-51.156500396379847
 30
0.0
 11
26.26785142036006
 21
-50.759625396379853
 31
0.0
  0
LINE
  5
1AF2
  8
0
 62
     0
 10
25.000000373539301
 20
-69.874887003779847
 30
0.0
 11
25.577373522241238
 21
-70.208233546605769
 31
0.0
  0
LINE
  5
1AF3
  8
0
 62
     0
 10
27.639596350750011
 20
-69.81135883110268
 30
0.0
 11
28.327004015003912
 21
-70.208233831102675
 31
0.0
  0
LINE
  5
1AF4
  8
0
 62
     0
 10
25.577373357988321
 20
-68.620733831102683
 30
0.0
 11
26.264781022242211
 21
-69.017608831102663
 31
0.0
  0
LINE
  5
1AF5
  8
0
 62
     0
 10
30.38922684351132
 20
-69.811359115598805
 30
0.0
 11
31.07663450776522
 21
-70.208234115598813
 31
0.0
  0
LINE
  5
1AF6
  8
0
 62
     0
 10
28.32700385074963
 20
-68.620734115598822
 30
0.0
 11
29.01441151500353
 21
-69.017609115598816
 31
0.0
  0
LINE
  5
1AF7
  8
0
 62
     0
 10
26.26478085798794
 20
-67.430109115598825
 30
0.0
 11
26.95218852224183
 21
-67.826984115598819
 31
0.0
  0
LINE
  5
1AF8
  8
0
 62
     0
 10
33.138857336272622
 20
-69.811359400094958
 30
0.0
 11
33.826265000526519
 21
-70.208234400094952
 31
0.0
  0
LINE
  5
1AF9
  8
0
 62
     0
 10
31.076634343510928
 20
-68.62073440009496
 30
0.0
 11
31.764042007764829
 21
-69.017609400094955
 31
0.0
  0
LINE
  5
1AFA
  8
0
 62
     0
 10
29.014411350749238
 20
-67.430109400094963
 30
0.0
 11
29.701819015003139
 21
-67.826984400094958
 31
0.0
  0
LINE
  5
1AFB
  8
0
 62
     0
 10
26.952188357987549
 20
-66.239484400094966
 30
0.0
 11
27.639596022241442
 21
-66.63635940009496
 31
0.0
  0
LINE
  5
1AFC
  8
0
 62
     0
 10
25.000000373538171
 20
-65.11238814176437
 30
0.0
 11
25.577373029479752
 21
-65.445734400094963
 31
0.0
  0
LINE
  5
1AFD
  8
0
 62
     0
 10
35.888487829033892
 20
-69.811359684591054
 30
0.0
 11
36.575895493287788
 21
-70.208234684591048
 31
0.0
  0
LINE
  5
1AFE
  8
0
 62
     0
 10
33.826264836272202
 20
-68.620734684591056
 30
0.0
 11
34.513672500526098
 21
-69.017609684591051
 31
0.0
  0
LINE
  5
1AFF
  8
0
 62
     0
 10
31.764041843510508
 20
-67.430109684591059
 30
0.0
 11
32.451449507764409
 21
-67.826984684591054
 31
0.0
  0
LINE
  5
1B00
  8
0
 62
     0
 10
29.701818850748818
 20
-66.239484684591062
 30
0.0
 11
30.389226515002719
 21
-66.636359684591056
 31
0.0
  0
LINE
  5
1B01
  8
0
 62
     0
 10
27.639595857987121
 20
-65.048859684591065
 30
0.0
 11
28.327003522241021
 21
-65.445734684591045
 31
0.0
  0
LINE
  5
1B02
  8
0
 62
     0
 10
25.577372865225431
 20
-63.858234684591068
 30
0.0
 11
26.264780529479332
 21
-64.255109684591062
 31
0.0
  0
LINE
  5
1B03
  8
0
 62
     0
 10
38.638118321795631
 20
-69.811359969086382
 30
0.0
 11
39.32552598604952
 21
-70.208234969086377
 31
0.0
  0
LINE
  5
1B04
  8
0
 62
     0
 10
36.575895329033941
 20
-68.620734969086385
 30
0.0
 11
37.26330299328783
 21
-69.017609969086379
 31
0.0
  0
LINE
  5
1B05
  8
0
 62
     0
 10
34.513672336272244
 20
-67.430109969086388
 30
0.0
 11
35.20108000052614
 21
-67.826984969086382
 31
0.0
  0
LINE
  5
1B06
  8
0
 62
     0
 10
32.451449343510554
 20
-66.239484969086391
 30
0.0
 11
33.13885700776445
 21
-66.636359969086385
 31
0.0
  0
LINE
  5
1B07
  8
0
 62
     0
 10
30.38922635074886
 20
-65.048859969086394
 30
0.0
 11
31.07663401500276
 21
-65.445734969086388
 31
0.0
  0
LINE
  5
1B08
  8
0
 62
     0
 10
28.32700335798717
 20
-63.858234969086389
 30
0.0
 11
29.01441102224107
 21
-64.255109969086391
 31
0.0
  0
LINE
  5
1B09
  8
0
 62
     0
 10
26.26478036522548
 20
-62.667609969086399
 30
0.0
 11
26.95218802947938
 21
-63.064484969086401
 31
0.0
  0
LINE
  5
1B0A
  8
0
 62
     0
 10
39.325525821796603
 20
-68.620735253583305
 30
0.0
 11
39.999999999999623
 21
-69.010143101930254
 31
0.0
  0
LINE
  5
1B0B
  8
0
 62
     0
 10
37.26330282903492
 20
-67.430110253583308
 30
0.0
 11
37.95071049328881
 21
-67.826985253583302
 31
0.0
  0
LINE
  5
1B0C
  8
0
 62
     0
 10
35.20107983627323
 20
-66.239485253583311
 30
0.0
 11
35.88848750052712
 21
-66.636360253583305
 31
0.0
  0
LINE
  5
1B0D
  8
0
 62
     0
 10
33.138856843511533
 20
-65.048860253583314
 30
0.0
 11
33.82626450776543
 21
-65.445735253583294
 31
0.0
  0
LINE
  5
1B0E
  8
0
 62
     0
 10
31.07663385074984
 20
-63.858235253583317
 30
0.0
 11
31.76404151500374
 21
-64.255110253583311
 31
0.0
  0
LINE
  5
1B0F
  8
0
 62
     0
 10
29.01441085798815
 20
-62.667610253583319
 30
0.0
 11
29.70181852224205
 21
-63.064485253583321
 31
0.0
  0
LINE
  5
1B10
  8
0
 62
     0
 10
26.95218786522646
 20
-61.476985253583322
 30
0.0
 11
27.63959552948036
 21
-61.873860253583317
 31
0.0
  0
LINE
  5
1B11
  8
0
 62
     0
 10
25.000000373538089
 20
-60.349889279748417
 30
0.0
 11
25.577372536718659
 21
-60.683235253583327
 31
0.0
  0
LINE
  5
1B12
  8
0
 62
     0
 10
37.950710329034571
 20
-66.239485538079464
 30
0.0
 11
38.638117993288468
 21
-66.636360538079444
 31
0.0
  0
LINE
  5
1B13
  8
0
 62
     0
 10
35.888487336272881
 20
-65.048860538079467
 30
0.0
 11
36.575895000526778
 21
-65.445735538079461
 31
0.0
  0
LINE
  5
1B14
  8
0
 62
     0
 10
33.826264343511191
 20
-63.85823553807947
 30
0.0
 11
34.513672007765088
 21
-64.255110538079464
 31
0.0
  0
LINE
  5
1B15
  8
0
 62
     0
 10
31.764041350749501
 20
-62.667610538079472
 30
0.0
 11
32.451449015003398
 21
-63.064485538079467
 31
0.0
  0
LINE
  5
1B16
  8
0
 62
     0
 10
29.701818357987811
 20
-61.476985538079482
 30
0.0
 11
30.389226022241701
 21
-61.873860538079477
 31
0.0
  0
LINE
  5
1B17
  8
0
 62
     0
 10
27.639595365226111
 20
-60.286360538079471
 30
0.0
 11
28.327003029480011
 21
-60.683235538079479
 31
0.0
  0
LINE
  5
1B18
  8
0
 62
     0
 10
25.577372372464421
 20
-59.095735538079481
 30
0.0
 11
26.264780036718321
 21
-59.492610538079482
 31
0.0
  0
LINE
  5
1B19
  8
0
 62
     0
 10
38.638117829034151
 20
-65.048860822575577
 30
0.0
 11
39.325525493288048
 21
-65.445735822575571
 31
0.0
  0
LINE
  5
1B1A
  8
0
 62
     0
 10
36.575894836272461
 20
-63.858235822575573
 30
0.0
 11
37.263302500526358
 21
-64.255110822575574
 31
0.0
  0
LINE
  5
1B1B
  8
0
 62
     0
 10
34.513671843510771
 20
-62.667610822575583
 30
0.0
 11
35.201079507764668
 21
-63.064485822575591
 31
0.0
  0
LINE
  5
1B1C
  8
0
 62
     0
 10
32.451448850749081
 20
-61.476985822575578
 30
0.0
 11
33.138856515002978
 21
-61.873860822575587
 31
0.0
  0
LINE
  5
1B1D
  8
0
 62
     0
 10
30.389225857987391
 20
-60.286360822575588
 30
0.0
 11
31.076633522241291
 21
-60.683235822575583
 31
0.0
  0
LINE
  5
1B1E
  8
0
 62
     0
 10
28.327002865225701
 20
-59.095735822575591
 30
0.0
 11
29.014410529479591
 21
-59.492610822575593
 31
0.0
  0
LINE
  5
1B1F
  8
0
 62
     0
 10
26.264779872464011
 20
-57.905110822575587
 30
0.0
 11
26.952187536717901
 21
-58.301985822575588
 31
0.0
  0
LINE
  5
1B20
  8
0
 62
     0
 10
39.325525329034221
 20
-63.858236107070923
 30
0.0
 11
40.00000000000032
 21
-64.247644239914791
 31
0.0
  0
LINE
  5
1B21
  8
0
 62
     0
 10
37.263302336272531
 20
-62.667611107070933
 30
0.0
 11
37.950710000526421
 21
-63.064486107070927
 31
0.0
  0
LINE
  5
1B22
  8
0
 62
     0
 10
35.201079343510827
 20
-61.476986107070928
 30
0.0
 11
35.888487007764731
 21
-61.87386110707093
 31
0.0
  0
LINE
  5
1B23
  8
0
 62
     0
 10
33.138856350749137
 20
-60.286361107070931
 30
0.0
 11
33.826264015003041
 21
-60.683236107070933
 31
0.0
  0
LINE
  5
1B24
  8
0
 62
     0
 10
31.076633357987461
 20
-59.095736107070927
 30
0.0
 11
31.764041022241351
 21
-59.492611107070942
 31
0.0
  0
LINE
  5
1B25
  8
0
 62
     0
 10
29.014410365225761
 20
-57.90511110707093
 30
0.0
 11
29.701818029479661
 21
-58.301986107070931
 31
0.0
  0
LINE
  5
1B26
  8
0
 62
     0
 10
26.952187372464071
 20
-56.71448610707094
 30
0.0
 11
27.63959503671796
 21
-57.111361107070941
 31
0.0
  0
LINE
  5
1B27
  8
0
 62
     0
 10
25.000000373538771
 20
-55.587390417732927
 30
0.0
 11
25.57737204395627
 21
-55.920736107070937
 31
0.0
  0
LINE
  5
1B28
  8
0
 62
     0
 10
37.950709836273489
 20
-61.476986391567827
 30
0.0
 11
38.638117500527393
 21
-61.873861391567829
 31
0.0
  0
LINE
  5
1B29
  8
0
 62
     0
 10
35.888486843511799
 20
-60.286361391567837
 30
0.0
 11
36.575894507765703
 21
-60.683236391567831
 31
0.0
  0
LINE
  5
1B2A
  8
0
 62
     0
 10
33.826263850750109
 20
-59.09573639156784
 30
0.0
 11
34.513671515004013
 21
-59.492611391567841
 31
0.0
  0
LINE
  5
1B2B
  8
0
 62
     0
 10
31.764040857988419
 20
-57.905111391567843
 30
0.0
 11
32.451448522242323
 21
-58.301986391567837
 31
0.0
  0
LINE
  5
1B2C
  8
0
 62
     0
 10
29.701817865226719
 20
-56.714486391567853
 30
0.0
 11
30.389225529480619
 21
-57.111361391567847
 31
0.0
  0
LINE
  5
1B2D
  8
0
 62
     0
 10
27.639594872465029
 20
-55.523861391567849
 30
0.0
 11
28.327002536718929
 21
-55.92073639156785
 31
0.0
  0
LINE
  5
1B2E
  8
0
 62
     0
 10
25.577371879703339
 20
-54.333236391567851
 30
0.0
 11
26.264779543957228
 21
-54.730111391567853
 31
0.0
  0
LINE
  5
1B2F
  8
0
 62
     0
 10
38.63811733627314
 20
-60.286361676063969
 30
0.0
 11
39.32552500052703
 21
-60.683236676063977
 31
0.0
  0
LINE
  5
1B30
  8
0
 62
     0
 10
36.57589434351145
 20
-59.095736676063979
 30
0.0
 11
37.26330200776534
 21
-59.49261167606398
 31
0.0
  0
LINE
  5
1B31
  8
0
 62
     0
 10
34.513671350749753
 20
-57.905111676063981
 30
0.0
 11
35.20107901500365
 21
-58.301986676063983
 31
0.0
  0
LINE
  5
1B32
  8
0
 62
     0
 10
32.451448357988063
 20
-56.714486676063977
 30
0.0
 11
33.13885602224196
 21
-57.111361676063979
 31
0.0
  0
LINE
  5
1B33
  8
0
 62
     0
 10
30.38922536522637
 20
-55.523861676063987
 30
0.0
 11
31.07663302948027
 21
-55.920736676063989
 31
0.0
  0
LINE
  5
1B34
  8
0
 62
     0
 10
28.32700237246468
 20
-54.33323667606399
 30
0.0
 11
29.014410036718569
 21
-54.730111676063991
 31
0.0
  0
LINE
  5
1B35
  8
0
 62
     0
 10
26.26477937970299
 20
-53.142611676063993
 30
0.0
 11
26.95218704395689
 21
-53.539486676063987
 31
0.0
  0
LINE
  5
1B36
  8
0
 62
     0
 10
39.32552483627272
 20
-59.095736960560089
 30
0.0
 11
39.99999999999838
 21
-59.485145377898817
 31
0.0
  0
LINE
  5
1B37
  8
0
 62
     0
 10
37.26330184351103
 20
-57.905111960560092
 30
0.0
 11
37.950709507764927
 21
-58.301986960560093
 31
0.0
  0
LINE
  5
1B38
  8
0
 62
     0
 10
35.20107885074934
 20
-56.714486960560087
 30
0.0
 11
35.888486515003237
 21
-57.111361960560103
 31
0.0
  0
LINE
  5
1B39
  8
0
 62
     0
 10
33.13885585798765
 20
-55.52386196056009
 30
0.0
 11
33.826263522241547
 21
-55.920736960560099
 31
0.0
  0
LINE
  5
1B3A
  8
0
 62
     0
 10
31.07663286522596
 20
-54.3332369605601
 30
0.0
 11
31.76404052947985
 21
-54.730111960560102
 31
0.0
  0
LINE
  5
1B3B
  8
0
 62
     0
 10
29.01440987246426
 20
-53.142611960560103
 30
0.0
 11
29.70181753671816
 21
-53.539486960560097
 31
0.0
  0
LINE
  5
1B3C
  8
0
 62
     0
 10
26.95218687970257
 20
-51.951986960560099
 30
0.0
 11
27.63959454395647
 21
-52.3488619605601
 31
0.0
  0
LINE
  5
1B3D
  8
0
 62
     0
 10
25.000000373537659
 20
-50.824891555717443
 30
0.0
 11
25.57737155119478
 21
-51.15823696056011
 31
0.0
  0
LINE
  5
1B3E
  8
0
 62
     0
 10
37.95070934351061
 20
-56.714487245056198
 30
0.0
 11
38.638117007764507
 21
-57.111362245056199
 31
0.0
  0
LINE
  5
1B3F
  8
0
 62
     0
 10
35.88848635074892
 20
-55.523862245056208
 30
0.0
 11
36.575894015002817
 21
-55.920737245056202
 31
0.0
  0
LINE
  5
1B40
  8
0
 62
     0
 10
33.82626335798723
 20
-54.33323724505621
 30
0.0
 11
34.513671022241127
 21
-54.730112245056212
 31
0.0
  0
LINE
  5
1B41
  8
0
 62
     0
 10
31.76404036522554
 20
-53.142612245056213
 30
0.0
 11
32.451448029479437
 21
-53.539487245056208
 31
0.0
  0
LINE
  5
1B42
  8
0
 62
     0
 10
29.70181737246385
 20
-51.951987245056223
 30
0.0
 11
30.38922503671774
 21
-52.348862245056218
 31
0.0
  0
LINE
  5
1B43
  8
0
 62
     0
 10
27.639594379702149
 20
-50.761362245056219
 30
0.0
 11
28.32700204395605
 21
-51.15823724505622
 31
0.0
  0
LINE
  5
1B44
  8
0
 62
     0
 10
38.638116843510723
 20
-55.523862529551579
 30
0.0
 11
39.325524507764612
 21
-55.92073752955158
 31
0.0
  0
LINE
  5
1B45
  8
0
 62
     0
 10
36.575893850749033
 20
-54.333237529551582
 30
0.0
 11
37.263301515002922
 21
-54.730112529551583
 31
0.0
  0
LINE
  5
1B46
  8
0
 62
     0
 10
34.513670857987343
 20
-53.142612529551592
 30
0.0
 11
35.201078522241239
 21
-53.539487529551579
 31
0.0
  0
LINE
  5
1B47
  8
0
 62
     0
 10
32.451447865225653
 20
-51.951987529551587
 30
0.0
 11
33.138855529479542
 21
-52.348862529551589
 31
0.0
  0
LINE
  5
1B48
  8
0
 62
     0
 10
30.389224872463959
 20
-50.76136252955159
 30
0.0
 11
31.076632536717849
 21
-51.158237529551592
 31
0.0
  0
LINE
  5
1B49
  8
0
 62
     0
 10
39.325524343511688
 20
-54.333237814048481
 30
0.0
 11
39.999999999999112
 21
-54.722646515883348
 31
0.0
  0
LINE
  5
1B4A
  8
0
 62
     0
 10
37.263301350749998
 20
-53.142612814048491
 30
0.0
 11
37.950709015003902
 21
-53.539487814048492
 31
0.0
  0
LINE
  5
1B4B
  8
0
 62
     0
 10
35.201078357988308
 20
-51.951987814048493
 30
0.0
 11
35.888486022242212
 21
-52.348862814048502
 31
0.0
  0
LINE
  5
1B4C
  8
0
 62
     0
 10
33.138855365226618
 20
-50.761362814048489
 30
0.0
 11
33.826263029480522
 21
-51.158237814048491
 31
0.0
  0
LINE
  5
1B4D
  8
0
 62
     0
 10
37.950708850749592
 20
-51.951988098544597
 30
0.0
 11
38.638116515003489
 21
-52.348863098544598
 31
0.0
  0
LINE
  5
1B4E
  8
0
 62
     0
 10
35.888485857987902
 20
-50.761363098544606
 30
0.0
 11
36.575893522241799
 21
-51.158238098544608
 31
0.0
  0
LINE
  5
1B4F
  8
0
 62
     0
 10
38.638116350749179
 20
-50.76136338304071
 30
0.0
 11
39.325524015003083
 21
-51.158238383040718
 31
0.0
  0
LINE
  5
1B50
  8
0
 62
     0
 10
38.638146409220099
 20
-50.757833070972602
 30
0.0
 11
38.638146409220099
 21
-50.413648530766267
 31
0.0
  0
LINE
  5
1B51
  8
0
 62
     0
 10
38.638146409220099
 20
-53.13908307097261
 30
0.0
 11
38.638146409220099
 21
-52.345333070972607
 31
0.0
  0
LINE
  5
1B52
  8
0
 62
     0
 10
38.638146409220099
 20
-55.520333070972612
 30
0.0
 11
38.638146409220099
 21
-54.726583070972609
 31
0.0
  0
LINE
  5
1B53
  8
0
 62
     0
 10
38.638146409220099
 20
-57.901583070972613
 30
0.0
 11
38.638146409220099
 21
-57.10783307097261
 31
0.0
  0
LINE
  5
1B54
  8
0
 62
     0
 10
38.638146409220099
 20
-60.282833070972607
 30
0.0
 11
38.638146409220099
 21
-59.489083070972612
 31
0.0
  0
LINE
  5
1B55
  8
0
 62
     0
 10
38.638146409220099
 20
-62.664083070972609
 30
0.0
 11
38.638146409220099
 21
-61.870333070972613
 31
0.0
  0
LINE
  5
1B56
  8
0
 62
     0
 10
38.638146409220099
 20
-65.045333070972603
 30
0.0
 11
38.638146409220099
 21
-64.251583070972615
 31
0.0
  0
LINE
  5
1B57
  8
0
 62
     0
 10
38.638146409220099
 20
-67.426583070972626
 30
0.0
 11
38.638146409220099
 21
-66.632833070972623
 31
0.0
  0
LINE
  5
1B58
  8
0
 62
     0
 10
38.638146409220099
 20
-69.807833070972634
 30
0.0
 11
38.638146409220099
 21
-69.014083070972632
 31
0.0
  0
LINE
  5
1B59
  8
0
 62
     0
 10
37.263331409219063
 20
-50.757833070972602
 30
0.0
 11
37.263331409219063
 21
-50.413648530766267
 31
0.0
  0
LINE
  5
1B5A
  8
0
 62
     0
 10
37.263331409219063
 20
-53.13908307097261
 30
0.0
 11
37.263331409219063
 21
-52.345333070972607
 31
0.0
  0
LINE
  5
1B5B
  8
0
 62
     0
 10
37.263331409219063
 20
-55.520333070972612
 30
0.0
 11
37.263331409219063
 21
-54.726583070972609
 31
0.0
  0
LINE
  5
1B5C
  8
0
 62
     0
 10
37.263331409219063
 20
-57.901583070972613
 30
0.0
 11
37.263331409219063
 21
-57.10783307097261
 31
0.0
  0
LINE
  5
1B5D
  8
0
 62
     0
 10
37.263331409219063
 20
-60.282833070972607
 30
0.0
 11
37.263331409219063
 21
-59.489083070972612
 31
0.0
  0
LINE
  5
1B5E
  8
0
 62
     0
 10
37.263331409219063
 20
-62.664083070972609
 30
0.0
 11
37.263331409219063
 21
-61.870333070972613
 31
0.0
  0
LINE
  5
1B5F
  8
0
 62
     0
 10
37.263331409219063
 20
-65.045333070972603
 30
0.0
 11
37.263331409219063
 21
-64.251583070972615
 31
0.0
  0
LINE
  5
1B60
  8
0
 62
     0
 10
37.263331409219063
 20
-67.426583070972626
 30
0.0
 11
37.263331409219063
 21
-66.632833070972623
 31
0.0
  0
LINE
  5
1B61
  8
0
 62
     0
 10
37.263331409219063
 20
-69.807833070972634
 30
0.0
 11
37.263331409219063
 21
-69.014083070972632
 31
0.0
  0
LINE
  5
1B62
  8
0
 62
     0
 10
35.888516409219847
 20
-50.757833070972602
 30
0.0
 11
35.888516409219847
 21
-50.413648530766267
 31
0.0
  0
LINE
  5
1B63
  8
0
 62
     0
 10
35.888516409219847
 20
-53.13908307097261
 30
0.0
 11
35.888516409219847
 21
-52.345333070972607
 31
0.0
  0
LINE
  5
1B64
  8
0
 62
     0
 10
35.888516409219847
 20
-55.520333070972612
 30
0.0
 11
35.888516409219847
 21
-54.726583070972609
 31
0.0
  0
LINE
  5
1B65
  8
0
 62
     0
 10
35.888516409219847
 20
-57.901583070972613
 30
0.0
 11
35.888516409219847
 21
-57.10783307097261
 31
0.0
  0
LINE
  5
1B66
  8
0
 62
     0
 10
35.888516409219847
 20
-60.282833070972607
 30
0.0
 11
35.888516409219847
 21
-59.489083070972612
 31
0.0
  0
LINE
  5
1B67
  8
0
 62
     0
 10
35.888516409219847
 20
-62.664083070972609
 30
0.0
 11
35.888516409219847
 21
-61.870333070972613
 31
0.0
  0
LINE
  5
1B68
  8
0
 62
     0
 10
35.888516409219847
 20
-65.045333070972603
 30
0.0
 11
35.888516409219847
 21
-64.251583070972615
 31
0.0
  0
LINE
  5
1B69
  8
0
 62
     0
 10
35.888516409219847
 20
-67.426583070972626
 30
0.0
 11
35.888516409219847
 21
-66.632833070972623
 31
0.0
  0
LINE
  5
1B6A
  8
0
 62
     0
 10
35.888516409219847
 20
-69.807833070972634
 30
0.0
 11
35.888516409219847
 21
-69.014083070972632
 31
0.0
  0
LINE
  5
1B6B
  8
0
 62
     0
 10
34.513701409218811
 20
-50.757833070972602
 30
0.0
 11
34.513701409218811
 21
-50.413648530766267
 31
0.0
  0
LINE
  5
1B6C
  8
0
 62
     0
 10
34.513701409218811
 20
-53.13908307097261
 30
0.0
 11
34.513701409218811
 21
-52.345333070972607
 31
0.0
  0
LINE
  5
1B6D
  8
0
 62
     0
 10
34.513701409218811
 20
-55.520333070972612
 30
0.0
 11
34.513701409218811
 21
-54.726583070972609
 31
0.0
  0
LINE
  5
1B6E
  8
0
 62
     0
 10
34.513701409218811
 20
-57.901583070972613
 30
0.0
 11
34.513701409218811
 21
-57.10783307097261
 31
0.0
  0
LINE
  5
1B6F
  8
0
 62
     0
 10
34.513701409218811
 20
-60.282833070972607
 30
0.0
 11
34.513701409218811
 21
-59.489083070972612
 31
0.0
  0
LINE
  5
1B70
  8
0
 62
     0
 10
34.513701409218811
 20
-62.664083070972609
 30
0.0
 11
34.513701409218811
 21
-61.870333070972613
 31
0.0
  0
LINE
  5
1B71
  8
0
 62
     0
 10
34.513701409218811
 20
-65.045333070972603
 30
0.0
 11
34.513701409218811
 21
-64.251583070972615
 31
0.0
  0
LINE
  5
1B72
  8
0
 62
     0
 10
34.513701409218811
 20
-67.426583070972626
 30
0.0
 11
34.513701409218811
 21
-66.632833070972623
 31
0.0
  0
LINE
  5
1B73
  8
0
 62
     0
 10
34.513701409218811
 20
-69.807833070972634
 30
0.0
 11
34.513701409218811
 21
-69.014083070972632
 31
0.0
  0
LINE
  5
1B74
  8
0
 62
     0
 10
33.138886409219587
 20
-50.757833070972602
 30
0.0
 11
33.138886409219587
 21
-50.413648530766267
 31
0.0
  0
LINE
  5
1B75
  8
0
 62
     0
 10
33.138886409219587
 20
-53.13908307097261
 30
0.0
 11
33.138886409219587
 21
-52.345333070972607
 31
0.0
  0
LINE
  5
1B76
  8
0
 62
     0
 10
33.138886409219587
 20
-55.520333070972612
 30
0.0
 11
33.138886409219587
 21
-54.726583070972609
 31
0.0
  0
LINE
  5
1B77
  8
0
 62
     0
 10
33.138886409219587
 20
-57.901583070972613
 30
0.0
 11
33.138886409219587
 21
-57.10783307097261
 31
0.0
  0
LINE
  5
1B78
  8
0
 62
     0
 10
33.138886409219587
 20
-60.282833070972607
 30
0.0
 11
33.138886409219587
 21
-59.489083070972612
 31
0.0
  0
LINE
  5
1B79
  8
0
 62
     0
 10
33.138886409219587
 20
-62.664083070972609
 30
0.0
 11
33.138886409219587
 21
-61.870333070972613
 31
0.0
  0
LINE
  5
1B7A
  8
0
 62
     0
 10
33.138886409219587
 20
-65.045333070972603
 30
0.0
 11
33.138886409219587
 21
-64.251583070972615
 31
0.0
  0
LINE
  5
1B7B
  8
0
 62
     0
 10
33.138886409219587
 20
-67.426583070972626
 30
0.0
 11
33.138886409219587
 21
-66.632833070972623
 31
0.0
  0
LINE
  5
1B7C
  8
0
 62
     0
 10
33.138886409219587
 20
-69.807833070972634
 30
0.0
 11
33.138886409219587
 21
-69.014083070972632
 31
0.0
  0
LINE
  5
1B7D
  8
0
 62
     0
 10
31.764071409218559
 20
-50.757833070972602
 30
0.0
 11
31.764071409218559
 21
-50.413648530766267
 31
0.0
  0
LINE
  5
1B7E
  8
0
 62
     0
 10
31.764071409218559
 20
-53.13908307097261
 30
0.0
 11
31.764071409218559
 21
-52.345333070972607
 31
0.0
  0
LINE
  5
1B7F
  8
0
 62
     0
 10
31.764071409218559
 20
-55.520333070972612
 30
0.0
 11
31.764071409218559
 21
-54.726583070972609
 31
0.0
  0
LINE
  5
1B80
  8
0
 62
     0
 10
31.764071409218559
 20
-57.901583070972613
 30
0.0
 11
31.764071409218559
 21
-57.10783307097261
 31
0.0
  0
LINE
  5
1B81
  8
0
 62
     0
 10
31.764071409218559
 20
-60.282833070972607
 30
0.0
 11
31.764071409218559
 21
-59.489083070972612
 31
0.0
  0
LINE
  5
1B82
  8
0
 62
     0
 10
31.764071409218559
 20
-62.664083070972609
 30
0.0
 11
31.764071409218559
 21
-61.870333070972613
 31
0.0
  0
LINE
  5
1B83
  8
0
 62
     0
 10
31.764071409218559
 20
-65.045333070972603
 30
0.0
 11
31.764071409218559
 21
-64.251583070972615
 31
0.0
  0
LINE
  5
1B84
  8
0
 62
     0
 10
31.764071409218559
 20
-67.426583070972626
 30
0.0
 11
31.764071409218559
 21
-66.632833070972623
 31
0.0
  0
LINE
  5
1B85
  8
0
 62
     0
 10
31.764071409218559
 20
-69.807833070972634
 30
0.0
 11
31.764071409218559
 21
-69.014083070972632
 31
0.0
  0
LINE
  5
1B86
  8
0
 62
     0
 10
30.389256409219339
 20
-50.757833070972602
 30
0.0
 11
30.389256409219339
 21
-50.413648530766267
 31
0.0
  0
LINE
  5
1B87
  8
0
 62
     0
 10
30.389256409219339
 20
-53.13908307097261
 30
0.0
 11
30.389256409219339
 21
-52.345333070972607
 31
0.0
  0
LINE
  5
1B88
  8
0
 62
     0
 10
30.389256409219339
 20
-55.520333070972612
 30
0.0
 11
30.389256409219339
 21
-54.726583070972609
 31
0.0
  0
LINE
  5
1B89
  8
0
 62
     0
 10
30.389256409219339
 20
-57.901583070972613
 30
0.0
 11
30.389256409219339
 21
-57.10783307097261
 31
0.0
  0
LINE
  5
1B8A
  8
0
 62
     0
 10
30.389256409219339
 20
-60.282833070972607
 30
0.0
 11
30.389256409219339
 21
-59.489083070972612
 31
0.0
  0
LINE
  5
1B8B
  8
0
 62
     0
 10
30.389256409219339
 20
-62.664083070972609
 30
0.0
 11
30.389256409219339
 21
-61.870333070972613
 31
0.0
  0
LINE
  5
1B8C
  8
0
 62
     0
 10
30.389256409219339
 20
-65.045333070972603
 30
0.0
 11
30.389256409219339
 21
-64.251583070972615
 31
0.0
  0
LINE
  5
1B8D
  8
0
 62
     0
 10
30.389256409219339
 20
-67.426583070972626
 30
0.0
 11
30.389256409219339
 21
-66.632833070972623
 31
0.0
  0
LINE
  5
1B8E
  8
0
 62
     0
 10
30.389256409219339
 20
-69.807833070972634
 30
0.0
 11
30.389256409219339
 21
-69.014083070972632
 31
0.0
  0
LINE
  5
1B8F
  8
0
 62
     0
 10
29.014441409220129
 20
-50.757833070972602
 30
0.0
 11
29.014441409220129
 21
-50.413648530766267
 31
0.0
  0
LINE
  5
1B90
  8
0
 62
     0
 10
29.014441409220129
 20
-53.13908307097261
 30
0.0
 11
29.014441409220129
 21
-52.345333070972607
 31
0.0
  0
LINE
  5
1B91
  8
0
 62
     0
 10
29.014441409220129
 20
-55.520333070972612
 30
0.0
 11
29.014441409220129
 21
-54.726583070972609
 31
0.0
  0
LINE
  5
1B92
  8
0
 62
     0
 10
29.014441409220129
 20
-57.901583070972613
 30
0.0
 11
29.014441409220129
 21
-57.10783307097261
 31
0.0
  0
LINE
  5
1B93
  8
0
 62
     0
 10
29.014441409220129
 20
-60.282833070972607
 30
0.0
 11
29.014441409220129
 21
-59.489083070972612
 31
0.0
  0
LINE
  5
1B94
  8
0
 62
     0
 10
29.014441409220129
 20
-62.664083070972609
 30
0.0
 11
29.014441409220129
 21
-61.870333070972613
 31
0.0
  0
LINE
  5
1B95
  8
0
 62
     0
 10
29.014441409220129
 20
-65.045333070972603
 30
0.0
 11
29.014441409220129
 21
-64.251583070972615
 31
0.0
  0
LINE
  5
1B96
  8
0
 62
     0
 10
29.014441409220129
 20
-67.426583070972626
 30
0.0
 11
29.014441409220129
 21
-66.632833070972623
 31
0.0
  0
LINE
  5
1B97
  8
0
 62
     0
 10
29.014441409220129
 20
-69.807833070972634
 30
0.0
 11
29.014441409220129
 21
-69.014083070972632
 31
0.0
  0
LINE
  5
1B98
  8
0
 62
     0
 10
27.63962640921909
 20
-50.757833070972602
 30
0.0
 11
27.63962640921909
 21
-50.413648530766267
 31
0.0
  0
LINE
  5
1B99
  8
0
 62
     0
 10
27.63962640921909
 20
-53.13908307097261
 30
0.0
 11
27.63962640921909
 21
-52.345333070972607
 31
0.0
  0
LINE
  5
1B9A
  8
0
 62
     0
 10
27.63962640921909
 20
-55.520333070972612
 30
0.0
 11
27.63962640921909
 21
-54.726583070972609
 31
0.0
  0
LINE
  5
1B9B
  8
0
 62
     0
 10
27.63962640921909
 20
-57.901583070972613
 30
0.0
 11
27.63962640921909
 21
-57.10783307097261
 31
0.0
  0
LINE
  5
1B9C
  8
0
 62
     0
 10
27.63962640921909
 20
-60.282833070972607
 30
0.0
 11
27.63962640921909
 21
-59.489083070972612
 31
0.0
  0
LINE
  5
1B9D
  8
0
 62
     0
 10
27.63962640921909
 20
-62.664083070972609
 30
0.0
 11
27.63962640921909
 21
-61.870333070972613
 31
0.0
  0
LINE
  5
1B9E
  8
0
 62
     0
 10
27.63962640921909
 20
-65.045333070972603
 30
0.0
 11
27.63962640921909
 21
-64.251583070972615
 31
0.0
  0
LINE
  5
1B9F
  8
0
 62
     0
 10
27.63962640921909
 20
-67.426583070972626
 30
0.0
 11
27.63962640921909
 21
-66.632833070972623
 31
0.0
  0
LINE
  5
1BA0
  8
0
 62
     0
 10
27.63962640921909
 20
-69.807833070972634
 30
0.0
 11
27.63962640921909
 21
-69.014083070972632
 31
0.0
  0
LINE
  5
1BA1
  8
0
 62
     0
 10
26.26481140921987
 20
-50.757833070972602
 30
0.0
 11
26.26481140921987
 21
-50.413648530766267
 31
0.0
  0
LINE
  5
1BA2
  8
0
 62
     0
 10
26.26481140921987
 20
-53.13908307097261
 30
0.0
 11
26.26481140921987
 21
-52.345333070972607
 31
0.0
  0
LINE
  5
1BA3
  8
0
 62
     0
 10
26.26481140921987
 20
-55.520333070972612
 30
0.0
 11
26.26481140921987
 21
-54.726583070972609
 31
0.0
  0
LINE
  5
1BA4
  8
0
 62
     0
 10
26.26481140921987
 20
-57.901583070972613
 30
0.0
 11
26.26481140921987
 21
-57.10783307097261
 31
0.0
  0
LINE
  5
1BA5
  8
0
 62
     0
 10
26.26481140921987
 20
-60.282833070972607
 30
0.0
 11
26.26481140921987
 21
-59.489083070972612
 31
0.0
  0
LINE
  5
1BA6
  8
0
 62
     0
 10
26.26481140921987
 20
-62.664083070972609
 30
0.0
 11
26.26481140921987
 21
-61.870333070972613
 31
0.0
  0
LINE
  5
1BA7
  8
0
 62
     0
 10
26.26481140921987
 20
-65.045333070972603
 30
0.0
 11
26.26481140921987
 21
-64.251583070972615
 31
0.0
  0
LINE
  5
1BA8
  8
0
 62
     0
 10
26.26481140921987
 20
-67.426583070972626
 30
0.0
 11
26.26481140921987
 21
-66.632833070972623
 31
0.0
  0
LINE
  5
1BA9
  8
0
 62
     0
 10
26.26481140921987
 20
-69.807833070972634
 30
0.0
 11
26.26481140921987
 21
-69.014083070972632
 31
0.0
  0
ENDBLK
  5
1BAB
  8
0
  0
BLOCK
  8
0
  2
*U152
 70
     1
 10
0.0
 20
0.0
 30
0.0
  3
*U152
  1

  0
TEXT
  5
1BFD
  8
SAPA_ARTIKELNR
 10
-116.074589604384
 20
-11.66849634758252
 30
0.0
 40
3.5
  1
42138/42138
  7
ISO
  0
ENDBLK
  5
1BFF
  8
0
  0
BLOCK
  8
0
  2
*U153
 70
     1
 10
0.0
 20
0.0
 30
0.0
  3
*U153
  1

  0
TEXT
  5
1C01
  8
SAPA_ARTIKELNR
 10
-145.14120912555379
 20
-12.25219447912219
 30
0.0
 40
3.4999999999999991
  1
68059
  7
ISO
  0
ENDBLK
  5
1C03
  8
0
  0
BLOCK
  8
0
  2
*U154
 70
     1
 10
0.0
 20
0.0
 30
0.0
  3
*U154
  1

  0
TEXT
  5
1C05
  8
SAPA_ARTIKELNR
 10
-93.311408030734555
 20
3.4104497312122239
 30
0.0
 40
3.5
  1
42780
  7
ISO
  0
ENDBLK
  5
1C07
  8
0
  0
BLOCK
  8
0
  2
*U155
 70
     1
 10
0.0
 20
0.0
 30
0.0
  3
*U155
  1

  0
SOLID
  5
2845
  8
SAPA_FOGBAND
  6
CONTINUOUS
 62
     2
 10
-103.23535414816619
 20
-29.13410447394644
 30
0.0
 11
-103.4156317119394
 21
-29.208777885852879
 31
0.0
 12
-103.05507658439301
 22
-29.208777885852879
 32
0.0
 13
-103.05507658439301
 23
-29.208777885852879
 33
0.0
210
0.0
220
0.0
230
1.0
  0
SOLID
  5
2846
  8
SAPA_FOGBAND
  6
CONTINUOUS
 62
     2
 10
-103.4156317119394
 20
-29.208777885852879
 30
0.0
 11
-103.4903051238459
 21
-29.389055449626081
 31
0.0
 12
-102.9804031724866
 22
-29.389055449626081
 32
0.0
 13
-102.9804031724866
 23
-29.389055449626081
 33
0.0
210
0.0
220
0.0
230
1.0
  0
SOLID
  5
2847
  8
SAPA_FOGBAND
  6
CONTINUOUS
 62
     2
 10
103.4156317119394
 20
-29.208777885852879
 30
0.0
 11
103.05507658439301
 21
-29.208777885852879
 31
0.0
 12
102.9804031724866
 22
-29.389055449626081
 32
0.0
 13
102.9804031724866
 23
-29.389055449626081
 33
0.0
210
0.0
220
0.0
230
-1.0
  0
SOLID
  5
2848
  8
SAPA_FOGBAND
  6
CONTINUOUS
 62
     2
 10
103.4156317119394
 20
-29.56933301339928
 30
0.0
 11
103.05507658439301
 21
-29.56933301339928
 31
0.0
 12
103.23535414816619
 22
-29.644006425305719
 32
0.0
 13
103.23535414816619
 23
-29.644006425305719
 33
0.0
210
0.0
220
0.0
230
-1.0
  0
SOLID
  5
2849
  8
SAPA_FOGBAND
  6
CONTINUOUS
 62
     2
 10
-103.4903051238459
 20
-29.389055449626081
 30
0.0
 11
-103.4156317119394
 21
-29.56933301339928
 31
0.0
 12
-103.05507658439301
 22
-29.56933301339928
 32
0.0
 13
-103.05507658439301
 23
-29.56933301339928
 33
0.0
210
0.0
220
0.0
230
1.0
  0
SOLID
  5
284A
  8
SAPA_FOGBAND
  6
CONTINUOUS
 62
     2
 10
103.4903051238459
 20
-29.389055449626081
 30
0.0
 11
102.9804031724866
 21
-29.389055449626081
 31
0.0
 12
103.05507658439301
 22
-29.56933301339928
 32
0.0
 13
103.05507658439301
 23
-29.56933301339928
 33
0.0
210
0.0
220
0.0
230
-1.0
  0
LINE
  5
284B
  8
SAPA_FOGBAND
  6
CONTINUOUS
 62
     2
 10
-103.23535414816619
 20
-29.13410447394644
 30
0.0
 11
-103.4156317119394
 21
-29.208777885852879
 31
0.0
  0
LINE
  5
284C
  8
SAPA_FOGBAND
  6
CONTINUOUS
 62
     2
 10
-103.05507658439301
 20
-29.208777885852879
 30
0.0
 11
-103.23535414816619
 21
-29.13410447394644
 31
0.0
  0
LINE
  5
284D
  8
SAPA_FOGBAND
  6
CONTINUOUS
 62
     2
 10
-103.4156317119394
 20
-29.208777885852879
 30
0.0
 11
-103.4903051238459
 21
-29.389055449626081
 31
0.0
  0
LINE
  5
284E
  8
SAPA_FOGBAND
  6
CONTINUOUS
 62
     2
 10
-103.05507658439301
 20
-29.208777885852879
 30
0.0
 11
-102.9804031724866
 21
-29.389055449626081
 31
0.0
  0
LINE
  5
284F
  8
SAPA_FOGBAND
  6
CONTINUOUS
 62
     2
 10
-103.05507658439301
 20
-29.56933301339928
 30
0.0
 11
-103.23535414816619
 21
-29.644006425305719
 31
0.0
  0
LINE
  5
2850
  8
SAPA_FOGBAND
  6
CONTINUOUS
 62
     2
 10
-103.23535414816619
 20
-29.644006425305719
 30
0.0
 11
-103.4156317119394
 21
-29.56933301339928
 31
0.0
  0
LINE
  5
2851
  8
SAPA_FOGBAND
  6
CONTINUOUS
 62
     2
 10
-103.4903051238459
 20
-29.389055449626081
 30
0.0
 11
-103.4156317119394
 21
-29.56933301339928
 31
0.0
  0
LINE
  5
2852
  8
SAPA_FOGBAND
  6
CONTINUOUS
 62
     2
 10
-102.9804031724866
 20
-29.389055449626081
 30
0.0
 11
-103.05507658439301
 21
-29.56933301339928
 31
0.0
  0
ENDBLK
  5
2854
  8
0
  0
BLOCK
  8
0
  2
*U156
 70
     1
 10
0.0
 20
0.0
 30
0.0
  3
*U156
  1

  0
SOLID
  5
287F
  8
SAPA_FOGBAND
  6
CONTINUOUS
 62
     2
 10
-103.8133054991209
 20
-75.357085646732514
 30
0.0
 11
-103.9935830628941
 21
-75.431759058638946
 31
0.0
 12
-103.6330279353477
 22
-75.431759058638946
 32
0.0
 13
-103.6330279353477
 23
-75.431759058638946
 33
0.0
210
0.0
220
0.0
230
1.0
  0
SOLID
  5
2880
  8
SAPA_FOGBAND
  6
CONTINUOUS
 62
     2
 10
-103.9935830628941
 20
-75.431759058638946
 30
0.0
 11
-104.06825647480061
 21
-75.612036622412148
 31
0.0
 12
-103.5583545234413
 22
-75.612036622412148
 32
0.0
 13
-103.5583545234413
 23
-75.612036622412148
 33
0.0
210
0.0
220
0.0
230
1.0
  0
SOLID
  5
2881
  8
SAPA_FOGBAND
  6
CONTINUOUS
 62
     2
 10
103.9935830628941
 20
-75.431759058638946
 30
0.0
 11
103.6330279353477
 21
-75.431759058638946
 31
0.0
 12
103.5583545234413
 22
-75.612036622412148
 32
0.0
 13
103.5583545234413
 23
-75.612036622412148
 33
0.0
210
0.0
220
0.0
230
-1.0
  0
SOLID
  5
2882
  8
SAPA_FOGBAND
  6
CONTINUOUS
 62
     2
 10
103.9935830628941
 20
-75.792314186185351
 30
0.0
 11
103.6330279353477
 21
-75.792314186185351
 31
0.0
 12
103.8133054991209
 22
-75.866987598091782
 32
0.0
 13
103.8133054991209
 23
-75.866987598091782
 33
0.0
210
0.0
220
0.0
230
-1.0
  0
SOLID
  5
2883
  8
SAPA_FOGBAND
  6
CONTINUOUS
 62
     2
 10
-104.06825647480061
 20
-75.612036622412148
 30
0.0
 11
-103.9935830628941
 21
-75.792314186185351
 31
0.0
 12
-103.6330279353477
 22
-75.792314186185351
 32
0.0
 13
-103.6330279353477
 23
-75.792314186185351
 33
0.0
210
0.0
220
0.0
230
1.0
  0
SOLID
  5
2884
  8
SAPA_FOGBAND
  6
CONTINUOUS
 62
     2
 10
104.06825647480061
 20
-75.612036622412148
 30
0.0
 11
103.5583545234413
 21
-75.612036622412148
 31
0.0
 12
103.6330279353477
 22
-75.792314186185351
 32
0.0
 13
103.6330279353477
 23
-75.792314186185351
 33
0.0
210
0.0
220
0.0
230
-1.0
  0
LINE
  5
2885
  8
SAPA_FOGBAND
  6
CONTINUOUS
 62
     2
 10
-103.8133054991209
 20
-75.357085646732514
 30
0.0
 11
-103.9935830628941
 21
-75.431759058638946
 31
0.0
  0
LINE
  5
2886
  8
SAPA_FOGBAND
  6
CONTINUOUS
 62
     2
 10
-103.6330279353477
 20
-75.431759058638946
 30
0.0
 11
-103.8133054991209
 21
-75.357085646732514
 31
0.0
  0
LINE
  5
2887
  8
SAPA_FOGBAND
  6
CONTINUOUS
 62
     2
 10
-103.9935830628941
 20
-75.431759058638946
 30
0.0
 11
-104.06825647480061
 21
-75.612036622412148
 31
0.0
  0
LINE
  5
2888
  8
SAPA_FOGBAND
  6
CONTINUOUS
 62
     2
 10
-103.6330279353477
 20
-75.431759058638946
 30
0.0
 11
-103.5583545234413
 21
-75.612036622412148
 31
0.0
  0
LINE
  5
2889
  8
SAPA_FOGBAND
  6
CONTINUOUS
 62
     2
 10
-103.6330279353477
 20
-75.792314186185351
 30
0.0
 11
-103.8133054991209
 21
-75.866987598091782
 31
0.0
  0
LINE
  5
288A
  8
SAPA_FOGBAND
  6
CONTINUOUS
 62
     2
 10
-103.8133054991209
 20
-75.866987598091782
 30
0.0
 11
-103.9935830628941
 21
-75.792314186185351
 31
0.0
  0
LINE
  5
288B
  8
SAPA_FOGBAND
  6
CONTINUOUS
 62
     2
 10
-104.06825647480061
 20
-75.612036622412148
 30
0.0
 11
-103.9935830628941
 21
-75.792314186185351
 31
0.0
  0
LINE
  5
288C
  8
SAPA_FOGBAND
  6
CONTINUOUS
 62
     2
 10
-103.5583545234413
 20
-75.612036622412148
 30
0.0
 11
-103.6330279353477
 21
-75.792314186185351
 31
0.0
  0
ENDBLK
  5
288E
  8
0
  0
BLOCK
  8
0
  2
*U157
 70
     1
 10
0.0
 20
0.0
 30
0.0
  3
*U157
  1

  0
SOLID
  5
2895
  8
SAPA_FOGBAND
  6
CONTINUOUS
 10
-18.616845196720529
 20
-84.382617202080866
 30
0.0
 11
-18.797122760493728
 21
-84.457290613987297
 31
0.0
 12
-18.43656763294733
 22
-84.457290613987297
 32
0.0
 13
-18.43656763294733
 23
-84.457290613987297
 33
0.0
210
0.0
220
0.0
230
1.0
  0
SOLID
  5
2896
  8
SAPA_FOGBAND
  6
CONTINUOUS
 10
-18.797122760493728
 20
-84.457290613987297
 30
0.0
 11
-18.87179617240017
 21
-84.637568177760485
 31
0.0
 12
-18.361894221040892
 22
-84.637568177760485
 32
0.0
 13
-18.361894221040892
 23
-84.637568177760485
 33
0.0
210
0.0
220
0.0
230
1.0
  0
SOLID
  5
2897
  8
SAPA_FOGBAND
  6
CONTINUOUS
 10
18.797122760493728
 20
-84.457290613987297
 30
0.0
 11
18.43656763294733
 21
-84.457290613987297
 31
0.0
 12
18.361894221040892
 22
-84.637568177760485
 32
0.0
 13
18.361894221040892
 23
-84.637568177760485
 33
0.0
210
0.0
220
0.0
230
-1.0
  0
SOLID
  5
2898
  8
SAPA_FOGBAND
  6
CONTINUOUS
 10
18.797122760493728
 20
-84.817845741533716
 30
0.0
 11
18.43656763294733
 21
-84.817845741533716
 31
0.0
 12
18.616845196720529
 22
-84.892519153440134
 32
0.0
 13
18.616845196720529
 23
-84.892519153440134
 33
0.0
210
0.0
220
0.0
230
-1.0
  0
SOLID
  5
2899
  8
SAPA_FOGBAND
  6
CONTINUOUS
 10
-18.87179617240017
 20
-84.637568177760485
 30
0.0
 11
-18.797122760493728
 21
-84.817845741533716
 31
0.0
 12
-18.43656763294733
 22
-84.817845741533716
 32
0.0
 13
-18.43656763294733
 23
-84.817845741533716
 33
0.0
210
0.0
220
0.0
230
1.0
  0
SOLID
  5
289A
  8
SAPA_FOGBAND
  6
CONTINUOUS
 10
18.87179617240017
 20
-84.637568177760485
 30
0.0
 11
18.361894221040892
 21
-84.637568177760485
 31
0.0
 12
18.43656763294733
 22
-84.817845741533716
 32
0.0
 13
18.43656763294733
 23
-84.817845741533716
 33
0.0
210
0.0
220
0.0
230
-1.0
  0
LINE
  5
289B
  8
SAPA_FOGBAND
  6
CONTINUOUS
 10
-18.616845196720529
 20
-84.382617202080866
 30
0.0
 11
-18.797122760493728
 21
-84.457290613987297
 31
0.0
  0
LINE
  5
289C
  8
SAPA_FOGBAND
  6
CONTINUOUS
 10
-18.43656763294733
 20
-84.457290613987297
 30
0.0
 11
-18.616845196720529
 21
-84.382617202080866
 31
0.0
  0
LINE
  5
289D
  8
SAPA_FOGBAND
  6
CONTINUOUS
 10
-18.797122760493728
 20
-84.457290613987297
 30
0.0
 11
-18.87179617240017
 21
-84.637568177760485
 31
0.0
  0
LINE
  5
289E
  8
SAPA_FOGBAND
  6
CONTINUOUS
 10
-18.43656763294733
 20
-84.457290613987297
 30
0.0
 11
-18.361894221040892
 21
-84.637568177760485
 31
0.0
  0
LINE
  5
289F
  8
SAPA_FOGBAND
  6
CONTINUOUS
 10
-18.43656763294733
 20
-84.817845741533716
 30
0.0
 11
-18.616845196720529
 21
-84.892519153440134
 31
0.0
  0
LINE
  5
28A0
  8
SAPA_FOGBAND
  6
CONTINUOUS
 10
-18.616845196720529
 20
-84.892519153440134
 30
0.0
 11
-18.797122760493728
 21
-84.817845741533716
 31
0.0
  0
LINE
  5
28A1
  8
SAPA_FOGBAND
  6
CONTINUOUS
 10
-18.87179617240017
 20
-84.637568177760485
 30
0.0
 11
-18.797122760493728
 21
-84.817845741533716
 31
0.0
  0
LINE
  5
28A2
  8
SAPA_FOGBAND
  6
CONTINUOUS
 10
-18.361894221040892
 20
-84.637568177760485
 30
0.0
 11
-18.43656763294733
 21
-84.817845741533716
 31
0.0
  0
ENDBLK
  5
28A4
  8
0
  0
BLOCK
  8
0
  2
*U158
 70
     1
 10
0.0
 20
0.0
 30
0.0
  3
*U158
  1

  0
SOLID
  5
29AC
  8
SAPA_FOGBAND
  6
CONTINUOUS
 62
     2
 10
-103.23535414816619
 20
-29.13410447394644
 30
0.0
 11
-103.4156317119394
 21
-29.208777885852879
 31
0.0
 12
-103.05507658439301
 22
-29.208777885852879
 32
0.0
 13
-103.05507658439301
 23
-29.208777885852879
 33
0.0
210
0.0
220
0.0
230
1.0
  0
SOLID
  5
29AD
  8
SAPA_FOGBAND
  6
CONTINUOUS
 62
     2
 10
-103.4156317119394
 20
-29.208777885852879
 30
0.0
 11
-103.4903051238459
 21
-29.389055449626081
 31
0.0
 12
-102.9804031724866
 22
-29.389055449626081
 32
0.0
 13
-102.9804031724866
 23
-29.389055449626081
 33
0.0
210
0.0
220
0.0
230
1.0
  0
SOLID
  5
29AE
  8
SAPA_FOGBAND
  6
CONTINUOUS
 62
     2
 10
103.4156317119394
 20
-29.208777885852879
 30
0.0
 11
103.05507658439301
 21
-29.208777885852879
 31
0.0
 12
102.9804031724866
 22
-29.389055449626081
 32
0.0
 13
102.9804031724866
 23
-29.389055449626081
 33
0.0
210
0.0
220
0.0
230
-1.0
  0
SOLID
  5
29AF
  8
SAPA_FOGBAND
  6
CONTINUOUS
 62
     2
 10
103.4156317119394
 20
-29.56933301339928
 30
0.0
 11
103.05507658439301
 21
-29.56933301339928
 31
0.0
 12
103.23535414816619
 22
-29.644006425305719
 32
0.0
 13
103.23535414816619
 23
-29.644006425305719
 33
0.0
210
0.0
220
0.0
230
-1.0
  0
SOLID
  5
29B0
  8
SAPA_FOGBAND
  6
CONTINUOUS
 62
     2
 10
-103.4903051238459
 20
-29.389055449626081
 30
0.0
 11
-103.4156317119394
 21
-29.56933301339928
 31
0.0
 12
-103.05507658439301
 22
-29.56933301339928
 32
0.0
 13
-103.05507658439301
 23
-29.56933301339928
 33
0.0
210
0.0
220
0.0
230
1.0
  0
SOLID
  5
29B1
  8
SAPA_FOGBAND
  6
CONTINUOUS
 62
     2
 10
103.4903051238459
 20
-29.389055449626081
 30
0.0
 11
102.9804031724866
 21
-29.389055449626081
 31
0.0
 12
103.05507658439301
 22
-29.56933301339928
 32
0.0
 13
103.05507658439301
 23
-29.56933301339928
 33
0.0
210
0.0
220
0.0
230
-1.0
  0
LINE
  5
29B2
  8
SAPA_FOGBAND
  6
CONTINUOUS
 62
     2
 10
-103.23535414816619
 20
-29.13410447394644
 30
0.0
 11
-103.4156317119394
 21
-29.208777885852879
 31
0.0
  0
LINE
  5
29B3
  8
SAPA_FOGBAND
  6
CONTINUOUS
 62
     2
 10
-103.05507658439301
 20
-29.208777885852879
 30
0.0
 11
-103.23535414816619
 21
-29.13410447394644
 31
0.0
  0
LINE
  5
29B4
  8
SAPA_FOGBAND
  6
CONTINUOUS
 62
     2
 10
-103.4156317119394
 20
-29.208777885852879
 30
0.0
 11
-103.4903051238459
 21
-29.389055449626081
 31
0.0
  0
LINE
  5
29B5
  8
SAPA_FOGBAND
  6
CONTINUOUS
 62
     2
 10
-103.05507658439301
 20
-29.208777885852879
 30
0.0
 11
-102.9804031724866
 21
-29.389055449626081
 31
0.0
  0
LINE
  5
29B6
  8
SAPA_FOGBAND
  6
CONTINUOUS
 62
     2
 10
-103.05507658439301
 20
-29.56933301339928
 30
0.0
 11
-103.23535414816619
 21
-29.644006425305719
 31
0.0
  0
LINE
  5
29B7
  8
SAPA_FOGBAND
  6
CONTINUOUS
 62
     2
 10
-103.23535414816619
 20
-29.644006425305719
 30
0.0
 11
-103.4156317119394
 21
-29.56933301339928
 31
0.0
  0
LINE
  5
29B8
  8
SAPA_FOGBAND
  6
CONTINUOUS
 62
     2
 10
-103.4903051238459
 20
-29.389055449626081
 30
0.0
 11
-103.4156317119394
 21
-29.56933301339928
 31
0.0
  0
LINE
  5
29B9
  8
SAPA_FOGBAND
  6
CONTINUOUS
 62
     2
 10
-102.9804031724866
 20
-29.389055449626081
 30
0.0
 11
-103.05507658439301
 21
-29.56933301339928
 31
0.0
  0
ENDBLK
  5
29BB
  8
0
  0
BLOCK
  8
0
  2
*U159
 70
     1
 10
0.0
 20
0.0
 30
0.0
  3
*U159
  1

  0
SOLID
  5
29E6
  8
SAPA_FOGBAND
  6
CONTINUOUS
 62
     2
 10
-103.8133054991209
 20
-75.357085646732514
 30
0.0
 11
-103.9935830628941
 21
-75.431759058638946
 31
0.0
 12
-103.6330279353477
 22
-75.431759058638946
 32
0.0
 13
-103.6330279353477
 23
-75.431759058638946
 33
0.0
210
0.0
220
0.0
230
1.0
  0
SOLID
  5
29E7
  8
SAPA_FOGBAND
  6
CONTINUOUS
 62
     2
 10
-103.9935830628941
 20
-75.431759058638946
 30
0.0
 11
-104.06825647480061
 21
-75.612036622412148
 31
0.0
 12
-103.5583545234413
 22
-75.612036622412148
 32
0.0
 13
-103.5583545234413
 23
-75.612036622412148
 33
0.0
210
0.0
220
0.0
230
1.0
  0
SOLID
  5
29E8
  8
SAPA_FOGBAND
  6
CONTINUOUS
 62
     2
 10
103.9935830628941
 20
-75.431759058638946
 30
0.0
 11
103.6330279353477
 21
-75.431759058638946
 31
0.0
 12
103.5583545234413
 22
-75.612036622412148
 32
0.0
 13
103.5583545234413
 23
-75.612036622412148
 33
0.0
210
0.0
220
0.0
230
-1.0
  0
SOLID
  5
29E9
  8
SAPA_FOGBAND
  6
CONTINUOUS
 62
     2
 10
103.9935830628941
 20
-75.792314186185351
 30
0.0
 11
103.6330279353477
 21
-75.792314186185351
 31
0.0
 12
103.8133054991209
 22
-75.866987598091782
 32
0.0
 13
103.8133054991209
 23
-75.866987598091782
 33
0.0
210
0.0
220
0.0
230
-1.0
  0
SOLID
  5
29EA
  8
SAPA_FOGBAND
  6
CONTINUOUS
 62
     2
 10
-104.06825647480061
 20
-75.612036622412148
 30
0.0
 11
-103.9935830628941
 21
-75.792314186185351
 31
0.0
 12
-103.6330279353477
 22
-75.792314186185351
 32
0.0
 13
-103.6330279353477
 23
-75.792314186185351
 33
0.0
210
0.0
220
0.0
230
1.0
  0
SOLID
  5
29EB
  8
SAPA_FOGBAND
  6
CONTINUOUS
 62
     2
 10
104.06825647480061
 20
-75.612036622412148
 30
0.0
 11
103.5583545234413
 21
-75.612036622412148
 31
0.0
 12
103.6330279353477
 22
-75.792314186185351
 32
0.0
 13
103.6330279353477
 23
-75.792314186185351
 33
0.0
210
0.0
220
0.0
230
-1.0
  0
LINE
  5
29EC
  8
SAPA_FOGBAND
  6
CONTINUOUS
 62
     2
 10
-103.8133054991209
 20
-75.357085646732514
 30
0.0
 11
-103.9935830628941
 21
-75.431759058638946
 31
0.0
  0
LINE
  5
29ED
  8
SAPA_FOGBAND
  6
CONTINUOUS
 62
     2
 10
-103.6330279353477
 20
-75.431759058638946
 30
0.0
 11
-103.8133054991209
 21
-75.357085646732514
 31
0.0
  0
LINE
  5
29EE
  8
SAPA_FOGBAND
  6
CONTINUOUS
 62
     2
 10
-103.9935830628941
 20
-75.431759058638946
 30
0.0
 11
-104.06825647480061
 21
-75.612036622412148
 31
0.0
  0
LINE
  5
29EF
  8
SAPA_FOGBAND
  6
CONTINUOUS
 62
     2
 10
-103.6330279353477
 20
-75.431759058638946
 30
0.0
 11
-103.5583545234413
 21
-75.612036622412148
 31
0.0
  0
LINE
  5
29F0
  8
SAPA_FOGBAND
  6
CONTINUOUS
 62
     2
 10
-103.6330279353477
 20
-75.792314186185351
 30
0.0
 11
-103.8133054991209
 21
-75.866987598091782
 31
0.0
  0
LINE
  5
29F1
  8
SAPA_FOGBAND
  6
CONTINUOUS
 62
     2
 10
-103.8133054991209
 20
-75.866987598091782
 30
0.0
 11
-103.9935830628941
 21
-75.792314186185351
 31
0.0
  0
LINE
  5
29F2
  8
SAPA_FOGBAND
  6
CONTINUOUS
 62
     2
 10
-104.06825647480061
 20
-75.612036622412148
 30
0.0
 11
-103.9935830628941
 21
-75.792314186185351
 31
0.0
  0
LINE
  5
29F3
  8
SAPA_FOGBAND
  6
CONTINUOUS
 62
     2
 10
-103.5583545234413
 20
-75.612036622412148
 30
0.0
 11
-103.6330279353477
 21
-75.792314186185351
 31
0.0
  0
ENDBLK
  5
29F5
  8
0
  0
BLOCK
  8
0
  2
*U160
 70
     1
 10
0.0
 20
0.0
 30
0.0
  3
*U160
  1

  0
SOLID
  5
29FC
  8
SAPA_FOGBAND
  6
CONTINUOUS
 10
-18.616845196720529
 20
-84.382617202080866
 30
0.0
 11
-18.797122760493728
 21
-84.457290613987297
 31
0.0
 12
-18.43656763294733
 22
-84.457290613987297
 32
0.0
 13
-18.43656763294733
 23
-84.457290613987297
 33
0.0
210
0.0
220
0.0
230
1.0
  0
SOLID
  5
29FD
  8
SAPA_FOGBAND
  6
CONTINUOUS
 10
-18.797122760493728
 20
-84.457290613987297
 30
0.0
 11
-18.87179617240017
 21
-84.637568177760485
 31
0.0
 12
-18.361894221040892
 22
-84.637568177760485
 32
0.0
 13
-18.361894221040892
 23
-84.637568177760485
 33
0.0
210
0.0
220
0.0
230
1.0
  0
SOLID
  5
29FE
  8
SAPA_FOGBAND
  6
CONTINUOUS
 10
18.797122760493728
 20
-84.457290613987297
 30
0.0
 11
18.43656763294733
 21
-84.457290613987297
 31
0.0
 12
18.361894221040892
 22
-84.637568177760485
 32
0.0
 13
18.361894221040892
 23
-84.637568177760485
 33
0.0
210
0.0
220
0.0
230
-1.0
  0
SOLID
  5
29FF
  8
SAPA_FOGBAND
  6
CONTINUOUS
 10
18.797122760493728
 20
-84.817845741533716
 30
0.0
 11
18.43656763294733
 21
-84.817845741533716
 31
0.0
 12
18.616845196720529
 22
-84.892519153440134
 32
0.0
 13
18.616845196720529
 23
-84.892519153440134
 33
0.0
210
0.0
220
0.0
230
-1.0
  0
SOLID
  5
2A00
  8
SAPA_FOGBAND
  6
CONTINUOUS
 10
-18.87179617240017
 20
-84.637568177760485
 30
0.0
 11
-18.797122760493728
 21
-84.817845741533716
 31
0.0
 12
-18.43656763294733
 22
-84.817845741533716
 32
0.0
 13
-18.43656763294733
 23
-84.817845741533716
 33
0.0
210
0.0
220
0.0
230
1.0
  0
SOLID
  5
2A01
  8
SAPA_FOGBAND
  6
CONTINUOUS
 10
18.87179617240017
 20
-84.637568177760485
 30
0.0
 11
18.361894221040892
 21
-84.637568177760485
 31
0.0
 12
18.43656763294733
 22
-84.817845741533716
 32
0.0
 13
18.43656763294733
 23
-84.817845741533716
 33
0.0
210
0.0
220
0.0
230
-1.0
  0
LINE
  5
2A02
  8
SAPA_FOGBAND
  6
CONTINUOUS
 10
-18.616845196720529
 20
-84.382617202080866
 30
0.0
 11
-18.797122760493728
 21
-84.457290613987297
 31
0.0
  0
LINE
  5
2A03
  8
SAPA_FOGBAND
  6
CONTINUOUS
 10
-18.43656763294733
 20
-84.457290613987297
 30
0.0
 11
-18.616845196720529
 21
-84.382617202080866
 31
0.0
  0
LINE
  5
2A04
  8
SAPA_FOGBAND
  6
CONTINUOUS
 10
-18.797122760493728
 20
-84.457290613987297
 30
0.0
 11
-18.87179617240017
 21
-84.637568177760485
 31
0.0
  0
LINE
  5
2A05
  8
SAPA_FOGBAND
  6
CONTINUOUS
 10
-18.43656763294733
 20
-84.457290613987297
 30
0.0
 11
-18.361894221040892
 21
-84.637568177760485
 31
0.0
  0
LINE
  5
2A06
  8
SAPA_FOGBAND
  6
CONTINUOUS
 10
-18.43656763294733
 20
-84.817845741533716
 30
0.0
 11
-18.616845196720529
 21
-84.892519153440134
 31
0.0
  0
LINE
  5
2A07
  8
SAPA_FOGBAND
  6
CONTINUOUS
 10
-18.616845196720529
 20
-84.892519153440134
 30
0.0
 11
-18.797122760493728
 21
-84.817845741533716
 31
0.0
  0
LINE
  5
2A08
  8
SAPA_FOGBAND
  6
CONTINUOUS
 10
-18.87179617240017
 20
-84.637568177760485
 30
0.0
 11
-18.797122760493728
 21
-84.817845741533716
 31
0.0
  0
LINE
  5
2A09
  8
SAPA_FOGBAND
  6
CONTINUOUS
 10
-18.361894221040892
 20
-84.637568177760485
 30
0.0
 11
-18.43656763294733
 21
-84.817845741533716
 31
0.0
  0
ENDBLK
  5
2A0B
  8
0
  0
BLOCK
  8
0
  2
*U161
 70
     1
 10
0.0
 20
0.0
 30
0.0
  3
*U161
  1

  0
TEXT
  5
2B0A
  8
SAPA_MATT
 62
     2
 10
-2.1000000000004539
 20
-124.3256531728245
 30
0.0
 40
3.0
  1
50
  7
ISO
  0
ENDBLK
  5
2B0C
  8
0
  0
ENDSEC
  0
SECTION
  2
ENTITIES
  0
POLYLINE
  5
7B2
  8
SAPA_LIGHT
 66
     1
 10
0.0
 20
0.0
 30
0.0
  0
VERTEX
  5
1987
  8
SAPA_LIGHT
 10
24.999999999999599
 20
-106.4999999990106
 30
0.0
  0
VERTEX
  5
1988
  8
SAPA_LIGHT
 10
24.999999999999549
 20
-82.499999999011749
 30
0.0
  0
VERTEX
  5
1989
  8
SAPA_LIGHT
 10
24.999999999999549
 20
-82.49999999901172
 30
0.0
  0
VERTEX
  5
198A
  8
SAPA_LIGHT
 10
25.000000000000171
 20
-44.499999999010242
 30
0.0
  0
VERTEX
  5
198B
  8
SAPA_LIGHT
 10
25.000000000000171
 20
-44.499999999010242
 30
0.0
  0
VERTEX
  5
198C
  8
SAPA_LIGHT
 10
25.000000000000171
 20
64.499999999998892
 30
0.0
  0
VERTEX
  5
198D
  8
SAPA_LIGHT
 10
-24.999999999999829
 20
64.499999999998892
 30
0.0
  0
VERTEX
  5
198E
  8
SAPA_LIGHT
 10
-24.999999999999829
 20
-49.000000031211577
 30
0.0
  0
VERTEX
  5
198F
  8
SAPA_LIGHT
 10
-4.9999999999998286
 20
-49.000000031211577
 30
0.0
  0
VERTEX
  5
1990
  8
SAPA_LIGHT
 10
-4.9999999999998286
 20
-83.49999998637054
 30
0.0
  0
VERTEX
  5
1991
  8
SAPA_LIGHT
 10
-25.000000000000401
 20
-83.499999986370597
 30
0.0
  0
VERTEX
  5
1992
  8
SAPA_LIGHT
 10
-25.000000000000401
 20
-106.4999999990106
 30
0.0
  0
VERTEX
  5
1993
  8
SAPA_LIGHT
 10
24.999999999999599
 20
-106.4999999990106
 30
0.0
  0
SEQEND
  5
1994
  8
SAPA_LIGHT
  0
POLYLINE
  5
7B3
  8
SAPA_LIGHT
 66
     1
 10
0.0
 20
0.0
 30
0.0
  0
VERTEX
  5
1995
  8
SAPA_LIGHT
 10
-24.999999999999829
 20
-9.499999993452235
 30
0.0
  0
VERTEX
  5
1996
  8
SAPA_LIGHT
 10
-76.000000000002558
 20
-9.4999999934522208
 30
0.0
  0
VERTEX
  5
1997
  8
SAPA_LIGHT
 10
-76.000000000002444
 20
-83.499999989503735
 30
0.0
  0
VERTEX
  5
1998
  8
SAPA_LIGHT
 10
-9.0000000000352998
 20
-83.499999989503877
 30
0.0
  0
VERTEX
  5
1999
  8
SAPA_LIGHT
 10
-9.0000000000352998
 20
-49.000000031211577
 30
0.0
  0
VERTEX
  5
199A
  8
SAPA_LIGHT
 10
-24.999999999999829
 20
-49.000000031215208
 30
0.0
  0
VERTEX
  5
199B
  8
SAPA_LIGHT
 10
-24.999999999999829
 20
-9.499999993452235
 30
0.0
  0
SEQEND
  5
199C
  8
SAPA_LIGHT
  0
POLYLINE
  5
7B4
  8
SAPA_LIGHT
 66
     1
 10
0.0
 20
0.0
 30
0.0
  0
VERTEX
  5
199D
  8
SAPA_LIGHT
 10
-72.834098182422224
 20
-7.9999991268058741
 30
0.0
  0
VERTEX
  5
199E
  8
SAPA_LIGHT
 10
-72.834098182422224
 20
-5.4999991268058457
 30
0.0
  0
VERTEX
  5
199F
  8
SAPA_LIGHT
 10
-81.500000076061554
 20
-5.4999991268058457
 30
0.0
  0
VERTEX
  5
19A0
  8
SAPA_LIGHT
 10
-81.500000076061554
 20
-16.099999126805749
 30
0.0
  0
VERTEX
  5
19A1
  8
SAPA_LIGHT
 10
-113.07612046749161
 20
-16.099999126805741
 30
0.0
  0
VERTEX
  5
19A2
  8
SAPA_LIGHT
 10
-113.07612046749161
 20
-76.903640524779476
 30
0.0
  0
VERTEX
  5
19A3
  8
SAPA_LIGHT
 10
-81.500000076061554
 20
-76.903640524779746
 30
0.0
  0
VERTEX
  5
19A4
  8
SAPA_LIGHT
 10
-81.500000076061426
 20
-87.499999126805861
 30
0.0
  0
VERTEX
  5
19A5
  8
SAPA_LIGHT
 10
-73.058578719824084
 20
-87.499999126806031
 30
0.0
  0
VERTEX
  5
19A6
  8
SAPA_LIGHT
 10
-73.058578719824084
 20
-84.999999126805847
 30
0.0
  0
VERTEX
  5
19A7
  8
SAPA_LIGHT
 10
-76.000000000002444
 20
-84.999999126805875
 30
0.0
  0
VERTEX
  5
19A8
  8
SAPA_LIGHT
 10
-76.000000076061554
 20
-7.9999991268058741
 30
0.0
  0
VERTEX
  5
19A9
  8
SAPA_LIGHT
 10
-72.834098182422224
 20
-7.9999991268058741
 30
0.0
  0
SEQEND
  5
19AA
  8
SAPA_LIGHT
  0
POLYLINE
  5
7B5
  8
SAPA_LIGHT
 66
     1
 10
0.0
 20
0.0
 30
0.0
  0
VERTEX
  5
19AB
  8
SAPA_LIGHT
 10
-113.07612046749161
 20
-16.499999074842322
 30
0.0
  0
VERTEX
  5
19AC
  8
SAPA_LIGHT
 10
-169.0000000000029
 20
-16.499999074842322
 30
0.0
  0
VERTEX
  5
19AD
  8
SAPA_LIGHT
 10
-169.0000000000029
 20
-21.025592636620569
 30
0.0
  0
VERTEX
  5
19AE
  8
SAPA_LIGHT
 10
-190.92094861660371
 20
-21.025592636620569
 30
0.0
  0
VERTEX
  5
19AF
  8
SAPA_LIGHT
 10
-190.92094861660351
 20
-38.597515156488541
 30
0.0
  0
VERTEX
  5
19B0
  8
SAPA_LIGHT
 10
-169.0000000000029
 20
-38.597515156488583
 30
0.0
  0
VERTEX
  5
19B1
  8
SAPA_LIGHT
 10
-169.0000000000029
 20
-62.597515156488399
 30
0.0
  0
VERTEX
  5
19B2
  8
SAPA_LIGHT
 10
-191.00000000000281
 20
-62.597515156488399
 30
0.0
  0
VERTEX
  5
19B3
  8
SAPA_LIGHT
 10
-191.00000000000281
 20
-71.999999074842322
 30
0.0
  0
VERTEX
  5
19B4
  8
SAPA_LIGHT
 10
-170.74264068712191
 20
-71.999999074842322
 30
0.0
  0
VERTEX
  5
19B5
  8
SAPA_LIGHT
 10
-170.7426406871221
 20
-76.499999074842322
 30
0.0
  0
VERTEX
  5
19B6
  8
SAPA_LIGHT
 10
-113.07612046749161
 20
-76.49999907484235
 30
0.0
  0
VERTEX
  5
19B7
  8
SAPA_LIGHT
 10
-113.07612046749161
 20
-16.499999074842322
 30
0.0
  0
SEQEND
  5
19B8
  8
SAPA_LIGHT
  0
POLYLINE
  5
7B6
  8
SAPA_LIGHT
 66
     1
 10
0.0
 20
0.0
 30
0.0
  0
VERTEX
  5
19B9
  8
SAPA_LIGHT
 10
-202.80000000000311
 20
-38.597515156488633
 30
0.0
  0
VERTEX
  5
19BA
  8
SAPA_LIGHT
 10
-174.0000000000033
 20
-38.597515156488399
 30
0.0
  0
VERTEX
  5
19BB
  8
SAPA_LIGHT
 10
-174.0000000000033
 20
-62.597515156488399
 30
0.0
  0
VERTEX
  5
19BC
  8
SAPA_LIGHT
 10
-202.80000000000311
 20
-62.597515156488399
 30
0.0
  0
SEQEND
  5
19BD
  8
SAPA_LIGHT
  0
INSERT
  5
7B7
  8
0
  2
*U146
 10
0.0
 20
0.0
 30
0.0
  0
INSERT
  5
7B8
  8
0
  2
*U147
 10
0.0
 20
0.0
 30
0.0
  0
INSERT
  5
7B9
  8
0
  2
*U148
 10
0.0
 20
0.0
 30
0.0
  0
LINE
  5
86A
  8
SAPA_ANSLUTNING
 10
39.999999999998181
 20
-117.0903844870263
 30
0.0
 11
61.9878480036732
 21
-117.09038448702449
 31
0.0
  0
INSERT
  5
86B
  8
SAPA_ANSLUTNING
  6
CONTINUOUS
  2
*X149
 10
0.0
 20
0.0
 30
0.0
1001
ACAD
1000
HATCH
1002
{
1070
    19
1000
HEX
1040
0.25
1040
1.5707963267948959
1000
R14_HATCH_DATA
1000
86B
1011
1.0
1021
0.0
1031
0.0
1021
0.0
1031
0.0
1011
0.0
1021
0.0
1031
0.0
1021
1.0
1031
0.0
1011
0.0
1021
0.0
1031
0.0
1021
0.0
1031
1.0
1040
0.0
1010
0.0
1020
0.0
1030
1.0
1000
HEX
1070
     0
1070
     0
1071
        1
1071
        7
1070
     1
1070
     1
1071
        4
1040
40.0
1040
48.607978463352993
1040
0.0
1040
40.0
1040
41.922133666916118
1040
-0.5833573088295196
1040
25.0
1040
43.292885769349589
1040
0.0
1040
25.0
1040
47.236497961464913
1040
-0.583304359455201
1071
        0
1070
     0
1070
     1
1040
1.5707963267948959
1040
0.25
1070
     0
1070
     3
1040
1.5707963267948959
1040
-8365.6059485907808
1040
-14887.851583070969
1040
1.374814999999999
1040
0.0000000000000001
1070
     2
1040
0.79375
1040
-1.587499999999999
1040
5.7595865315812871
1040
-8365.6059485907808
1040
-14887.851583070969
1040
-0.6874074999999995
1040
-1.190624715503902
1070
     2
1040
0.7937499999999997
1040
-1.587499999999999
1040
0.5235987755982993
1040
-8365.6059485907808
1040
-14887.05783307097
1040
0.6874075000000002
1040
-1.190624715503902
1070
     2
1040
0.79375
1040
-1.587499999999999
1040
0.1410739339181175
1071
        1
1040
32.233313150260066
1040
44.501399145319731
1040
0.0
1002
}
  0
INSERT
  5
86C
  8
SAPA_ANSLUTNING
  6
CONTINUOUS
  2
*X150
 10
0.0
 20
0.0
 30
0.0
1001
ACAD
1000
HATCH
1002
{
1070
    19
1000
ANSI37
1040
0.5
1040
1.5707963267948959
1000
R14_HATCH_DATA
1000
86C
1011
1.0
1021
0.0
1031
0.0
1021
0.0
1031
0.0
1011
0.0
1021
0.0
1031
0.0
1021
1.0
1031
0.0
1011
0.0
1021
0.0
1031
0.0
1021
0.0
1031
1.0
1040
0.0
1010
0.0
1020
0.0
1030
1.0
1000
ANSI37
1070
     0
1070
     0
1071
        1
1071
        7
1070
     1
1070
     1
1071
        4
1040
40.0
1040
63.238041450416858
1040
0.0
1040
40.0
1040
48.607978463354812
1040
0.583304359455175
1040
25.0
1040
47.236497961470377
1040
0.0
1040
25.0
1040
64.000000315134457
1040
0.336972724245998
1071
        0
1070
     0
1070
     1
1040
1.5707963267948959
1040
0.5
1070
     0
1070
     2
1040
0.7853981633974484
1040
-8365.6059485907808
1040
-14887.851583070969
1040
1.122532015133644
1040
-1.1225320151336431
1070
     0
1040
5.4977871437821371
1040
-8365.6059485907808
1040
-14887.851583070969
1040
-1.1225320151336431
1040
-1.122532015133644
1070
     0
1040
0.1410739339181175
1071
        1
1040
33.220830454492898
1040
56.498366170724701
1040
0.0
1002
}
  0
LINE
  5
86D
  8
SAPA_ANSLUTNING
 10
40.0
 20
-117.0903844870263
 30
0.0
 11
40.0
 21
71.164339932203802
 31
0.0
  0
INSERT
  5
86E
  8
SAPA_ANSLUTNING
  6
CONTINUOUS
  2
*X151
 10
0.0
 20
0.0
 30
0.0
1001
ACAD
1000
HATCH
1002
{
1070
    19
1000
HEX
1040
0.25
1040
1.5707963267948959
1000
ASC_BOUNDS
1070
     1
1070
     1
1070
     1
1005
86F
1000
ASC_SEEDPOINT
1011
32.075057672249393
1021
0.0
1031
0.0
1021
-60.97285186418776
1031
0.0
1000
R14_HATCH_DATA
1000
86E
1011
1.0
1021
0.0
1031
0.0
1021
0.0
1031
0.0
1011
0.0
1021
0.0
1031
0.0
1021
1.0
1031
0.0
1011
0.0
1021
0.0
1031
0.0
1021
0.0
1031
1.0
1040
0.0
1010
0.0
1020
0.0
1030
1.0
1000
HEX
1070
     0
1070
     1
1071
        1
1071
        7
1070
     0
1070
     1
1071
        4
1040
25.000000373538569
1040
-70.413648530766295
1040
40.0
1040
-70.413648530766309
1040
40.0
1040
-50.413648530766288
1040
25.000000373538569
1040
-50.413648530766288
1071
        1
1005
86F
1070
     0
1070
     1
1040
1.5707963267948959
1040
0.25
1070
     0
1070
     3
1040
1.5707963267948959
1040
-8365.6059485907808
1040
-14897.851583070969
1040
1.374814999999999
1040
0.0000000000000001
1070
     2
1040
0.79375
1040
-1.587499999999999
1040
5.7595865315812871
1040
-8365.6059485907808
1040
-14897.851583070969
1040
-0.6874074999999995
1040
-1.190624715503902
1070
     2
1040
0.7937499999999997
1040
-1.587499999999999
1040
0.5235987755982993
1040
-8365.6059485907808
1040
-14897.05783307097
1040
0.6874075000000002
1040
-1.190624715503902
1070
     2
1040
0.79375
1040
-1.587499999999999
1040
0.1003462305837255
1071
        1
1040
32.075057672249393
1040
-60.97285186418776
1040
0.0
1002
}
  0
POLYLINE
  5
86F
  8
SAPA_ANSLUTNING
 66
     1
 10
0.0
 20
0.0
 30
0.0
1001
ACAD
1000
ASC_BOUNDS
1002
{
1070
    19
1005
86E
1002
}
  0
VERTEX
  5
1BAC
  8
SAPA_ANSLUTNING
 10
25.000000373538569
 20
-70.413648530766295
 30
0.0
  0
VERTEX
  5
1BAD
  8
SAPA_ANSLUTNING
 10
25.000000373538569
 20
-50.413648530766288
 30
0.0
  0
VERTEX
  5
1BAE
  8
SAPA_ANSLUTNING
 10
40.0
 20
-50.413648530766288
 30
0.0
  0
VERTEX
  5
1BAF
  8
SAPA_ANSLUTNING
 10
40.0
 20
-70.413648530766295
 30
0.0
  0
VERTEX
  5
1BB0
  8
SAPA_ANSLUTNING
 10
25.000000373538569
 20
-70.413648530766295
 30
0.0
  0
SEQEND
  5
1BB1
  8
SAPA_ANSLUTNING
  0
ARC
  5
870
  8
SAPA_ANSLUTNING
 10
33.001107298146962
 20
73.483870312700674
 30
0.0
 40
12.40812266731845
 50
229.8472071835433
 51
304.33685918353211
  0
ARC
  5
871
  8
SAPA_ANSLUTNING
 10
32.887531478043464
 20
46.848227029699039
 30
0.0
 40
8.6517977492931522
 50
204.2636967634478
 51
324.91659138957829
  0
ARC
  5
872
  8
SAPA_ANSLUTNING
 10
32.887808915096691
 20
43.680738811974152
 30
0.0
 40
8.6522224087403927
 50
35.09476207665719
 51
155.7345353690888
  0
POLYLINE
  5
873
  8
SAPA_ANSLUTNING
 66
     1
 10
0.0
 20
0.0
 30
0.0
 70
     1
  0
VERTEX
  5
1BB2
  8
SAPA_ANSLUTNING
 10
5.0
 20
-85.000000000001819
 30
0.0
  0
VERTEX
  5
1BB3
  8
SAPA_ANSLUTNING
 10
5.0
 20
-35.646412816688098
 30
0.0
  0
VERTEX
  5
1BB4
  8
SAPA_ANSLUTNING
 10
24.99005439635221
 20
-35.646412816688098
 30
0.0
  0
VERTEX
  5
1BB5
  8
SAPA_ANSLUTNING
 10
24.99005439635221
 20
-85.000000000001819
 30
0.0
  0
SEQEND
  5
1BB6
  8
SAPA_ANSLUTNING
  0
LINE
  5
874
  8
SAPA_ANSLUTNING
 10
5.0
 20
-85.000000000001819
 30
0.0
 11
24.99005439635221
 21
-35.646412816688098
 31
0.0
  0
LINE
  5
875
  8
SAPA_ANSLUTNING
 10
5.0
 20
-35.646412816688098
 30
0.0
 11
24.99005439635221
 21
-85.000000000001819
 31
0.0
  0
POLYLINE
  5
876
  8
SAPA_ANSLUTNING
 66
     1
 10
0.0
 20
0.0
 30
0.0
  0
VERTEX
  5
1BB7
  8
SAPA_ANSLUTNING
 10
38.005684996556738
 20
38.11295771959886
 30
0.0
  0
VERTEX
  5
1BB8
  8
SAPA_ANSLUTNING
 10
27.005683154244249
 20
38.11295771959886
 30
0.0
 42
0.9999999999999998
  0
VERTEX
  5
1BB9
  8
SAPA_ANSLUTNING
 10
27.005683154244249
 20
34.112957719598853
 30
0.0
  0
VERTEX
  5
1BBA
  8
SAPA_ANSLUTNING
 10
38.000000000001819
 20
34.112957719598853
 30
0.0
 42
-0.9999999999999998
  0
VERTEX
  5
1BBB
  8
SAPA_ANSLUTNING
 10
38.000000000001819
 20
30.112957719602491
 30
0.0
  0
VERTEX
  5
1BBC
  8
SAPA_ANSLUTNING
 10
27.00568131193177
 20
30.11295771960431
 30
0.0
 42
0.9999999999999998
  0
VERTEX
  5
1BBD
  8
SAPA_ANSLUTNING
 10
27.00568131193177
 20
26.11295771960431
 30
0.0
  0
VERTEX
  5
1BBE
  8
SAPA_ANSLUTNING
 10
37.999998157689333
 20
26.11295771960431
 30
0.0
 42
-0.9999999999999998
  0
VERTEX
  5
1BBF
  8
SAPA_ANSLUTNING
 10
37.999998157689333
 20
22.112957719607952
 30
0.0
  0
VERTEX
  5
1BC0
  8
SAPA_ANSLUTNING
 10
27.00568131193177
 20
22.112957719607952
 30
0.0
 42
0.9999999999999998
  0
VERTEX
  5
1BC1
  8
SAPA_ANSLUTNING
 10
27.00568131193177
 20
18.112957719607952
 30
0.0
  0
VERTEX
  5
1BC2
  8
SAPA_ANSLUTNING
 10
37.999998157689333
 20
18.112957719606129
 30
0.0
 42
-0.9999999999999998
  0
VERTEX
  5
1BC3
  8
SAPA_ANSLUTNING
 10
37.999998157689333
 20
14.1129577196134
 30
0.0
  0
VERTEX
  5
1BC4
  8
SAPA_ANSLUTNING
 10
27.00568131193177
 20
14.1129577196134
 30
0.0
 42
0.9999999999999998
  0
VERTEX
  5
1BC5
  8
SAPA_ANSLUTNING
 10
27.00568131193177
 20
10.1129577196134
 30
0.0
  0
VERTEX
  5
1BC6
  8
SAPA_ANSLUTNING
 10
37.999998157689333
 20
10.11295771961522
 30
0.0
 42
-0.9999999999999998
  0
VERTEX
  5
1BC7
  8
SAPA_ANSLUTNING
 10
37.999998157689333
 20
6.112957719618862
 30
0.0
  0
VERTEX
  5
1BC8
  8
SAPA_ANSLUTNING
 10
27.00568131193177
 20
6.112957719617043
 30
0.0
 42
0.9999999999999998
  0
VERTEX
  5
1BC9
  8
SAPA_ANSLUTNING
 10
27.00568131193177
 20
2.112957719617043
 30
0.0
  0
VERTEX
  5
1BCA
  8
SAPA_ANSLUTNING
 10
37.999998157689333
 20
2.112957719617043
 30
0.0
 42
-0.9999999999999998
  0
VERTEX
  5
1BCB
  8
SAPA_ANSLUTNING
 10
37.999998157689333
 20
-1.8870422803793181
 30
0.0
  0
VERTEX
  5
1BCC
  8
SAPA_ANSLUTNING
 10
27.00568131193177
 20
-1.8870422803774991
 30
0.0
 42
0.9999999999999998
  0
VERTEX
  5
1BCD
  8
SAPA_ANSLUTNING
 10
27.00568131193177
 20
-5.8870422803774991
 30
0.0
  0
VERTEX
  5
1BCE
  8
SAPA_ANSLUTNING
 10
37.999998157689333
 20
-5.887042280373862
 30
0.0
 42
-0.9999999999999998
  0
VERTEX
  5
1BCF
  8
SAPA_ANSLUTNING
 10
37.999998157689333
 20
-9.887042280373862
 30
0.0
  0
VERTEX
  5
1BD0
  8
SAPA_ANSLUTNING
 10
27.00568131193177
 20
-9.887042280373862
 30
0.0
 42
0.9999999999999998
  0
VERTEX
  5
1BD1
  8
SAPA_ANSLUTNING
 10
27.00568131193177
 20
-13.88704228037386
 30
0.0
  0
VERTEX
  5
1BD2
  8
SAPA_ANSLUTNING
 10
37.999998157689333
 20
-13.887042280375679
 30
0.0
 42
-0.9999999999999998
  0
VERTEX
  5
1BD3
  8
SAPA_ANSLUTNING
 10
37.999998157689333
 20
-17.887042280368401
 30
0.0
  0
VERTEX
  5
1BD4
  8
SAPA_ANSLUTNING
 10
27.005679469619281
 20
-17.887042280368401
 30
0.0
 42
0.9999999999999998
  0
VERTEX
  5
1BD5
  8
SAPA_ANSLUTNING
 10
27.005679469619281
 20
-21.887042280368401
 30
0.0
  0
VERTEX
  5
1BD6
  8
SAPA_ANSLUTNING
 10
37.999996315376848
 20
-21.887042280368401
 30
0.0
 42
-0.9999999999999998
  0
VERTEX
  5
1BD7
  8
SAPA_ANSLUTNING
 10
37.999996315376848
 20
-25.887042280364771
 30
0.0
  0
VERTEX
  5
1BD8
  8
SAPA_ANSLUTNING
 10
27.005679469619281
 20
-25.887042280364771
 30
0.0
 42
0.9999999999999998
  0
VERTEX
  5
1BD9
  8
SAPA_ANSLUTNING
 10
27.005679469619281
 20
-29.887042280364771
 30
0.0
  0
VERTEX
  5
1BDA
  8
SAPA_ANSLUTNING
 10
37.999996315376848
 20
-29.887042280364771
 30
0.0
 42
-0.9999999999999998
  0
VERTEX
  5
1BDB
  8
SAPA_ANSLUTNING
 10
37.999996315376848
 20
-33.887042280361129
 30
0.0
  0
VERTEX
  5
1BDC
  8
SAPA_ANSLUTNING
 10
27.005679469619281
 20
-33.887042280361129
 30
0.0
 42
0.9999999999999998
  0
VERTEX
  5
1BDD
  8
SAPA_ANSLUTNING
 10
27.005679469619281
 20
-37.887042280361129
 30
0.0
  0
VERTEX
  5
1BDE
  8
SAPA_ANSLUTNING
 10
37.999996315375029
 20
-37.887042280361129
 30
0.0
 42
-0.9999999999999998
  0
VERTEX
  5
1BDF
  8
SAPA_ANSLUTNING
 10
37.999996315375029
 20
-41.887042280357477
 30
0.0
  0
VERTEX
  5
1BE0
  8
SAPA_ANSLUTNING
 10
27.005679469617458
 20
-41.887042280357477
 30
0.0
 42
0.9999999999999998
  0
VERTEX
  5
1BE1
  8
SAPA_ANSLUTNING
 10
27.005679469617458
 20
-45.887042280357491
 30
0.0
  0
VERTEX
  5
1BE2
  8
SAPA_ANSLUTNING
 10
37.999996315375029
 20
-45.887042280357491
 30
0.0
 42
-0.9999999999999998
  0
VERTEX
  5
1BE3
  8
SAPA_ANSLUTNING
 10
37.99999631537321
 20
-49.887042280353853
 30
0.0
  0
VERTEX
  5
1BE4
  8
SAPA_ANSLUTNING
 10
27.00567946961565
 20
-49.887042280353853
 30
0.0
  0
SEQEND
  5
1BE5
  8
SAPA_ANSLUTNING
  0
INSERT
  5
F6A
  8
0
  2
*U152
 10
0.0
 20
0.0
 30
0.0
  0
INSERT
  5
F6B
  8
0
  2
*U153
 10
0.0
 20
0.0
 30
0.0
  0
INSERT
  5
F6E
  8
0
  2
*U154
 10
0.0
 20
0.0
 30
0.0
  0
LINE
  5
15C2
  8
SAPA_PROFIL
 10
39.922956765940398
 20
-85.499999999010456
 30
0.0
 11
5.0104732981108091
 21
-85.499999999010456
 31
0.0
  0
LINE
  5
15C3
  8
SAPA_PROFIL
 10
5.0104732981108091
 20
-85.499999999010456
 30
0.0
 11
5.0104732981108091
 21
-86.499999999010456
 31
0.0
  0
LINE
  5
15C4
  8
SAPA_PROFIL
 10
5.0104732981108091
 20
-86.499999999010456
 30
0.0
 11
38.922956765940398
 21
-86.499999999010456
 31
0.0
  0
LINE
  5
15C5
  8
SAPA_PROFIL
 10
38.922956765940398
 20
-86.499999999010456
 30
0.0
 11
38.922956765940398
 21
-106.58025293099671
 31
0.0
  0
LINE
  5
15C6
  8
SAPA_PROFIL
 10
38.922956765940398
 20
-106.58025293099671
 30
0.0
 11
39.922956765940398
 21
-106.58025293099671
 31
0.0
  0
LINE
  5
15C7
  8
SAPA_PROFIL
 10
39.922956765940398
 20
-106.58025293099671
 30
0.0
 11
39.922956765940398
 21
-85.499999999010456
 31
0.0
  0
POLYLINE
  5
1871
  8
SAPA_PROFIL
 66
     1
 10
0.0
 20
0.0
 30
0.0
  0
VERTEX
  5
2238
  8
SAPA_PROFIL
 10
-175.65910872897339
 20
-28.510832501056829
 30
0.0
  0
VERTEX
  5
2239
  8
SAPA_PROFIL
 10
-175.65910872897339
 20
-31.011943298337322
 30
0.0
  0
VERTEX
  5
223A
  8
SAPA_PROFIL
 10
-174.6876770825973
 20
-31.96656651853522
 30
0.0
  0
VERTEX
  5
223B
  8
SAPA_PROFIL
 10
-171.9885958065629
 20
-31.96656651853522
 30
0.0
 42
-0.4883397947196166
  0
VERTEX
  5
223C
  8
SAPA_PROFIL
 10
-170.42687398055449
 20
-31.745943584336999
 30
0.0
  0
VERTEX
  5
223D
  8
SAPA_PROFIL
 10
-170.3542343044268
 20
-32.827399309607529
 30
0.0
 42
-0.4293387945586757
  0
VERTEX
  5
223E
  8
SAPA_PROFIL
 10
-170.65096082551131
 20
-33.145510445596869
 30
0.0
  0
VERTEX
  5
223F
  8
SAPA_PROFIL
 10
-175.2000368597995
 20
-33.145510445596869
 30
0.0
  0
VERTEX
  5
2240
  8
SAPA_PROFIL
 10
-176.85472545742331
 20
-31.51945248940331
 30
0.0
  0
VERTEX
  5
2241
  8
SAPA_PROFIL
 10
-176.867553058949
 20
-29.044804733283911
 30
0.0
 42
0.4182129759575377
  0
VERTEX
  5
2242
  8
SAPA_PROFIL
 10
-177.37871417100459
 20
-28.549293012426691
 30
0.0
  0
VERTEX
  5
2243
  8
SAPA_PROFIL
 10
-192.0670808986379
 20
-28.703731614081619
 30
0.0
 42
0.4076789000515417
  0
VERTEX
  5
2244
  8
SAPA_PROFIL
 10
-194.99999999549749
 20
-31.7029815457201
 30
0.0
  0
VERTEX
  5
2245
  8
SAPA_PROFIL
 10
-194.99999999549749
 20
-37.202618495350073
 30
0.0
 42
0.4142135623730951
  0
VERTEX
  5
2246
  8
SAPA_PROFIL
 10
-194.49999999549749
 20
-37.702618495350073
 30
0.0
  0
VERTEX
  5
2247
  8
SAPA_PROFIL
 10
-186.74999999549749
 20
-37.702618495350073
 30
0.0
 42
-0.4142135623730904
  0
VERTEX
  5
2248
  8
SAPA_PROFIL
 10
-184.94999999549751
 20
-39.502618495350021
 30
0.0
  0
VERTEX
  5
2249
  8
SAPA_PROFIL
 10
-184.94999999549751
 20
-40.202618495350059
 30
0.0
 42
0.4142135623730951
  0
VERTEX
  5
224A
  8
SAPA_PROFIL
 10
-184.44999999549739
 20
-40.702618495350073
 30
0.0
  0
VERTEX
  5
224B
  8
SAPA_PROFIL
 10
-174.59833515142441
 20
-40.702618495350073
 30
0.0
  0
VERTEX
  5
224C
  8
SAPA_PROFIL
 10
-173.30239820950101
 20
-42.330253138325702
 30
0.0
  0
VERTEX
  5
224D
  8
SAPA_PROFIL
 10
-172.81256793881121
 20
-42.758960828274212
 30
0.0
  0
VERTEX
  5
224E
  8
SAPA_PROFIL
 10
-170.701688790292
 20
-42.566654474285258
 30
0.0
 42
-0.668178637919305
  0
VERTEX
  5
224F
  8
SAPA_PROFIL
 10
-170.42852259509769
 20
-43.049002326376133
 30
0.0
  0
VERTEX
  5
2250
  8
SAPA_PROFIL
 10
-171.1994327126022
 20
-45.159109665913782
 30
0.0
 42
-0.7332303362618641
  0
VERTEX
  5
2251
  8
SAPA_PROFIL
 10
-171.73550873525451
 20
-44.958935077343661
 30
0.0
  0
VERTEX
  5
2252
  8
SAPA_PROFIL
 10
-171.69596584133609
 20
-44.236278983784651
 30
0.0
 42
0.4666505291506066
  0
VERTEX
  5
2253
  8
SAPA_PROFIL
 10
-171.97576740725489
 20
-43.974447452740101
 30
0.0
  0
VERTEX
  5
2254
  8
SAPA_PROFIL
 10
-173.55733907155849
 20
-43.952585475486451
 30
0.0
  0
VERTEX
  5
2255
  8
SAPA_PROFIL
 10
-175.37908221132369
 20
-42.002618495350021
 30
0.0
  0
VERTEX
  5
2256
  8
SAPA_PROFIL
 10
-186.50999999549751
 20
-42.00261849535007
 30
0.0
 42
-0.4142135623730951
  0
VERTEX
  5
2257
  8
SAPA_PROFIL
 10
-187.49999999549749
 20
-41.012618495350061
 30
0.0
  0
VERTEX
  5
2258
  8
SAPA_PROFIL
 10
-187.49999999549749
 20
-41.002618495350021
 30
0.0
  0
VERTEX
  5
2259
  8
SAPA_PROFIL
 10
-186.24999999549749
 20
-41.002618495350021
 30
0.0
  0
VERTEX
  5
225A
  8
SAPA_PROFIL
 10
-186.24999999549749
 20
-39.502618495350021
 30
0.0
 42
0.4142135623730951
  0
VERTEX
  5
225B
  8
SAPA_PROFIL
 10
-186.74999999549749
 20
-39.002618495350021
 30
0.0
  0
VERTEX
  5
225C
  8
SAPA_PROFIL
 10
-194.74999999549749
 20
-39.002618495350021
 30
0.0
 42
0.4142135623730951
  0
VERTEX
  5
225D
  8
SAPA_PROFIL
 10
-195.24999999549749
 20
-39.502618495350021
 30
0.0
  0
VERTEX
  5
225E
  8
SAPA_PROFIL
 10
-195.24999999549749
 20
-41.002618495350021
 30
0.0
  0
VERTEX
  5
225F
  8
SAPA_PROFIL
 10
-193.99999999549749
 20
-41.002618495350021
 30
0.0
  0
VERTEX
  5
2260
  8
SAPA_PROFIL
 10
-193.99999999549749
 20
-41.012618495350061
 30
0.0
 42
-0.4142135623730909
  0
VERTEX
  5
2261
  8
SAPA_PROFIL
 10
-194.9899999954975
 20
-42.002618495350021
 30
0.0
  0
VERTEX
  5
2262
  8
SAPA_PROFIL
 10
-196.19999999549759
 20
-42.00261849535007
 30
0.0
 42
-0.4142135623730951
  0
VERTEX
  5
2263
  8
SAPA_PROFIL
 10
-196.49999999549749
 20
-41.702618495350059
 30
0.0
  0
VERTEX
  5
2264
  8
SAPA_PROFIL
 10
-196.49999999549749
 20
-27.299989012363319
 30
0.0
 42
-0.4116598904954198
  0
VERTEX
  5
2265
  8
SAPA_PROFIL
 10
-196.20261795614701
 20
-27.000000435444019
 30
0.0
  0
VERTEX
  5
2266
  8
SAPA_PROFIL
 10
-175.18533306245851
 20
-27.000000435444019
 30
0.0
  0
VERTEX
  5
2267
  8
SAPA_PROFIL
 10
-175.18533306245851
 20
-28.51281715545236
 30
0.0
  0
VERTEX
  5
2268
  8
SAPA_PROFIL
 10
-175.65910872897339
 20
-28.51281715545236
 30
0.0
  0
SEQEND
  5
2269
  8
SAPA_PROFIL
  0
POLYLINE
  5
1872
  8
SAPA_PROFIL
 66
     1
 10
0.0
 20
0.0
 30
0.0
 70
     1
  0
VERTEX
  5
226A
  8
SAPA_PROFIL
 10
-106.5012645205329
 20
-39.330960971802739
 30
0.0
 42
-0.4557262555325856
  0
VERTEX
  5
226B
  8
SAPA_PROFIL
 10
-106.9963981031885
 20
-39.900547002643798
 30
0.0
  0
VERTEX
  5
226C
  8
SAPA_PROFIL
 10
-108.5031419954974
 20
-39.900547002643798
 30
0.0
  0
VERTEX
  5
226D
  8
SAPA_PROFIL
 10
-108.5031419954974
 20
-41.400547002643798
 30
0.0
  0
VERTEX
  5
226E
  8
SAPA_PROFIL
 10
-109.5031419954974
 20
-41.400547002643798
 30
0.0
  0
VERTEX
  5
226F
  8
SAPA_PROFIL
 10
-109.5031419954974
 20
-51.63301559885948
 30
0.0
  0
VERTEX
  5
2270
  8
SAPA_PROFIL
 10
-110.0031419954974
 20
-52.499041002643906
 30
0.0
  0
VERTEX
  5
2271
  8
SAPA_PROFIL
 10
-109.5031419954974
 20
-53.365066406428269
 30
0.0
  0
VERTEX
  5
2272
  8
SAPA_PROFIL
 10
-109.5031419954974
 20
-63.59753500264398
 30
0.0
  0
VERTEX
  5
2273
  8
SAPA_PROFIL
 10
-108.5031419954974
 20
-63.59753500264398
 30
0.0
  0
VERTEX
  5
2274
  8
SAPA_PROFIL
 10
-108.5031419954974
 20
-65.097535002643994
 30
0.0
  0
VERTEX
  5
2275
  8
SAPA_PROFIL
 10
-106.5031419954974
 20
-65.097535002643994
 30
0.0
  0
VERTEX
  5
2276
  8
SAPA_PROFIL
 10
-105.4744595685994
 20
-70.931482948470986
 30
0.0
 42
-0.4142135623730531
  0
VERTEX
  5
2277
  8
SAPA_PROFIL
 10
-105.88003935627199
 20
-71.51071091381047
 30
0.0
  0
VERTEX
  5
2278
  8
SAPA_PROFIL
 10
-106.3724432327781
 20
-71.597535002643994
 30
0.0
  0
VERTEX
  5
2279
  8
SAPA_PROFIL
 10
-106.4939969571449
 20
-70.908169575535354
 30
0.0
 42
0.6705660098148247
  0
VERTEX
  5
227A
  8
SAPA_PROFIL
 10
-107.0363143103983
 20
-70.789815441657055
 30
0.0
  0
VERTEX
  5
227B
  8
SAPA_PROFIL
 10
-108.68425312161951
 20
-73.176663850467932
 30
0.0
 42
0.4103557430781616
  0
VERTEX
  5
227C
  8
SAPA_PROFIL
 10
-108.56398326784389
 20
-73.85874808563338
 30
0.0
  0
VERTEX
  5
227D
  8
SAPA_PROFIL
 10
-106.1990770925545
 20
-75.538023653921684
 30
0.0
 42
0.6705660098148535
  0
VERTEX
  5
227E
  8
SAPA_PROFIL
 10
-105.7299449754105
 20
-75.241323688789052
 30
0.0
  0
VERTEX
  5
227F
  8
SAPA_PROFIL
 10
-105.85149869977739
 20
-74.551958261680554
 30
0.0
  0
VERTEX
  5
2280
  8
SAPA_PROFIL
 10
-105.35909482327131
 20
-74.465134172847087
 30
0.0
 42
-0.4142135623731039
  0
VERTEX
  5
2281
  8
SAPA_PROFIL
 10
-104.77986685793179
 20
-74.870713960519737
 30
0.0
  0
VERTEX
  5
2282
  8
SAPA_PROFIL
 10
-104.7030427690982
 20
-75.306405018829679
 30
0.0
  0
VERTEX
  5
2283
  8
SAPA_PROFIL
 10
-104.705713356814
 20
-76.892888997788816
 30
0.0
 42
0.4147066859862996
  0
VERTEX
  5
2284
  8
SAPA_PROFIL
 10
-101.70571760724179
 20
-79.897939002643881
 30
0.0
  0
VERTEX
  5
2285
  8
SAPA_PROFIL
 10
-93.999088995497459
 20
-79.897939002643881
 30
0.0
 42
-0.6638253569871671
  0
VERTEX
  5
2286
  8
SAPA_PROFIL
 10
-93.641115188510355
 20
-80.777125195578463
 30
0.0
  0
VERTEX
  5
2287
  8
SAPA_PROFIL
 10
-95.620153386168937
 20
-82.756163393237173
 30
0.0
 42
-0.1989123673796449
  0
VERTEX
  5
2288
  8
SAPA_PROFIL
 10
-95.973706776762242
 20
-82.902610002643854
 30
0.0
  0
VERTEX
  5
2289
  8
SAPA_PROFIL
 10
-107.7919817511624
 20
-82.902610002643854
 30
0.0
 42
-0.1989123673796422
  0
VERTEX
  5
228A
  8
SAPA_PROFIL
 10
-108.1455351417557
 20
-82.756163393237159
 30
0.0
  0
VERTEX
  5
228B
  8
SAPA_PROFIL
 10
-113.50628192294219
 20
-77.395416612050582
 30
0.0
 42
0.1989123673796659
  0
VERTEX
  5
228C
  8
SAPA_PROFIL
 10
-113.8598353135355
 20
-77.248970002643858
 30
0.0
  0
VERTEX
  5
228D
  8
SAPA_PROFIL
 10
-118.4999999954974
 20
-77.248970002643858
 30
0.0
  0
VERTEX
  5
228E
  8
SAPA_PROFIL
 10
-118.4999999954974
 20
-73.998970002643858
 30
0.0
  0
VERTEX
  5
228F
  8
SAPA_PROFIL
 10
-119.9999999954974
 20
-72.498970002643858
 30
0.0
  0
VERTEX
  5
2290
  8
SAPA_PROFIL
 10
-118.4999999954974
 20
-70.998970002643858
 30
0.0
  0
VERTEX
  5
2291
  8
SAPA_PROFIL
 10
-118.4999999954974
 20
-67.400001002643862
 30
0.0
 42
0.4142140000000165
  0
VERTEX
  5
2292
  8
SAPA_PROFIL
 10
-118.9999999954974
 20
-66.900001002643862
 30
0.0
  0
VERTEX
  5
2293
  8
SAPA_PROFIL
 10
-120.5031419954974
 20
-66.900001002643862
 30
0.0
 42
-0.4142140000000145
  0
VERTEX
  5
2294
  8
SAPA_PROFIL
 10
-121.5031419954974
 20
-65.900001002643862
 30
0.0
  0
VERTEX
  5
2295
  8
SAPA_PROFIL
 10
-121.5031419954974
 20
-64.900001002643833
 30
0.0
  0
VERTEX
  5
2296
  8
SAPA_PROFIL
 10
-114.24432286357479
 20
-62.955005578955472
 30
0.0
 42
0.3394542338034085
  0
VERTEX
  5
2297
  8
SAPA_PROFIL
 10
-113.5031419954974
 20
-61.989079775929753
 30
0.0
  0
VERTEX
  5
2298
  8
SAPA_PROFIL
 10
-113.5031419954974
 20
-43.010921094958178
 30
0.0
 42
0.3394542744563553
  0
VERTEX
  5
2299
  8
SAPA_PROFIL
 10
-114.2443230044167
 20
-42.044995254193957
 30
0.0
  0
VERTEX
  5
229A
  8
SAPA_PROFIL
 10
-121.5031419954974
 20
-40.100001002643801
 30
0.0
  0
VERTEX
  5
229B
  8
SAPA_PROFIL
 10
-121.5031419954974
 20
-39.100001002643808
 30
0.0
 42
-0.4142139999999982
  0
VERTEX
  5
229C
  8
SAPA_PROFIL
 10
-120.5031419954974
 20
-38.100001002643921
 30
0.0
  0
VERTEX
  5
229D
  8
SAPA_PROFIL
 10
-119.01273599549749
 20
-38.100001002643808
 30
0.0
 42
0.4142140000000124
  0
VERTEX
  5
229E
  8
SAPA_PROFIL
 10
-118.51273599549739
 20
-37.600001002643843
 30
0.0
  0
VERTEX
  5
229F
  8
SAPA_PROFIL
 10
-118.51273599549739
 20
-34.000001002643899
 30
0.0
  0
VERTEX
  5
22A0
  8
SAPA_PROFIL
 10
-120.01273599549749
 20
-32.500001002643899
 30
0.0
  0
VERTEX
  5
22A1
  8
SAPA_PROFIL
 10
-118.51273599549739
 20
-31.000001002643899
 30
0.0
  0
VERTEX
  5
22A2
  8
SAPA_PROFIL
 10
-118.51273599549739
 20
-27.750001002643842
 30
0.0
  0
VERTEX
  5
22A3
  8
SAPA_PROFIL
 10
-110.5001819384991
 20
-27.750001002643842
 30
0.0
 42
-0.3780475071674513
  0
VERTEX
  5
22A4
  8
SAPA_PROFIL
 10
-107.5236028599021
 20
-30.375866015160511
 30
0.0
  0
VERTEX
  5
22A5
  8
SAPA_PROFIL
 10
-107.1602394475758
 20
-33.266747561239043
 30
0.0
 42
-0.4247728136669583
  0
VERTEX
  5
22A6
  8
SAPA_PROFIL
 10
-108.0469829954974
 20
-34.400547002643862
 30
0.0
  0
VERTEX
  5
22A7
  8
SAPA_PROFIL
 10
-108.0469829954974
 20
-33.150547002643812
 30
0.0
  0
VERTEX
  5
22A8
  8
SAPA_PROFIL
 10
-109.1469829954974
 20
-33.150547002643812
 30
0.0
  0
VERTEX
  5
22A9
  8
SAPA_PROFIL
 10
-109.1469829954974
 20
-38.350547002643879
 30
0.0
  0
VERTEX
  5
22AA
  8
SAPA_PROFIL
 10
-108.0469829954974
 20
-38.350547002643879
 30
0.0
  0
VERTEX
  5
22AB
  8
SAPA_PROFIL
 10
-108.0469829954974
 20
-37.100547002643879
 30
0.0
  0
VERTEX
  5
22AC
  8
SAPA_PROFIL
 10
-107.6734608521446
 20
-37.100547002643879
 30
0.0
 42
-0.3760477967976817
  0
VERTEX
  5
22AD
  8
SAPA_PROFIL
 10
-106.6821655339381
 20
-37.968889902183243
 30
0.0
  0
SEQEND
  5
22AE
  8
SAPA_PROFIL
  0
POLYLINE
  5
1873
  8
SAPA_PROFIL
 66
     1
 10
0.0
 20
0.0
 30
0.0
 70
     1
  0
VERTEX
  5
22AF
  8
SAPA_PROFIL
 10
-100.4987354704619
 20
-65.668626066860284
 30
0.0
 42
-0.4557262555325856
  0
VERTEX
  5
22B0
  8
SAPA_PROFIL
 10
-100.0036018878063
 20
-65.099040036019218
 30
0.0
  0
VERTEX
  5
22B1
  8
SAPA_PROFIL
 10
-98.496857995497393
 20
-65.099040036019218
 30
0.0
  0
VERTEX
  5
22B2
  8
SAPA_PROFIL
 10
-98.496857995497393
 20
-63.599040036019218
 30
0.0
  0
VERTEX
  5
22B3
  8
SAPA_PROFIL
 10
-97.496857995497365
 20
-63.599040036019218
 30
0.0
  0
VERTEX
  5
22B4
  8
SAPA_PROFIL
 10
-97.496857995497365
 20
-53.366571439803529
 30
0.0
  0
VERTEX
  5
22B5
  8
SAPA_PROFIL
 10
-96.996857995497379
 20
-52.500546036019117
 30
0.0
  0
VERTEX
  5
22B6
  8
SAPA_PROFIL
 10
-97.496857995497365
 20
-51.634520632234747
 30
0.0
  0
VERTEX
  5
22B7
  8
SAPA_PROFIL
 10
-97.496857995497365
 20
-41.402052036019043
 30
0.0
  0
VERTEX
  5
22B8
  8
SAPA_PROFIL
 10
-98.496857995497393
 20
-41.402052036019043
 30
0.0
  0
VERTEX
  5
22B9
  8
SAPA_PROFIL
 10
-98.496857995497393
 20
-39.902052036019029
 30
0.0
  0
VERTEX
  5
22BA
  8
SAPA_PROFIL
 10
-100.49685799549739
 20
-39.90205203601905
 30
0.0
  0
VERTEX
  5
22BB
  8
SAPA_PROFIL
 10
-101.52554042239539
 20
-34.068104090192051
 30
0.0
 42
-0.4142135623730531
  0
VERTEX
  5
22BC
  8
SAPA_PROFIL
 10
-101.1199606347228
 20
-33.488876124852567
 30
0.0
  0
VERTEX
  5
22BD
  8
SAPA_PROFIL
 10
-100.6275567582167
 20
-33.402052036019043
 30
0.0
  0
VERTEX
  5
22BE
  8
SAPA_PROFIL
 10
-100.50600303384989
 20
-34.091417463127677
 30
0.0
 42
0.6705660098148247
  0
VERTEX
  5
22BF
  8
SAPA_PROFIL
 10
-99.963685680596512
 20
-34.209771597005982
 30
0.0
  0
VERTEX
  5
22C0
  8
SAPA_PROFIL
 10
-98.31574686937536
 20
-31.822923188195091
 30
0.0
 42
0.4103557430781616
  0
VERTEX
  5
22C1
  8
SAPA_PROFIL
 10
-98.436016723150914
 20
-31.14083895302965
 30
0.0
  0
VERTEX
  5
22C2
  8
SAPA_PROFIL
 10
-100.8009228984404
 20
-29.461563384741339
 30
0.0
 42
0.6705660098148535
  0
VERTEX
  5
22C3
  8
SAPA_PROFIL
 10
-101.2700550155843
 20
-29.758263349873989
 30
0.0
  0
VERTEX
  5
22C4
  8
SAPA_PROFIL
 10
-101.1485012912175
 20
-30.447628776982491
 30
0.0
  0
VERTEX
  5
22C5
  8
SAPA_PROFIL
 10
-101.6409051677236
 20
-30.53445286581595
 30
0.0
 42
-0.4142135623731039
  0
VERTEX
  5
22C6
  8
SAPA_PROFIL
 10
-102.2201331330631
 20
-30.1288730781433
 30
0.0
  0
VERTEX
  5
22C7
  8
SAPA_PROFIL
 10
-102.29695722189661
 20
-29.693182019833358
 30
0.0
  0
VERTEX
  5
22C8
  8
SAPA_PROFIL
 10
-102.29428663418081
 20
-28.106698040874221
 30
0.0
 42
0.4147066859862996
  0
VERTEX
  5
22C9
  8
SAPA_PROFIL
 10
-105.294282383753
 20
-25.10164803601916
 30
0.0
  0
VERTEX
  5
22CA
  8
SAPA_PROFIL
 10
-113.00091099549741
 20
-25.10164803601916
 30
0.0
 42
-0.6638253569871671
  0
VERTEX
  5
22CB
  8
SAPA_PROFIL
 10
-113.3588848024845
 20
-24.222461843084581
 30
0.0
  0
VERTEX
  5
22CC
  8
SAPA_PROFIL
 10
-111.3798466048259
 20
-22.24342364542585
 30
0.0
 42
-0.1989123673796449
  0
VERTEX
  5
22CD
  8
SAPA_PROFIL
 10
-111.0262932142326
 20
-22.09697703601918
 30
0.0
  0
VERTEX
  5
22CE
  8
SAPA_PROFIL
 10
-99.208018239832427
 20
-22.09697703601918
 30
0.0
 42
-0.1989123673796422
  0
VERTEX
  5
22CF
  8
SAPA_PROFIL
 10
-98.854464849239164
 20
-22.243423645425882
 30
0.0
  0
VERTEX
  5
22D0
  8
SAPA_PROFIL
 10
-93.493718068052601
 20
-27.604170426612441
 30
0.0
 42
0.1989123673796659
  0
VERTEX
  5
22D1
  8
SAPA_PROFIL
 10
-93.140164677459325
 20
-27.750617036019172
 30
0.0
  0
VERTEX
  5
22D2
  8
SAPA_PROFIL
 10
-88.499999995497419
 20
-27.750617036019172
 30
0.0
  0
VERTEX
  5
22D3
  8
SAPA_PROFIL
 10
-88.499999995497419
 20
-31.000617036019161
 30
0.0
  0
VERTEX
  5
22D4
  8
SAPA_PROFIL
 10
-86.999999995497447
 20
-32.500617036019172
 30
0.0
  0
VERTEX
  5
22D5
  8
SAPA_PROFIL
 10
-88.499999995497419
 20
-34.000617036019172
 30
0.0
  0
VERTEX
  5
22D6
  8
SAPA_PROFIL
 10
-88.499999995497419
 20
-37.599586036019161
 30
0.0
 42
0.4142140000000165
  0
VERTEX
  5
22D7
  8
SAPA_PROFIL
 10
-87.999999995497433
 20
-38.099586036019161
 30
0.0
  0
VERTEX
  5
22D8
  8
SAPA_PROFIL
 10
-86.496857995497436
 20
-38.099586036019161
 30
0.0
 42
-0.4142140000000145
  0
VERTEX
  5
22D9
  8
SAPA_PROFIL
 10
-85.496857995497393
 20
-39.099586036019161
 30
0.0
  0
VERTEX
  5
22DA
  8
SAPA_PROFIL
 10
-85.496857995497393
 20
-40.099586036019183
 30
0.0
  0
VERTEX
  5
22DB
  8
SAPA_PROFIL
 10
-92.755677127419972
 20
-42.044581459707558
 30
0.0
 42
0.3394542338034085
  0
VERTEX
  5
22DC
  8
SAPA_PROFIL
 10
-93.496857995497365
 20
-43.010507262733263
 30
0.0
  0
VERTEX
  5
22DD
  8
SAPA_PROFIL
 10
-93.496857995497365
 20
-61.988665943704852
 30
0.0
 42
0.3394542744563553
  0
VERTEX
  5
22DE
  8
SAPA_PROFIL
 10
-92.755676986578138
 20
-62.954591784469059
 30
0.0
  0
VERTEX
  5
22DF
  8
SAPA_PROFIL
 10
-85.496857995497379
 20
-64.899586036019215
 30
0.0
  0
VERTEX
  5
22E0
  8
SAPA_PROFIL
 10
-85.496857995497379
 20
-65.899586036019215
 30
0.0
 42
-0.4142139999999982
  0
VERTEX
  5
22E1
  8
SAPA_PROFIL
 10
-86.496857995497379
 20
-66.899586036019102
 30
0.0
  0
VERTEX
  5
22E2
  8
SAPA_PROFIL
 10
-87.987263995497344
 20
-66.899586036019215
 30
0.0
 42
0.4142140000000124
  0
VERTEX
  5
22E3
  8
SAPA_PROFIL
 10
-88.487263995497358
 20
-67.399586036019187
 30
0.0
  0
VERTEX
  5
22E4
  8
SAPA_PROFIL
 10
-88.487263995497358
 20
-70.999586036019124
 30
0.0
  0
VERTEX
  5
22E5
  8
SAPA_PROFIL
 10
-86.987263995497358
 20
-72.499586036019124
 30
0.0
  0
VERTEX
  5
22E6
  8
SAPA_PROFIL
 10
-88.487263995497358
 20
-73.999586036019124
 30
0.0
  0
VERTEX
  5
22E7
  8
SAPA_PROFIL
 10
-88.487263995497358
 20
-77.249586036019181
 30
0.0
  0
VERTEX
  5
22E8
  8
SAPA_PROFIL
 10
-96.499818052495755
 20
-77.249586036019181
 30
0.0
 42
-0.3780475071674513
  0
VERTEX
  5
22E9
  8
SAPA_PROFIL
 10
-99.47639713109271
 20
-74.623721023502512
 30
0.0
  0
VERTEX
  5
22EA
  8
SAPA_PROFIL
 10
-99.839760543419075
 20
-71.732839477423965
 30
0.0
 42
-0.4247728136669583
  0
VERTEX
  5
22EB
  8
SAPA_PROFIL
 10
-98.953016995497407
 20
-70.599040036019161
 30
0.0
  0
VERTEX
  5
22EC
  8
SAPA_PROFIL
 10
-98.953016995497407
 20
-71.849040036019204
 30
0.0
  0
VERTEX
  5
22ED
  8
SAPA_PROFIL
 10
-97.85301699549737
 20
-71.849040036019204
 30
0.0
  0
VERTEX
  5
22EE
  8
SAPA_PROFIL
 10
-97.85301699549737
 20
-66.649040036019144
 30
0.0
  0
VERTEX
  5
22EF
  8
SAPA_PROFIL
 10
-98.953016995497407
 20
-66.649040036019144
 30
0.0
  0
VERTEX
  5
22F0
  8
SAPA_PROFIL
 10
-98.953016995497407
 20
-67.899040036019144
 30
0.0
  0
VERTEX
  5
22F1
  8
SAPA_PROFIL
 10
-99.326539138850166
 20
-67.899040036019144
 30
0.0
 42
-0.3760477967976817
  0
VERTEX
  5
22F2
  8
SAPA_PROFIL
 10
-100.3178344570567
 20
-67.030697136479787
 30
0.0
  0
SEQEND
  5
22F3
  8
SAPA_PROFIL
  0
POLYLINE
  5
1874
  8
SAPA_PROFIL
 66
     1
 10
0.0
 20
0.0
 30
0.0
 70
     1
  0
VERTEX
  5
22F4
  8
SAPA_PROFIL
 10
-72.843799650340401
 20
-58.34875542698731
 30
0.0
 42
0.5773502691897452
  0
VERTEX
  5
22F5
  8
SAPA_PROFIL
 10
-72.66084591023025
 20
-58.054599126732469
 30
0.0
  0
VERTEX
  5
22F6
  8
SAPA_PROFIL
 10
-72.812979821339013
 20
-57.76991684350083
 30
0.0
 42
0.2216946626430179
  0
VERTEX
  5
22F7
  8
SAPA_PROFIL
 10
-73.3538596528158
 20
-57.364107938346038
 30
0.0
  0
VERTEX
  5
22F8
  8
SAPA_PROFIL
 10
-75.167090123474026
 20
-56.982661342218321
 30
0.0
 42
0.476975532698164
  0
VERTEX
  5
22F9
  8
SAPA_PROFIL
 10
-75.538746998419924
 20
-57.284914166724789
 30
0.0
  0
VERTEX
  5
22FA
  8
SAPA_PROFIL
 10
-75.538663390536271
 20
-58.788015247486797
 30
0.0
  0
VERTEX
  5
22FB
  8
SAPA_PROFIL
 10
-75.490817640537784
 20
-58.802533656733893
 30
0.0
 42
-0.4142135623730957
  0
VERTEX
  5
22FC
  8
SAPA_PROFIL
 10
-75.290853596030388
 20
-59.176718612209712
 30
0.0
  0
VERTEX
  5
22FD
  8
SAPA_PROFIL
 10
-75.799999995341608
 20
-60.494016288445593
 30
0.0
  0
VERTEX
  5
22FE
  8
SAPA_PROFIL
 10
-75.79999999534158
 20
-63.49028319772669
 30
0.0
 42
0.2562769743570943
  0
VERTEX
  5
22FF
  8
SAPA_PROFIL
 10
-75.70746899659315
 20
-63.658955702213902
 30
0.0
  0
VERTEX
  5
2300
  8
SAPA_PROFIL
 10
-74.461203497218975
 20
-64.45300870403085
 30
0.0
 42
0.5920056172513193
  0
VERTEX
  5
2301
  8
SAPA_PROFIL
 10
-73.99999999534154
 20
-64.1999999473
 30
0.0
  0
VERTEX
  5
2302
  8
SAPA_PROFIL
 10
-73.999999995341597
 20
-62.799999947300009
 30
0.0
 42
-0.4142135623731021
  0
VERTEX
  5
2303
  8
SAPA_PROFIL
 10
-73.699999995341585
 20
-62.49999994729999
 30
0.0
  0
VERTEX
  5
2304
  8
SAPA_PROFIL
 10
-71.299999995341494
 20
-62.499999947299983
 30
0.0
 42
-0.4142135623731402
  0
VERTEX
  5
2305
  8
SAPA_PROFIL
 10
-70.999999995341511
 20
-62.799999947300009
 30
0.0
  0
VERTEX
  5
2306
  8
SAPA_PROFIL
 10
-70.999999995341483
 20
-80.199999947300256
 30
0.0
 42
-0.4142135623730796
  0
VERTEX
  5
2307
  8
SAPA_PROFIL
 10
-71.299999995341466
 20
-80.499999947300267
 30
0.0
  0
VERTEX
  5
2308
  8
SAPA_PROFIL
 10
-73.6999999953415
 20
-80.499999947300324
 30
0.0
 42
-0.4142135623731315
  0
VERTEX
  5
2309
  8
SAPA_PROFIL
 10
-73.999999995341597
 20
-80.199999947300313
 30
0.0
  0
VERTEX
  5
230A
  8
SAPA_PROFIL
 10
-73.999999995341511
 20
-78.79999994730025
 30
0.0
 42
0.5877032589249549
  0
VERTEX
  5
230B
  8
SAPA_PROFIL
 10
-74.457960202469195
 20
-78.544953729990155
 30
0.0
  0
VERTEX
  5
230C
  8
SAPA_PROFIL
 10
-75.905306800093371
 20
-79.441352707232355
 30
0.0
 42
0.2596812337301922
  0
VERTEX
  5
230D
  8
SAPA_PROFIL
 10
-75.999999995341597
 20
-79.61138351877247
 30
0.0
  0
VERTEX
  5
230E
  8
SAPA_PROFIL
 10
-75.999999995341597
 20
-82.199999952131975
 30
0.0
 42
0.4142135623730864
  0
VERTEX
  5
230F
  8
SAPA_PROFIL
 10
-75.699999995341585
 20
-82.499999952131986
 30
0.0
  0
VERTEX
  5
2310
  8
SAPA_PROFIL
 10
-9.4999999953282952
 20
-82.499999952131773
 30
0.0
 42
0.4142135623560339
  0
VERTEX
  5
2311
  8
SAPA_PROFIL
 10
-8.9999999953282952
 20
-81.999999952160906
 30
0.0
  0
VERTEX
  5
2312
  8
SAPA_PROFIL
 10
-8.9999999951164256
 20
-78.302569102307871
 30
0.0
 42
0.4142135623902403
  0
VERTEX
  5
2313
  8
SAPA_PROFIL
 10
-9.2999999951164796
 20
-78.002569102290366
 30
0.0
  0
VERTEX
  5
2314
  8
SAPA_PROFIL
 10
-10.067544463142839
 20
-78.002569102290295
 30
0.0
 42
0.2896898632854853
  0
VERTEX
  5
2315
  8
SAPA_PROFIL
 10
-10.971052366020681
 20
-78.573997673661154
 30
0.0
 42
0.5507604245881251
  0
VERTEX
  5
2316
  8
SAPA_PROFIL
 10
-10.699999995175149
 20
-79.002569102249694
 30
0.0
  0
VERTEX
  5
2317
  8
SAPA_PROFIL
 10
-10.4999999951524
 20
-79.002569102261361
 30
0.0
 42
-0.4142135623681871
  0
VERTEX
  5
2318
  8
SAPA_PROFIL
 10
-10.1999999951699
 20
-79.302569102273793
 30
0.0
  0
VERTEX
  5
2319
  8
SAPA_PROFIL
 10
-10.19999999522952
 20
-80.799999953284868
 30
0.0
 42
-0.4142135623609537
  0
VERTEX
  5
231A
  8
SAPA_PROFIL
 10
-10.69999999522954
 20
-81.299999953284939
 30
0.0
  0
VERTEX
  5
231B
  8
SAPA_PROFIL
 10
-13.99999999523039
 20
-81.299999953284868
 30
0.0
 42
-0.4142135623852031
  0
VERTEX
  5
231C
  8
SAPA_PROFIL
 10
-14.499999995230381
 20
-80.799999953264233
 30
0.0
  0
VERTEX
  5
231D
  8
SAPA_PROFIL
 10
-14.49999999517075
 20
-79.302569102033502
 30
0.0
 42
-0.4142135623779909
  0
VERTEX
  5
231E
  8
SAPA_PROFIL
 10
-14.19999999515329
 20
-79.002569102045953
 30
0.0
  0
VERTEX
  5
231F
  8
SAPA_PROFIL
 10
-13.99999999517568
 20
-79.002569102057606
 30
0.0
 42
0.5507604245841421
  0
VERTEX
  5
2320
  8
SAPA_PROFIL
 10
-13.72894762427806
 20
-78.57399767350357
 30
0.0
 42
0.2896898633203124
  0
VERTEX
  5
2321
  8
SAPA_PROFIL
 10
-14.63245552721113
 20
-78.002569102016636
 30
0.0
  0
VERTEX
  5
2322
  8
SAPA_PROFIL
 10
-15.62992733927589
 20
-78.002569102016651
 30
0.0
 42
0.0436609429084968
  0
VERTEX
  5
2323
  8
SAPA_PROFIL
 10
-15.71675142810933
 20
-78.010165225510548
 30
0.0
  0
VERTEX
  5
2324
  8
SAPA_PROFIL
 10
-17.286824084093311
 20
-78.287011396433073
 30
0.0
 42
0.8390996311773407
  0
VERTEX
  5
2325
  8
SAPA_PROFIL
 10
-17.286824084093269
 20
-79.271819149445307
 30
0.0
  0
VERTEX
  5
2326
  8
SAPA_PROFIL
 10
-16.11317590642636
 20
-79.478764989027312
 30
0.0
 42
-0.363970234266182
  0
VERTEX
  5
2327
  8
SAPA_PROFIL
 10
-15.699999995259841
 20
-79.971168865533443
 30
0.0
  0
VERTEX
  5
2328
  8
SAPA_PROFIL
 10
-15.699999995259811
 20
-80.799999953284882
 30
0.0
 42
-0.4373282586283472
  0
VERTEX
  5
2329
  8
SAPA_PROFIL
 10
-16.239094452583728
 20
-81.29846923358879
 30
0.0
  0
VERTEX
  5
232A
  8
SAPA_PROFIL
 10
-30.712153274047409
 20
-80.711670470581936
 30
0.0
 42
-0.402394130432476
  0
VERTEX
  5
232B
  8
SAPA_PROFIL
 10
-30.999999995371041
 20
-80.411916741968909
 30
0.0
  0
VERTEX
  5
232C
  8
SAPA_PROFIL
 10
-30.999999995371009
 20
-79.61138352360399
 30
0.0
 42
0.2596812337302367
  0
VERTEX
  5
232D
  8
SAPA_PROFIL
 10
-31.094693190619239
 20
-79.441352712063875
 30
0.0
  0
VERTEX
  5
232E
  8
SAPA_PROFIL
 10
-32.542039788243329
 20
-78.544953734821746
 30
0.0
 42
0.5877032589250683
  0
VERTEX
  5
232F
  8
SAPA_PROFIL
 10
-32.999999995371063
 20
-78.799999952131856
 30
0.0
  0
VERTEX
  5
2330
  8
SAPA_PROFIL
 10
-32.999999995371063
 20
-80.199999952131847
 30
0.0
 42
-0.4142135623730898
  0
VERTEX
  5
2331
  8
SAPA_PROFIL
 10
-33.299999995371032
 20
-80.499999952131887
 30
0.0
  0
VERTEX
  5
2332
  8
SAPA_PROFIL
 10
-35.699999995371257
 20
-80.499999952131716
 30
0.0
 42
-0.4142135623730049
  0
VERTEX
  5
2333
  8
SAPA_PROFIL
 10
-35.99999999537097
 20
-80.199999952131847
 30
0.0
  0
VERTEX
  5
2334
  8
SAPA_PROFIL
 10
-35.999999995371041
 20
-70.599999952131668
 30
0.0
 42
-0.4142135623730258
  0
VERTEX
  5
2335
  8
SAPA_PROFIL
 10
-35.699999995371122
 20
-70.299999952131685
 30
0.0
  0
VERTEX
  5
2336
  8
SAPA_PROFIL
 10
-31.299999995370971
 20
-70.299999952131429
 30
0.0
 42
0.4142135623730983
  0
VERTEX
  5
2337
  8
SAPA_PROFIL
 10
-30.99999999537096
 20
-69.99999995213156
 30
0.0
  0
VERTEX
  5
2338
  8
SAPA_PROFIL
 10
-30.999999995370931
 20
-68.515911886778241
 30
0.0
 42
0.2596812337301949
  0
VERTEX
  5
2339
  8
SAPA_PROFIL
 10
-31.094693190619179
 20
-68.345881075238239
 30
0.0
  0
VERTEX
  5
233A
  8
SAPA_PROFIL
 10
-31.742039788243371
 20
-67.944953730686393
 30
0.0
 42
0.5877032589249359
  0
VERTEX
  5
233B
  8
SAPA_PROFIL
 10
-32.19999999537103
 20
-68.199999947996531
 30
0.0
  0
VERTEX
  5
233C
  8
SAPA_PROFIL
 10
-32.199999995370938
 20
-68.599999952131597
 30
0.0
 42
-0.4142135623731295
  0
VERTEX
  5
233D
  8
SAPA_PROFIL
 10
-32.499999995370992
 20
-68.899999952131608
 30
0.0
  0
VERTEX
  5
233E
  8
SAPA_PROFIL
 10
-35.699999995371137
 20
-68.899999952131637
 30
0.0
 42
-0.4142135623730636
  0
VERTEX
  5
233F
  8
SAPA_PROFIL
 10
-35.999999995371198
 20
-68.599999952131668
 30
0.0
  0
VERTEX
  5
2340
  8
SAPA_PROFIL
 10
-35.999999995371041
 20
-62.799999952131522
 30
0.0
 42
-0.4142135623730984
  0
VERTEX
  5
2341
  8
SAPA_PROFIL
 10
-35.69999999537113
 20
-62.499999952131617
 30
0.0
  0
VERTEX
  5
2342
  8
SAPA_PROFIL
 10
-33.299999995371103
 20
-62.499999952131553
 30
0.0
 42
-0.414213562373088
  0
VERTEX
  5
2343
  8
SAPA_PROFIL
 10
-32.999999995371127
 20
-62.799999952131529
 30
0.0
  0
VERTEX
  5
2344
  8
SAPA_PROFIL
 10
-32.999999995371098
 20
-64.199999952131563
 30
0.0
 42
0.592005618117907
  0
VERTEX
  5
2345
  8
SAPA_PROFIL
 10
-32.538796492844199
 20
-64.453008708448607
 30
0.0
  0
VERTEX
  5
2346
  8
SAPA_PROFIL
 10
-31.292530993686629
 20
-63.658955702272031
 30
0.0
 42
0.2562769736732238
  0
VERTEX
  5
2347
  8
SAPA_PROFIL
 10
-31.199999995371169
 20
-63.490283198060688
 30
0.0
  0
VERTEX
  5
2348
  8
SAPA_PROFIL
 10
-31.199999995371069
 20
-60.494016288445522
 30
0.0
  0
VERTEX
  5
2349
  8
SAPA_PROFIL
 10
-31.709146394682271
 20
-59.17671861220964
 30
0.0
 42
-0.4142135623730951
  0
VERTEX
  5
234A
  8
SAPA_PROFIL
 10
-31.509182350174871
 20
-58.802533656733821
 30
0.0
  0
VERTEX
  5
234B
  8
SAPA_PROFIL
 10
-31.461336600176381
 20
-58.788015247486733
 30
0.0
  0
VERTEX
  5
234C
  8
SAPA_PROFIL
 10
-31.461252992292739
 20
-57.284914166724718
 30
0.0
 42
0.4769755326981641
  0
VERTEX
  5
234D
  8
SAPA_PROFIL
 10
-31.832909867238602
 20
-56.98266134221825
 30
0.0
  0
VERTEX
  5
234E
  8
SAPA_PROFIL
 10
-33.646140337896853
 20
-57.364107938345967
 30
0.0
 42
0.2216946626430177
  0
VERTEX
  5
234F
  8
SAPA_PROFIL
 10
-34.187020169373639
 20
-57.769916843500759
 30
0.0
  0
VERTEX
  5
2350
  8
SAPA_PROFIL
 10
-34.339154080482423
 20
-58.054599126732398
 30
0.0
 42
0.5773502691897449
  0
VERTEX
  5
2351
  8
SAPA_PROFIL
 10
-34.156200340372223
 20
-58.348755426987218
 30
0.0
  0
VERTEX
  5
2352
  8
SAPA_PROFIL
 10
-33.834442612153978
 20
-58.338194060760259
 30
0.0
  0
VERTEX
  5
2353
  8
SAPA_PROFIL
 10
-32.749878165182238
 20
-60.224037752621307
 30
0.0
  0
VERTEX
  5
2354
  8
SAPA_PROFIL
 10
-32.69180452819316
 20
-60.415420752615027
 30
0.0
 42
-0.7625858545243262
  0
VERTEX
  5
2355
  8
SAPA_PROFIL
 10
-33.022130609210151
 20
-60.599999954812517
 30
0.0
 42
0.2134217652834387
  0
VERTEX
  5
2356
  8
SAPA_PROFIL
 10
-33.245737406960288
 20
-60.499999954812388
 30
0.0
  0
VERTEX
  5
2357
  8
SAPA_PROFIL
 10
-37.09852381146024
 20
-60.499999954812502
 30
0.0
 42
-0.4142135623731644
  0
VERTEX
  5
2358
  8
SAPA_PROFIL
 10
-37.398523811460286
 20
-60.199999954812469
 30
0.0
  0
VERTEX
  5
2359
  8
SAPA_PROFIL
 10
-37.398523811460279
 20
-59.899999954812401
 30
0.0
  0
VERTEX
  5
235A
  8
SAPA_PROFIL
 10
-36.47476338075694
 20
-58.299999954812449
 30
0.0
 42
0.5773502691898534
  0
VERTEX
  5
235B
  8
SAPA_PROFIL
 10
-36.647968461513791
 20
-57.999999954812338
 30
0.0
  0
VERTEX
  5
235C
  8
SAPA_PROFIL
 10
-38.033609107568907
 20
-57.99999995481231
 30
0.0
 42
0.2679491924311248
  0
VERTEX
  5
235D
  8
SAPA_PROFIL
 10
-38.899634511353412
 20
-58.499999954812367
 30
0.0
  0
VERTEX
  5
235E
  8
SAPA_PROFIL
 10
-39.90999748092662
 20
-60.249999952199573
 30
0.0
 42
-0.267949192431141
  0
VERTEX
  5
235F
  8
SAPA_PROFIL
 10
-40.343010182818858
 20
-60.499999952199602
 30
0.0
  0
VERTEX
  5
2360
  8
SAPA_PROFIL
 10
-66.65698980789378
 20
-60.499999952199587
 30
0.0
 42
-0.2679491924311169
  0
VERTEX
  5
2361
  8
SAPA_PROFIL
 10
-67.09000250978599
 20
-60.249999952199602
 30
0.0
  0
VERTEX
  5
2362
  8
SAPA_PROFIL
 10
-68.100365479359397
 20
-58.499999954812409
 30
0.0
 42
0.2679491924311169
  0
VERTEX
  5
2363
  8
SAPA_PROFIL
 10
-68.966390883143816
 20
-57.999999954812431
 30
0.0
  0
VERTEX
  5
2364
  8
SAPA_PROFIL
 10
-70.352031529198882
 20
-57.999999954812381
 30
0.0
 42
0.5773502691897872
  0
VERTEX
  5
2365
  8
SAPA_PROFIL
 10
-70.525236609955726
 20
-58.299999954812471
 30
0.0
  0
VERTEX
  5
2366
  8
SAPA_PROFIL
 10
-69.60147617925233
 20
-59.899999954812451
 30
0.0
  0
VERTEX
  5
2367
  8
SAPA_PROFIL
 10
-69.601476179252415
 20
-60.199999954812561
 30
0.0
 42
-0.4142135623730259
  0
VERTEX
  5
2368
  8
SAPA_PROFIL
 10
-69.901476179252398
 20
-60.499999954812537
 30
0.0
  0
VERTEX
  5
2369
  8
SAPA_PROFIL
 10
-73.754262583752393
 20
-60.499999954812459
 30
0.0
 42
0.2134217652834384
  0
VERTEX
  5
236A
  8
SAPA_PROFIL
 10
-73.977869381502472
 20
-60.599999954812581
 30
0.0
 42
-0.7625858545243262
  0
VERTEX
  5
236B
  8
SAPA_PROFIL
 10
-74.308195462519507
 20
-60.415420752615098
 30
0.0
  0
VERTEX
  5
236C
  8
SAPA_PROFIL
 10
-74.250121825530414
 20
-60.224037752621378
 30
0.0
  0
VERTEX
  5
236D
  8
SAPA_PROFIL
 10
-73.165557378558674
 20
-58.33819406076033
 30
0.0
  0
SEQEND
  5
236E
  8
SAPA_PROFIL
  0
POLYLINE
  5
1875
  8
SAPA_PROFIL
 66
     1
 10
0.0
 20
0.0
 30
0.0
 70
     1
  0
VERTEX
  5
236F
  8
SAPA_PROFIL
 10
-65.299999995341324
 20
-80.599999950326009
 30
0.0
  0
VERTEX
  5
2370
  8
SAPA_PROFIL
 10
-65.299999995341324
 20
-80.499999951698015
 30
0.0
 42
0.4142135622516611
  0
VERTEX
  5
2371
  8
SAPA_PROFIL
 10
-65.59999999521699
 20
-80.199999951698018
 30
0.0
  0
VERTEX
  5
2372
  8
SAPA_PROFIL
 10
-66.999999995216996
 20
-80.199999951117633
 30
0.0
 42
0.4142135624945125
  0
VERTEX
  5
2373
  8
SAPA_PROFIL
 10
-67.299999995341381
 20
-80.49999995111763
 30
0.0
  0
VERTEX
  5
2374
  8
SAPA_PROFIL
 10
-67.299999995341381
 20
-80.599999950164062
 30
0.0
 42
-0.4142135623731471
  0
VERTEX
  5
2375
  8
SAPA_PROFIL
 10
-67.499999995341426
 20
-80.799999950164093
 30
0.0
  0
VERTEX
  5
2376
  8
SAPA_PROFIL
 10
-68.999999995341369
 20
-80.799999950164135
 30
0.0
 42
-0.4142135623731054
  0
VERTEX
  5
2377
  8
SAPA_PROFIL
 10
-69.299999995341381
 20
-80.499999950164153
 30
0.0
  0
VERTEX
  5
2378
  8
SAPA_PROFIL
 10
-69.299999995341466
 20
-62.49999994639694
 30
0.0
 42
-0.4142135623731054
  0
VERTEX
  5
2379
  8
SAPA_PROFIL
 10
-68.999999995341454
 20
-62.19999994639695
 30
0.0
  0
VERTEX
  5
237A
  8
SAPA_PROFIL
 10
-67.499999995341454
 20
-62.199999946396993
 30
0.0
 42
-0.4142135623730992
  0
VERTEX
  5
237B
  8
SAPA_PROFIL
 10
-67.299999995341466
 20
-62.399999946396989
 30
0.0
  0
VERTEX
  5
237C
  8
SAPA_PROFIL
 10
-67.299999995341466
 20
-62.499999946397097
 30
0.0
 42
0.4142135623730847
  0
VERTEX
  5
237D
  8
SAPA_PROFIL
 10
-66.999999995341454
 20
-62.799999946397087
 30
0.0
  0
VERTEX
  5
237E
  8
SAPA_PROFIL
 10
-65.599999995341392
 20
-62.799999946397051
 30
0.0
 42
0.4142135623730514
  0
VERTEX
  5
237F
  8
SAPA_PROFIL
 10
-65.299999995341395
 20
-62.499999946397097
 30
0.0
  0
VERTEX
  5
2380
  8
SAPA_PROFIL
 10
-65.299999995341395
 20
-62.399999946396989
 30
0.0
 42
-0.4142135623730784
  0
VERTEX
  5
2381
  8
SAPA_PROFIL
 10
-65.099999995341392
 20
-62.199999946397
 30
0.0
  0
VERTEX
  5
2382
  8
SAPA_PROFIL
 10
-41.899999995371267
 20
-62.19999994639705
 30
0.0
 42
-0.4142135623731138
  0
VERTEX
  5
2383
  8
SAPA_PROFIL
 10
-41.69999999537125
 20
-62.39999994639706
 30
0.0
  0
VERTEX
  5
2384
  8
SAPA_PROFIL
 10
-41.69999999537125
 20
-62.49999994639704
 30
0.0
 42
0.4142135623731054
  0
VERTEX
  5
2385
  8
SAPA_PROFIL
 10
-41.399999995371239
 20
-62.799999946397051
 30
0.0
  0
VERTEX
  5
2386
  8
SAPA_PROFIL
 10
-39.999999995371212
 20
-62.799999946397051
 30
0.0
 42
0.4142135623730826
  0
VERTEX
  5
2387
  8
SAPA_PROFIL
 10
-39.699999995371201
 20
-62.499999946397061
 30
0.0
  0
VERTEX
  5
2388
  8
SAPA_PROFIL
 10
-39.699999995371201
 20
-62.39999994639706
 30
0.0
 42
-0.4142135623731179
  0
VERTEX
  5
2389
  8
SAPA_PROFIL
 10
-39.499999995371212
 20
-62.199999946397099
 30
0.0
  0
VERTEX
  5
238A
  8
SAPA_PROFIL
 10
-37.999999995371347
 20
-62.199999946396993
 30
0.0
 42
-0.4142135623731138
  0
VERTEX
  5
238B
  8
SAPA_PROFIL
 10
-37.699999995371329
 20
-62.499999946396997
 30
0.0
  0
VERTEX
  5
238C
  8
SAPA_PROFIL
 10
-37.699999995371087
 20
-80.499999956839133
 30
0.0
 42
-0.4142135624877945
  0
VERTEX
  5
238D
  8
SAPA_PROFIL
 10
-37.999999995488572
 20
-80.79999995683913
 30
0.0
  0
VERTEX
  5
238E
  8
SAPA_PROFIL
 10
-39.499999995449492
 20
-80.799999956212545
 30
0.0
 42
-0.4142135622583851
  0
VERTEX
  5
238F
  8
SAPA_PROFIL
 10
-39.699999995371137
 20
-80.599999956212514
 30
0.0
  0
VERTEX
  5
2390
  8
SAPA_PROFIL
 10
-39.699999995371172
 20
-80.499999956009773
 30
0.0
 42
0.4142135622515569
  0
VERTEX
  5
2391
  8
SAPA_PROFIL
 10
-39.999999995246782
 20
-80.199999956009862
 30
0.0
  0
VERTEX
  5
2392
  8
SAPA_PROFIL
 10
-41.399999995246873
 20
-80.199999955429377
 30
0.0
 42
0.4142135624945311
  0
VERTEX
  5
2393
  8
SAPA_PROFIL
 10
-41.69999999537125
 20
-80.499999955429374
 30
0.0
  0
VERTEX
  5
2394
  8
SAPA_PROFIL
 10
-41.69999999537125
 20
-80.599999956801554
 30
0.0
 42
-0.4142135626101151
  0
VERTEX
  5
2395
  8
SAPA_PROFIL
 10
-41.899999995533072
 20
-80.799999956801543
 30
0.0
  0
VERTEX
  5
2396
  8
SAPA_PROFIL
 10
-65.099999995503282
 20
-80.799999950326082
 30
0.0
 42
-0.414213562136048
  0
SEQEND
  5
2397
  8
SAPA_PROFIL
  0
POLYLINE
  5
1876
  8
SAPA_PROFIL
 66
     1
 10
0.0
 20
0.0
 30
0.0
 70
     1
  0
VERTEX
  5
2398
  8
SAPA_PROFIL
 10
-30.999999995341671
 20
3.2000000478680621
 30
0.0
 42
0.4142879064819451
  0
VERTEX
  5
2399
  8
SAPA_PROFIL
 10
-31.30007614133871
 20
3.5000000382046088
 30
0.0
  0
VERTEX
  5
239A
  8
SAPA_PROFIL
 10
-75.699923863759565
 20
3.5000000382080412
 30
0.0
 42
0.4142878924076678
  0
VERTEX
  5
239B
  8
SAPA_PROFIL
 10
-75.999999995341582
 20
3.200000047868071
 30
0.0
  0
VERTEX
  5
239C
  8
SAPA_PROFIL
 10
-75.999999995341568
 20
0.6113836145086662
 30
0.0
 42
0.2596812337300058
  0
VERTEX
  5
239D
  8
SAPA_PROFIL
 10
-75.905306800093442
 20
0.44135280296865
 30
0.0
  0
VERTEX
  5
239E
  8
SAPA_PROFIL
 10
-74.457960202469366
 20
-0.455046174273635
 30
0.0
 42
0.5877032589249577
  0
VERTEX
  5
239F
  8
SAPA_PROFIL
 10
-73.999999995341653
 20
-0.1999999569635395
 30
0.0
  0
VERTEX
  5
23A0
  8
SAPA_PROFIL
 10
-73.999999995341653
 20
1.2000000430364659
 30
0.0
 42
-0.414213562373088
  0
VERTEX
  5
23A1
  8
SAPA_PROFIL
 10
-73.699999995341685
 20
1.5000000430364631
 30
0.0
  0
VERTEX
  5
23A2
  8
SAPA_PROFIL
 10
-71.299999995341679
 20
1.5000000430364631
 30
0.0
 42
-0.4142135623730882
  0
VERTEX
  5
23A3
  8
SAPA_PROFIL
 10
-70.999999995341653
 20
1.2000000430364659
 30
0.0
  0
VERTEX
  5
23A4
  8
SAPA_PROFIL
 10
-70.999999995341653
 20
-16.199999956963541
 30
0.0
 42
-0.4142135623730951
  0
VERTEX
  5
23A5
  8
SAPA_PROFIL
 10
-71.299999995341679
 20
-16.499999956963549
 30
0.0
  0
VERTEX
  5
23A6
  8
SAPA_PROFIL
 10
-73.699999995341685
 20
-16.499999956963631
 30
0.0
 42
-0.4142135623729892
  0
VERTEX
  5
23A7
  8
SAPA_PROFIL
 10
-73.999999995341653
 20
-16.199999956963541
 30
0.0
  0
VERTEX
  5
23A8
  8
SAPA_PROFIL
 10
-73.999999995341653
 20
-14.79999995696355
 30
0.0
 42
0.5920056181179401
  0
VERTEX
  5
23A9
  8
SAPA_PROFIL
 10
-74.461203497868325
 20
-14.546991200646611
 30
0.0
  0
VERTEX
  5
23AA
  8
SAPA_PROFIL
 10
-75.707468997026055
 20
-15.34104420682306
 30
0.0
 42
0.2562769736732679
  0
VERTEX
  5
23AB
  8
SAPA_PROFIL
 10
-75.799999995341537
 20
-15.509716711034409
 30
0.0
  0
VERTEX
  5
23AC
  8
SAPA_PROFIL
 10
-75.799999995341551
 20
-18.505983625481569
 30
0.0
  0
VERTEX
  5
23AD
  8
SAPA_PROFIL
 10
-75.290853596030587
 20
-19.823281301716811
 30
0.0
 42
-0.4142135623730951
  0
VERTEX
  5
23AE
  8
SAPA_PROFIL
 10
-75.490817640537983
 20
-20.19746625719262
 30
0.0
  0
VERTEX
  5
23AF
  8
SAPA_PROFIL
 10
-75.53866339053647
 20
-20.211984666439719
 30
0.0
  0
VERTEX
  5
23B0
  8
SAPA_PROFIL
 10
-75.538746998420123
 20
-21.71508574720173
 30
0.0
 42
0.476975532698163
  0
VERTEX
  5
23B1
  8
SAPA_PROFIL
 10
-75.167090123474239
 20
-22.017338571708201
 30
0.0
  0
VERTEX
  5
23B2
  8
SAPA_PROFIL
 10
-73.353859652815999
 20
-21.635891975580481
 30
0.0
 42
0.221694662643018
  0
VERTEX
  5
23B3
  8
SAPA_PROFIL
 10
-72.812979821339212
 20
-21.230083070425689
 30
0.0
  0
VERTEX
  5
23B4
  8
SAPA_PROFIL
 10
-72.660845910230435
 20
-20.94540078719405
 30
0.0
 42
0.5773502691897493
  0
VERTEX
  5
23B5
  8
SAPA_PROFIL
 10
-72.843799650340614
 20
-20.651244486939209
 30
0.0
  0
VERTEX
  5
23B6
  8
SAPA_PROFIL
 10
-73.165557378558873
 20
-20.661805853166189
 30
0.0
  0
VERTEX
  5
23B7
  8
SAPA_PROFIL
 10
-74.250121825530613
 20
-18.775962161305131
 30
0.0
  0
VERTEX
  5
23B8
  8
SAPA_PROFIL
 10
-74.308195462519706
 20
-18.58457916131141
 30
0.0
 42
-0.7625858545243216
  0
VERTEX
  5
23B9
  8
SAPA_PROFIL
 10
-73.977869381502686
 20
-18.399999959113941
 30
0.0
 42
0.2134217652834399
  0
VERTEX
  5
23BA
  8
SAPA_PROFIL
 10
-73.754262583752578
 20
-18.49999995911406
 30
0.0
  0
VERTEX
  5
23BB
  8
SAPA_PROFIL
 10
-69.901476179252555
 20
-18.499999959114131
 30
0.0
 42
-0.4142135623730898
  0
VERTEX
  5
23BC
  8
SAPA_PROFIL
 10
-69.601476179252543
 20
-18.79999995911415
 30
0.0
  0
VERTEX
  5
23BD
  8
SAPA_PROFIL
 10
-69.601476179252543
 20
-19.099999959114239
 30
0.0
  0
VERTEX
  5
23BE
  8
SAPA_PROFIL
 10
-70.525236609955854
 20
-20.699999959114152
 30
0.0
 42
0.5773502691898973
  0
VERTEX
  5
23BF
  8
SAPA_PROFIL
 10
-70.352031529198968
 20
-20.999999959114131
 30
0.0
  0
VERTEX
  5
23C0
  8
SAPA_PROFIL
 10
-68.966390883143958
 20
-20.999999959114131
 30
0.0
 42
0.2679491924311269
  0
VERTEX
  5
23C1
  8
SAPA_PROFIL
 10
-68.100365479359482
 20
-20.499999959114131
 30
0.0
  0
VERTEX
  5
23C2
  8
SAPA_PROFIL
 10
-67.090002509786245
 20
-18.74999996172706
 30
0.0
 42
-0.2679491924311212
  0
VERTEX
  5
23C3
  8
SAPA_PROFIL
 10
-66.656989807894035
 20
-18.49999996172706
 30
0.0
  0
VERTEX
  5
23C4
  8
SAPA_PROFIL
 10
-40.343010182789392
 20
-18.49999996172706
 30
0.0
 42
-0.2679491924311136
  0
VERTEX
  5
23C5
  8
SAPA_PROFIL
 10
-39.909997480897182
 20
-18.749999961727049
 30
0.0
  0
VERTEX
  5
23C6
  8
SAPA_PROFIL
 10
-38.899634511323782
 20
-20.499999959114131
 30
0.0
 42
0.2679491924311166
  0
VERTEX
  5
23C7
  8
SAPA_PROFIL
 10
-38.033609107539391
 20
-20.999999959114142
 30
0.0
  0
VERTEX
  5
23C8
  8
SAPA_PROFIL
 10
-36.64796846148429
 20
-20.999999959114142
 30
0.0
 42
0.577350269189614
  0
VERTEX
  5
23C9
  8
SAPA_PROFIL
 10
-36.474763380727389
 20
-20.699999959114159
 30
0.0
  0
VERTEX
  5
23CA
  8
SAPA_PROFIL
 10
-37.398523811430792
 20
-19.09999995911425
 30
0.0
  0
VERTEX
  5
23CB
  8
SAPA_PROFIL
 10
-37.398523811430707
 20
-18.79999995911415
 30
0.0
 42
-0.4142135623730083
  0
VERTEX
  5
23CC
  8
SAPA_PROFIL
 10
-37.098523811430788
 20
-18.499999959114131
 30
0.0
  0
VERTEX
  5
23CD
  8
SAPA_PROFIL
 10
-33.245737406930779
 20
-18.499999959114142
 30
0.0
 42
0.2134217652834394
  0
VERTEX
  5
23CE
  8
SAPA_PROFIL
 10
-33.022130609180657
 20
-18.399999959113991
 30
0.0
 42
-0.7625858545243364
  0
VERTEX
  5
23CF
  8
SAPA_PROFIL
 10
-32.691804528163672
 20
-18.584579161311481
 30
0.0
  0
VERTEX
  5
23D0
  8
SAPA_PROFIL
 10
-32.749878165152737
 20
-18.775962161305198
 30
0.0
  0
VERTEX
  5
23D1
  8
SAPA_PROFIL
 10
-33.834442612124477
 20
-20.66180585316625
 30
0.0
  0
VERTEX
  5
23D2
  8
SAPA_PROFIL
 10
-34.156200340342728
 20
-20.651244486939291
 30
0.0
 42
0.5773502691897365
  0
VERTEX
  5
23D3
  8
SAPA_PROFIL
 10
-34.339154080452921
 20
-20.945400787194089
 30
0.0
  0
VERTEX
  5
23D4
  8
SAPA_PROFIL
 10
-34.187020169344137
 20
-21.230083070425739
 30
0.0
 42
0.2216946626430184
  0
VERTEX
  5
23D5
  8
SAPA_PROFIL
 10
-33.646140337867358
 20
-21.635891975580542
 30
0.0
  0
VERTEX
  5
23D6
  8
SAPA_PROFIL
 10
-31.832909867209111
 20
-22.017338571708262
 30
0.0
 42
0.4769755326981641
  0
VERTEX
  5
23D7
  8
SAPA_PROFIL
 10
-31.461252992263251
 20
-21.71508574720179
 30
0.0
  0
VERTEX
  5
23D8
  8
SAPA_PROFIL
 10
-31.46133660014689
 20
-20.21198466643979
 30
0.0
  0
VERTEX
  5
23D9
  8
SAPA_PROFIL
 10
-31.50918235014537
 20
-20.19746625719268
 30
0.0
 42
-0.4142135623730951
  0
VERTEX
  5
23DA
  8
SAPA_PROFIL
 10
-31.70914639465277
 20
-19.823281301716872
 30
0.0
  0
VERTEX
  5
23DB
  8
SAPA_PROFIL
 10
-31.19999999534166
 20
-18.505983625481299
 30
0.0
  0
VERTEX
  5
23DC
  8
SAPA_PROFIL
 10
-31.199999995341681
 20
-15.509716711368521
 30
0.0
 42
0.2562769743570819
  0
VERTEX
  5
23DD
  8
SAPA_PROFIL
 10
-31.292530994090079
 20
-15.341044206881319
 30
0.0
  0
VERTEX
  5
23DE
  8
SAPA_PROFIL
 10
-32.538796493464197
 20
-14.54699120506435
 30
0.0
 42
0.5920056172513317
  0
VERTEX
  5
23DF
  8
SAPA_PROFIL
 10
-32.999999995341582
 20
-14.799999961795161
 30
0.0
  0
VERTEX
  5
23E0
  8
SAPA_PROFIL
 10
-32.999999995341682
 20
-16.19999996179515
 30
0.0
 42
-0.4142135623730916
  0
VERTEX
  5
23E1
  8
SAPA_PROFIL
 10
-33.299999995341693
 20
-16.499999961795162
 30
0.0
  0
VERTEX
  5
23E2
  8
SAPA_PROFIL
 10
-35.699999995341678
 20
-16.499999961795059
 30
0.0
 42
-0.4142135623730118
  0
VERTEX
  5
23E3
  8
SAPA_PROFIL
 10
-35.999999995341682
 20
-16.19999996179515
 30
0.0
  0
VERTEX
  5
23E4
  8
SAPA_PROFIL
 10
-35.999999995341568
 20
1.200000038204853
 30
0.0
 42
-0.4142135623730948
  0
VERTEX
  5
23E5
  8
SAPA_PROFIL
 10
-35.69999999534167
 20
1.5000000382049501
 30
0.0
  0
VERTEX
  5
23E6
  8
SAPA_PROFIL
 10
-33.299999995341679
 20
1.5000000382047649
 30
0.0
 42
-0.4142135623732061
  0
VERTEX
  5
23E7
  8
SAPA_PROFIL
 10
-32.999999995341668
 20
1.200000038204853
 30
0.0
  0
VERTEX
  5
23E8
  8
SAPA_PROFIL
 10
-32.999999995341568
 20
-0.1999999617951378
 30
0.0
 42
0.5877032589248845
  0
VERTEX
  5
23E9
  8
SAPA_PROFIL
 10
-32.54203978821397
 20
-0.4550461791052474
 30
0.0
  0
VERTEX
  5
23EA
  8
SAPA_PROFIL
 10
-31.09469319058978
 20
0.4413527981369505
 30
0.0
 42
0.2596812337301443
  0
VERTEX
  5
23EB
  8
SAPA_PROFIL
 10
-30.999999995341671
 20
0.611383609677052
 30
0.0
  0
SEQEND
  5
23EC
  8
SAPA_PROFIL
  0
POLYLINE
  5
1877
  8
SAPA_PROFIL
 66
     1
 10
0.0
 20
0.0
 30
0.0
 70
     1
  0
VERTEX
  5
23ED
  8
SAPA_PROFIL
 10
-39.999999995341668
 20
1.20000004786795
 30
0.0
  0
VERTEX
  5
23EE
  8
SAPA_PROFIL
 10
-41.399999995341673
 20
1.200000047867964
 30
0.0
 42
-0.4142135623731021
  0
VERTEX
  5
23EF
  8
SAPA_PROFIL
 10
-41.69999999534167
 20
1.5000000478679469
 30
0.0
  0
VERTEX
  5
23F0
  8
SAPA_PROFIL
 10
-41.69999999534167
 20
1.6000000478679419
 30
0.0
 42
0.4142135623730847
  0
VERTEX
  5
23F1
  8
SAPA_PROFIL
 10
-41.899999995341673
 20
1.8000000478679601
 30
0.0
  0
VERTEX
  5
23F2
  8
SAPA_PROFIL
 10
-65.099999995341577
 20
1.8000000478679641
 30
0.0
 42
0.41421356237309
  0
VERTEX
  5
23F3
  8
SAPA_PROFIL
 10
-65.299999995341594
 20
1.600000047867947
 30
0.0
  0
VERTEX
  5
23F4
  8
SAPA_PROFIL
 10
-65.299999995341707
 20
1.5000000478679529
 30
0.0
 42
-0.4142135623731055
  0
VERTEX
  5
23F5
  8
SAPA_PROFIL
 10
-65.59999999534169
 20
1.2000000478679551
 30
0.0
  0
VERTEX
  5
23F6
  8
SAPA_PROFIL
 10
-66.999999995341554
 20
1.2000000478679551
 30
0.0
 42
-0.4142135623731991
  0
VERTEX
  5
23F7
  8
SAPA_PROFIL
 10
-67.299999995341707
 20
1.5000000478679529
 30
0.0
  0
VERTEX
  5
23F8
  8
SAPA_PROFIL
 10
-67.299999995341707
 20
1.600000047867947
 30
0.0
 42
0.4142135623730898
  0
VERTEX
  5
23F9
  8
SAPA_PROFIL
 10
-67.499999995341597
 20
1.80000004786785
 30
0.0
  0
VERTEX
  5
23FA
  8
SAPA_PROFIL
 10
-68.999999995341554
 20
1.8000000478680489
 30
0.0
 42
0.4142135623731019
  0
VERTEX
  5
23FB
  8
SAPA_PROFIL
 10
-69.299999995341565
 20
1.500000047868066
 30
0.0
  0
VERTEX
  5
23FC
  8
SAPA_PROFIL
 10
-69.299999995341565
 20
-16.49999995589874
 30
0.0
 42
0.4142135623730951
  0
VERTEX
  5
23FD
  8
SAPA_PROFIL
 10
-68.999999995341554
 20
-16.799999955898741
 30
0.0
  0
VERTEX
  5
23FE
  8
SAPA_PROFIL
 10
-67.499999995341682
 20
-16.799999955898741
 30
0.0
 42
0.4142135623730795
  0
VERTEX
  5
23FF
  8
SAPA_PROFIL
 10
-67.299999995341608
 20
-16.599999955898841
 30
0.0
  0
VERTEX
  5
2400
  8
SAPA_PROFIL
 10
-67.299999995341707
 20
-16.499999956852399
 30
0.0
 42
-0.4142135624945151
  0
VERTEX
  5
2401
  8
SAPA_PROFIL
 10
-66.999999995217308
 20
-16.199999956852398
 30
0.0
  0
VERTEX
  5
2402
  8
SAPA_PROFIL
 10
-65.599999995217317
 20
-16.199999957432791
 30
0.0
 42
-0.414213562251668
  0
VERTEX
  5
2403
  8
SAPA_PROFIL
 10
-65.299999995341707
 20
-16.499999957432792
 30
0.0
  0
VERTEX
  5
2404
  8
SAPA_PROFIL
 10
-65.299999995341707
 20
-16.59999995606076
 30
0.0
 42
0.4142135621360074
  0
VERTEX
  5
2405
  8
SAPA_PROFIL
 10
-65.099999995503467
 20
-16.799999956060891
 30
0.0
  0
VERTEX
  5
2406
  8
SAPA_PROFIL
 10
-41.89999999550357
 20
-16.799999962536241
 30
0.0
 42
0.4142135626101672
  0
VERTEX
  5
2407
  8
SAPA_PROFIL
 10
-41.699999995341678
 20
-16.599999962536259
 30
0.0
  0
VERTEX
  5
2408
  8
SAPA_PROFIL
 10
-41.699999995341678
 20
-16.499999961164129
 30
0.0
 42
-0.4142135624945428
  0
VERTEX
  5
2409
  8
SAPA_PROFIL
 10
-41.399999995217293
 20
-16.199999961164121
 30
0.0
  0
VERTEX
  5
240A
  8
SAPA_PROFIL
 10
-39.999999995217287
 20
-16.199999961744592
 30
0.0
 42
-0.4142135622516402
  0
VERTEX
  5
240B
  8
SAPA_PROFIL
 10
-39.699999995341678
 20
-16.499999961744599
 30
0.0
  0
VERTEX
  5
240C
  8
SAPA_PROFIL
 10
-39.699999995341678
 20
-16.599999961947251
 30
0.0
 42
0.414213562258404
  0
VERTEX
  5
240D
  8
SAPA_PROFIL
 10
-39.499999995419991
 20
-16.799999961947261
 30
0.0
  0
VERTEX
  5
240E
  8
SAPA_PROFIL
 10
-37.999999995466482
 20
-16.79999996257127
 30
0.0
 42
0.4142135624949383
  0
VERTEX
  5
240F
  8
SAPA_PROFIL
 10
-37.699999995341678
 20
-16.499999962571259
 30
0.0
  0
VERTEX
  5
2410
  8
SAPA_PROFIL
 10
-37.69999999534167
 20
1.500000047867976
 30
0.0
 42
0.4142135623730882
  0
VERTEX
  5
2411
  8
SAPA_PROFIL
 10
-37.999999995341653
 20
1.800000047867959
 30
0.0
  0
VERTEX
  5
2412
  8
SAPA_PROFIL
 10
-39.499999995341682
 20
1.800000047868058
 30
0.0
 42
0.4142135623730847
  0
VERTEX
  5
2413
  8
SAPA_PROFIL
 10
-39.69999999534167
 20
1.6000000478680549
 30
0.0
  0
VERTEX
  5
2414
  8
SAPA_PROFIL
 10
-39.69999999534167
 20
1.5000000478679469
 30
0.0
 42
-0.4142135623730881
  0
SEQEND
  5
2415
  8
SAPA_PROFIL
  0
POLYLINE
  5
1878
  8
SAPA_PROFIL
 62
     4
 66
     1
 10
0.0
 20
0.0
 30
0.0
  0
VERTEX
  5
2416
  8
SAPA_PROFIL
 62
     4
 10
-73.067718909501934
 20
-30.45067083456544
 30
0.0
 42
-0.5571646428658034
  0
VERTEX
  5
2417
  8
SAPA_PROFIL
 62
     4
 10
-72.199999995346388
 20
-30.987631338702268
 30
0.0
  0
VERTEX
  5
2418
  8
SAPA_PROFIL
 62
     4
 10
-72.199999995346843
 20
-48.012368575223469
 30
0.0
 42
-0.5571645048035741
  0
VERTEX
  5
2419
  8
SAPA_PROFIL
 62
     4
 10
-73.067718683213016
 20
-48.54932919218453
 30
0.0
  0
VERTEX
  5
241A
  8
SAPA_PROFIL
 62
     4
 10
-74.73385933928104
 20
-47.718622104637817
 30
0.0
 42
-0.284385813979063
  0
VERTEX
  5
241B
  8
SAPA_PROFIL
 62
     4
 10
-74.89999999534848
 20
-47.450141796157482
 30
0.0
  0
VERTEX
  5
241C
  8
SAPA_PROFIL
 62
     4
 10
-74.89999999534848
 20
-31.549858117768171
 30
0.0
 42
-0.2843858139786238
  0
VERTEX
  5
241D
  8
SAPA_PROFIL
 62
     4
 10
-74.733859339281551
 20
-31.281377809287878
 30
0.0
  0
VERTEX
  5
241E
  8
SAPA_PROFIL
 62
     4
 10
-73.067718683212206
 20
-30.450670721740721
 30
0.0
  0
SEQEND
  5
241F
  8
SAPA_PROFIL
 62
     4
  0
POLYLINE
  5
1879
  8
SAPA_PROFIL
 62
     4
 66
     1
 10
0.0
 20
0.0
 30
0.0
 70
     1
  0
VERTEX
  5
2420
  8
SAPA_PROFIL
 62
     4
 10
-75.256831509846052
 20
-53.917611141630118
 30
0.0
  0
VERTEX
  5
2421
  8
SAPA_PROFIL
 62
     4
 10
-75.663391705850188
 20
-54.181634420006127
 30
0.0
 42
0.2539676464751066
  0
VERTEX
  5
2422
  8
SAPA_PROFIL
 62
     4
 10
-75.799999995346298
 20
-54.433235590390829
 30
0.0
  0
VERTEX
  5
2423
  8
SAPA_PROFIL
 62
     4
 10
-75.799999995346298
 20
-55.814735175596191
 30
0.0
 42
0.3152987888790479
  0
VERTEX
  5
2424
  8
SAPA_PROFIL
 62
     4
 10
-75.471010067008123
 20
-56.28458148598849
 30
0.0
  0
VERTEX
  5
2425
  8
SAPA_PROFIL
 62
     4
 10
-73.010179876556862
 20
-57.180250426897103
 30
0.0
 42
-0.2694959974287434
  0
VERTEX
  5
2426
  8
SAPA_PROFIL
 62
     4
 10
-72.817047902212963
 20
-57.411769473298449
 30
0.0
 42
-0.0612686379508233
  0
VERTEX
  5
2427
  8
SAPA_PROFIL
 62
     4
 10
-72.803464531582435
 20
-57.704444906151728
 30
0.0
  0
VERTEX
  5
2428
  8
SAPA_PROFIL
 62
     4
 10
-72.601727852853614
 20
-58.053863083460001
 30
0.0
 42
-0.5773502691891679
  0
VERTEX
  5
2429
  8
SAPA_PROFIL
 62
     4
 10
-72.783593187648194
 20
-58.368863083459587
 30
0.0
  0
VERTEX
  5
242A
  8
SAPA_PROFIL
 62
     4
 10
-73.050707715774507
 20
-58.368863083459829
 30
0.0
  0
VERTEX
  5
242B
  8
SAPA_PROFIL
 62
     4
 10
-73.859391177082827
 20
-59.767390784094083
 30
0.0
 42
0.1318219888653519
  0
VERTEX
  5
242C
  8
SAPA_PROFIL
 62
     4
 10
-73.899683573620223
 20
-59.917563886566427
 30
0.0
  0
VERTEX
  5
242D
  8
SAPA_PROFIL
 62
     4
 10
-73.899683573613856
 20
-60.099999957003199
 30
0.0
 42
0.4142135623724291
  0
VERTEX
  5
242E
  8
SAPA_PROFIL
 62
     4
 10
-73.49968357361422
 20
-60.499999957003752
 30
0.0
  0
VERTEX
  5
242F
  8
SAPA_PROFIL
 62
     4
 10
-70.09968357361322
 20
-60.499999957002387
 30
0.0
 42
0.4142135623744271
  0
VERTEX
  5
2430
  8
SAPA_PROFIL
 62
     4
 10
-69.699683573612219
 20
-60.099999957003199
 30
0.0
  0
VERTEX
  5
2431
  8
SAPA_PROFIL
 62
     4
 10
-69.69968357361158
 20
-59.920384714731902
 30
0.0
 42
0.1316524975874005
  0
VERTEX
  5
2432
  8
SAPA_PROFIL
 62
     4
 10
-69.739875952477163
 20
-59.770384714735087
 30
0.0
  0
VERTEX
  5
2433
  8
SAPA_PROFIL
 62
     4
 10
-70.666025399129694
 20
-58.166246817732841
 30
0.0
 42
-0.1316524975875904
  0
VERTEX
  5
2434
  8
SAPA_PROFIL
 62
     4
 10
-70.799999995344479
 20
-57.666246817731121
 30
0.0
  0
VERTEX
  5
2435
  8
SAPA_PROFIL
 62
     4
 10
-70.799999995344479
 20
-57.249999957003752
 30
0.0
 42
-0.4142135623730951
  0
VERTEX
  5
2436
  8
SAPA_PROFIL
 62
     4
 10
-69.799999995344479
 20
-56.249999957003752
 30
0.0
  0
VERTEX
  5
2437
  8
SAPA_PROFIL
 62
     4
 10
-66.799999995347207
 20
-56.249999957003752
 30
0.0
 42
0.9999996830128083
  0
VERTEX
  5
2438
  8
SAPA_PROFIL
 62
     4
 10
-66.799999995345388
 20
-55.249999957003752
 30
0.0
  0
VERTEX
  5
2439
  8
SAPA_PROFIL
 62
     4
 10
-69.799999995345374
 20
-55.249999957003752
 30
0.0
 42
-0.4142135623730951
  0
VERTEX
  5
243A
  8
SAPA_PROFIL
 62
     4
 10
-70.799999995345388
 20
-54.249999957003752
 30
0.0
  0
VERTEX
  5
243B
  8
SAPA_PROFIL
 62
     4
 10
-70.799999995345388
 20
-24.749999956919169
 30
0.0
 42
-0.4142135623730951
  0
VERTEX
  5
243C
  8
SAPA_PROFIL
 62
     4
 10
-69.799999995345374
 20
-23.749999956919169
 30
0.0
  0
VERTEX
  5
243D
  8
SAPA_PROFIL
 62
     4
 10
-66.799999995347207
 20
-23.749999956919169
 30
0.0
 42
0.9999999999999998
  0
VERTEX
  5
243E
  8
SAPA_PROFIL
 62
     4
 10
-66.799999995347207
 20
-22.749999956919169
 30
0.0
  0
VERTEX
  5
243F
  8
SAPA_PROFIL
 62
     4
 10
-69.799999995345374
 20
-22.749999956919169
 30
0.0
 42
-0.4142135623736278
  0
VERTEX
  5
2440
  8
SAPA_PROFIL
 62
     4
 10
-70.799999995345388
 20
-21.749999956919169
 30
0.0
  0
VERTEX
  5
2441
  8
SAPA_PROFIL
 62
     4
 10
-70.799999995345388
 20
-21.333753096192709
 30
0.0
 42
-0.1316524975874375
  0
VERTEX
  5
2442
  8
SAPA_PROFIL
 62
     4
 10
-70.666025399129353
 20
-20.83375309619251
 30
0.0
  0
VERTEX
  5
2443
  8
SAPA_PROFIL
 62
     4
 10
-69.739875952477163
 20
-19.229615199190562
 30
0.0
 42
0.1316524975874
  0
VERTEX
  5
2444
  8
SAPA_PROFIL
 62
     4
 10
-69.69968357361158
 20
-19.079615199191011
 30
0.0
  0
VERTEX
  5
2445
  8
SAPA_PROFIL
 62
     4
 10
-69.699683573612219
 20
-18.899999956919711
 30
0.0
 42
0.4142135623744271
  0
VERTEX
  5
2446
  8
SAPA_PROFIL
 62
     4
 10
-70.09968357361322
 20
-18.499999956920529
 30
0.0
  0
VERTEX
  5
2447
  8
SAPA_PROFIL
 62
     4
 10
-73.49968357361422
 20
-18.499999956919169
 30
0.0
 42
0.4142135623724291
  0
VERTEX
  5
2448
  8
SAPA_PROFIL
 62
     4
 10
-73.899683573613856
 20
-18.899999956919711
 30
0.0
  0
VERTEX
  5
2449
  8
SAPA_PROFIL
 62
     4
 10
-73.899683573620223
 20
-19.08243602735649
 30
0.0
 42
0.1318219888653524
  0
VERTEX
  5
244A
  8
SAPA_PROFIL
 62
     4
 10
-73.859391177082827
 20
-19.232609129828841
 30
0.0
  0
VERTEX
  5
244B
  8
SAPA_PROFIL
 62
     4
 10
-73.050707715858493
 20
-20.631136830308488
 30
0.0
  0
VERTEX
  5
244C
  8
SAPA_PROFIL
 62
     4
 10
-72.783593187645465
 20
-20.631136830308488
 30
0.0
 42
-0.577350269189159
  0
VERTEX
  5
244D
  8
SAPA_PROFIL
 62
     4
 10
-72.601727852850885
 20
-20.946136830308092
 30
0.0
  0
VERTEX
  5
244E
  8
SAPA_PROFIL
 62
     4
 10
-72.803464531527993
 20
-21.295555007526751
 30
0.0
 42
-0.0612687673629489
  0
VERTEX
  5
244F
  8
SAPA_PROFIL
 62
     4
 10
-72.817047902214199
 20
-21.588230440626958
 30
0.0
 42
-0.2694959974285039
  0
VERTEX
  5
2450
  8
SAPA_PROFIL
 62
     4
 10
-73.010179876558155
 20
-21.81974948702749
 30
0.0
  0
VERTEX
  5
2451
  8
SAPA_PROFIL
 62
     4
 10
-75.471010067011321
 20
-22.715418427937148
 30
0.0
 42
0.3152987888784035
  0
VERTEX
  5
2452
  8
SAPA_PROFIL
 62
     4
 10
-75.799999995347889
 20
-23.185264738330378
 30
0.0
  0
VERTEX
  5
2453
  8
SAPA_PROFIL
 62
     4
 10
-75.799999995346298
 20
-24.566764323534809
 30
0.0
 42
0.2539676464741841
  0
VERTEX
  5
2454
  8
SAPA_PROFIL
 62
     4
 10
-75.663391705851026
 20
-24.81836549391889
 30
0.0
  0
VERTEX
  5
2455
  8
SAPA_PROFIL
 62
     4
 10
-75.256831509846052
 20
-25.082388772295531
 30
0.0
 42
0.5862177598324623
  0
VERTEX
  5
2456
  8
SAPA_PROFIL
 62
     4
 10
-74.799999995349523
 20
-24.826646957057189
 30
0.0
  0
VERTEX
  5
2457
  8
SAPA_PROFIL
 62
     4
 10
-74.799999995357211
 20
-23.885472276547379
 30
0.0
 42
-0.3152987888813165
  0
VERTEX
  5
2458
  8
SAPA_PROFIL
 62
     4
 10
-74.471010067020444
 20
-23.415625966149619
 30
0.0
  0
VERTEX
  5
2459
  8
SAPA_PROFIL
 62
     4
 10
-73.271010067009229
 20
-22.97886168502566
 30
0.0
 42
-0.5205670505515651
  0
VERTEX
  5
245A
  8
SAPA_PROFIL
 62
     4
 10
-72.599999995346479
 20
-23.448707995418879
 30
0.0
  0
VERTEX
  5
245B
  8
SAPA_PROFIL
 62
     4
 10
-72.599999995346451
 20
-28.465148936087729
 30
0.0
 42
-0.3702522326300203
  0
VERTEX
  5
245C
  8
SAPA_PROFIL
 62
     4
 10
-72.854459948012163
 20
-28.76167229788107
 30
0.0
 42
-0.0982365330332397
  0
VERTEX
  5
245D
  8
SAPA_PROFIL
 62
     4
 10
-74.542146723007164
 20
-28.85212505609201
 30
0.0
 42
-0.3735060174783164
  0
VERTEX
  5
245E
  8
SAPA_PROFIL
 62
     4
 10
-74.799999995347207
 20
-28.555100388181032
 30
0.0
  0
VERTEX
  5
245F
  8
SAPA_PROFIL
 62
     4
 10
-74.799999995348116
 20
-28.126646957058369
 30
0.0
 42
0.5920056181162531
  0
VERTEX
  5
2460
  8
SAPA_PROFIL
 62
     4
 10
-75.261203497876025
 20
-27.87363820074097
 30
0.0
  0
VERTEX
  5
2461
  8
SAPA_PROFIL
 62
     4
 10
-75.663391705854323
 20
-28.134822276896671
 30
0.0
 42
0.2539676464746725
  0
VERTEX
  5
2462
  8
SAPA_PROFIL
 62
     4
 10
-75.799999995349694
 20
-28.386423447280428
 30
0.0
  0
VERTEX
  5
2463
  8
SAPA_PROFIL
 62
     4
 10
-75.799999995348116
 20
-50.613576466646123
 30
0.0
 42
0.2539676464741819
  0
VERTEX
  5
2464
  8
SAPA_PROFIL
 62
     4
 10
-75.663391705854323
 20
-50.865177637028971
 30
0.0
  0
VERTEX
  5
2465
  8
SAPA_PROFIL
 62
     4
 10
-75.261203497875997
 20
-51.126361713182781
 30
0.0
 42
0.5920055144124249
  0
VERTEX
  5
2466
  8
SAPA_PROFIL
 62
     4
 10
-74.799999995348116
 20
-50.873352956867272
 30
0.0
  0
VERTEX
  5
2467
  8
SAPA_PROFIL
 62
     4
 10
-74.800000020623116
 20
-50.44489947957706
 30
0.0
 42
-0.3735060174775405
  0
VERTEX
  5
2468
  8
SAPA_PROFIL
 62
     4
 10
-74.542146748283031
 20
-50.147874811667371
 30
0.0
 42
-0.0355900683670349
  0
VERTEX
  5
2469
  8
SAPA_PROFIL
 62
     4
 10
-73.926273161483252
 20
-50.103981247635112
 30
0.0
 42
-0.0624282003873116
  0
VERTEX
  5
246A
  8
SAPA_PROFIL
 62
     4
 10
-72.854459973288115
 20
-50.238327569878059
 30
0.0
 42
-0.3702522326309292
  0
VERTEX
  5
246B
  8
SAPA_PROFIL
 62
     4
 10
-72.600000020622389
 20
-50.534850931671428
 30
0.0
  0
VERTEX
  5
246C
  8
SAPA_PROFIL
 62
     4
 10
-72.599999995346252
 20
-55.551291918504937
 30
0.0
 42
-0.5205670505515692
  0
VERTEX
  5
246D
  8
SAPA_PROFIL
 62
     4
 10
-73.271010067009229
 20
-56.02113822889816
 30
0.0
  0
VERTEX
  5
246E
  8
SAPA_PROFIL
 62
     4
 10
-74.471010067018668
 20
-55.584373947773209
 30
0.0
 42
-0.3152987888807539
  0
VERTEX
  5
246F
  8
SAPA_PROFIL
 62
     4
 10
-74.799999995356302
 20
-55.114527637377357
 30
0.0
  0
VERTEX
  5
2470
  8
SAPA_PROFIL
 62
     4
 10
-74.799999995349481
 20
-54.173352956868278
 30
0.0
 42
0.5862175119221242
  0
VERTEX
  5
2471
  8
SAPA_PROFIL
 62
     4
 10
-75.256831321104613
 20
-53.917611025886323
 30
0.0
 42
-0.0000002084758573
  0
SEQEND
  5
2472
  8
SAPA_PROFIL
 62
     4
  0
POLYLINE
  5
187A
  8
SAPA_PROFIL
 62
     4
 66
     1
 10
0.0
 20
0.0
 30
0.0
  0
VERTEX
  5
2473
  8
SAPA_PROFIL
 62
     4
 10
-33.932281081195981
 20
-30.45067083456544
 30
0.0
 42
0.5571646428658034
  0
VERTEX
  5
2474
  8
SAPA_PROFIL
 62
     4
 10
-34.799999995351527
 20
-30.987631338702268
 30
0.0
  0
VERTEX
  5
2475
  8
SAPA_PROFIL
 62
     4
 10
-34.799999995351072
 20
-48.012368575223469
 30
0.0
 42
0.5571645048035741
  0
VERTEX
  5
2476
  8
SAPA_PROFIL
 62
     4
 10
-33.932281307484907
 20
-48.54932919218453
 30
0.0
  0
VERTEX
  5
2477
  8
SAPA_PROFIL
 62
     4
 10
-32.266140651416883
 20
-47.718622104637817
 30
0.0
 42
0.284385813979063
  0
VERTEX
  5
2478
  8
SAPA_PROFIL
 62
     4
 10
-32.099999995349428
 20
-47.450141796157482
 30
0.0
  0
VERTEX
  5
2479
  8
SAPA_PROFIL
 62
     4
 10
-32.099999995349428
 20
-31.549858117768171
 30
0.0
 42
0.2843858139786238
  0
VERTEX
  5
247A
  8
SAPA_PROFIL
 62
     4
 10
-32.266140651416372
 20
-31.281377809287878
 30
0.0
  0
VERTEX
  5
247B
  8
SAPA_PROFIL
 62
     4
 10
-33.932281307485709
 20
-30.450670721740721
 30
0.0
  0
SEQEND
  5
247C
  8
SAPA_PROFIL
 62
     4
  0
POLYLINE
  5
187B
  8
SAPA_PROFIL
 62
     4
 66
     1
 10
0.0
 20
0.0
 30
0.0
 70
     1
  0
VERTEX
  5
247D
  8
SAPA_PROFIL
 62
     4
 10
-31.743168480851871
 20
-53.917611141630118
 30
0.0
  0
VERTEX
  5
247E
  8
SAPA_PROFIL
 62
     4
 10
-31.336608284847721
 20
-54.181634420006127
 30
0.0
 42
-0.2539676464751066
  0
VERTEX
  5
247F
  8
SAPA_PROFIL
 62
     4
 10
-31.199999995351622
 20
-54.433235590390829
 30
0.0
  0
VERTEX
  5
2480
  8
SAPA_PROFIL
 62
     4
 10
-31.199999995351622
 20
-55.814735175596191
 30
0.0
 42
-0.3152987888790479
  0
VERTEX
  5
2481
  8
SAPA_PROFIL
 62
     4
 10
-31.528989923689782
 20
-56.28458148598849
 30
0.0
  0
VERTEX
  5
2482
  8
SAPA_PROFIL
 62
     4
 10
-33.989820114141047
 20
-57.180250426897103
 30
0.0
 42
0.2694959974287434
  0
VERTEX
  5
2483
  8
SAPA_PROFIL
 62
     4
 10
-34.182952088484953
 20
-57.411769473298449
 30
0.0
 42
0.0612686379508233
  0
VERTEX
  5
2484
  8
SAPA_PROFIL
 62
     4
 10
-34.196535459115474
 20
-57.704444906151728
 30
0.0
  0
VERTEX
  5
2485
  8
SAPA_PROFIL
 62
     4
 10
-34.398272137844287
 20
-58.053863083460001
 30
0.0
 42
0.5773502691891679
  0
VERTEX
  5
2486
  8
SAPA_PROFIL
 62
     4
 10
-34.216406803049722
 20
-58.368863083459587
 30
0.0
  0
VERTEX
  5
2487
  8
SAPA_PROFIL
 62
     4
 10
-33.949292274923401
 20
-58.368863083459829
 30
0.0
  0
VERTEX
  5
2488
  8
SAPA_PROFIL
 62
     4
 10
-33.140608813615088
 20
-59.767390784094083
 30
0.0
 42
-0.1318219888653519
  0
VERTEX
  5
2489
  8
SAPA_PROFIL
 62
     4
 10
-33.100316417077693
 20
-59.917563886566427
 30
0.0
  0
VERTEX
  5
248A
  8
SAPA_PROFIL
 62
     4
 10
-33.100316417084059
 20
-60.099999957003199
 30
0.0
 42
-0.4142135623724291
  0
VERTEX
  5
248B
  8
SAPA_PROFIL
 62
     4
 10
-33.500316417083688
 20
-60.499999957003752
 30
0.0
  0
VERTEX
  5
248C
  8
SAPA_PROFIL
 62
     4
 10
-36.900316417084703
 20
-60.499999957002387
 30
0.0
 42
-0.4142135623744271
  0
VERTEX
  5
248D
  8
SAPA_PROFIL
 62
     4
 10
-37.300316417085703
 20
-60.099999957003199
 30
0.0
  0
VERTEX
  5
248E
  8
SAPA_PROFIL
 62
     4
 10
-37.300316417086343
 20
-59.920384714731902
 30
0.0
 42
-0.1316524975874005
  0
VERTEX
  5
248F
  8
SAPA_PROFIL
 62
     4
 10
-37.260124038220738
 20
-59.770384714735087
 30
0.0
  0
VERTEX
  5
2490
  8
SAPA_PROFIL
 62
     4
 10
-36.3339745915682
 20
-58.166246817732841
 30
0.0
 42
0.1316524975875904
  0
VERTEX
  5
2491
  8
SAPA_PROFIL
 62
     4
 10
-36.199999995353437
 20
-57.666246817731121
 30
0.0
  0
VERTEX
  5
2492
  8
SAPA_PROFIL
 62
     4
 10
-36.199999995353437
 20
-57.249999957003752
 30
0.0
 42
0.4142135623730951
  0
VERTEX
  5
2493
  8
SAPA_PROFIL
 62
     4
 10
-37.199999995353437
 20
-56.249999957003752
 30
0.0
  0
VERTEX
  5
2494
  8
SAPA_PROFIL
 62
     4
 10
-40.199999995350709
 20
-56.249999957003752
 30
0.0
 42
-0.9999996830128083
  0
VERTEX
  5
2495
  8
SAPA_PROFIL
 62
     4
 10
-40.199999995352528
 20
-55.249999957003752
 30
0.0
  0
VERTEX
  5
2496
  8
SAPA_PROFIL
 62
     4
 10
-37.199999995352528
 20
-55.249999957003752
 30
0.0
 42
0.4142135623730951
  0
VERTEX
  5
2497
  8
SAPA_PROFIL
 62
     4
 10
-36.199999995352528
 20
-54.249999957003752
 30
0.0
  0
VERTEX
  5
2498
  8
SAPA_PROFIL
 62
     4
 10
-36.199999995352528
 20
-24.749999956919169
 30
0.0
 42
0.4142135623730951
  0
VERTEX
  5
2499
  8
SAPA_PROFIL
 62
     4
 10
-37.199999995352528
 20
-23.749999956919169
 30
0.0
  0
VERTEX
  5
249A
  8
SAPA_PROFIL
 62
     4
 10
-40.199999995350709
 20
-23.749999956919169
 30
0.0
 42
-0.9999999999999998
  0
VERTEX
  5
249B
  8
SAPA_PROFIL
 62
     4
 10
-40.199999995350709
 20
-22.749999956919169
 30
0.0
  0
VERTEX
  5
249C
  8
SAPA_PROFIL
 62
     4
 10
-37.199999995352528
 20
-22.749999956919169
 30
0.0
 42
0.4142135623736278
  0
VERTEX
  5
249D
  8
SAPA_PROFIL
 62
     4
 10
-36.199999995352528
 20
-21.749999956919169
 30
0.0
  0
VERTEX
  5
249E
  8
SAPA_PROFIL
 62
     4
 10
-36.199999995352528
 20
-21.333753096192709
 30
0.0
 42
0.1316524975874375
  0
VERTEX
  5
249F
  8
SAPA_PROFIL
 62
     4
 10
-36.333974591568563
 20
-20.83375309619251
 30
0.0
  0
VERTEX
  5
24A0
  8
SAPA_PROFIL
 62
     4
 10
-37.260124038220738
 20
-19.229615199190562
 30
0.0
 42
-0.1316524975874
  0
VERTEX
  5
24A1
  8
SAPA_PROFIL
 62
     4
 10
-37.300316417086329
 20
-19.079615199191011
 30
0.0
  0
VERTEX
  5
24A2
  8
SAPA_PROFIL
 62
     4
 10
-37.300316417085703
 20
-18.899999956919711
 30
0.0
 42
-0.4142135623744271
  0
VERTEX
  5
24A3
  8
SAPA_PROFIL
 62
     4
 10
-36.900316417084703
 20
-18.499999956920529
 30
0.0
  0
VERTEX
  5
24A4
  8
SAPA_PROFIL
 62
     4
 10
-33.500316417083688
 20
-18.499999956919169
 30
0.0
 42
-0.4142135623724291
  0
VERTEX
  5
24A5
  8
SAPA_PROFIL
 62
     4
 10
-33.100316417084059
 20
-18.899999956919711
 30
0.0
  0
VERTEX
  5
24A6
  8
SAPA_PROFIL
 62
     4
 10
-33.100316417077693
 20
-19.08243602735649
 30
0.0
 42
-0.1318219888653524
  0
VERTEX
  5
24A7
  8
SAPA_PROFIL
 62
     4
 10
-33.140608813615088
 20
-19.232609129828841
 30
0.0
  0
VERTEX
  5
24A8
  8
SAPA_PROFIL
 62
     4
 10
-33.949292274839422
 20
-20.631136830308488
 30
0.0
  0
VERTEX
  5
24A9
  8
SAPA_PROFIL
 62
     4
 10
-34.216406803052458
 20
-20.631136830308488
 30
0.0
 42
0.577350269189159
  0
VERTEX
  5
24AA
  8
SAPA_PROFIL
 62
     4
 10
-34.39827213784703
 20
-20.946136830308092
 30
0.0
  0
VERTEX
  5
24AB
  8
SAPA_PROFIL
 62
     4
 10
-34.196535459169922
 20
-21.295555007526751
 30
0.0
 42
0.0612687673629489
  0
VERTEX
  5
24AC
  8
SAPA_PROFIL
 62
     4
 10
-34.182952088483709
 20
-21.588230440626958
 30
0.0
 42
0.2694959974285039
  0
VERTEX
  5
24AD
  8
SAPA_PROFIL
 62
     4
 10
-33.989820114139761
 20
-21.81974948702749
 30
0.0
  0
VERTEX
  5
24AE
  8
SAPA_PROFIL
 62
     4
 10
-31.528989923686598
 20
-22.715418427937148
 30
0.0
 42
-0.3152987888784035
  0
VERTEX
  5
24AF
  8
SAPA_PROFIL
 62
     4
 10
-31.199999995350019
 20
-23.185264738330378
 30
0.0
  0
VERTEX
  5
24B0
  8
SAPA_PROFIL
 62
     4
 10
-31.199999995351622
 20
-24.566764323534809
 30
0.0
 42
-0.2539676464741841
  0
VERTEX
  5
24B1
  8
SAPA_PROFIL
 62
     4
 10
-31.3366082848469
 20
-24.81836549391889
 30
0.0
  0
VERTEX
  5
24B2
  8
SAPA_PROFIL
 62
     4
 10
-31.743168480851871
 20
-25.082388772295531
 30
0.0
 42
-0.5862177598324623
  0
VERTEX
  5
24B3
  8
SAPA_PROFIL
 62
     4
 10
-32.199999995348371
 20
-24.826646957057189
 30
0.0
  0
VERTEX
  5
24B4
  8
SAPA_PROFIL
 62
     4
 10
-32.199999995340711
 20
-23.885472276547379
 30
0.0
 42
0.3152987888813165
  0
VERTEX
  5
24B5
  8
SAPA_PROFIL
 62
     4
 10
-32.528989923677457
 20
-23.415625966149619
 30
0.0
  0
VERTEX
  5
24B6
  8
SAPA_PROFIL
 62
     4
 10
-33.728989923688687
 20
-22.97886168502566
 30
0.0
 42
0.5205670505515651
  0
VERTEX
  5
24B7
  8
SAPA_PROFIL
 62
     4
 10
-34.399999995351443
 20
-23.448707995418879
 30
0.0
  0
VERTEX
  5
24B8
  8
SAPA_PROFIL
 62
     4
 10
-34.399999995351457
 20
-28.465148936087729
 30
0.0
 42
0.3702522326300203
  0
VERTEX
  5
24B9
  8
SAPA_PROFIL
 62
     4
 10
-34.145540042685759
 20
-28.76167229788107
 30
0.0
 42
0.0982365330332397
  0
VERTEX
  5
24BA
  8
SAPA_PROFIL
 62
     4
 10
-32.457853267690751
 20
-28.85212505609201
 30
0.0
 42
0.3735060174783164
  0
VERTEX
  5
24BB
  8
SAPA_PROFIL
 62
     4
 10
-32.199999995350723
 20
-28.555100388181032
 30
0.0
  0
VERTEX
  5
24BC
  8
SAPA_PROFIL
 62
     4
 10
-32.199999995349799
 20
-28.126646957058369
 30
0.0
 42
-0.5920056181162531
  0
VERTEX
  5
24BD
  8
SAPA_PROFIL
 62
     4
 10
-31.73879649282188
 20
-27.87363820074097
 30
0.0
  0
VERTEX
  5
24BE
  8
SAPA_PROFIL
 62
     4
 10
-31.336608284843582
 20
-28.134822276896671
 30
0.0
 42
-0.2539676464746725
  0
VERTEX
  5
24BF
  8
SAPA_PROFIL
 62
     4
 10
-31.199999995348222
 20
-28.386423447280428
 30
0.0
  0
VERTEX
  5
24C0
  8
SAPA_PROFIL
 62
     4
 10
-31.199999995349799
 20
-50.613576466646123
 30
0.0
 42
-0.2539676464741819
  0
VERTEX
  5
24C1
  8
SAPA_PROFIL
 62
     4
 10
-31.336608284843582
 20
-50.865177637028971
 30
0.0
  0
VERTEX
  5
24C2
  8
SAPA_PROFIL
 62
     4
 10
-31.738796492821908
 20
-51.126361713182781
 30
0.0
 42
-0.5920055144124249
  0
VERTEX
  5
24C3
  8
SAPA_PROFIL
 62
     4
 10
-32.199999995349799
 20
-50.873352956867272
 30
0.0
  0
VERTEX
  5
24C4
  8
SAPA_PROFIL
 62
     4
 10
-32.199999970074792
 20
-50.44489947957706
 30
0.0
 42
0.3735060174775405
  0
VERTEX
  5
24C5
  8
SAPA_PROFIL
 62
     4
 10
-32.457853242414878
 20
-50.147874811667371
 30
0.0
 42
0.0355900683670349
  0
VERTEX
  5
24C6
  8
SAPA_PROFIL
 62
     4
 10
-33.073726829214671
 20
-50.103981247635112
 30
0.0
 42
0.0624282003873116
  0
VERTEX
  5
24C7
  8
SAPA_PROFIL
 62
     4
 10
-34.1455400174098
 20
-50.238327569878059
 30
0.0
 42
0.3702522326309292
  0
VERTEX
  5
24C8
  8
SAPA_PROFIL
 62
     4
 10
-34.39999997007552
 20
-50.534850931671428
 30
0.0
  0
VERTEX
  5
24C9
  8
SAPA_PROFIL
 62
     4
 10
-34.399999995351664
 20
-55.551291918504937
 30
0.0
 42
0.5205670505515692
  0
VERTEX
  5
24CA
  8
SAPA_PROFIL
 62
     4
 10
-33.728989923688687
 20
-56.02113822889816
 30
0.0
  0
VERTEX
  5
24CB
  8
SAPA_PROFIL
 62
     4
 10
-32.528989923679241
 20
-55.584373947773209
 30
0.0
 42
0.3152987888807539
  0
VERTEX
  5
24CC
  8
SAPA_PROFIL
 62
     4
 10
-32.199999995341621
 20
-55.114527637377357
 30
0.0
  0
VERTEX
  5
24CD
  8
SAPA_PROFIL
 62
     4
 10
-32.199999995348442
 20
-54.173352956868278
 30
0.0
 42
-0.5862175119221242
  0
VERTEX
  5
24CE
  8
SAPA_PROFIL
 62
     4
 10
-31.743168669593299
 20
-53.917611025886323
 30
0.0
 42
0.0000002084758573
  0
SEQEND
  5
24CF
  8
SAPA_PROFIL
 62
     4
  0
POLYLINE
  5
187C
  8
SAPA_PROFIL
 62
     4
 66
     1
 10
0.0
 20
0.0
 30
0.0
 70
     1
  0
VERTEX
  5
24D0
  8
SAPA_PROFIL
 62
     4
 10
-14.89999999555763
 20
-68.702943511206044
 30
0.0
  0
VERTEX
  5
24D1
  8
SAPA_PROFIL
 62
     4
 10
-14.89999999555581
 20
-72.897056060902969
 30
0.0
 42
0.1989123673786592
  0
VERTEX
  5
24D2
  8
SAPA_PROFIL
 62
     4
 10
-14.812132029912361
 20
-73.109188095258787
 30
0.0
  0
VERTEX
  5
24D3
  8
SAPA_PROFIL
 62
     4
 10
-12.58786796120145
 20
-75.333452163969696
 30
0.0
 42
-0.1989123673785438
  0
VERTEX
  5
24D4
  8
SAPA_PROFIL
 62
     4
 10
-12.499999995557999
 20
-75.545584198325514
 30
0.0
  0
VERTEX
  5
24D5
  8
SAPA_PROFIL
 62
     4
 10
-12.49999999555982
 20
-75.999999786053877
 30
0.0
 42
-0.4142135623730951
  0
VERTEX
  5
24D6
  8
SAPA_PROFIL
 62
     4
 10
-12.799999995559091
 20
-76.299999786054059
 30
0.0
  0
VERTEX
  5
24D7
  8
SAPA_PROFIL
 62
     4
 10
-24.699999995558048
 20
-76.299999786054059
 30
0.0
 42
0.4142135623730951
  0
VERTEX
  5
24D8
  8
SAPA_PROFIL
 62
     4
 10
-25.199999995558048
 20
-76.799999786054059
 30
0.0
  0
VERTEX
  5
24D9
  8
SAPA_PROFIL
 62
     4
 10
-25.199999995558048
 20
-78.499999786053877
 30
0.0
 42
-0.4142135623739832
  0
VERTEX
  5
24DA
  8
SAPA_PROFIL
 62
     4
 10
-25.499999995557321
 20
-78.799999786054059
 30
0.0
  0
VERTEX
  5
24DB
  8
SAPA_PROFIL
 62
     4
 10
-29.199999995556912
 20
-78.799999786054059
 30
0.0
 42
-0.414213562375759
  0
VERTEX
  5
24DC
  8
SAPA_PROFIL
 62
     4
 10
-29.499999995557999
 20
-78.499999786053877
 30
0.0
  0
VERTEX
  5
24DD
  8
SAPA_PROFIL
 62
     4
 10
-29.49999999555618
 20
-62.006576655650861
 30
0.0
 42
-0.4142135623735391
  0
VERTEX
  5
24DE
  8
SAPA_PROFIL
 62
     4
 10
-29.199999995556912
 20
-61.706576655651133
 30
0.0
  0
VERTEX
  5
24DF
  8
SAPA_PROFIL
 62
     4
 10
-12.799999995559091
 20
-61.706576655651133
 30
0.0
 42
-0.4142135623726511
  0
VERTEX
  5
24E0
  8
SAPA_PROFIL
 62
     4
 10
-12.499999995557999
 20
-62.006576655650861
 30
0.0
  0
VERTEX
  5
24E1
  8
SAPA_PROFIL
 62
     4
 10
-12.499999995557999
 20
-66.054415373781694
 30
0.0
 42
-0.1989123673785438
  0
VERTEX
  5
24E2
  8
SAPA_PROFIL
 62
     4
 10
-12.58786796120145
 20
-66.266547408137512
 30
0.0
  0
VERTEX
  5
24E3
  8
SAPA_PROFIL
 62
     4
 10
-14.81213202991418
 20
-68.49081147685024
 30
0.0
 42
0.1989123673798886
  0
SEQEND
  5
24E4
  8
SAPA_PROFIL
 62
     4
  0
POLYLINE
  5
187D
  8
SAPA_PROFIL
 62
     4
 66
     1
 10
0.0
 20
0.0
 30
0.0
 70
     1
  0
VERTEX
  5
24E5
  8
SAPA_PROFIL
 62
     4
 10
-29.499999995557999
 20
-47.299999786054279
 30
0.0
  0
VERTEX
  5
24E6
  8
SAPA_PROFIL
 62
     4
 10
-29.49999999555618
 20
-60.106576655650763
 30
0.0
 42
0.4142135623732061
  0
VERTEX
  5
24E7
  8
SAPA_PROFIL
 62
     4
 10
-29.199999995556912
 20
-60.406576655650952
 30
0.0
  0
VERTEX
  5
24E8
  8
SAPA_PROFIL
 62
     4
 10
-12.799999995559091
 20
-60.406576655650952
 30
0.0
 42
0.4142135623730951
  0
VERTEX
  5
24E9
  8
SAPA_PROFIL
 62
     4
 10
-12.499999995557999
 20
-60.106576655650763
 30
0.0
  0
VERTEX
  5
24EA
  8
SAPA_PROFIL
 62
     4
 10
-12.49999999555982
 20
-47.299999786054279
 30
0.0
 42
0.4142135623731173
  0
VERTEX
  5
24EB
  8
SAPA_PROFIL
 62
     4
 10
-12.79999999556091
 20
-46.999999786054097
 30
0.0
  0
VERTEX
  5
24EC
  8
SAPA_PROFIL
 62
     4
 10
-29.199999995558731
 20
-46.999999786054097
 30
0.0
 42
0.4142135623730951
  0
SEQEND
  5
24ED
  8
SAPA_PROFIL
 62
     4
  0
POLYLINE
  5
187E
  8
SAPA_PROFIL
 62
     4
 66
     1
 10
0.0
 20
0.0
 30
0.0
 70
     1
  0
VERTEX
  5
24EE
  8
SAPA_PROFIL
 62
     4
 10
-10.99999999555982
 20
-45.999999786054097
 30
0.0
  0
VERTEX
  5
24EF
  8
SAPA_PROFIL
 62
     4
 10
-10.999999995557999
 20
-66.675735717341695
 30
0.0
 42
-0.1989123673799843
  0
VERTEX
  5
24F0
  8
SAPA_PROFIL
 62
     4
 10
-11.087867961203269
 20
-66.887867751698423
 30
0.0
  0
VERTEX
  5
24F1
  8
SAPA_PROFIL
 62
     4
 10
-13.31213202991418
 20
-69.112131820409331
 30
0.0
 42
0.1989123673811184
  0
VERTEX
  5
24F2
  8
SAPA_PROFIL
 62
     4
 10
-13.39999999555763
 20
-69.32426385476515
 30
0.0
  0
VERTEX
  5
24F3
  8
SAPA_PROFIL
 62
     4
 10
-13.39999999555582
 20
-72.275735717342954
 30
0.0
 42
0.1989123673785438
  0
VERTEX
  5
24F4
  8
SAPA_PROFIL
 62
     4
 10
-13.312132029912361
 20
-72.487867751698786
 30
0.0
  0
VERTEX
  5
24F5
  8
SAPA_PROFIL
 62
     4
 10
-11.08786796120145
 20
-74.712131820410605
 30
0.0
 42
-0.1989123673785438
  0
VERTEX
  5
24F6
  8
SAPA_PROFIL
 62
     4
 10
-10.999999995557999
 20
-74.924263854766423
 30
0.0
  0
VERTEX
  5
24F7
  8
SAPA_PROFIL
 62
     4
 10
-10.99999999555982
 20
-77.299999786054045
 30
0.0
 42
-0.4142135623730951
  0
VERTEX
  5
24F8
  8
SAPA_PROFIL
 62
     4
 10
-11.49999999555982
 20
-77.799999786054059
 30
0.0
  0
VERTEX
  5
24F9
  8
SAPA_PROFIL
 62
     4
 10
-23.399999995558769
 20
-77.799999786054059
 30
0.0
 42
0.414213562373761
  0
VERTEX
  5
24FA
  8
SAPA_PROFIL
 62
     4
 10
-23.699999995558048
 20
-78.099999786054241
 30
0.0
  0
VERTEX
  5
24FB
  8
SAPA_PROFIL
 62
     4
 10
-23.699999995558048
 20
-79.799999786054045
 30
0.0
 42
-0.4142135623730951
  0
VERTEX
  5
24FC
  8
SAPA_PROFIL
 62
     4
 10
-24.199999995558048
 20
-80.299999786054059
 30
0.0
  0
VERTEX
  5
24FD
  8
SAPA_PROFIL
 62
     4
 10
-30.499999995557999
 20
-80.299999786054059
 30
0.0
 42
-0.4142135623730951
  0
VERTEX
  5
24FE
  8
SAPA_PROFIL
 62
     4
 10
-30.999999995557999
 20
-79.799999786054045
 30
0.0
  0
VERTEX
  5
24FF
  8
SAPA_PROFIL
 62
     4
 10
-30.99999999555618
 20
-78.799999786053718
 30
0.0
 42
0.414213562373539
  0
VERTEX
  5
2500
  8
SAPA_PROFIL
 62
     4
 10
-31.29999999555546
 20
-78.499999786053763
 30
0.0
  0
VERTEX
  5
2501
  8
SAPA_PROFIL
 62
     4
 10
-32.899999995557643
 20
-78.499999786054204
 30
0.0
 42
0.4142135623735391
  0
VERTEX
  5
2502
  8
SAPA_PROFIL
 62
     4
 10
-33.199999995556908
 20
-78.799999786053945
 30
0.0
  0
VERTEX
  5
2503
  8
SAPA_PROFIL
 62
     4
 10
-33.199999995555089
 20
-79.099999786053544
 30
0.0
 42
-0.592337729603611
  0
VERTEX
  5
2504
  8
SAPA_PROFIL
 62
     4
 10
-33.661452266296664
 20
-79.352849868657813
 30
0.0
  0
VERTEX
  5
2505
  8
SAPA_PROFIL
 62
     4
 10
-35.361452266297391
 20
-78.075790600360961
 30
0.0
 42
-0.2560149538738706
  0
VERTEX
  5
2506
  8
SAPA_PROFIL
 62
     4
 10
-35.499999995557999
 20
-77.822940517755796
 30
0.0
  0
VERTEX
  5
2507
  8
SAPA_PROFIL
 62
     4
 10
-35.499999995557999
 20
-77.599999786053203
 30
0.0
 42
-0.4142135623733169
  0
VERTEX
  5
2508
  8
SAPA_PROFIL
 62
     4
 10
-35.199999995558727
 20
-77.299999786053945
 30
0.0
  0
VERTEX
  5
2509
  8
SAPA_PROFIL
 62
     4
 10
-31.29999999555546
 20
-77.299999786053945
 30
0.0
 42
0.414213562373539
  0
VERTEX
  5
250A
  8
SAPA_PROFIL
 62
     4
 10
-30.99999999555618
 20
-76.999999786053991
 30
0.0
  0
VERTEX
  5
250B
  8
SAPA_PROFIL
 62
     4
 10
-30.999999995557999
 20
-65.999999786053763
 30
0.0
 42
0.414213562373539
  0
VERTEX
  5
250C
  8
SAPA_PROFIL
 62
     4
 10
-31.299999995557268
 20
-65.699999786053795
 30
0.0
  0
VERTEX
  5
250D
  8
SAPA_PROFIL
 62
     4
 10
-35.199999995558727
 20
-65.699999786053795
 30
0.0
 42
-0.4142135623730951
  0
VERTEX
  5
250E
  8
SAPA_PROFIL
 62
     4
 10
-35.499999995557999
 20
-65.399999786054536
 30
0.0
  0
VERTEX
  5
250F
  8
SAPA_PROFIL
 62
     4
 10
-35.499999995557999
 20
-65.177059054351957
 30
0.0
 42
-0.2560149538738705
  0
VERTEX
  5
2510
  8
SAPA_PROFIL
 62
     4
 10
-35.361452266297391
 20
-64.924208971746793
 30
0.0
  0
VERTEX
  5
2511
  8
SAPA_PROFIL
 62
     4
 10
-33.661452266296664
 20
-63.647149703449941
 30
0.0
 42
-0.592337729603611
  0
VERTEX
  5
2512
  8
SAPA_PROFIL
 62
     4
 10
-33.199999995555089
 20
-63.899999786054202
 30
0.0
  0
VERTEX
  5
2513
  8
SAPA_PROFIL
 62
     4
 10
-33.199999995556908
 20
-64.199999786053809
 30
0.0
 42
0.4142135623735391
  0
VERTEX
  5
2514
  8
SAPA_PROFIL
 62
     4
 10
-32.899999995557643
 20
-64.499999786053536
 30
0.0
  0
VERTEX
  5
2515
  8
SAPA_PROFIL
 62
     4
 10
-31.299999995557268
 20
-64.499999786053991
 30
0.0
 42
0.414213562373539
  0
VERTEX
  5
2516
  8
SAPA_PROFIL
 62
     4
 10
-30.999999995557999
 20
-64.199999786054036
 30
0.0
  0
VERTEX
  5
2517
  8
SAPA_PROFIL
 62
     4
 10
-30.999999995561641
 20
-45.999999786054097
 30
0.0
 42
-0.414213562373126
  0
VERTEX
  5
2518
  8
SAPA_PROFIL
 62
     4
 10
-30.499999995561641
 20
-45.499999786054097
 30
0.0
  0
VERTEX
  5
2519
  8
SAPA_PROFIL
 62
     4
 10
-11.49999999555982
 20
-45.499999786054097
 30
0.0
 42
-0.4142135623730951
  0
SEQEND
  5
251A
  8
SAPA_PROFIL
 62
     4
  0
POLYLINE
  5
187F
  8
SAPA_PROFIL
 66
     1
 10
0.0
 20
0.0
 30
0.0
 70
     1
  0
VERTEX
  5
251B
  8
SAPA_PROFIL
 10
-86.199999995497421
 20
-29.299999952131881
 30
0.0
 42
0.4142135623730951
  0
VERTEX
  5
251C
  8
SAPA_PROFIL
 10
-86.499999995497433
 20
-29.599999952131888
 30
0.0
  0
VERTEX
  5
251D
  8
SAPA_PROFIL
 10
-86.499999995497319
 20
-31.199999952131879
 30
0.0
 42
-0.4142135623730951
  0
VERTEX
  5
251E
  8
SAPA_PROFIL
 10
-86.799999995497345
 20
-31.499999952131891
 30
0.0
  0
VERTEX
  5
251F
  8
SAPA_PROFIL
 10
-87.375735926785524
 20
-31.499999952131891
 30
0.0
 42
-0.1989123673795745
  0
VERTEX
  5
2520
  8
SAPA_PROFIL
 10
-87.587867961141399
 20
-31.4121319864879
 30
0.0
  0
VERTEX
  5
2521
  8
SAPA_PROFIL
 10
-88.412132029853296
 20
-30.587867917775899
 30
0.0
 42
-0.1989123673796451
  0
VERTEX
  5
2522
  8
SAPA_PROFIL
 10
-88.499999995497419
 20
-30.375735883419988
 30
0.0
  0
VERTEX
  5
2523
  8
SAPA_PROFIL
 10
-88.499999995497419
 20
-27.799999952131991
 30
0.0
 42
-0.4142135623732032
  0
VERTEX
  5
2524
  8
SAPA_PROFIL
 10
-88.199999995497407
 20
-27.499999952131891
 30
0.0
  0
VERTEX
  5
2525
  8
SAPA_PROFIL
 10
-83.799999995498126
 20
-27.499999952131979
 30
0.0
 42
0.41421356237312
  0
VERTEX
  5
2526
  8
SAPA_PROFIL
 10
-83.499999995498385
 20
-27.199999952131879
 30
0.0
  0
VERTEX
  5
2527
  8
SAPA_PROFIL
 10
-83.499999995500303
 20
-1.049999960584066
 30
0.0
 42
-0.41421356237312
  0
VERTEX
  5
2528
  8
SAPA_PROFIL
 10
-82.499999995500303
 20
-0.0499999605839816
 30
0.0
  0
VERTEX
  5
2529
  8
SAPA_PROFIL
 10
-75.816729761475315
 20
-0.0499999605839832
 30
0.0
 42
-0.1628603417903348
  0
VERTEX
  5
252A
  8
SAPA_PROFIL
 10
-75.666276005687308
 20
-0.1003410830721747
 30
0.0
  0
VERTEX
  5
252B
  8
SAPA_PROFIL
 10
-74.817963237695778
 20
-0.7395906051460609
 30
0.0
 42
0.1628603417903348
  0
VERTEX
  5
252C
  8
SAPA_PROFIL
 10
-74.63741873075017
 20
-0.7999999521318787
 30
0.0
  0
VERTEX
  5
252D
  8
SAPA_PROFIL
 10
-74.102072589716272
 20
-0.7999999521318663
 30
0.0
 42
0.2679491924313054
  0
VERTEX
  5
252E
  8
SAPA_PROFIL
 10
-73.842264968580807
 20
-0.6499999521319868
 30
0.0
  0
VERTEX
  5
252F
  8
SAPA_PROFIL
 10
-73.466987293607602
 20
0.0000000478678226
 30
0.0
 42
-0.4244748162097881
  0
VERTEX
  5
2530
  8
SAPA_PROFIL
 10
-72.769014959598692
 20
0.1740240959460999
 30
0.0
  0
VERTEX
  5
2531
  8
SAPA_PROFIL
 10
-71.635040363382686
 20
-0.5345618750730057
 30
0.0
 42
-0.2586175843565894
  0
VERTEX
  5
2532
  8
SAPA_PROFIL
 10
-71.399999995499215
 20
-0.9585859231524928
 30
0.0
  0
VERTEX
  5
2533
  8
SAPA_PROFIL
 10
-71.399999995499556
 20
-1.134844741408878
 30
0.0
 42
-0.3573618656727155
  0
VERTEX
  5
2534
  8
SAPA_PROFIL
 10
-71.641009802736207
 20
-1.4289878310052819
 30
0.0
  0
VERTEX
  5
2535
  8
SAPA_PROFIL
 10
-74.286600009399621
 20
-1.9595591134311281
 30
0.0
 42
-0.290805460401057
  0
VERTEX
  5
2536
  8
SAPA_PROFIL
 10
-75.809660164510603
 20
-1.437676184102181
 30
0.0
 42
0.2278537862654153
  0
VERTEX
  5
2537
  8
SAPA_PROFIL
 10
-76.200113565884095
 20
-1.249999960584
 30
0.0
  0
VERTEX
  5
2538
  8
SAPA_PROFIL
 10
-81.199999993873746
 20
-1.249999960583998
 30
0.0
 42
0.4142135623730951
  0
VERTEX
  5
2539
  8
SAPA_PROFIL
 10
-81.699999993873746
 20
-1.749999960583998
 30
0.0
  0
VERTEX
  5
253A
  8
SAPA_PROFIL
 10
-81.699999993873746
 20
-15.749999960880009
 30
0.0
 42
0.4142135623730951
  0
VERTEX
  5
253B
  8
SAPA_PROFIL
 10
-81.199999993873746
 20
-16.249999960880011
 30
0.0
  0
VERTEX
  5
253C
  8
SAPA_PROFIL
 10
-76.299999995499604
 20
-16.249999960880011
 30
0.0
 42
-0.4142135623730951
  0
VERTEX
  5
253D
  8
SAPA_PROFIL
 10
-75.799999995499604
 20
-16.749999960880011
 30
0.0
  0
VERTEX
  5
253E
  8
SAPA_PROFIL
 10
-75.799999995499604
 20
-17.349999960744348
 30
0.0
 42
-0.4142135623730951
  0
VERTEX
  5
253F
  8
SAPA_PROFIL
 10
-76.299999995499604
 20
-17.849999960744348
 30
0.0
  0
VERTEX
  5
2540
  8
SAPA_PROFIL
 10
-81.199999989209928
 20
-17.849999960744348
 30
0.0
 42
0.414213562315631
  0
VERTEX
  5
2541
  8
SAPA_PROFIL
 10
-81.699999989209942
 20
-18.34999996064624
 30
0.0
  0
VERTEX
  5
2542
  8
SAPA_PROFIL
 10
-81.699999995498814
 20
-50.40499995213198
 30
0.0
 42
-0.4142135623735363
  0
VERTEX
  5
2543
  8
SAPA_PROFIL
 10
-82.194999995497824
 20
-50.899999952132113
 30
0.0
  0
VERTEX
  5
2544
  8
SAPA_PROFIL
 10
-82.204999995497985
 20
-50.899999952132113
 30
0.0
 42
-0.4142135623729203
  0
VERTEX
  5
2545
  8
SAPA_PROFIL
 10
-82.699999995498786
 20
-50.404999952131988
 30
0.0
  0
VERTEX
  5
2546
  8
SAPA_PROFIL
 10
-82.699999995498771
 20
-50.244999952131899
 30
0.0
 42
0.4142135623734113
  0
VERTEX
  5
2547
  8
SAPA_PROFIL
 10
-83.194999995497824
 20
-49.749999952131994
 30
0.0
  0
VERTEX
  5
2548
  8
SAPA_PROFIL
 10
-83.999999995498143
 20
-49.749999952131994
 30
0.0
 42
0.3653737038880782
  0
VERTEX
  5
2549
  8
SAPA_PROFIL
 10
-86.710554207029318
 20
-52.03589235000743
 30
0.0
  0
VERTEX
  5
254A
  8
SAPA_PROFIL
 10
-86.423223300201812
 20
-52.323223256835142
 30
0.0
 42
-0.4142135623721916
  0
VERTEX
  5
254B
  8
SAPA_PROFIL
 10
-86.423223300201414
 20
-52.676776647427879
 30
0.0
  0
VERTEX
  5
254C
  8
SAPA_PROFIL
 10
-86.710554207029617
 20
-52.964107554257637
 30
0.0
 42
0.3653737038879154
  0
VERTEX
  5
254D
  8
SAPA_PROFIL
 10
-83.999999995498115
 20
-55.249999952131994
 30
0.0
  0
VERTEX
  5
254E
  8
SAPA_PROFIL
 10
-83.194999995497824
 20
-55.249999952132008
 30
0.0
 42
0.4142135623729951
  0
VERTEX
  5
254F
  8
SAPA_PROFIL
 10
-82.699999995498786
 20
-54.754999952132799
 30
0.0
  0
VERTEX
  5
2550
  8
SAPA_PROFIL
 10
-82.699999995498786
 20
-54.594999952131992
 30
0.0
 42
-0.4142135623729285
  0
VERTEX
  5
2551
  8
SAPA_PROFIL
 10
-82.204999995497985
 20
-54.099999952131903
 30
0.0
  0
VERTEX
  5
2552
  8
SAPA_PROFIL
 10
-82.194999995475314
 20
-54.099999952132372
 30
0.0
 42
-0.4142135623601338
  0
VERTEX
  5
2553
  8
SAPA_PROFIL
 10
-81.699999995498786
 20
-54.594999952131992
 30
0.0
  0
VERTEX
  5
2554
  8
SAPA_PROFIL
 10
-81.699999988632143
 20
-60.799999951385907
 30
0.0
 42
0.4142135623731365
  0
VERTEX
  5
2555
  8
SAPA_PROFIL
 10
-81.199999988719412
 20
-61.29999995147233
 30
0.0
  0
VERTEX
  5
2556
  8
SAPA_PROFIL
 10
-76.299999995340883
 20
-61.299999952285027
 30
0.0
 42
-0.4142135623728037
  0
VERTEX
  5
2557
  8
SAPA_PROFIL
 10
-75.799999995428323
 20
-61.799999952370911
 30
0.0
  0
VERTEX
  5
2558
  8
SAPA_PROFIL
 10
-75.799999995566509
 20
-62.399999952624398
 30
0.0
 42
-0.4142135623733948
  0
VERTEX
  5
2559
  8
SAPA_PROFIL
 10
-76.29999999565382
 20
-62.899999952538401
 30
0.0
  0
VERTEX
  5
255A
  8
SAPA_PROFIL
 10
-81.199999989030502
 20
-62.89999995172569
 30
0.0
 42
0.4142135623730951
  0
VERTEX
  5
255B
  8
SAPA_PROFIL
 10
-81.699999989117771
 20
-63.399999951639352
 30
0.0
  0
VERTEX
  5
255C
  8
SAPA_PROFIL
 10
-81.699999995498786
 20
-80.799999952131714
 30
0.0
 42
0.4142135623730951
  0
VERTEX
  5
255D
  8
SAPA_PROFIL
 10
-81.199999995498814
 20
-81.299999952131714
 30
0.0
  0
VERTEX
  5
255E
  8
SAPA_PROFIL
 10
-78.299999995340897
 20
-81.299999952131714
 30
0.0
 42
0.4142135623730951
  0
VERTEX
  5
255F
  8
SAPA_PROFIL
 10
-77.799999995340897
 20
-80.799999952131714
 30
0.0
  0
VERTEX
  5
2560
  8
SAPA_PROFIL
 10
-77.799999995340897
 20
-79.257106733318352
 30
0.0
 42
-0.1989123673798694
  0
VERTEX
  5
2561
  8
SAPA_PROFIL
 10
-77.653553385933321
 20
-78.903553342725047
 30
0.0
  0
VERTEX
  5
2562
  8
SAPA_PROFIL
 10
-76.196446604748502
 20
-77.446446561538863
 30
0.0
 42
-0.1989123673796867
  0
VERTEX
  5
2563
  8
SAPA_PROFIL
 10
-75.842893214154202
 20
-77.299999952131714
 30
0.0
  0
VERTEX
  5
2564
  8
SAPA_PROFIL
 10
-74.53789344885044
 20
-77.299999952131714
 30
0.0
 42
-0.0495213429255793
  0
VERTEX
  5
2565
  8
SAPA_PROFIL
 10
-74.439576460911127
 20
-77.309761469469947
 30
0.0
  0
VERTEX
  5
2566
  8
SAPA_PROFIL
 10
-71.641009802577244
 20
-77.871012073259493
 30
0.0
 42
-0.3573618656739605
  0
VERTEX
  5
2567
  8
SAPA_PROFIL
 10
-71.399999995339442
 20
-78.165155162854774
 30
0.0
  0
VERTEX
  5
2568
  8
SAPA_PROFIL
 10
-71.399999995339442
 20
-78.341413981111202
 30
0.0
 42
-0.2586175843560156
  0
VERTEX
  5
2569
  8
SAPA_PROFIL
 10
-71.635040363224164
 20
-78.765438029190648
 30
0.0
  0
VERTEX
  5
256A
  8
SAPA_PROFIL
 10
-72.769014959440113
 20
-79.474024000211358
 30
0.0
 42
-0.4244748162094236
  0
VERTEX
  5
256B
  8
SAPA_PROFIL
 10
-73.466987293448312
 20
-79.299999952131714
 30
0.0
  0
VERTEX
  5
256C
  8
SAPA_PROFIL
 10
-73.842264968419627
 20
-78.649999952132447
 30
0.0
 42
0.2679491924316278
  0
VERTEX
  5
256D
  8
SAPA_PROFIL
 10
-74.102072589555249
 20
-78.499999952131986
 30
0.0
  0
VERTEX
  5
256E
  8
SAPA_PROFIL
 10
-75.428679651781195
 20
-78.499999952132214
 30
0.0
 42
0.1989123673795245
  0
VERTEX
  5
256F
  8
SAPA_PROFIL
 10
-75.640811686137056
 20
-78.587867917776165
 30
0.0
  0
VERTEX
  5
2570
  8
SAPA_PROFIL
 10
-76.453553385934413
 20
-79.400609617572854
 30
0.0
 42
0.1989123673801597
  0
VERTEX
  5
2571
  8
SAPA_PROFIL
 10
-76.599999995340184
 20
-79.754163008166003
 30
0.0
  0
VERTEX
  5
2572
  8
SAPA_PROFIL
 10
-76.599999995340184
 20
-80.749999952132086
 30
0.0
 42
0.4142135623724791
  0
VERTEX
  5
2573
  8
SAPA_PROFIL
 10
-76.349999995340724
 20
-80.9999999521321
 30
0.0
  0
VERTEX
  5
2574
  8
SAPA_PROFIL
 10
-76.249999995341057
 20
-80.999999952132328
 30
0.0
 42
-0.4142135623724624
  0
VERTEX
  5
2575
  8
SAPA_PROFIL
 10
-75.999999995341597
 20
-81.249999952132328
 30
0.0
  0
VERTEX
  5
2576
  8
SAPA_PROFIL
 10
-75.999999995341597
 20
-82.249999952131986
 30
0.0
 42
-0.4142135623730951
  0
VERTEX
  5
2577
  8
SAPA_PROFIL
 10
-76.249999995341597
 20
-82.499999952131986
 30
0.0
  0
VERTEX
  5
2578
  8
SAPA_PROFIL
 10
-83.199999995497407
 20
-82.499999952132015
 30
0.0
 42
-0.4142135623730951
  0
VERTEX
  5
2579
  8
SAPA_PROFIL
 10
-83.499999995497419
 20
-82.199999952132032
 30
0.0
  0
VERTEX
  5
257A
  8
SAPA_PROFIL
 10
-83.49999999549739
 20
-77.799999952131984
 30
0.0
 42
0.4142135623730951
  0
VERTEX
  5
257B
  8
SAPA_PROFIL
 10
-83.799999995497402
 20
-77.499999952131986
 30
0.0
  0
VERTEX
  5
257C
  8
SAPA_PROFIL
 10
-88.199999995497407
 20
-77.499999952131986
 30
0.0
 42
-0.4142135623730117
  0
VERTEX
  5
257D
  8
SAPA_PROFIL
 10
-88.499999995497419
 20
-77.199999952131918
 30
0.0
  0
VERTEX
  5
257E
  8
SAPA_PROFIL
 10
-88.499999995497419
 20
-74.624264020843896
 30
0.0
 42
-0.1989123673796266
  0
VERTEX
  5
257F
  8
SAPA_PROFIL
 10
-88.412132029853424
 20
-74.412131986487964
 30
0.0
  0
VERTEX
  5
2580
  8
SAPA_PROFIL
 10
-87.587867961141399
 20
-73.587867917776009
 30
0.0
 42
-0.1989123673796215
  0
VERTEX
  5
2581
  8
SAPA_PROFIL
 10
-87.375735926785524
 20
-73.499999952131986
 30
0.0
  0
VERTEX
  5
2582
  8
SAPA_PROFIL
 10
-86.799999995497345
 20
-73.499999952132015
 30
0.0
 42
-0.4142135623730951
  0
VERTEX
  5
2583
  8
SAPA_PROFIL
 10
-86.499999995497319
 20
-73.799999952131941
 30
0.0
  0
VERTEX
  5
2584
  8
SAPA_PROFIL
 10
-86.499999995497376
 20
-75.399999952131992
 30
0.0
 42
0.4142135623730617
  0
VERTEX
  5
2585
  8
SAPA_PROFIL
 10
-86.199999995497421
 20
-75.699999952131918
 30
0.0
  0
VERTEX
  5
2586
  8
SAPA_PROFIL
 10
-83.799999995497373
 20
-75.699999952131861
 30
0.0
 42
0.4142135623731534
  0
VERTEX
  5
2587
  8
SAPA_PROFIL
 10
-83.499999995497419
 20
-75.399999952131964
 30
0.0
  0
VERTEX
  5
2588
  8
SAPA_PROFIL
 10
-83.499999995497419
 20
-57.499999952131979
 30
0.0
 42
0.4142135623730868
  0
VERTEX
  5
2589
  8
SAPA_PROFIL
 10
-83.999999995497404
 20
-56.999999952131979
 30
0.0
  0
VERTEX
  5
258A
  8
SAPA_PROFIL
 10
-87.999999995497376
 20
-56.999999952131851
 30
0.0
 42
-0.4142135623730784
  0
VERTEX
  5
258B
  8
SAPA_PROFIL
 10
-88.299999995497373
 20
-56.699999952131847
 30
0.0
  0
VERTEX
  5
258C
  8
SAPA_PROFIL
 10
-88.299999995497316
 20
-53.180384709861237
 30
0.0
 42
-0.1316524975872861
  0
VERTEX
  5
258D
  8
SAPA_PROFIL
 10
-88.259807616632713
 20
-53.03038470986138
 30
0.0
  0
VERTEX
  5
258E
  8
SAPA_PROFIL
 10
-88.040192374362064
 20
-52.649999952131587
 30
0.0
 42
0.2679491924310436
  0
VERTEX
  5
258F
  8
SAPA_PROFIL
 10
-88.040192374362093
 20
-52.349999952131718
 30
0.0
  0
VERTEX
  5
2590
  8
SAPA_PROFIL
 10
-88.259807616632685
 20
-51.969615194402657
 30
0.0
 42
-0.1316524975874466
  0
VERTEX
  5
2591
  8
SAPA_PROFIL
 10
-88.299999995497387
 20
-51.819615194402601
 30
0.0
  0
VERTEX
  5
2592
  8
SAPA_PROFIL
 10
-88.299999995497345
 20
-48.299999952131898
 30
0.0
 42
-0.4142135623730951
  0
VERTEX
  5
2593
  8
SAPA_PROFIL
 10
-87.999999995497348
 20
-47.999999952131887
 30
0.0
  0
VERTEX
  5
2594
  8
SAPA_PROFIL
 10
-83.999999995497433
 20
-47.999999952131901
 30
0.0
 42
0.4142135623730951
  0
VERTEX
  5
2595
  8
SAPA_PROFIL
 10
-83.499999995497419
 20
-47.499999952131887
 30
0.0
  0
VERTEX
  5
2596
  8
SAPA_PROFIL
 10
-83.499999995497419
 20
-29.599999952131888
 30
0.0
 42
0.4142135623731534
  0
VERTEX
  5
2597
  8
SAPA_PROFIL
 10
-83.799999995497373
 20
-29.299999952131991
 30
0.0
  0
SEQEND
  5
2598
  8
SAPA_PROFIL
  0
POLYLINE
  5
1880
  8
SAPA_PROFIL
 66
     1
 10
0.0
 20
0.0
 30
0.0
 70
     1
  0
VERTEX
  5
2599
  8
SAPA_PROFIL
 10
-131.69999999549731
 20
-79.20000043544394
 30
0.0
 42
-0.4142135623730951
  0
VERTEX
  5
259A
  8
SAPA_PROFIL
 10
-131.99999999549729
 20
-79.500000435444008
 30
0.0
  0
VERTEX
  5
259B
  8
SAPA_PROFIL
 10
-166.8757359267853
 20
-79.500000435443894
 30
0.0
 42
-0.198912367379658
  0
VERTEX
  5
259C
  8
SAPA_PROFIL
 10
-167.08786796114131
 20
-79.412132469799985
 30
0.0
  0
VERTEX
  5
259D
  8
SAPA_PROFIL
 10
-170.41213202985321
 20
-76.087868401088031
 30
0.0
 42
-0.1989123673796998
  0
VERTEX
  5
259E
  8
SAPA_PROFIL
 10
-170.49999999549729
 20
-75.875736366731985
 30
0.0
  0
VERTEX
  5
259F
  8
SAPA_PROFIL
 10
-170.49999999549721
 20
-72.400000435443985
 30
0.0
 42
-0.4142135623730951
  0
VERTEX
  5
25A0
  8
SAPA_PROFIL
 10
-170.19999999549719
 20
-72.100000435444031
 30
0.0
  0
VERTEX
  5
25A1
  8
SAPA_PROFIL
 10
-162.7999999954973
 20
-72.100000435443917
 30
0.0
 42
0.4142135623730951
  0
VERTEX
  5
25A2
  8
SAPA_PROFIL
 10
-162.49999999549729
 20
-71.800000435443962
 30
0.0
  0
VERTEX
  5
25A3
  8
SAPA_PROFIL
 10
-162.49999999549729
 20
-70.20000043544394
 30
0.0
 42
0.4142135623730951
  0
VERTEX
  5
25A4
  8
SAPA_PROFIL
 10
-162.7999999954973
 20
-69.900000435443985
 30
0.0
  0
VERTEX
  5
25A5
  8
SAPA_PROFIL
 10
-171.19999999549719
 20
-69.900000435443985
 30
0.0
 42
-0.4142135623730951
  0
VERTEX
  5
25A6
  8
SAPA_PROFIL
 10
-171.49999999549729
 20
-69.600000435444031
 30
0.0
  0
VERTEX
  5
25A7
  8
SAPA_PROFIL
 10
-171.49999999549721
 20
-56.800000435443962
 30
0.0
 42
-0.4142135623730951
  0
VERTEX
  5
25A8
  8
SAPA_PROFIL
 10
-171.19999999549719
 20
-56.500000435444008
 30
0.0
  0
VERTEX
  5
25A9
  8
SAPA_PROFIL
 10
-167.19999999549719
 20
-56.500000435444008
 30
0.0
 42
0.6681786379192989
  0
VERTEX
  5
25AA
  8
SAPA_PROFIL
 10
-166.8464466049042
 20
-55.646447044851008
 30
0.0
  0
VERTEX
  5
25AB
  8
SAPA_PROFIL
 10
-167.99289321431129
 20
-54.500000435444008
 30
0.0
  0
VERTEX
  5
25AC
  8
SAPA_PROFIL
 10
-171.19999999549719
 20
-54.500000435444008
 30
0.0
 42
-0.4142135623730951
  0
VERTEX
  5
25AD
  8
SAPA_PROFIL
 10
-171.49999999549729
 20
-54.200000435444053
 30
0.0
  0
VERTEX
  5
25AE
  8
SAPA_PROFIL
 10
-171.49999999549729
 20
-53.366025839227973
 30
0.0
  0
VERTEX
  5
25AF
  8
SAPA_PROFIL
 10
-171.99999999549729
 20
-52.500000435444001
 30
0.0
  0
VERTEX
  5
25B0
  8
SAPA_PROFIL
 10
-171.49999999549729
 20
-51.633975031660043
 30
0.0
  0
VERTEX
  5
25B1
  8
SAPA_PROFIL
 10
-171.49999999549721
 20
-50.800000435443962
 30
0.0
 42
-0.4142135623730951
  0
VERTEX
  5
25B2
  8
SAPA_PROFIL
 10
-171.19999999549719
 20
-50.500000435444001
 30
0.0
  0
VERTEX
  5
25B3
  8
SAPA_PROFIL
 10
-167.49999999549729
 20
-50.500000435444001
 30
0.0
  0
VERTEX
  5
25B4
  8
SAPA_PROFIL
 10
-166.49999999549729
 20
-49.500000435444008
 30
0.0
  0
VERTEX
  5
25B5
  8
SAPA_PROFIL
 10
-166.49999999549729
 20
-35.400000435443992
 30
0.0
 42
-0.4142135623730951
  0
VERTEX
  5
25B6
  8
SAPA_PROFIL
 10
-166.19999999549719
 20
-35.100000435444031
 30
0.0
  0
VERTEX
  5
25B7
  8
SAPA_PROFIL
 10
-162.7999999954973
 20
-35.100000435444031
 30
0.0
 42
0.4142135623730951
  0
VERTEX
  5
25B8
  8
SAPA_PROFIL
 10
-162.49999999549729
 20
-34.800000435443962
 30
0.0
  0
VERTEX
  5
25B9
  8
SAPA_PROFIL
 10
-162.49999999549729
 20
-33.200000435444061
 30
0.0
 42
0.4142135623730951
  0
VERTEX
  5
25BA
  8
SAPA_PROFIL
 10
-162.7999999954973
 20
-32.900000435444099
 30
0.0
  0
VERTEX
  5
25BB
  8
SAPA_PROFIL
 10
-166.19999999549719
 20
-32.900000435443992
 30
0.0
 42
-0.4142135623730951
  0
VERTEX
  5
25BC
  8
SAPA_PROFIL
 10
-166.49999999549721
 20
-32.600000435444031
 30
0.0
  0
VERTEX
  5
25BD
  8
SAPA_PROFIL
 10
-166.49999999549729
 20
-25.80000043544397
 30
0.0
 42
-0.4142135623730951
  0
VERTEX
  5
25BE
  8
SAPA_PROFIL
 10
-166.19999999549719
 20
-25.500000435444012
 30
0.0
  0
VERTEX
  5
25BF
  8
SAPA_PROFIL
 10
-131.99999999549729
 20
-25.500000435444012
 30
0.0
 42
-0.4142135623730951
  0
VERTEX
  5
25C0
  8
SAPA_PROFIL
 10
-131.69999999549731
 20
-25.80000043544397
 30
0.0
  0
VERTEX
  5
25C1
  8
SAPA_PROFIL
 10
-131.69999999549719
 20
-32.600000435444031
 30
0.0
 42
-0.4142135623730951
  0
VERTEX
  5
25C2
  8
SAPA_PROFIL
 10
-131.99999999549729
 20
-32.900000435443992
 30
0.0
  0
VERTEX
  5
25C3
  8
SAPA_PROFIL
 10
-135.3999999954973
 20
-32.900000435443992
 30
0.0
 42
0.4142135623730951
  0
VERTEX
  5
25C4
  8
SAPA_PROFIL
 10
-135.69999999549719
 20
-33.200000435444061
 30
0.0
  0
VERTEX
  5
25C5
  8
SAPA_PROFIL
 10
-135.69999999549719
 20
-34.800000435443962
 30
0.0
 42
0.4142135623730951
  0
VERTEX
  5
25C6
  8
SAPA_PROFIL
 10
-135.3999999954973
 20
-35.100000435443917
 30
0.0
  0
VERTEX
  5
25C7
  8
SAPA_PROFIL
 10
-130.79999999549719
 20
-35.100000435444031
 30
0.0
 42
-0.4142135623730951
  0
VERTEX
  5
25C8
  8
SAPA_PROFIL
 10
-130.49999999549729
 20
-35.400000435443992
 30
0.0
  0
VERTEX
  5
25C9
  8
SAPA_PROFIL
 10
-130.49999999549729
 20
-69.600000435444031
 30
0.0
 42
-0.4142135623730951
  0
VERTEX
  5
25CA
  8
SAPA_PROFIL
 10
-130.79999999549719
 20
-69.900000435443985
 30
0.0
  0
VERTEX
  5
25CB
  8
SAPA_PROFIL
 10
-135.3999999954973
 20
-69.900000435443985
 30
0.0
 42
0.4142135623730951
  0
VERTEX
  5
25CC
  8
SAPA_PROFIL
 10
-135.69999999549719
 20
-70.20000043544394
 30
0.0
  0
VERTEX
  5
25CD
  8
SAPA_PROFIL
 10
-135.69999999549719
 20
-71.800000435443962
 30
0.0
 42
0.4142135623730951
  0
VERTEX
  5
25CE
  8
SAPA_PROFIL
 10
-135.3999999954973
 20
-72.100000435443917
 30
0.0
  0
VERTEX
  5
25CF
  8
SAPA_PROFIL
 10
-131.99999999549729
 20
-72.100000435444031
 30
0.0
 42
-0.4142135623730951
  0
VERTEX
  5
25D0
  8
SAPA_PROFIL
 10
-131.69999999549731
 20
-72.400000435443985
 30
0.0
  0
SEQEND
  5
25D1
  8
SAPA_PROFIL
  0
POLYLINE
  5
1881
  8
SAPA_PROFIL
 66
     1
 10
0.0
 20
0.0
 30
0.0
 70
     1
  0
VERTEX
  5
25D2
  8
SAPA_PROFIL
 10
-120.19999999549719
 20
-74.700000435444153
 30
0.0
 42
0.4142135623730951
  0
VERTEX
  5
25D3
  8
SAPA_PROFIL
 10
-120.4999999954973
 20
-75.000000435444122
 30
0.0
  0
VERTEX
  5
25D4
  8
SAPA_PROFIL
 10
-120.4999999954974
 20
-75.450000435444153
 30
0.0
 42
-0.4142135623730951
  0
VERTEX
  5
25D5
  8
SAPA_PROFIL
 10
-120.7999999954974
 20
-75.750000435444122
 30
0.0
  0
VERTEX
  5
25D6
  8
SAPA_PROFIL
 10
-121.49999999549721
 20
-75.750000435444122
 30
0.0
 42
-0.4142135623731506
  0
VERTEX
  5
25D7
  8
SAPA_PROFIL
 10
-121.7999999954972
 20
-75.450000435444153
 30
0.0
  0
VERTEX
  5
25D8
  8
SAPA_PROFIL
 10
-121.7999999954972
 20
-75.000000435444122
 30
0.0
 42
0.4142135623731506
  0
VERTEX
  5
25D9
  8
SAPA_PROFIL
 10
-122.0999999954973
 20
-74.700000435444153
 30
0.0
  0
VERTEX
  5
25DA
  8
SAPA_PROFIL
 10
-122.5999999954973
 20
-74.700000435444053
 30
0.0
 42
0.4142135623730951
  0
VERTEX
  5
25DB
  8
SAPA_PROFIL
 10
-123.0999999954973
 20
-75.200000435444053
 30
0.0
  0
VERTEX
  5
25DC
  8
SAPA_PROFIL
 10
-123.0999999954973
 20
-76.600000435444031
 30
0.0
 42
-0.4142135623730951
  0
VERTEX
  5
25DD
  8
SAPA_PROFIL
 10
-124.0999999954973
 20
-77.600000435444031
 30
0.0
  0
VERTEX
  5
25DE
  8
SAPA_PROFIL
 10
-124.4999999954973
 20
-77.600000435444144
 30
0.0
 42
-0.9999999999999998
  0
VERTEX
  5
25DF
  8
SAPA_PROFIL
 10
-124.4999999954973
 20
-70.400000435444085
 30
0.0
  0
VERTEX
  5
25E0
  8
SAPA_PROFIL
 10
-123.3999999954972
 20
-70.400000435443985
 30
0.0
 42
-0.4142135623732059
  0
VERTEX
  5
25E1
  8
SAPA_PROFIL
 10
-123.0999999954971
 20
-70.700000435444053
 30
0.0
  0
VERTEX
  5
25E2
  8
SAPA_PROFIL
 10
-123.0999999954973
 20
-71.000000435443894
 30
0.0
 42
0.4142135623733948
  0
VERTEX
  5
25E3
  8
SAPA_PROFIL
 10
-122.5999999954973
 20
-71.500000435444235
 30
0.0
  0
VERTEX
  5
25E4
  8
SAPA_PROFIL
 10
-122.0999999954973
 20
-71.500000435444235
 30
0.0
 42
0.4142135623730397
  0
VERTEX
  5
25E5
  8
SAPA_PROFIL
 10
-121.7999999954974
 20
-71.200000435444281
 30
0.0
  0
VERTEX
  5
25E6
  8
SAPA_PROFIL
 10
-121.7999999954972
 20
-70.750000435444122
 30
0.0
 42
-0.4142135623731505
  0
VERTEX
  5
25E7
  8
SAPA_PROFIL
 10
-121.49999999549721
 20
-70.450000435444153
 30
0.0
  0
VERTEX
  5
25E8
  8
SAPA_PROFIL
 10
-120.7999999954974
 20
-70.450000435444153
 30
0.0
 42
-0.4142135623730951
  0
VERTEX
  5
25E9
  8
SAPA_PROFIL
 10
-120.4999999954973
 20
-70.750000435444122
 30
0.0
  0
VERTEX
  5
25EA
  8
SAPA_PROFIL
 10
-120.4999999954973
 20
-71.200000435444167
 30
0.0
 42
0.4142135623730951
  0
VERTEX
  5
25EB
  8
SAPA_PROFIL
 10
-120.19999999549719
 20
-71.500000435444235
 30
0.0
  0
VERTEX
  5
25EC
  8
SAPA_PROFIL
 10
-119.49999999549679
 20
-71.500000435443667
 30
0.0
 42
0.2504916501726643
  0
VERTEX
  5
25ED
  8
SAPA_PROFIL
 10
-118.4999999954973
 20
-70.500000435444235
 30
0.0
  0
VERTEX
  5
25EE
  8
SAPA_PROFIL
 10
-118.4999999954973
 20
-68.200000435444167
 30
0.0
 42
0.4142135623730951
  0
VERTEX
  5
25EF
  8
SAPA_PROFIL
 10
-119.4999999954973
 20
-67.200000435444153
 30
0.0
  0
VERTEX
  5
25F0
  8
SAPA_PROFIL
 10
-127.19999999549719
 20
-67.200000435444153
 30
0.0
 42
-0.4142135623730951
  0
VERTEX
  5
25F1
  8
SAPA_PROFIL
 10
-127.4999999954973
 20
-66.900000435444213
 30
0.0
  0
VERTEX
  5
25F2
  8
SAPA_PROFIL
 10
-127.4999999954973
 20
-53.366025839227973
 30
0.0
  0
VERTEX
  5
25F3
  8
SAPA_PROFIL
 10
-127.9999999954973
 20
-52.500000435444001
 30
0.0
  0
VERTEX
  5
25F4
  8
SAPA_PROFIL
 10
-127.4999999954973
 20
-51.633975031660043
 30
0.0
  0
VERTEX
  5
25F5
  8
SAPA_PROFIL
 10
-127.49999999549721
 20
-38.100000435444031
 30
0.0
 42
-0.4142135623730951
  0
VERTEX
  5
25F6
  8
SAPA_PROFIL
 10
-127.19999999549719
 20
-37.800000435443849
 30
0.0
  0
VERTEX
  5
25F7
  8
SAPA_PROFIL
 10
-119.4999999954973
 20
-37.800000435443849
 30
0.0
 42
0.4142135623730951
  0
VERTEX
  5
25F8
  8
SAPA_PROFIL
 10
-118.4999999954973
 20
-36.800000435443849
 30
0.0
  0
VERTEX
  5
25F9
  8
SAPA_PROFIL
 10
-118.4999999954973
 20
-34.500000435443781
 30
0.0
 42
0.2504916501726643
  0
VERTEX
  5
25FA
  8
SAPA_PROFIL
 10
-119.49999999549679
 20
-33.500000435444349
 30
0.0
  0
VERTEX
  5
25FB
  8
SAPA_PROFIL
 10
-120.19999999549719
 20
-33.500000435443781
 30
0.0
 42
0.4142135623730951
  0
VERTEX
  5
25FC
  8
SAPA_PROFIL
 10
-120.4999999954973
 20
-33.800000435443849
 30
0.0
  0
VERTEX
  5
25FD
  8
SAPA_PROFIL
 10
-120.4999999954973
 20
-34.250000435443901
 30
0.0
 42
-0.4142135623730951
  0
VERTEX
  5
25FE
  8
SAPA_PROFIL
 10
-120.7999999954974
 20
-34.550000435443849
 30
0.0
  0
VERTEX
  5
25FF
  8
SAPA_PROFIL
 10
-121.49999999549721
 20
-34.550000435443849
 30
0.0
 42
-0.4142135623731506
  0
VERTEX
  5
2600
  8
SAPA_PROFIL
 10
-121.7999999954972
 20
-34.250000435443901
 30
0.0
  0
VERTEX
  5
2601
  8
SAPA_PROFIL
 10
-121.7999999954974
 20
-33.800000435443742
 30
0.0
 42
0.4142135623730397
  0
VERTEX
  5
2602
  8
SAPA_PROFIL
 10
-122.0999999954973
 20
-33.500000435443781
 30
0.0
  0
VERTEX
  5
2603
  8
SAPA_PROFIL
 10
-122.5999999954973
 20
-33.500000435443781
 30
0.0
 42
0.4142135623733948
  0
VERTEX
  5
2604
  8
SAPA_PROFIL
 10
-123.0999999954973
 20
-34.000000435444122
 30
0.0
  0
VERTEX
  5
2605
  8
SAPA_PROFIL
 10
-123.0999999954971
 20
-34.300000435443962
 30
0.0
 42
-0.4142135623732059
  0
VERTEX
  5
2606
  8
SAPA_PROFIL
 10
-123.3999999954972
 20
-34.600000435444031
 30
0.0
  0
VERTEX
  5
2607
  8
SAPA_PROFIL
 10
-124.4999999954973
 20
-34.600000435443917
 30
0.0
 42
-0.9999999999999998
  0
VERTEX
  5
2608
  8
SAPA_PROFIL
 10
-124.4999999954973
 20
-27.400000435443872
 30
0.0
  0
VERTEX
  5
2609
  8
SAPA_PROFIL
 10
-124.0999999954973
 20
-27.400000435443982
 30
0.0
 42
-0.4142135623730951
  0
VERTEX
  5
260A
  8
SAPA_PROFIL
 10
-123.0999999954973
 20
-28.400000435443989
 30
0.0
  0
VERTEX
  5
260B
  8
SAPA_PROFIL
 10
-123.0999999954973
 20
-29.800000435443959
 30
0.0
 42
0.4142135623730951
  0
VERTEX
  5
260C
  8
SAPA_PROFIL
 10
-122.5999999954973
 20
-30.300000435443959
 30
0.0
  0
VERTEX
  5
260D
  8
SAPA_PROFIL
 10
-122.0999999954973
 20
-30.300000435443849
 30
0.0
 42
0.4142135623731506
  0
VERTEX
  5
260E
  8
SAPA_PROFIL
 10
-121.7999999954972
 20
-30.000000435443891
 30
0.0
  0
VERTEX
  5
260F
  8
SAPA_PROFIL
 10
-121.7999999954972
 20
-29.550000435443849
 30
0.0
 42
-0.4142135623731505
  0
VERTEX
  5
2610
  8
SAPA_PROFIL
 10
-121.49999999549721
 20
-29.250000435443901
 30
0.0
  0
VERTEX
  5
2611
  8
SAPA_PROFIL
 10
-120.7999999954974
 20
-29.250000435443901
 30
0.0
 42
-0.4142135623730951
  0
VERTEX
  5
2612
  8
SAPA_PROFIL
 10
-120.4999999954974
 20
-29.550000435443849
 30
0.0
  0
VERTEX
  5
2613
  8
SAPA_PROFIL
 10
-120.4999999954973
 20
-30.000000435443891
 30
0.0
 42
0.4142135623730951
  0
VERTEX
  5
2614
  8
SAPA_PROFIL
 10
-120.19999999549719
 20
-30.300000435443849
 30
0.0
  0
VERTEX
  5
2615
  8
SAPA_PROFIL
 10
-119.4999999954973
 20
-30.300000435443849
 30
0.0
 42
0.2504916501726753
  0
VERTEX
  5
2616
  8
SAPA_PROFIL
 10
-118.49999999549679
 20
-29.300000435443621
 30
0.0
  0
VERTEX
  5
2617
  8
SAPA_PROFIL
 10
-118.4999999954973
 20
-26.914213997816891
 30
0.0
 42
0.1989123673796728
  0
VERTEX
  5
2618
  8
SAPA_PROFIL
 10
-118.79289321431069
 20
-26.207107216630341
 30
0.0
  0
VERTEX
  5
2619
  8
SAPA_PROFIL
 10
-121.62132033905721
 20
-23.378680091884799
 30
0.0
 42
0.1989123673796725
  0
VERTEX
  5
261A
  8
SAPA_PROFIL
 10
-123.7426406826163
 20
-22.500000435444012
 30
0.0
  0
VERTEX
  5
261B
  8
SAPA_PROFIL
 10
-169.25735930837831
 20
-22.500000435444012
 30
0.0
 42
0.1989123673796575
  0
VERTEX
  5
261C
  8
SAPA_PROFIL
 10
-171.37867965193729
 20
-23.378680091884011
 30
0.0
  0
VERTEX
  5
261D
  8
SAPA_PROFIL
 10
-174.20710677668379
 20
-26.207107216630451
 30
0.0
 42
0.198912367379658
  0
VERTEX
  5
261E
  8
SAPA_PROFIL
 10
-174.49999999549729
 20
-26.914213997817001
 30
0.0
  0
VERTEX
  5
261F
  8
SAPA_PROFIL
 10
-174.49999999549729
 20
-30.000000435444012
 30
0.0
  0
VERTEX
  5
2620
  8
SAPA_PROFIL
 10
-173.49999999549729
 20
-31.000000435444012
 30
0.0
  0
VERTEX
  5
2621
  8
SAPA_PROFIL
 10
-172.49999999549729
 20
-31.000000435444012
 30
0.0
  0
VERTEX
  5
2622
  8
SAPA_PROFIL
 10
-172.49999999549721
 20
-28.95000043544405
 30
0.0
 42
-0.4142135623730951
  0
VERTEX
  5
2623
  8
SAPA_PROFIL
 10
-172.19999999549719
 20
-28.650000435443982
 30
0.0
  0
VERTEX
  5
2624
  8
SAPA_PROFIL
 10
-169.74999999549729
 20
-28.650000435444099
 30
0.0
 42
-0.4142135623730951
  0
VERTEX
  5
2625
  8
SAPA_PROFIL
 10
-169.44999999549719
 20
-28.95000043544405
 30
0.0
  0
VERTEX
  5
2626
  8
SAPA_PROFIL
 10
-169.44999999549731
 20
-47.050000435443962
 30
0.0
 42
-0.414213562373095
  0
VERTEX
  5
2627
  8
SAPA_PROFIL
 10
-169.74999999549729
 20
-47.350000435444031
 30
0.0
  0
VERTEX
  5
2628
  8
SAPA_PROFIL
 10
-172.19999999549719
 20
-47.35000043544391
 30
0.0
 42
-0.4142135623730951
  0
VERTEX
  5
2629
  8
SAPA_PROFIL
 10
-172.49999999549729
 20
-47.050000435443962
 30
0.0
  0
VERTEX
  5
262A
  8
SAPA_PROFIL
 10
-172.49999999549729
 20
-45.300000435443962
 30
0.0
 42
0.4142135623730951
  0
VERTEX
  5
262B
  8
SAPA_PROFIL
 10
-172.79999999549719
 20
-45.000000435444001
 30
0.0
  0
VERTEX
  5
262C
  8
SAPA_PROFIL
 10
-173.49999999549729
 20
-45.000000435444001
 30
0.0
  0
VERTEX
  5
262D
  8
SAPA_PROFIL
 10
-174.49999999549729
 20
-46.000000435444001
 30
0.0
  0
VERTEX
  5
262E
  8
SAPA_PROFIL
 10
-174.49999999549729
 20
-51.633975031660043
 30
0.0
  0
VERTEX
  5
262F
  8
SAPA_PROFIL
 10
-173.99999999549729
 20
-52.500000435444001
 30
0.0
  0
VERTEX
  5
2630
  8
SAPA_PROFIL
 10
-174.49999999549729
 20
-53.366025839227973
 30
0.0
  0
VERTEX
  5
2631
  8
SAPA_PROFIL
 10
-174.49999999549729
 20
-72.500000435443994
 30
0.0
 42
-0.4142135623730951
  0
VERTEX
  5
2632
  8
SAPA_PROFIL
 10
-175.49999999549729
 20
-73.500000435444008
 30
0.0
  0
VERTEX
  5
2633
  8
SAPA_PROFIL
 10
-184.99999999549729
 20
-73.500000435444008
 30
0.0
 42
0.4142135623730951
  0
VERTEX
  5
2634
  8
SAPA_PROFIL
 10
-185.99999999549729
 20
-72.500000435443994
 30
0.0
  0
VERTEX
  5
2635
  8
SAPA_PROFIL
 10
-186.56754446346221
 20
-72.500000435443994
 30
0.0
 42
0.2896898633030159
  0
VERTEX
  5
2636
  8
SAPA_PROFIL
 10
-187.47105236636779
 20
-73.071429006873359
 30
0.0
 42
0.5507604245859661
  0
VERTEX
  5
2637
  8
SAPA_PROFIL
 10
-187.19999999549719
 20
-73.500000435441962
 30
0.0
  0
VERTEX
  5
2638
  8
SAPA_PROFIL
 10
-186.5499999954973
 20
-73.500000435444008
 30
0.0
 42
-0.4142135623730951
  0
VERTEX
  5
2639
  8
SAPA_PROFIL
 10
-186.24999999549729
 20
-73.800000435443962
 30
0.0
  0
VERTEX
  5
263A
  8
SAPA_PROFIL
 10
-186.24999999549729
 20
-75.000000435443994
 30
0.0
 42
-0.4142135623730951
  0
VERTEX
  5
263B
  8
SAPA_PROFIL
 10
-186.74999999549729
 20
-75.500000435443994
 30
0.0
  0
VERTEX
  5
263C
  8
SAPA_PROFIL
 10
-194.74999999549729
 20
-75.500000435443994
 30
0.0
 42
-0.4142135623730951
  0
VERTEX
  5
263D
  8
SAPA_PROFIL
 10
-195.24999999549729
 20
-75.000000435443994
 30
0.0
  0
VERTEX
  5
263E
  8
SAPA_PROFIL
 10
-195.24999999549729
 20
-73.800000435443962
 30
0.0
 42
-0.4142135623730951
  0
VERTEX
  5
263F
  8
SAPA_PROFIL
 10
-194.94999999549719
 20
-73.500000435444008
 30
0.0
  0
VERTEX
  5
2640
  8
SAPA_PROFIL
 10
-194.29999999549719
 20
-73.500000435444008
 30
0.0
 42
0.5507604245859089
  0
VERTEX
  5
2641
  8
SAPA_PROFIL
 10
-194.0289476246256
 20
-73.071429006872791
 30
0.0
 42
0.2896898633030179
  0
VERTEX
  5
2642
  8
SAPA_PROFIL
 10
-194.93245552753231
 20
-72.500000435445031
 30
0.0
  0
VERTEX
  5
2643
  8
SAPA_PROFIL
 10
-196.19999999549719
 20
-72.500000435443994
 30
0.0
 42
0.4142135623730951
  0
VERTEX
  5
2644
  8
SAPA_PROFIL
 10
-196.49999999549721
 20
-72.800000435443962
 30
0.0
  0
VERTEX
  5
2645
  8
SAPA_PROFIL
 10
-196.49999999549729
 20
-77.000000435444008
 30
0.0
 42
0.4142135623730951
  0
VERTEX
  5
2646
  8
SAPA_PROFIL
 10
-195.49999999549729
 20
-78.000000435443994
 30
0.0
  0
VERTEX
  5
2647
  8
SAPA_PROFIL
 10
-176.2426406826163
 20
-78.000000435443994
 30
0.0
 42
-0.1989123673796595
  0
VERTEX
  5
2648
  8
SAPA_PROFIL
 10
-174.12132033905661
 20
-78.878680091884348
 30
0.0
  0
VERTEX
  5
2649
  8
SAPA_PROFIL
 10
-171.37867965193729
 20
-81.621320779003995
 30
0.0
 42
0.1989123673796574
  0
VERTEX
  5
264A
  8
SAPA_PROFIL
 10
-169.25735930837831
 20
-82.500000435444008
 30
0.0
  0
VERTEX
  5
264B
  8
SAPA_PROFIL
 10
-123.7426406826163
 20
-82.500000435444008
 30
0.0
 42
0.1989123673796727
  0
VERTEX
  5
264C
  8
SAPA_PROFIL
 10
-121.62132033905721
 20
-81.621320779003213
 30
0.0
  0
VERTEX
  5
264D
  8
SAPA_PROFIL
 10
-118.79289321431069
 20
-78.792893654257682
 30
0.0
 42
0.1989123673796728
  0
VERTEX
  5
264E
  8
SAPA_PROFIL
 10
-118.4999999954973
 20
-78.085786873071129
 30
0.0
  0
VERTEX
  5
264F
  8
SAPA_PROFIL
 10
-118.49999999549679
 20
-75.700000435444394
 30
0.0
 42
0.2504916501726754
  0
VERTEX
  5
2650
  8
SAPA_PROFIL
 10
-119.4999999954973
 20
-74.700000435444153
 30
0.0
  0
SEQEND
  5
2651
  8
SAPA_PROFIL
  0
POLYLINE
  5
1882
  8
SAPA_PROFIL
 66
     1
 10
0.0
 20
0.0
 30
0.0
 70
     1
  0
VERTEX
  5
2652
  8
SAPA_PROFIL
 10
-22.800000000000178
 20
-91.098475071207986
 30
0.0
  0
VERTEX
  5
2653
  8
SAPA_PROFIL
 10
-23.800000000000178
 20
-91.098475071207986
 30
0.0
  0
VERTEX
  5
2654
  8
SAPA_PROFIL
 10
-23.800000000000178
 20
-88.498475071207835
 30
0.0
 42
0.4142135623730951
  0
VERTEX
  5
2655
  8
SAPA_PROFIL
 10
-24.300000000000178
 20
-87.998475071207821
 30
0.0
  0
VERTEX
  5
2656
  8
SAPA_PROFIL
 10
-24.700000000000269
 20
-87.998475071207821
 30
0.0
 42
0.4142135623730951
  0
VERTEX
  5
2657
  8
SAPA_PROFIL
 10
-25.000000000000231
 20
-88.298475071207775
 30
0.0
  0
VERTEX
  5
2658
  8
SAPA_PROFIL
 10
-25.000000000000231
 20
-105.9999999990104
 30
0.0
 42
0.4142135623730951
  0
VERTEX
  5
2659
  8
SAPA_PROFIL
 10
-24.500000000000231
 20
-106.4999999990104
 30
0.0
  0
VERTEX
  5
265A
  8
SAPA_PROFIL
 10
24.499999999999769
 20
-106.4999999990104
 30
0.0
 42
0.4142135623730951
  0
VERTEX
  5
265B
  8
SAPA_PROFIL
 10
24.999999999999769
 20
-105.9999999990104
 30
0.0
  0
VERTEX
  5
265C
  8
SAPA_PROFIL
 10
24.999999999999769
 20
-88.298475071207775
 30
0.0
 42
0.4142135623730951
  0
VERTEX
  5
265D
  8
SAPA_PROFIL
 10
24.699999999999822
 20
-87.998475071207821
 30
0.0
  0
VERTEX
  5
265E
  8
SAPA_PROFIL
 10
24.299999999999731
 20
-87.998475071207821
 30
0.0
 42
0.4142135623730951
  0
VERTEX
  5
265F
  8
SAPA_PROFIL
 10
23.799999999999731
 20
-88.498475071207835
 30
0.0
  0
VERTEX
  5
2660
  8
SAPA_PROFIL
 10
23.799999999999731
 20
-91.098475071207986
 30
0.0
  0
VERTEX
  5
2661
  8
SAPA_PROFIL
 10
22.799999999999731
 20
-91.098475071207986
 30
0.0
  0
VERTEX
  5
2662
  8
SAPA_PROFIL
 10
22.22033922157857
 20
-92.102507830840963
 30
0.0
 42
0.4155392929676362
  0
VERTEX
  5
2663
  8
SAPA_PROFIL
 10
22.51631264788443
 20
-93.197126802632965
 30
0.0
  0
VERTEX
  5
2664
  8
SAPA_PROFIL
 10
23.799999999999731
 20
-93.938264040931927
 30
0.0
  0
VERTEX
  5
2665
  8
SAPA_PROFIL
 10
23.799999999999731
 20
-104.09999999901061
 30
0.0
 42
-0.4142135623730951
  0
VERTEX
  5
2666
  8
SAPA_PROFIL
 10
22.799999999999731
 20
-105.09999999901061
 30
0.0
  0
VERTEX
  5
2667
  8
SAPA_PROFIL
 10
-22.800000000000178
 20
-105.09999999901061
 30
0.0
 42
-0.4142135623730951
  0
VERTEX
  5
2668
  8
SAPA_PROFIL
 10
-23.800000000000178
 20
-104.09999999901061
 30
0.0
  0
VERTEX
  5
2669
  8
SAPA_PROFIL
 10
-23.800000000000178
 20
-93.938264040931927
 30
0.0
  0
VERTEX
  5
266A
  8
SAPA_PROFIL
 10
-22.516312647884892
 20
-93.197126802632965
 30
0.0
 42
0.4155392929676362
  0
VERTEX
  5
266B
  8
SAPA_PROFIL
 10
-22.220339221579032
 20
-92.102507830840963
 30
0.0
  0
SEQEND
  5
266C
  8
SAPA_PROFIL
  0
POLYLINE
  5
1883
  8
SAPA_PROFIL
 66
     1
 10
0.0
 20
0.0
 30
0.0
 70
     1
  0
VERTEX
  5
266D
  8
SAPA_PROFIL
 10
20.85000000000036
 20
-86.499999999010456
 30
0.0
 42
0.1989123673797145
  0
VERTEX
  5
266E
  8
SAPA_PROFIL
 10
20.637867965644091
 20
-86.587867964654379
 30
0.0
  0
VERTEX
  5
266F
  8
SAPA_PROFIL
 10
20.237867965644451
 20
-86.987867964654455
 30
0.0
 42
0.668178637919182
  0
VERTEX
  5
2670
  8
SAPA_PROFIL
 10
20.450000000000269
 20
-87.499999999010484
 30
0.0
  0
VERTEX
  5
2671
  8
SAPA_PROFIL
 10
21.300000000000178
 20
-87.499999999010484
 30
0.0
 42
-0.4142135623730284
  0
VERTEX
  5
2672
  8
SAPA_PROFIL
 10
21.800000000000178
 20
-87.999999999010456
 30
0.0
  0
VERTEX
  5
2673
  8
SAPA_PROFIL
 10
21.800000000000178
 20
-88.390808928730607
 30
0.0
 42
-0.17632698070845
  0
VERTEX
  5
2674
  8
SAPA_PROFIL
 10
21.729813332935919
 20
-88.583645211636394
 30
0.0
  0
VERTEX
  5
2675
  8
SAPA_PROFIL
 10
20.211721773135199
 20
-90.392836281916061
 30
0.0
 42
-0.2216946626429421
  0
VERTEX
  5
2676
  8
SAPA_PROFIL
 10
19.98190844019928
 20
-90.499999999010015
 30
0.0
  0
VERTEX
  5
2677
  8
SAPA_PROFIL
 10
16.450000000000269
 20
-90.499999999010456
 30
0.0
 42
-0.4142135623730951
  0
VERTEX
  5
2678
  8
SAPA_PROFIL
 10
16.150000000000091
 20
-90.199999999010288
 30
0.0
  0
VERTEX
  5
2679
  8
SAPA_PROFIL
 10
16.150000000000539
 20
-87.799999999010197
 30
0.0
 42
-0.4142135623730951
  0
VERTEX
  5
267A
  8
SAPA_PROFIL
 10
16.450000000000269
 20
-87.499999999010484
 30
0.0
  0
VERTEX
  5
267B
  8
SAPA_PROFIL
 10
16.85000000000036
 20
-87.499999999010484
 30
0.0
 42
0.6681786379193188
  0
VERTEX
  5
267C
  8
SAPA_PROFIL
 10
17.062132034356178
 20
-86.987867964654455
 30
0.0
  0
VERTEX
  5
267D
  8
SAPA_PROFIL
 10
16.662132034356091
 20
-86.587867964654379
 30
0.0
 42
0.198912367379658
  0
VERTEX
  5
267E
  8
SAPA_PROFIL
 10
16.450000000000269
 20
-86.499999999010456
 30
0.0
  0
VERTEX
  5
267F
  8
SAPA_PROFIL
 10
14.65000000000054
 20
-86.499999999010015
 30
0.0
 42
0.4142135623731284
  0
VERTEX
  5
2680
  8
SAPA_PROFIL
 10
14.15000000000054
 20
-86.999999999010015
 30
0.0
  0
VERTEX
  5
2681
  8
SAPA_PROFIL
 10
14.150000000000089
 20
-91.499999999010925
 30
0.0
 42
0.4142135623730951
  0
VERTEX
  5
2682
  8
SAPA_PROFIL
 10
14.650000000000089
 20
-91.999999999010925
 30
0.0
  0
VERTEX
  5
2683
  8
SAPA_PROFIL
 10
18.650000000000091
 20
-91.999999999010015
 30
0.0
 42
-0.4142135623729619
  0
VERTEX
  5
2684
  8
SAPA_PROFIL
 10
19.150000000000091
 20
-92.499999999010015
 30
0.0
  0
VERTEX
  5
2685
  8
SAPA_PROFIL
 10
19.150000000000091
 20
-94.516956646213657
 30
0.0
 42
-0.1763269807084973
  0
VERTEX
  5
2686
  8
SAPA_PROFIL
 10
19.033022221559349
 20
-94.838350451057053
 30
0.0
  0
VERTEX
  5
2687
  8
SAPA_PROFIL
 10
16.949501460030199
 20
-97.321393803853425
 30
0.0
 42
-0.2216946626428772
  0
VERTEX
  5
2688
  8
SAPA_PROFIL
 10
16.566479238470951
 20
-97.499999999010015
 30
0.0
  0
VERTEX
  5
2689
  8
SAPA_PROFIL
 10
10.56853372839123
 20
-97.499999999010484
 30
0.0
 42
-0.315298788878991
  0
VERTEX
  5
268A
  8
SAPA_PROFIL
 10
10.098687417998461
 20
-97.171010070673219
 30
0.0
  0
VERTEX
  5
268B
  8
SAPA_PROFIL
 10
8.6380638705318233
 20
-93.157979855684516
 30
0.0
 42
0.3152987888789731
  0
VERTEX
  5
268C
  8
SAPA_PROFIL
 10
7.6983712497458319
 20
-92.499999999010015
 30
0.0
  0
VERTEX
  5
268D
  8
SAPA_PROFIL
 10
6.6500000000000901
 20
-92.499999999010015
 30
0.0
 42
-0.4142135623732616
  0
VERTEX
  5
268E
  8
SAPA_PROFIL
 10
6.3499999999999091
 20
-92.199999999010288
 30
0.0
  0
VERTEX
  5
268F
  8
SAPA_PROFIL
 10
6.3499999999999091
 20
-91.799999999010197
 30
0.0
 42
0.4142135623731506
  0
VERTEX
  5
2690
  8
SAPA_PROFIL
 10
6.050000000000181
 20
-91.499999999010015
 30
0.0
  0
VERTEX
  5
2691
  8
SAPA_PROFIL
 10
5.6500000000000901
 20
-91.499999999010015
 30
0.0
 42
0.4142135623731505
  0
VERTEX
  5
2692
  8
SAPA_PROFIL
 10
5.3499999999999091
 20
-91.799999999010197
 30
0.0
  0
VERTEX
  5
2693
  8
SAPA_PROFIL
 10
5.3499999999999091
 20
-92.199999999010288
 30
0.0
 42
-0.4142135623732061
  0
VERTEX
  5
2694
  8
SAPA_PROFIL
 10
5.050000000000181
 20
-92.499999999010015
 30
0.0
  0
VERTEX
  5
2695
  8
SAPA_PROFIL
 10
0.6242640687119092
 20
-92.499999999010015
 30
0.0
 42
0.198912367379577
  0
VERTEX
  5
2696
  8
SAPA_PROFIL
 10
0.4121320343560911
 20
-92.587867964654379
 30
0.0
  0
VERTEX
  5
2697
  8
SAPA_PROFIL
 10
0.0
 20
-92.999999999010015
 30
0.0
  0
VERTEX
  5
2698
  8
SAPA_PROFIL
 10
-0.4121320343560911
 20
-92.587867964654379
 30
0.0
 42
0.1989123673795771
  0
VERTEX
  5
2699
  8
SAPA_PROFIL
 10
-0.6242640687119092
 20
-92.499999999010015
 30
0.0
  0
VERTEX
  5
269A
  8
SAPA_PROFIL
 10
-5.0499999999997272
 20
-92.499999999010015
 30
0.0
 42
-0.4142135623732059
  0
VERTEX
  5
269B
  8
SAPA_PROFIL
 10
-5.3499999999999091
 20
-92.199999999010288
 30
0.0
  0
VERTEX
  5
269C
  8
SAPA_PROFIL
 10
-5.3499999999999091
 20
-91.799999999010197
 30
0.0
 42
0.4142135623731506
  0
VERTEX
  5
269D
  8
SAPA_PROFIL
 10
-5.6500000000000901
 20
-91.499999999010015
 30
0.0
  0
VERTEX
  5
269E
  8
SAPA_PROFIL
 10
-6.0499999999997272
 20
-91.499999999010015
 30
0.0
 42
0.4142135623731505
  0
VERTEX
  5
269F
  8
SAPA_PROFIL
 10
-6.3499999999999091
 20
-91.799999999010197
 30
0.0
  0
VERTEX
  5
26A0
  8
SAPA_PROFIL
 10
-6.3499999999999091
 20
-92.199999999010288
 30
0.0
 42
-0.4142135623732615
  0
VERTEX
  5
26A1
  8
SAPA_PROFIL
 10
-6.6500000000000901
 20
-92.499999999010015
 30
0.0
  0
VERTEX
  5
26A2
  8
SAPA_PROFIL
 10
-7.698371249745378
 20
-92.499999999010015
 30
0.0
 42
0.3152987888789731
  0
VERTEX
  5
26A3
  8
SAPA_PROFIL
 10
-8.6380638705313686
 20
-93.157979855684516
 30
0.0
  0
VERTEX
  5
26A4
  8
SAPA_PROFIL
 10
-10.09868741799801
 20
-97.171010070673219
 30
0.0
 42
-0.315298788878991
  0
VERTEX
  5
26A5
  8
SAPA_PROFIL
 10
-10.56853372839123
 20
-97.499999999010484
 30
0.0
  0
VERTEX
  5
26A6
  8
SAPA_PROFIL
 10
-16.566479238470489
 20
-97.499999999010015
 30
0.0
 42
-0.2216946626428772
  0
VERTEX
  5
26A7
  8
SAPA_PROFIL
 10
-16.949501460029751
 20
-97.321393803853425
 30
0.0
  0
VERTEX
  5
26A8
  8
SAPA_PROFIL
 10
-19.033022221559349
 20
-94.838350451057053
 30
0.0
 42
-0.1763269807084973
  0
VERTEX
  5
26A9
  8
SAPA_PROFIL
 10
-19.150000000000091
 20
-94.516956646213657
 30
0.0
  0
VERTEX
  5
26AA
  8
SAPA_PROFIL
 10
-19.150000000000091
 20
-92.499999999010015
 30
0.0
 42
-0.4142135623729619
  0
VERTEX
  5
26AB
  8
SAPA_PROFIL
 10
-18.650000000000091
 20
-91.999999999010015
 30
0.0
  0
VERTEX
  5
26AC
  8
SAPA_PROFIL
 10
-14.650000000000089
 20
-91.999999999010925
 30
0.0
 42
0.4142135623730951
  0
VERTEX
  5
26AD
  8
SAPA_PROFIL
 10
-14.150000000000089
 20
-91.499999999010925
 30
0.0
  0
VERTEX
  5
26AE
  8
SAPA_PROFIL
 10
-14.150000000000089
 20
-86.999999999010015
 30
0.0
 42
0.4142135623731285
  0
VERTEX
  5
26AF
  8
SAPA_PROFIL
 10
-14.650000000000089
 20
-86.499999999010015
 30
0.0
  0
VERTEX
  5
26B0
  8
SAPA_PROFIL
 10
-16.450000000000269
 20
-86.499999999010456
 30
0.0
 42
0.198912367379658
  0
VERTEX
  5
26B1
  8
SAPA_PROFIL
 10
-16.662132034356091
 20
-86.587867964654379
 30
0.0
  0
VERTEX
  5
26B2
  8
SAPA_PROFIL
 10
-17.062132034356178
 20
-86.987867964654455
 30
0.0
 42
0.6681786379193188
  0
VERTEX
  5
26B3
  8
SAPA_PROFIL
 10
-16.849999999999909
 20
-87.499999999010484
 30
0.0
  0
VERTEX
  5
26B4
  8
SAPA_PROFIL
 10
-16.450000000000269
 20
-87.499999999010484
 30
0.0
 42
-0.4142135623730951
  0
VERTEX
  5
26B5
  8
SAPA_PROFIL
 10
-16.150000000000091
 20
-87.799999999010197
 30
0.0
  0
VERTEX
  5
26B6
  8
SAPA_PROFIL
 10
-16.150000000000091
 20
-90.199999999010288
 30
0.0
 42
-0.4142135623730951
  0
VERTEX
  5
26B7
  8
SAPA_PROFIL
 10
-16.450000000000269
 20
-90.499999999010456
 30
0.0
  0
VERTEX
  5
26B8
  8
SAPA_PROFIL
 10
-19.98190844019928
 20
-90.499999999010015
 30
0.0
 42
-0.221694662642942
  0
VERTEX
  5
26B9
  8
SAPA_PROFIL
 10
-20.211721773134741
 20
-90.392836281916061
 30
0.0
  0
VERTEX
  5
26BA
  8
SAPA_PROFIL
 10
-21.729813332935471
 20
-88.583645211636394
 30
0.0
 42
-0.1763269807084499
  0
VERTEX
  5
26BB
  8
SAPA_PROFIL
 10
-21.799999999999731
 20
-88.390808928730607
 30
0.0
  0
VERTEX
  5
26BC
  8
SAPA_PROFIL
 10
-21.800000000000178
 20
-87.999999999010456
 30
0.0
 42
-0.4142135623730284
  0
VERTEX
  5
26BD
  8
SAPA_PROFIL
 10
-21.300000000000178
 20
-87.499999999010484
 30
0.0
  0
VERTEX
  5
26BE
  8
SAPA_PROFIL
 10
-20.450000000000269
 20
-87.499999999010484
 30
0.0
 42
0.668178637919182
  0
VERTEX
  5
26BF
  8
SAPA_PROFIL
 10
-20.237867965644
 20
-86.987867964654455
 30
0.0
  0
VERTEX
  5
26C0
  8
SAPA_PROFIL
 10
-20.637867965644091
 20
-86.587867964654379
 30
0.0
 42
0.1989123673797144
  0
VERTEX
  5
26C1
  8
SAPA_PROFIL
 10
-20.849999999999909
 20
-86.499999999010456
 30
0.0
  0
VERTEX
  5
26C2
  8
SAPA_PROFIL
 10
-23.300000000000178
 20
-86.499999999010456
 30
0.0
 42
0.4142135623730951
  0
VERTEX
  5
26C3
  8
SAPA_PROFIL
 10
-23.800000000000178
 20
-86.99999999901047
 30
0.0
  0
VERTEX
  5
26C4
  8
SAPA_PROFIL
 10
-23.800000000000178
 20
-90.699999999010274
 30
0.0
 42
0.4142135623730951
  0
VERTEX
  5
26C5
  8
SAPA_PROFIL
 10
-23.500000000000451
 20
-90.99999999901047
 30
0.0
  0
VERTEX
  5
26C6
  8
SAPA_PROFIL
 10
-22.473205080757001
 20
-90.99999999901047
 30
0.0
 42
-0.2679491924311428
  0
VERTEX
  5
26C7
  8
SAPA_PROFIL
 10
-22.21339745962177
 20
-91.149999999010575
 30
0.0
  0
VERTEX
  5
26C8
  8
SAPA_PROFIL
 10
-21.325961894323431
 20
-92.687083486550804
 30
0.0
 42
-0.4142135623731709
  0
VERTEX
  5
26C9
  8
SAPA_PROFIL
 10
-21.435769515459011
 20
-93.096891107686133
 30
0.0
  0
VERTEX
  5
26CA
  8
SAPA_PROFIL
 10
-21.96791111376206
 20
-93.404123202713436
 30
0.0
 42
0.4663076581551056
  0
VERTEX
  5
26CB
  8
SAPA_PROFIL
 10
-22.233955556881028
 20
-94.912936216184335
 30
0.0
  0
VERTEX
  5
26CC
  8
SAPA_PROFIL
 10
-18.115270605417209
 20
-99.821393803853425
 30
0.0
 42
0.2216946626428921
  0
VERTEX
  5
26CD
  8
SAPA_PROFIL
 10
-17.732248383857488
 20
-99.999999999010484
 30
0.0
  0
VERTEX
  5
26CE
  8
SAPA_PROFIL
 10
-9.7002075382097246
 20
-99.999999999010484
 30
0.0
 42
0.3152987888789878
  0
VERTEX
  5
26CF
  8
SAPA_PROFIL
 10
-8.760514917423734
 20
-99.342020142335983
 30
0.0
  0
VERTEX
  5
26D0
  8
SAPA_PROFIL
 10
-7.4196339112449996
 20
-95.657979855684516
 30
0.0
 42
-0.3152987888789804
  0
VERTEX
  5
26D1
  8
SAPA_PROFIL
 10
-6.479941290459009
 20
-94.999999999010015
 30
0.0
  0
VERTEX
  5
26D2
  8
SAPA_PROFIL
 10
6.4799412904594638
 20
-94.999999999010015
 30
0.0
 42
-0.3152987888789804
  0
VERTEX
  5
26D3
  8
SAPA_PROFIL
 10
7.4196339112454552
 20
-95.657979855684516
 30
0.0
  0
VERTEX
  5
26D4
  8
SAPA_PROFIL
 10
8.760514917423734
 20
-99.342020142335983
 30
0.0
 42
0.3152987888789877
  0
VERTEX
  5
26D5
  8
SAPA_PROFIL
 10
9.7002075382097246
 20
-99.999999999010484
 30
0.0
  0
VERTEX
  5
26D6
  8
SAPA_PROFIL
 10
17.73224838385795
 20
-99.999999999010484
 30
0.0
 42
0.2216946626428921
  0
VERTEX
  5
26D7
  8
SAPA_PROFIL
 10
18.115270605417209
 20
-99.821393803853425
 30
0.0
  0
VERTEX
  5
26D8
  8
SAPA_PROFIL
 10
22.233955556881028
 20
-94.912936216184335
 30
0.0
 42
0.4663076581551056
  0
VERTEX
  5
26D9
  8
SAPA_PROFIL
 10
21.967911113762511
 20
-93.404123202713436
 30
0.0
  0
VERTEX
  5
26DA
  8
SAPA_PROFIL
 10
21.435769515459011
 20
-93.096891107686133
 30
0.0
 42
-0.414213562373157
  0
VERTEX
  5
26DB
  8
SAPA_PROFIL
 10
21.325961894323878
 20
-92.687083486550804
 30
0.0
  0
VERTEX
  5
26DC
  8
SAPA_PROFIL
 10
22.213397459622229
 20
-91.149999999010575
 30
0.0
 42
-0.2679491924311554
  0
VERTEX
  5
26DD
  8
SAPA_PROFIL
 10
22.473205080757449
 20
-90.99999999901047
 30
0.0
  0
VERTEX
  5
26DE
  8
SAPA_PROFIL
 10
23.500000000000451
 20
-90.99999999901047
 30
0.0
 42
0.4142135623730951
  0
VERTEX
  5
26DF
  8
SAPA_PROFIL
 10
23.80000000000064
 20
-90.699999999010274
 30
0.0
  0
VERTEX
  5
26E0
  8
SAPA_PROFIL
 10
23.800000000000178
 20
-86.99999999901047
 30
0.0
 42
0.4142135623730951
  0
VERTEX
  5
26E1
  8
SAPA_PROFIL
 10
23.300000000000178
 20
-86.499999999010456
 30
0.0
  0
SEQEND
  5
26E2
  8
SAPA_PROFIL
  0
POLYLINE
  5
1884
  8
SAPA_PROFIL
 62
     4
 66
     1
 10
0.0
 20
0.0
 30
0.0
 70
     1
  0
VERTEX
  5
26E3
  8
SAPA_PROFIL
 62
     4
 10
-1.055634910786466
 20
-88.358578641879717
 30
0.0
 42
-0.1989123671061458
  0
VERTEX
  5
26E4
  8
SAPA_PROFIL
 62
     4
 10
-0.2071067742556352
 20
-88.00710678019658
 30
0.0
  0
VERTEX
  5
26E5
  8
SAPA_PROFIL
 62
     4
 10
0.2071067742555215
 20
-88.00710678019658
 30
0.0
 42
-0.1989123671061505
  0
VERTEX
  5
26E6
  8
SAPA_PROFIL
 62
     4
 10
1.0556349107863521
 20
-88.358578641879717
 30
0.0
  0
VERTEX
  5
26E7
  8
SAPA_PROFIL
 62
     4
 10
3.287867965867235
 20
-90.590811692262079
 30
0.0
 42
0.6681786375387371
  0
VERTEX
  5
26E8
  8
SAPA_PROFIL
 62
     4
 10
3.7999999999999541
 20
-90.378679657682881
 30
0.0
  0
VERTEX
  5
26E9
  8
SAPA_PROFIL
 62
     4
 10
3.7999999999999541
 20
-73.799999999010083
 30
0.0
 42
0.4142135623731034
  0
VERTEX
  5
26EA
  8
SAPA_PROFIL
 62
     4
 10
3.4999999999999432
 20
-73.499999999010072
 30
0.0
  0
VERTEX
  5
26EB
  8
SAPA_PROFIL
 62
     4
 10
-3.4999999999999432
 20
-73.499999999010072
 30
0.0
 42
0.4142135623731034
  0
VERTEX
  5
26EC
  8
SAPA_PROFIL
 62
     4
 10
-3.8000000000000109
 20
-73.799999999010083
 30
0.0
  0
VERTEX
  5
26ED
  8
SAPA_PROFIL
 62
     4
 10
-3.8000000000000682
 20
-90.378679657682881
 30
0.0
 42
0.6681786375387019
  0
VERTEX
  5
26EE
  8
SAPA_PROFIL
 62
     4
 10
-3.2878679658673491
 20
-90.590811692262079
 30
0.0
  0
SEQEND
  5
26EF
  8
SAPA_PROFIL
 62
     4
  0
POLYLINE
  5
1885
  8
SAPA_PROFIL
 62
     4
 66
     1
 10
0.0
 20
0.0
 30
0.0
 70
     1
  0
VERTEX
  5
26F0
  8
SAPA_PROFIL
 62
     4
 10
3.7999999999999541
 20
-72.19999999901006
 30
0.0
  0
VERTEX
  5
26F1
  8
SAPA_PROFIL
 62
     4
 10
3.7999999999999541
 20
-53.999999999010022
 30
0.0
 42
0.4142135623730951
  0
VERTEX
  5
26F2
  8
SAPA_PROFIL
 62
     4
 10
3.5
 20
-53.699999999010011
 30
0.0
  0
VERTEX
  5
26F3
  8
SAPA_PROFIL
 62
     4
 10
2.6029437251521581
 20
-53.69999999901006
 30
0.0
  0
VERTEX
  5
26F4
  8
SAPA_PROFIL
 62
     4
 10
1.0499999999999541
 20
-52.147056273857629
 30
0.0
  0
VERTEX
  5
26F5
  8
SAPA_PROFIL
 62
     4
 10
1.0499999999999541
 20
-46.568653346957198
 30
0.0
  0
VERTEX
  5
26F6
  8
SAPA_PROFIL
 62
     4
 10
0.4763139720814138
 20
-45.57499999901006
 30
0.0
 42
0.5773502691896344
  0
VERTEX
  5
26F7
  8
SAPA_PROFIL
 62
     4
 10
-0.4763139720814707
 20
-45.574999999009997
 30
0.0
  0
VERTEX
  5
26F8
  8
SAPA_PROFIL
 62
     4
 10
-1.050000000000068
 20
-46.568653346957369
 30
0.0
  0
VERTEX
  5
26F9
  8
SAPA_PROFIL
 62
     4
 10
-1.050000000000068
 20
-52.1470562738578
 30
0.0
  0
VERTEX
  5
26FA
  8
SAPA_PROFIL
 62
     4
 10
-2.6029437251522718
 20
-53.69999999901006
 30
0.0
  0
VERTEX
  5
26FB
  8
SAPA_PROFIL
 62
     4
 10
-3.5000000000001128
 20
-53.699999999010011
 30
0.0
 42
0.4142135623730951
  0
VERTEX
  5
26FC
  8
SAPA_PROFIL
 62
     4
 10
-3.8000000000000682
 20
-53.999999999010022
 30
0.0
  0
VERTEX
  5
26FD
  8
SAPA_PROFIL
 62
     4
 10
-3.8000000000000109
 20
-72.19999999901006
 30
0.0
 42
0.4142135623730951
  0
VERTEX
  5
26FE
  8
SAPA_PROFIL
 62
     4
 10
-3.500000000000056
 20
-72.499999999010015
 30
0.0
  0
VERTEX
  5
26FF
  8
SAPA_PROFIL
 62
     4
 10
3.500000000000056
 20
-72.499999999010072
 30
0.0
 42
0.4142135623730951
  0
SEQEND
  5
2700
  8
SAPA_PROFIL
 62
     4
  0
POLYLINE
  5
1886
  8
SAPA_PROFIL
 62
     4
 66
     1
 10
0.0
 20
0.0
 30
0.0
 70
     1
  0
VERTEX
  5
2701
  8
SAPA_PROFIL
 62
     4
 10
-0.3535533839706204
 20
-89.353553389603292
 30
0.0
 42
-0.4142135623730951
  0
VERTEX
  5
2702
  8
SAPA_PROFIL
 62
     4
 10
0.3535533972159328
 20
-89.353553389603292
 30
0.0
  0
VERTEX
  5
2703
  8
SAPA_PROFIL
 62
     4
 10
3.5
 20
-92.499999999010015
 30
0.0
  0
VERTEX
  5
2704
  8
SAPA_PROFIL
 62
     4
 10
5.0
 20
-92.499999999010015
 30
0.0
  0
VERTEX
  5
2705
  8
SAPA_PROFIL
 62
     4
 10
5.0
 20
-52.999999999010008
 30
0.0
 42
0.4142135623730951
  0
VERTEX
  5
2706
  8
SAPA_PROFIL
 62
     4
 10
4.5
 20
-52.499999999010008
 30
0.0
  0
VERTEX
  5
2707
  8
SAPA_PROFIL
 62
     4
 10
3.0999999999999091
 20
-52.499999999010008
 30
0.0
  0
VERTEX
  5
2708
  8
SAPA_PROFIL
 62
     4
 10
2.25
 20
-51.649999999010049
 30
0.0
  0
VERTEX
  5
2709
  8
SAPA_PROFIL
 62
     4
 10
2.25
 20
-47.047114316039988
 30
0.0
  0
VERTEX
  5
270A
  8
SAPA_PROFIL
 62
     4
 10
1.1691342951090169
 20
-45.174999999010019
 30
0.0
 42
0.5773502691896344
  0
VERTEX
  5
270B
  8
SAPA_PROFIL
 62
     4
 10
-1.169134295109074
 20
-45.174999999010019
 30
0.0
  0
VERTEX
  5
270C
  8
SAPA_PROFIL
 62
     4
 10
-2.2500000000001128
 20
-47.047114316040172
 30
0.0
  0
VERTEX
  5
270D
  8
SAPA_PROFIL
 62
     4
 10
-2.2500000000001128
 20
-51.649999999010049
 30
0.0
  0
VERTEX
  5
270E
  8
SAPA_PROFIL
 62
     4
 10
-3.1000000000000218
 20
-52.499999999010008
 30
0.0
  0
VERTEX
  5
270F
  8
SAPA_PROFIL
 62
     4
 10
-4.5
 20
-52.499999999010008
 30
0.0
 42
0.4142135623730951
  0
VERTEX
  5
2710
  8
SAPA_PROFIL
 62
     4
 10
-5.0
 20
-52.999999999010008
 30
0.0
  0
VERTEX
  5
2711
  8
SAPA_PROFIL
 62
     4
 10
-5.0
 20
-92.499999999010015
 30
0.0
  0
VERTEX
  5
2712
  8
SAPA_PROFIL
 62
     4
 10
-3.5
 20
-92.499999999010015
 30
0.0
  0
SEQEND
  5
2713
  8
SAPA_PROFIL
 62
     4
  0
POLYLINE
  5
1887
  8
SAPA_PROFIL
 66
     1
 10
0.0
 20
0.0
 30
0.0
 70
     1
  0
VERTEX
  5
2714
  8
SAPA_PROFIL
 10
2.700000000000272
 20
-33.050000000001091
 30
0.0
  0
VERTEX
  5
2715
  8
SAPA_PROFIL
 10
2.0767196966983188
 20
-31.67376540642476
 30
0.0
 42
-0.5450207798987328
  0
VERTEX
  5
2716
  8
SAPA_PROFIL
 10
2.350000000000136
 20
-31.25000000000114
 30
0.0
  0
VERTEX
  5
2717
  8
SAPA_PROFIL
 10
2.700000000000272
 20
-31.25000000000114
 30
0.0
  0
VERTEX
  5
2718
  8
SAPA_PROFIL
 10
2.700000000000272
 20
-31.00000000000114
 30
0.0
 42
0.4142135623730951
  0
VERTEX
  5
2719
  8
SAPA_PROFIL
 10
1.700000000000272
 20
-30.00000000000114
 30
0.0
  0
VERTEX
  5
271A
  8
SAPA_PROFIL
 10
-1.6999999999998181
 20
-30.00000000000114
 30
0.0
 42
0.4142135623730951
  0
VERTEX
  5
271B
  8
SAPA_PROFIL
 10
-2.6999999999998181
 20
-31.00000000000114
 30
0.0
  0
VERTEX
  5
271C
  8
SAPA_PROFIL
 10
-2.6999999999998181
 20
-32.150000000001
 30
0.0
  0
VERTEX
  5
271D
  8
SAPA_PROFIL
 10
-2.3499999999996808
 20
-32.150000000001
 30
0.0
 42
-0.5450200690651551
  0
VERTEX
  5
271E
  8
SAPA_PROFIL
 10
-2.0767189999999109
 20
-32.573765000001011
 30
0.0
  0
VERTEX
  5
271F
  8
SAPA_PROFIL
 10
-2.6999999999998181
 20
-33.950000000000948
 30
0.0
  0
VERTEX
  5
2720
  8
SAPA_PROFIL
 10
-2.3499999999996808
 20
-33.950000000000948
 30
0.0
 42
-0.5450200690651692
  0
VERTEX
  5
2721
  8
SAPA_PROFIL
 10
-2.0767189999999109
 20
-34.373765000000958
 30
0.0
  0
VERTEX
  5
2722
  8
SAPA_PROFIL
 10
-2.6999999999998181
 20
-35.750000000001137
 30
0.0
  0
VERTEX
  5
2723
  8
SAPA_PROFIL
 10
-2.3499999999996808
 20
-35.750000000001137
 30
0.0
 42
-0.5450200690651619
  0
VERTEX
  5
2724
  8
SAPA_PROFIL
 10
-2.0767189999999109
 20
-36.17376500000114
 30
0.0
  0
VERTEX
  5
2725
  8
SAPA_PROFIL
 10
-2.6999999999998181
 20
-37.550000000001091
 30
0.0
  0
VERTEX
  5
2726
  8
SAPA_PROFIL
 10
-2.3499999999996808
 20
-37.550000000001091
 30
0.0
 42
-0.5450200690651619
  0
VERTEX
  5
2727
  8
SAPA_PROFIL
 10
-2.0767189999999109
 20
-37.973765000001102
 30
0.0
  0
VERTEX
  5
2728
  8
SAPA_PROFIL
 10
-2.6999999999998181
 20
-39.350000000001053
 30
0.0
  0
VERTEX
  5
2729
  8
SAPA_PROFIL
 10
-2.3499999999996808
 20
-39.350000000001053
 30
0.0
 42
-0.5450200690651692
  0
VERTEX
  5
272A
  8
SAPA_PROFIL
 10
-2.0767189999999109
 20
-39.773765000001049
 30
0.0
  0
VERTEX
  5
272B
  8
SAPA_PROFIL
 10
-2.6999999999998181
 20
-41.150000000001
 30
0.0
  0
VERTEX
  5
272C
  8
SAPA_PROFIL
 10
-2.6999999999998181
 20
-41.450000000000948
 30
0.0
  0
VERTEX
  5
272D
  8
SAPA_PROFIL
 10
2.42826763351104
 20
-41.450000000000948
 30
0.0
  0
VERTEX
  5
272E
  8
SAPA_PROFIL
 10
2.0767196966983188
 20
-40.673765406424756
 30
0.0
 42
-0.5450207798987328
  0
VERTEX
  5
272F
  8
SAPA_PROFIL
 10
2.350000000000136
 20
-40.250000000001137
 30
0.0
  0
VERTEX
  5
2730
  8
SAPA_PROFIL
 10
2.700000000000272
 20
-40.250000000001137
 30
0.0
  0
VERTEX
  5
2731
  8
SAPA_PROFIL
 10
2.0767200000002499
 20
-38.873765000000958
 30
0.0
 42
-0.5450205149791638
  0
VERTEX
  5
2732
  8
SAPA_PROFIL
 10
2.350000000000136
 20
-38.450000000000962
 30
0.0
  0
VERTEX
  5
2733
  8
SAPA_PROFIL
 10
2.700000000000272
 20
-38.450000000000962
 30
0.0
  0
VERTEX
  5
2734
  8
SAPA_PROFIL
 10
2.0767196966983188
 20
-37.073765406424627
 30
0.0
 42
-0.545020779898768
  0
VERTEX
  5
2735
  8
SAPA_PROFIL
 10
2.350000000000136
 20
-36.650000000001
 30
0.0
  0
VERTEX
  5
2736
  8
SAPA_PROFIL
 10
2.700000000000272
 20
-36.650000000001
 30
0.0
  0
VERTEX
  5
2737
  8
SAPA_PROFIL
 10
2.0767196966983188
 20
-35.273765406424673
 30
0.0
 42
-0.54502077989874
  0
VERTEX
  5
2738
  8
SAPA_PROFIL
 10
2.350000000000136
 20
-34.850000000001053
 30
0.0
  0
VERTEX
  5
2739
  8
SAPA_PROFIL
 10
2.700000000000272
 20
-34.850000000001053
 30
0.0
  0
VERTEX
  5
273A
  8
SAPA_PROFIL
 10
2.0767196966983188
 20
-33.473765406424718
 30
0.0
 42
-0.545020779898761
  0
VERTEX
  5
273B
  8
SAPA_PROFIL
 10
2.350000000000136
 20
-33.050000000001091
 30
0.0
  0
SEQEND
  5
273C
  8
SAPA_PROFIL
  0
POLYLINE
  5
1888
  8
SAPA_PROFIL
 66
     1
 10
0.0
 20
0.0
 30
0.0
 70
     1
  0
VERTEX
  5
273D
  8
SAPA_PROFIL
 10
23.000000000000231
 20
58.024264068710863
 30
0.0
 42
-0.1989123673796753
  0
VERTEX
  5
273E
  8
SAPA_PROFIL
 10
22.912132034356091
 20
57.812132034355052
 30
0.0
  0
VERTEX
  5
273F
  8
SAPA_PROFIL
 10
21.187867965644269
 20
56.087867965642999
 30
0.0
 42
0.1989123673796753
  0
VERTEX
  5
2740
  8
SAPA_PROFIL
 10
21.10000000000014
 20
55.875735931286947
 30
0.0
  0
VERTEX
  5
2741
  8
SAPA_PROFIL
 10
21.10000000000014
 20
55.299999999999052
 30
0.0
 42
0.4142135623730951
  0
VERTEX
  5
2742
  8
SAPA_PROFIL
 10
21.400000000000318
 20
54.999999999998863
 30
0.0
  0
VERTEX
  5
2743
  8
SAPA_PROFIL
 10
22.700000000000269
 20
54.999999999998863
 30
0.0
 42
-0.4142135623730951
  0
VERTEX
  5
2744
  8
SAPA_PROFIL
 10
23.000000000000231
 20
54.699999999998909
 30
0.0
  0
VERTEX
  5
2745
  8
SAPA_PROFIL
 10
23.000000000000231
 20
29.99999999999886
 30
0.0
 42
-0.4142135623730951
  0
VERTEX
  5
2746
  8
SAPA_PROFIL
 10
22.000000000000231
 20
28.99999999999887
 30
0.0
  0
VERTEX
  5
2747
  8
SAPA_PROFIL
 10
17.600000000000129
 20
28.99999999999887
 30
0.0
 42
0.4142135623730951
  0
VERTEX
  5
2748
  8
SAPA_PROFIL
 10
17.300000000000178
 20
28.699999999998909
 30
0.0
  0
VERTEX
  5
2749
  8
SAPA_PROFIL
 10
17.300000000000178
 20
26.399999999998961
 30
0.0
 42
0.4142135623730951
  0
VERTEX
  5
274A
  8
SAPA_PROFIL
 10
17.600000000000129
 20
26.099999999999
 30
0.0
  0
VERTEX
  5
274B
  8
SAPA_PROFIL
 10
18.100000000000129
 20
26.099999999999
 30
0.0
 42
0.4142135623730951
  0
VERTEX
  5
274C
  8
SAPA_PROFIL
 10
18.400000000000318
 20
26.399999999998961
 30
0.0
  0
VERTEX
  5
274D
  8
SAPA_PROFIL
 10
18.400000000000318
 20
26.736626924633359
 30
0.0
 42
-0.5535245743249297
  0
VERTEX
  5
274E
  8
SAPA_PROFIL
 10
22.71055421153164
 20
24.96410760212348
 30
0.0
  0
VERTEX
  5
274F
  8
SAPA_PROFIL
 10
22.42322330470347
 20
24.67677669529553
 30
0.0
 42
0.4142135623729421
  0
VERTEX
  5
2750
  8
SAPA_PROFIL
 10
22.42322330470347
 20
24.32322330470242
 30
0.0
  0
VERTEX
  5
2751
  8
SAPA_PROFIL
 10
22.71055421153164
 20
24.035892397874481
 30
0.0
 42
-0.5535245743249292
  0
VERTEX
  5
2752
  8
SAPA_PROFIL
 10
18.400000000000318
 20
22.26337307536437
 30
0.0
  0
VERTEX
  5
2753
  8
SAPA_PROFIL
 10
18.400000000000318
 20
22.599999999999
 30
0.0
 42
0.4142135623730951
  0
VERTEX
  5
2754
  8
SAPA_PROFIL
 10
18.100000000000129
 20
22.899999999998961
 30
0.0
  0
VERTEX
  5
2755
  8
SAPA_PROFIL
 10
17.600000000000129
 20
22.899999999998961
 30
0.0
 42
0.4142135623730951
  0
VERTEX
  5
2756
  8
SAPA_PROFIL
 10
17.300000000000178
 20
22.599999999999
 30
0.0
  0
VERTEX
  5
2757
  8
SAPA_PROFIL
 10
17.300000000000178
 20
21.49999999999886
 30
0.0
 42
0.4142135623730951
  0
VERTEX
  5
2758
  8
SAPA_PROFIL
 10
18.800000000000178
 20
19.99999999999886
 30
0.0
  0
VERTEX
  5
2759
  8
SAPA_PROFIL
 10
21.63397459621569
 20
19.99999999999886
 30
0.0
 42
0.267949192431143
  0
VERTEX
  5
275A
  8
SAPA_PROFIL
 10
22.066987298107961
 20
20.24999999999886
 30
0.0
 42
-0.767326987978956
  0
VERTEX
  5
275B
  8
SAPA_PROFIL
 10
23.000000000000231
 20
19.99999999999886
 30
0.0
  0
VERTEX
  5
275C
  8
SAPA_PROFIL
 10
23.000000000000231
 20
-15.00000000000113
 30
0.0
 42
-0.4142135623730951
  0
VERTEX
  5
275D
  8
SAPA_PROFIL
 10
22.000000000000231
 20
-16.00000000000114
 30
0.0
  0
VERTEX
  5
275E
  8
SAPA_PROFIL
 10
17.600000000000129
 20
-16.00000000000114
 30
0.0
 42
0.4142135623730951
  0
VERTEX
  5
275F
  8
SAPA_PROFIL
 10
17.300000000000178
 20
-16.300000000001091
 30
0.0
  0
VERTEX
  5
2760
  8
SAPA_PROFIL
 10
17.300000000000178
 20
-18.600000000001039
 30
0.0
 42
0.4142135623730951
  0
VERTEX
  5
2761
  8
SAPA_PROFIL
 10
17.600000000000129
 20
-18.900000000001
 30
0.0
  0
VERTEX
  5
2762
  8
SAPA_PROFIL
 10
18.100000000000129
 20
-18.900000000001
 30
0.0
 42
0.4142135623730951
  0
VERTEX
  5
2763
  8
SAPA_PROFIL
 10
18.400000000000318
 20
-18.600000000001039
 30
0.0
  0
VERTEX
  5
2764
  8
SAPA_PROFIL
 10
18.400000000000318
 20
-18.263373075366641
 30
0.0
 42
-0.5535245743249297
  0
VERTEX
  5
2765
  8
SAPA_PROFIL
 10
22.71055421153164
 20
-20.03589239787652
 30
0.0
  0
VERTEX
  5
2766
  8
SAPA_PROFIL
 10
22.42322330470347
 20
-20.32322330470447
 30
0.0
 42
0.4142135623730243
  0
VERTEX
  5
2767
  8
SAPA_PROFIL
 10
22.423223304703701
 20
-20.67677669529758
 30
0.0
  0
VERTEX
  5
2768
  8
SAPA_PROFIL
 10
22.71055421153164
 20
-20.96410760212553
 30
0.0
 42
-0.5535245743249292
  0
VERTEX
  5
2769
  8
SAPA_PROFIL
 10
18.400000000000318
 20
-22.73662692463563
 30
0.0
  0
VERTEX
  5
276A
  8
SAPA_PROFIL
 10
18.400000000000318
 20
-22.400000000001
 30
0.0
 42
0.4142135623730951
  0
VERTEX
  5
276B
  8
SAPA_PROFIL
 10
18.100000000000129
 20
-22.100000000001049
 30
0.0
  0
VERTEX
  5
276C
  8
SAPA_PROFIL
 10
17.600000000000129
 20
-22.100000000001049
 30
0.0
 42
0.4142135623730951
  0
VERTEX
  5
276D
  8
SAPA_PROFIL
 10
17.300000000000178
 20
-22.400000000001
 30
0.0
  0
VERTEX
  5
276E
  8
SAPA_PROFIL
 10
17.300000000000178
 20
-23.50000000000114
 30
0.0
 42
0.4142135623730951
  0
VERTEX
  5
276F
  8
SAPA_PROFIL
 10
18.800000000000178
 20
-25.00000000000114
 30
0.0
  0
VERTEX
  5
2770
  8
SAPA_PROFIL
 10
21.780384757729511
 20
-25.00000000000114
 30
0.0
 42
0.2679491924311188
  0
VERTEX
  5
2771
  8
SAPA_PROFIL
 10
22.040192378864958
 20
-24.850000000001049
 30
0.0
 42
-0.7673269879789557
  0
VERTEX
  5
2772
  8
SAPA_PROFIL
 10
22.600000000000129
 20
-25.00000000000114
 30
0.0
  0
VERTEX
  5
2773
  8
SAPA_PROFIL
 10
22.599999999999909
 20
-27.00000000000114
 30
0.0
 42
-0.4142137811865366
  0
VERTEX
  5
2774
  8
SAPA_PROFIL
 10
21.600000747075459
 20
-28.00000000000114
 30
0.0
  0
VERTEX
  5
2775
  8
SAPA_PROFIL
 10
-21.599999999999682
 20
-28.00000000000114
 30
0.0
 42
-0.4142140000000124
  0
VERTEX
  5
2776
  8
SAPA_PROFIL
 10
-22.599999999999682
 20
-27.00000000000114
 30
0.0
  0
VERTEX
  5
2777
  8
SAPA_PROFIL
 10
-22.599999999999682
 20
-25.00000000000114
 30
0.0
 42
-0.7673269879789457
  0
VERTEX
  5
2778
  8
SAPA_PROFIL
 10
-22.0401923788645
 20
-24.850000000001049
 30
0.0
 42
0.2679491924311191
  0
VERTEX
  5
2779
  8
SAPA_PROFIL
 10
-21.780384757729049
 20
-25.00000000000114
 30
0.0
  0
VERTEX
  5
277A
  8
SAPA_PROFIL
 10
-18.799999999999731
 20
-25.00000000000114
 30
0.0
 42
0.4142135623730951
  0
VERTEX
  5
277B
  8
SAPA_PROFIL
 10
-17.299999999999731
 20
-23.50000000000114
 30
0.0
  0
VERTEX
  5
277C
  8
SAPA_PROFIL
 10
-17.299999999999731
 20
-22.400000000001
 30
0.0
 42
0.4142135623730951
  0
VERTEX
  5
277D
  8
SAPA_PROFIL
 10
-17.599999999999682
 20
-22.100000000001049
 30
0.0
  0
VERTEX
  5
277E
  8
SAPA_PROFIL
 10
-18.099999999999682
 20
-22.100000000001049
 30
0.0
 42
0.4142135623730951
  0
VERTEX
  5
277F
  8
SAPA_PROFIL
 10
-18.39999999999986
 20
-22.400000000001
 30
0.0
  0
VERTEX
  5
2780
  8
SAPA_PROFIL
 10
-18.39999999999986
 20
-22.73662692463563
 30
0.0
 42
-0.5535245743249307
  0
VERTEX
  5
2781
  8
SAPA_PROFIL
 10
-22.710554211531189
 20
-20.96410760212553
 30
0.0
  0
VERTEX
  5
2782
  8
SAPA_PROFIL
 10
-22.423223304703239
 20
-20.67677669529758
 30
0.0
 42
0.4142135623730951
  0
VERTEX
  5
2783
  8
SAPA_PROFIL
 10
-22.423223304703239
 20
-20.32322330470447
 30
0.0
  0
VERTEX
  5
2784
  8
SAPA_PROFIL
 10
-22.710554211531189
 20
-20.03589239787652
 30
0.0
 42
-0.553524574324932
  0
VERTEX
  5
2785
  8
SAPA_PROFIL
 10
-18.39999999999986
 20
-18.263373075366641
 30
0.0
  0
VERTEX
  5
2786
  8
SAPA_PROFIL
 10
-18.39999999999986
 20
-18.600000000001039
 30
0.0
 42
0.4142135623730951
  0
VERTEX
  5
2787
  8
SAPA_PROFIL
 10
-18.099999999999682
 20
-18.900000000001
 30
0.0
  0
VERTEX
  5
2788
  8
SAPA_PROFIL
 10
-17.599999999999682
 20
-18.900000000001
 30
0.0
 42
0.4142135623730951
  0
VERTEX
  5
2789
  8
SAPA_PROFIL
 10
-17.299999999999731
 20
-18.600000000001039
 30
0.0
  0
VERTEX
  5
278A
  8
SAPA_PROFIL
 10
-17.299999999999731
 20
-16.300000000001091
 30
0.0
 42
0.4142135623730951
  0
VERTEX
  5
278B
  8
SAPA_PROFIL
 10
-17.599999999999682
 20
-16.00000000000114
 30
0.0
  0
VERTEX
  5
278C
  8
SAPA_PROFIL
 10
-21.999999999999769
 20
-16.00000000000114
 30
0.0
 42
-0.4142135623730951
  0
VERTEX
  5
278D
  8
SAPA_PROFIL
 10
-22.999999999999769
 20
-15.00000000000113
 30
0.0
  0
VERTEX
  5
278E
  8
SAPA_PROFIL
 10
-22.999999999999769
 20
19.99999999999886
 30
0.0
 42
-0.7673269879789569
  0
VERTEX
  5
278F
  8
SAPA_PROFIL
 10
-22.066987298107509
 20
20.24999999999886
 30
0.0
 42
0.2679491924311163
  0
VERTEX
  5
2790
  8
SAPA_PROFIL
 10
-21.633974596215239
 20
19.99999999999886
 30
0.0
  0
VERTEX
  5
2791
  8
SAPA_PROFIL
 10
-18.799999999999731
 20
19.99999999999886
 30
0.0
 42
0.4142135623730951
  0
VERTEX
  5
2792
  8
SAPA_PROFIL
 10
-17.299999999999731
 20
21.49999999999886
 30
0.0
  0
VERTEX
  5
2793
  8
SAPA_PROFIL
 10
-17.299999999999731
 20
22.599999999999
 30
0.0
 42
0.4142135623730951
  0
VERTEX
  5
2794
  8
SAPA_PROFIL
 10
-17.599999999999682
 20
22.899999999998961
 30
0.0
  0
VERTEX
  5
2795
  8
SAPA_PROFIL
 10
-18.099999999999682
 20
22.899999999998961
 30
0.0
 42
0.4142135623730951
  0
VERTEX
  5
2796
  8
SAPA_PROFIL
 10
-18.39999999999986
 20
22.599999999999
 30
0.0
  0
VERTEX
  5
2797
  8
SAPA_PROFIL
 10
-18.39999999999986
 20
22.26337307536437
 30
0.0
 42
-0.5535245743249307
  0
VERTEX
  5
2798
  8
SAPA_PROFIL
 10
-22.710554211531189
 20
24.035892397874481
 30
0.0
  0
VERTEX
  5
2799
  8
SAPA_PROFIL
 10
-22.423223304703239
 20
24.32322330470242
 30
0.0
 42
0.4142135623731068
  0
VERTEX
  5
279A
  8
SAPA_PROFIL
 10
-22.423223304703011
 20
24.67677669529553
 30
0.0
  0
VERTEX
  5
279B
  8
SAPA_PROFIL
 10
-22.710554211531189
 20
24.96410760212348
 30
0.0
 42
-0.553524574324932
  0
VERTEX
  5
279C
  8
SAPA_PROFIL
 10
-18.39999999999986
 20
26.736626924633359
 30
0.0
  0
VERTEX
  5
279D
  8
SAPA_PROFIL
 10
-18.39999999999986
 20
26.399999999998961
 30
0.0
 42
0.4142135623730951
  0
VERTEX
  5
279E
  8
SAPA_PROFIL
 10
-18.099999999999682
 20
26.099999999999
 30
0.0
  0
VERTEX
  5
279F
  8
SAPA_PROFIL
 10
-17.599999999999682
 20
26.099999999999
 30
0.0
 42
0.4142135623730951
  0
VERTEX
  5
27A0
  8
SAPA_PROFIL
 10
-17.299999999999731
 20
26.399999999998961
 30
0.0
  0
VERTEX
  5
27A1
  8
SAPA_PROFIL
 10
-17.299999999999731
 20
28.699999999998909
 30
0.0
 42
0.4142135623730951
  0
VERTEX
  5
27A2
  8
SAPA_PROFIL
 10
-17.599999999999682
 20
28.99999999999887
 30
0.0
  0
VERTEX
  5
27A3
  8
SAPA_PROFIL
 10
-21.999999999999769
 20
28.99999999999887
 30
0.0
 42
-0.4142135623730951
  0
VERTEX
  5
27A4
  8
SAPA_PROFIL
 10
-22.999999999999769
 20
29.99999999999886
 30
0.0
  0
VERTEX
  5
27A5
  8
SAPA_PROFIL
 10
-22.999999999999769
 20
54.699999999998909
 30
0.0
 42
-0.4142135623730951
  0
VERTEX
  5
27A6
  8
SAPA_PROFIL
 10
-22.699999999999822
 20
54.999999999998863
 30
0.0
  0
VERTEX
  5
27A7
  8
SAPA_PROFIL
 10
-21.39999999999986
 20
54.999999999998863
 30
0.0
 42
0.4142135623730951
  0
VERTEX
  5
27A8
  8
SAPA_PROFIL
 10
-21.099999999999682
 20
55.299999999999052
 30
0.0
  0
VERTEX
  5
27A9
  8
SAPA_PROFIL
 10
-21.099999999999682
 20
55.875735931286947
 30
0.0
 42
0.1989123673796752
  0
VERTEX
  5
27AA
  8
SAPA_PROFIL
 10
-21.187867965643822
 20
56.087867965642999
 30
0.0
  0
VERTEX
  5
27AB
  8
SAPA_PROFIL
 10
-22.91213203435586
 20
57.812132034355052
 30
0.0
 42
-0.1989123673796057
  0
VERTEX
  5
27AC
  8
SAPA_PROFIL
 10
-22.999999999999769
 20
58.024264068710863
 30
0.0
  0
VERTEX
  5
27AD
  8
SAPA_PROFIL
 10
-22.999999999999769
 20
61.499999999998863
 30
0.0
 42
-0.4142135623730951
  0
VERTEX
  5
27AE
  8
SAPA_PROFIL
 10
-21.999999999999769
 20
62.499999999998863
 30
0.0
  0
VERTEX
  5
27AF
  8
SAPA_PROFIL
 10
22.000000000000231
 20
62.499999999998863
 30
0.0
 42
-0.4142135623730951
  0
VERTEX
  5
27B0
  8
SAPA_PROFIL
 10
23.000000000000231
 20
61.499999999998863
 30
0.0
  0
SEQEND
  5
27B1
  8
SAPA_PROFIL
  0
POLYLINE
  5
1889
  8
SAPA_PROFIL
 66
     1
 10
0.0
 20
0.0
 30
0.0
 70
     1
  0
VERTEX
  5
27B2
  8
SAPA_PROFIL
 10
6.0000000000002274
 20
-30.00000000000114
 30
0.0
 42
0.4142135623730951
  0
VERTEX
  5
27B3
  8
SAPA_PROFIL
 10
5.0000000000002274
 20
-31.00000000000114
 30
0.0
  0
VERTEX
  5
27B4
  8
SAPA_PROFIL
 10
5.0000000000002274
 20
-52.200000000000948
 30
0.0
 42
-0.4142135623730951
  0
VERTEX
  5
27B5
  8
SAPA_PROFIL
 10
4.700000000000272
 20
-52.50000000000113
 30
0.0
  0
VERTEX
  5
27B6
  8
SAPA_PROFIL
 10
3.0757360000002332
 20
-52.50000000000113
 30
0.0
  0
VERTEX
  5
27B7
  8
SAPA_PROFIL
 10
2.2378679656442269
 20
-51.562132034356871
 30
0.0
 42
-0.668178637919305
  0
VERTEX
  5
27B8
  8
SAPA_PROFIL
 10
2.450000000000272
 20
-51.050000000001091
 30
0.0
  0
VERTEX
  5
27B9
  8
SAPA_PROFIL
 10
2.700000000000272
 20
-51.050000000001091
 30
0.0
  0
VERTEX
  5
27BA
  8
SAPA_PROFIL
 10
2.1767196966982278
 20
-49.673765406424756
 30
0.0
 42
-0.5450207798987201
  0
VERTEX
  5
27BB
  8
SAPA_PROFIL
 10
2.450000000000272
 20
-49.250000000001137
 30
0.0
  0
VERTEX
  5
27BC
  8
SAPA_PROFIL
 10
2.700000000000272
 20
-49.250000000001137
 30
0.0
  0
VERTEX
  5
27BD
  8
SAPA_PROFIL
 10
2.1767196966982278
 20
-47.873765406424567
 30
0.0
 42
-0.5450207798987201
  0
VERTEX
  5
27BE
  8
SAPA_PROFIL
 10
2.450000000000272
 20
-47.450000000000962
 30
0.0
  0
VERTEX
  5
27BF
  8
SAPA_PROFIL
 10
2.700000000000272
 20
-47.450000000000962
 30
0.0
  0
VERTEX
  5
27C0
  8
SAPA_PROFIL
 10
2.1767196966982278
 20
-46.07376540642462
 30
0.0
 42
-0.5450207798987342
  0
VERTEX
  5
27C1
  8
SAPA_PROFIL
 10
2.450000000000272
 20
-45.650000000000993
 30
0.0
  0
VERTEX
  5
27C2
  8
SAPA_PROFIL
 10
2.700000000000272
 20
-45.650000000000993
 30
0.0
  0
VERTEX
  5
27C3
  8
SAPA_PROFIL
 10
2.1767196966982278
 20
-44.273765406424673
 30
0.0
 42
-0.5450207798987201
  0
VERTEX
  5
27C4
  8
SAPA_PROFIL
 10
2.450000000000272
 20
-43.850000000001039
 30
0.0
  0
VERTEX
  5
27C5
  8
SAPA_PROFIL
 10
2.700000000000272
 20
-43.850000000001039
 30
0.0
  0
VERTEX
  5
27C6
  8
SAPA_PROFIL
 10
2.4722372826161059
 20
-43.126282705194853
 30
0.0
 42
0.2945484962563026
  0
VERTEX
  5
27C7
  8
SAPA_PROFIL
 10
2.1988824689378812
 20
-42.950048040246656
 30
0.0
  0
VERTEX
  5
27C8
  8
SAPA_PROFIL
 10
1.2642999377483191
 20
-42.950255222213173
 30
0.0
 42
-0.3475954753796591
  0
VERTEX
  5
27C9
  8
SAPA_PROFIL
 10
0.9723265106783856
 20
-42.719501178044077
 30
0.0
 42
0.790522909611319
  0
VERTEX
  5
27CA
  8
SAPA_PROFIL
 10
-0.973664089865224
 20
-42.71949097360357
 30
0.0
 42
-0.3476065658631364
  0
VERTEX
  5
27CB
  8
SAPA_PROFIL
 10
-1.2656518108867649
 20
-42.950241952335773
 30
0.0
  0
VERTEX
  5
27CC
  8
SAPA_PROFIL
 10
-1.8499926620931999
 20
-42.950095231626847
 30
0.0
 42
0.4102317530969976
  0
VERTEX
  5
27CD
  8
SAPA_PROFIL
 10
-2.1500282985855388
 20
-43.245946879780369
 30
0.0
 42
-0.0712587206050384
  0
VERTEX
  5
27CE
  8
SAPA_PROFIL
 10
-2.1632556124550311
 20
-43.329990804708579
 30
0.0
  0
VERTEX
  5
27CF
  8
SAPA_PROFIL
 10
-2.6999999999998181
 20
-44.750000000001137
 30
0.0
  0
VERTEX
  5
27D0
  8
SAPA_PROFIL
 10
-2.4499999999998181
 20
-44.750000000001137
 30
0.0
 42
-0.5450200690651619
  0
VERTEX
  5
27D1
  8
SAPA_PROFIL
 10
-2.17671899999982
 20
-45.173765000001133
 30
0.0
  0
VERTEX
  5
27D2
  8
SAPA_PROFIL
 10
-2.6999999999998181
 20
-46.550000000001091
 30
0.0
  0
VERTEX
  5
27D3
  8
SAPA_PROFIL
 10
-2.4499999999998181
 20
-46.550000000000857
 30
0.0
 42
-0.545020069065176
  0
VERTEX
  5
27D4
  8
SAPA_PROFIL
 10
-2.17671899999982
 20
-46.973765000001087
 30
0.0
  0
VERTEX
  5
27D5
  8
SAPA_PROFIL
 10
-2.6999999999998181
 20
-48.350000000001039
 30
0.0
  0
VERTEX
  5
27D6
  8
SAPA_PROFIL
 10
-2.4499999999998181
 20
-48.350000000001039
 30
0.0
 42
-0.5450200690651692
  0
VERTEX
  5
27D7
  8
SAPA_PROFIL
 10
-2.17671899999982
 20
-48.773765000001049
 30
0.0
  0
VERTEX
  5
27D8
  8
SAPA_PROFIL
 10
-2.6999999999998181
 20
-50.150000000001
 30
0.0
  0
VERTEX
  5
27D9
  8
SAPA_PROFIL
 10
-2.1499999999998631
 20
-50.150000000001
 30
0.0
  0
VERTEX
  5
27DA
  8
SAPA_PROFIL
 10
-2.1499999999998631
 20
-51.350000000001039
 30
0.0
 42
-0.1989123673797004
  0
VERTEX
  5
27DB
  8
SAPA_PROFIL
 10
-2.2378679999997071
 20
-51.562132000001156
 30
0.0
  0
VERTEX
  5
27DC
  8
SAPA_PROFIL
 10
-3.075735999999778
 20
-52.50000000000113
 30
0.0
  0
VERTEX
  5
27DD
  8
SAPA_PROFIL
 10
-4.6999999999998181
 20
-52.50000000000113
 30
0.0
 42
-0.4142135623730951
  0
VERTEX
  5
27DE
  8
SAPA_PROFIL
 10
-4.9999999999997717
 20
-52.200000000000948
 30
0.0
  0
VERTEX
  5
27DF
  8
SAPA_PROFIL
 10
-4.9999999999997717
 20
-31.00000000000114
 30
0.0
 42
0.4142135623730951
  0
VERTEX
  5
27E0
  8
SAPA_PROFIL
 10
-5.9999999999997717
 20
-30.00000000000114
 30
0.0
  0
VERTEX
  5
27E1
  8
SAPA_PROFIL
 10
-14.19999999999982
 20
-30.00000000000114
 30
0.0
 42
0.4142135623730951
  0
VERTEX
  5
27E2
  8
SAPA_PROFIL
 10
-14.69999999999982
 20
-30.50000000000114
 30
0.0
  0
VERTEX
  5
27E3
  8
SAPA_PROFIL
 10
-14.69999999999982
 20
-33.700000000000962
 30
0.0
 42
0.4142135623730951
  0
VERTEX
  5
27E4
  8
SAPA_PROFIL
 10
-14.19999999999982
 20
-34.200000000000962
 30
0.0
  0
VERTEX
  5
27E5
  8
SAPA_PROFIL
 10
-11.299999999999731
 20
-34.200000000000962
 30
0.0
 42
-0.4142135623730951
  0
VERTEX
  5
27E6
  8
SAPA_PROFIL
 10
-10.999999999999771
 20
-34.500000000001137
 30
0.0
  0
VERTEX
  5
27E7
  8
SAPA_PROFIL
 10
-10.999999999999771
 20
-35.200000000000948
 30
0.0
 42
-0.4142135623730951
  0
VERTEX
  5
27E8
  8
SAPA_PROFIL
 10
-11.299999999999731
 20
-35.500000000001137
 30
0.0
  0
VERTEX
  5
27E9
  8
SAPA_PROFIL
 10
-17.999999999999769
 20
-35.500000000001137
 30
0.0
  0
VERTEX
  5
27EA
  8
SAPA_PROFIL
 10
-18.586384015500471
 20
-35.035076580641999
 30
0.0
 42
-0.7105995019814511
  0
VERTEX
  5
27EB
  8
SAPA_PROFIL
 10
-18.39999999999986
 20
-34.500000000001137
 30
0.0
  0
VERTEX
  5
27EC
  8
SAPA_PROFIL
 10
-16.499999999999769
 20
-34.500000000001137
 30
0.0
 42
0.4142135623730951
  0
VERTEX
  5
27ED
  8
SAPA_PROFIL
 10
-16.199999999999822
 20
-34.200000000000962
 30
0.0
  0
VERTEX
  5
27EE
  8
SAPA_PROFIL
 10
-16.199999999999822
 20
-30.300000000001091
 30
0.0
 42
0.4142135623730951
  0
VERTEX
  5
27EF
  8
SAPA_PROFIL
 10
-16.499999999999769
 20
-30.00000000000114
 30
0.0
  0
VERTEX
  5
27F0
  8
SAPA_PROFIL
 10
-23.199999999999822
 20
-30.00000000000114
 30
0.0
 42
0.4142135623730951
  0
VERTEX
  5
27F1
  8
SAPA_PROFIL
 10
-23.499999999999769
 20
-30.300000000001091
 30
0.0
  0
VERTEX
  5
27F2
  8
SAPA_PROFIL
 10
-23.499999999999769
 20
-34.200000000000962
 30
0.0
 42
0.4142135623730951
  0
VERTEX
  5
27F3
  8
SAPA_PROFIL
 10
-23.199999999999822
 20
-34.500000000001137
 30
0.0
  0
VERTEX
  5
27F4
  8
SAPA_PROFIL
 10
-21.999999999999769
 20
-34.500000000001137
 30
0.0
 42
-0.7105990647993611
  0
VERTEX
  5
27F5
  8
SAPA_PROFIL
 10
-21.81361599999968
 20
-35.035076000001027
 30
0.0
  0
VERTEX
  5
27F6
  8
SAPA_PROFIL
 10
-22.39999999999986
 20
-35.500000000001137
 30
0.0
  0
VERTEX
  5
27F7
  8
SAPA_PROFIL
 10
-24.699999999999822
 20
-35.500000000001137
 30
0.0
 42
-0.4142135623730951
  0
VERTEX
  5
27F8
  8
SAPA_PROFIL
 10
-24.999999999999769
 20
-35.200000000000948
 30
0.0
  0
VERTEX
  5
27F9
  8
SAPA_PROFIL
 10
-24.999999999999769
 20
63.999999999998863
 30
0.0
 42
-0.4142135623730951
  0
VERTEX
  5
27FA
  8
SAPA_PROFIL
 10
-24.499999999999769
 20
64.499999999998863
 30
0.0
  0
VERTEX
  5
27FB
  8
SAPA_PROFIL
 10
24.500000000000231
 20
64.499999999998863
 30
0.0
 42
-0.4142135623730951
  0
VERTEX
  5
27FC
  8
SAPA_PROFIL
 10
25.000000000000231
 20
63.999999999998863
 30
0.0
  0
VERTEX
  5
27FD
  8
SAPA_PROFIL
 10
25.000000000000231
 20
-35.200000000000948
 30
0.0
 42
-0.4142135623730951
  0
VERTEX
  5
27FE
  8
SAPA_PROFIL
 10
24.700000000000269
 20
-35.500000000001137
 30
0.0
  0
VERTEX
  5
27FF
  8
SAPA_PROFIL
 10
22.400000000000318
 20
-35.500000000001137
 30
0.0
  0
VERTEX
  5
2800
  8
SAPA_PROFIL
 10
21.81361598449962
 20
-35.035076580641999
 30
0.0
 42
-0.7105995019814511
  0
VERTEX
  5
2801
  8
SAPA_PROFIL
 10
22.000000000000231
 20
-34.500000000001137
 30
0.0
  0
VERTEX
  5
2802
  8
SAPA_PROFIL
 10
23.200000000000269
 20
-34.500000000001137
 30
0.0
 42
0.4142135623730951
  0
VERTEX
  5
2803
  8
SAPA_PROFIL
 10
23.500000000000231
 20
-34.200000000000962
 30
0.0
  0
VERTEX
  5
2804
  8
SAPA_PROFIL
 10
23.500000000000231
 20
-30.300000000001091
 30
0.0
 42
0.4142135623730951
  0
VERTEX
  5
2805
  8
SAPA_PROFIL
 10
23.200000000000269
 20
-30.00000000000114
 30
0.0
  0
VERTEX
  5
2806
  8
SAPA_PROFIL
 10
16.500000000000231
 20
-30.00000000000114
 30
0.0
 42
0.4142135623730951
  0
VERTEX
  5
2807
  8
SAPA_PROFIL
 10
16.200000000000269
 20
-30.300000000001091
 30
0.0
  0
VERTEX
  5
2808
  8
SAPA_PROFIL
 10
16.200000000000269
 20
-34.200000000000962
 30
0.0
 42
0.4142135623730951
  0
VERTEX
  5
2809
  8
SAPA_PROFIL
 10
16.500000000000231
 20
-34.500000000001137
 30
0.0
  0
VERTEX
  5
280A
  8
SAPA_PROFIL
 10
18.400000000000318
 20
-34.500000000001137
 30
0.0
 42
-0.7105995019814511
  0
VERTEX
  5
280B
  8
SAPA_PROFIL
 10
18.586384015500919
 20
-35.035076580641999
 30
0.0
  0
VERTEX
  5
280C
  8
SAPA_PROFIL
 10
18.000000000000231
 20
-35.500000000001137
 30
0.0
  0
VERTEX
  5
280D
  8
SAPA_PROFIL
 10
11.30000000000018
 20
-35.500000000001137
 30
0.0
 42
-0.4142135623730951
  0
VERTEX
  5
280E
  8
SAPA_PROFIL
 10
11.00000000000022
 20
-35.200000000000948
 30
0.0
  0
VERTEX
  5
280F
  8
SAPA_PROFIL
 10
11.00000000000022
 20
-34.500000000001137
 30
0.0
 42
-0.4142135623730951
  0
VERTEX
  5
2810
  8
SAPA_PROFIL
 10
11.30000000000018
 20
-34.200000000000962
 30
0.0
  0
VERTEX
  5
2811
  8
SAPA_PROFIL
 10
14.200000000000269
 20
-34.200000000000962
 30
0.0
 42
0.4142135623730951
  0
VERTEX
  5
2812
  8
SAPA_PROFIL
 10
14.700000000000269
 20
-33.700000000000962
 30
0.0
  0
VERTEX
  5
2813
  8
SAPA_PROFIL
 10
14.700000000000269
 20
-30.50000000000114
 30
0.0
 42
0.4142135623730951
  0
VERTEX
  5
2814
  8
SAPA_PROFIL
 10
14.200000000000269
 20
-30.00000000000114
 30
0.0
  0
SEQEND
  5
2815
  8
SAPA_PROFIL
  0
POLYLINE
  5
1892
  8
SAPA_GLAS
 66
     1
 10
0.0
 20
0.0
 30
0.0
  0
VERTEX
  5
281B
  8
SAPA_GLAS
 10
-208.29999999549739
 20
-68.600000435443803
 30
0.0
  0
VERTEX
  5
281C
  8
SAPA_GLAS
 10
-179.4999999954976
 20
-68.600000435443803
 30
0.0
  0
VERTEX
  5
281D
  8
SAPA_GLAS
 10
-179.4999999954976
 20
-46.600000435443803
 30
0.0
  0
VERTEX
  5
281E
  8
SAPA_GLAS
 10
-208.29999999549739
 20
-46.600000435444016
 30
0.0
  0
SEQEND
  5
281F
  8
SAPA_GLAS
  0
LINE
  5
1893
  8
SAPA_GLAS
 10
-189.4999999954976
 20
-63.600000435443803
 30
0.0
 11
-189.4999999954976
 21
-51.600000435443803
 31
0.0
  0
LINE
  5
1894
  8
SAPA_GLAS
 10
-208.29999999549739
 20
-51.600000435444031
 30
0.0
 11
-179.4999999954976
 21
-51.600000435443803
 31
0.0
  0
LINE
  5
1895
  8
SAPA_GLAS
 10
-208.29999999549739
 20
-63.600000435443803
 30
0.0
 11
-179.4999999954976
 21
-63.600000435443803
 31
0.0
  0
LINE
  5
18A0
  8
SAPA_ISOLATOR
 10
-25.00001783078233
 20
-19.383797270178199
 30
0.0
 11
-31.194641597965191
 21
-19.383797270178199
 31
0.0
  0
LINE
  5
18A1
  8
SAPA_ISOLATOR
 10
-25.00001783078233
 20
-44.578680553389972
 30
0.0
 11
-25.00001783078233
 21
-19.383797270178199
 31
0.0
  0
LINE
  5
18A2
  8
SAPA_ISOLATOR
 10
-31.19464159796701
 20
-44.578680553389972
 30
0.0
 11
-25.00001783078233
 21
-44.578680553389972
 31
0.0
  0
LINE
  5
18A3
  8
SAPA_ISOLATOR
 10
-31.200017830782262
 20
-19.383797270178199
 30
0.0
 11
-31.19464159796701
 21
-44.578680553389972
 31
0.0
  0
LINE
  5
18A4
  8
SAPA_ISOLATOR
 10
-31.19464159796701
 20
-44.578680553389972
 30
0.0
 11
-25.00001783078233
 21
-19.383797270178199
 31
0.0
  0
LINE
  5
18A5
  8
SAPA_ISOLATOR
 10
-31.21660513366772
 20
-19.383797270178199
 30
0.0
 11
-25.011228900852529
 21
-44.578680553389972
 31
0.0
  0
POLYLINE
  5
18BC
  8
SAPA_FOGBAND
 62
     2
 66
     1
 10
0.0
 20
0.0
 30
0.0
  0
VERTEX
  5
2987
  8
SAPA_FOGBAND
 62
     2
 10
-106.60955606138
 20
-31.59054478737238
 30
0.0
 42
-0.1803090304626144
  0
VERTEX
  5
2988
  8
SAPA_FOGBAND
 62
     2
 10
-107.99755368573911
 20
-29.750133110558629
 30
0.0
  0
VERTEX
  5
2989
  8
SAPA_FOGBAND
 62
     2
 10
-108.7315975745372
 20
-27.28477390463285
 30
0.0
 42
0.3317810211360308
  0
VERTEX
  5
298A
  8
SAPA_FOGBAND
 62
     2
 10
-109.6900171199852
 20
-26.570136787473579
 30
0.0
  0
VERTEX
  5
298B
  8
SAPA_FOGBAND
 62
     2
 10
-110.92374427858481
 20
-26.570136787473469
 30
0.0
 42
-0.2679491924312111
  0
VERTEX
  5
298C
  8
SAPA_FOGBAND
 62
     2
 10
-111.1835518997176
 20
-26.420136787473378
 30
0.0
  0
VERTEX
  5
298D
  8
SAPA_FOGBAND
 62
     2
 10
-111.7050078171338
 20
-25.516948644599829
 30
0.0
 42
-0.5773502691894719
  0
VERTEX
  5
298E
  8
SAPA_FOGBAND
 62
     2
 10
-111.4452001959983
 20
-25.066948644600011
 30
0.0
  0
VERTEX
  5
298F
  8
SAPA_FOGBAND
 62
     2
 10
-105.4433594319449
 20
-25.066948644599901
 30
0.0
 42
-0.4147066859862881
  0
VERTEX
  5
2990
  8
SAPA_FOGBAND
 62
     2
 10
-102.4433636823729
 20
-28.07199864945488
 30
0.0
  0
VERTEX
  5
2991
  8
SAPA_FOGBAND
 62
     2
 10
-102.4470367096239
 20
-30.253989847068791
 30
0.0
 42
0.4565417232955612
  0
VERTEX
  5
2992
  8
SAPA_FOGBAND
 62
     2
 10
-102.063980083402
 20
-30.603791953109681
 30
0.0
  0
VERTEX
  5
2993
  8
SAPA_FOGBAND
 62
     2
 10
-101.0537584327207
 20
-30.425662619598761
 30
0.0
  0
VERTEX
  5
2994
  8
SAPA_FOGBAND
 62
     2
 10
-101.1232177037875
 20
-30.031739518393859
 30
0.0
 42
-0.6720594905598717
  0
VERTEX
  5
2995
  8
SAPA_FOGBAND
 62
     2
 10
-100.8097924076349
 20
-29.834417767515269
 30
0.0
  0
VERTEX
  5
2996
  8
SAPA_FOGBAND
 62
     2
 10
-98.966683300051599
 20
-31.154625636581041
 30
0.0
 42
-0.4079520108343612
  0
VERTEX
  5
2997
  8
SAPA_FOGBAND
 62
     2
 10
-98.820924834072343
 20
-31.981262974744251
 30
0.0
  0
VERTEX
  5
2998
  8
SAPA_FOGBAND
 62
     2
 10
-100.1013431771742
 20
-33.852233008349387
 30
0.0
 42
-0.6720594905598635
  0
VERTEX
  5
2999
  8
SAPA_FOGBAND
 62
     2
 10
-100.46335462865331
 20
-33.774008979840232
 30
0.0
  0
VERTEX
  5
299A
  8
SAPA_FOGBAND
 62
     2
 10
-100.53281389972
 20
-33.380085878635377
 30
0.0
  0
VERTEX
  5
299B
  8
SAPA_FOGBAND
 62
     2
 10
-101.419140877431
 20
-33.536369238535592
 30
0.0
 42
0.4142135623730951
  0
VERTEX
  5
299C
  8
SAPA_FOGBAND
 62
     2
 10
-101.6624887500346
 20
-33.883906017739307
 30
0.0
  0
VERTEX
  5
299D
  8
SAPA_FOGBAND
 62
     2
 10
-101.4544119827785
 20
-35.28225207836288
 30
0.0
 42
-0.4313344489874135
  0
VERTEX
  5
299E
  8
SAPA_FOGBAND
 62
     2
 10
-101.7150028744348
 20
-35.632315284271208
 30
0.0
  0
VERTEX
  5
299F
  8
SAPA_FOGBAND
 62
     2
 10
-102.4229923987253
 20
-35.71512413633257
 30
0.0
 42
-0.3972974670000809
  0
VERTEX
  5
29A0
  8
SAPA_FOGBAND
 62
     2
 10
-102.97348199897711
 20
-35.30533363748571
 30
0.0
  0
VERTEX
  5
29A1
  8
SAPA_FOGBAND
 62
     2
 10
-103.94336155715889
 20
-29.804873331950091
 30
0.0
  0
VERTEX
  5
29A2
  8
SAPA_FOGBAND
 62
     2
 10
-103.94336155715889
 20
-28.069473647027451
 30
0.0
 42
0.4147066859863004
  0
VERTEX
  5
29A3
  8
SAPA_FOGBAND
 62
     2
 10
-105.4433594319449
 20
-26.566948644599901
 30
0.0
  0
VERTEX
  5
29A4
  8
SAPA_FOGBAND
 62
     2
 10
-107.645886021531
 20
-26.566948644600011
 30
0.0
 42
0.601131774324047
  0
VERTEX
  5
29A5
  8
SAPA_FOGBAND
 62
     2
 10
-107.57798334396701
 20
-27.48652759717714
 30
0.0
 42
-0.2227389711612139
  0
VERTEX
  5
29A6
  8
SAPA_FOGBAND
 62
     2
 10
-107.4663105048393
 20
-27.614396766395931
 30
0.0
  0
VERTEX
  5
29A7
  8
SAPA_FOGBAND
 62
     2
 10
-106.9432921857462
 20
-29.436233939433858
 30
0.0
 42
0.1796843201953831
  0
VERTEX
  5
29A8
  8
SAPA_FOGBAND
 62
     2
 10
-106.0224462185586
 20
-30.660305804775579
 30
0.0
 42
-1.0
  0
VERTEX
  5
29A9
  8
SAPA_FOGBAND
 62
     2
 10
-106.6162847349576
 20
-31.586240908571192
 30
0.0
  0
SEQEND
  5
29AA
  8
SAPA_FOGBAND
 62
     2
  0
INSERT
  5
18BD
  8
SAPA_FOGBAND
  6
CONTINUOUS
 62
     2
  2
*U158
 10
0.0
 20
0.0
 30
0.0
1001
ACAD
1002
{
1000
R14_HATCH_DATA
1000
18BD
1011
1.0
1021
0.0
1031
0.0
1021
0.0
1031
0.0
1011
0.0
1021
0.0
1031
0.0
1021
1.0
1031
0.0
1011
0.0
1021
0.0
1031
0.0
1021
0.0
1031
1.0
1040
0.0
1010
0.0
1020
0.0
1030
1.0
1000
SOLID
1070
     1
1070
     0
1071
        1
1071
        1
1071
        1
1070
     2
1040
-103.23535414816619
1040
-29.389055449626081
1040
0.2549509756796394
1040
-3.1415926535897931
1040
3.1415926535897931
1070
     0
1071
        0
1070
     0
1070
     1
1071
        1
1040
-96.125506008180864
1040
-38.369774630147333
1040
0.0
1002
}
  0
POLYLINE
  5
18BE
  8
SAPA_FOGBAND
 62
     2
 66
     1
 10
0.0
 20
0.0
 30
0.0
 70
     1
  0
VERTEX
  5
29BC
  8
SAPA_FOGBAND
 62
     2
 10
-101.5927890550979
 20
-32.551561485523393
 30
0.0
 42
-1.0
  0
VERTEX
  5
29BD
  8
SAPA_FOGBAND
 62
     2
 10
-101.7664372327649
 20
-31.566753732511181
 30
0.0
  0
VERTEX
  5
29BE
  8
SAPA_FOGBAND
 62
     2
 10
-100.28922560324661
 20
-31.30628146601077
 30
0.0
 42
-0.9999999999999998
  0
VERTEX
  5
29BF
  8
SAPA_FOGBAND
 62
     2
 10
-100.1155774255796
 20
-32.291089219022972
 30
0.0
  0
SEQEND
  5
29C0
  8
SAPA_FOGBAND
 62
     2
  0
POLYLINE
  5
18BF
  8
SAPA_FOGBAND
 62
     2
 66
     1
 10
0.0
 20
0.0
 30
0.0
  0
VERTEX
  5
29C1
  8
SAPA_FOGBAND
 62
     2
 10
-100.43910358590711
 20
-73.410547284665853
 30
0.0
 42
-0.1803090304626144
  0
VERTEX
  5
29C2
  8
SAPA_FOGBAND
 62
     2
 10
-99.05110596154806
 20
-75.250958961479597
 30
0.0
  0
VERTEX
  5
29C3
  8
SAPA_FOGBAND
 62
     2
 10
-98.317062072750005
 20
-77.716318167405376
 30
0.0
 42
0.3317810211360308
  0
VERTEX
  5
29C4
  8
SAPA_FOGBAND
 62
     2
 10
-97.358642527301996
 20
-78.430955284564646
 30
0.0
  0
VERTEX
  5
29C5
  8
SAPA_FOGBAND
 62
     2
 10
-96.124915368702332
 20
-78.43095528456476
 30
0.0
 42
-0.2679491924312111
  0
VERTEX
  5
29C6
  8
SAPA_FOGBAND
 62
     2
 10
-95.86510774756961
 20
-78.580955284564851
 30
0.0
  0
VERTEX
  5
29C7
  8
SAPA_FOGBAND
 62
     2
 10
-95.343651830153377
 20
-79.484143427438397
 30
0.0
 42
-0.5773502691894719
  0
VERTEX
  5
29C8
  8
SAPA_FOGBAND
 62
     2
 10
-95.603459451288828
 20
-79.934143427438215
 30
0.0
  0
VERTEX
  5
29C9
  8
SAPA_FOGBAND
 62
     2
 10
-101.6053002153422
 20
-79.934143427438315
 30
0.0
 42
-0.4147066859862881
  0
VERTEX
  5
29CA
  8
SAPA_FOGBAND
 62
     2
 10
-104.6052959649143
 20
-76.92909342258335
 30
0.0
  0
VERTEX
  5
29CB
  8
SAPA_FOGBAND
 62
     2
 10
-104.60162293766319
 20
-74.747102224969439
 30
0.0
 42
0.4565417232955612
  0
VERTEX
  5
29CC
  8
SAPA_FOGBAND
 62
     2
 10
-104.98467956388509
 20
-74.397300118928541
 30
0.0
  0
VERTEX
  5
29CD
  8
SAPA_FOGBAND
 62
     2
 10
-105.9949012145664
 20
-74.575429452439465
 30
0.0
  0
VERTEX
  5
29CE
  8
SAPA_FOGBAND
 62
     2
 10
-105.92544194349971
 20
-74.96935255364437
 30
0.0
 42
-0.6720594905598717
  0
VERTEX
  5
29CF
  8
SAPA_FOGBAND
 62
     2
 10
-106.23886723965219
 20
-75.166674304522957
 30
0.0
  0
VERTEX
  5
29D0
  8
SAPA_FOGBAND
 62
     2
 10
-108.0819763472356
 20
-73.846466435457174
 30
0.0
 42
-0.4079520108343612
  0
VERTEX
  5
29D1
  8
SAPA_FOGBAND
 62
     2
 10
-108.22773481321479
 20
-73.019829097293979
 30
0.0
  0
VERTEX
  5
29D2
  8
SAPA_FOGBAND
 62
     2
 10
-106.9473164701129
 20
-71.148859063688832
 30
0.0
 42
-0.6720594905598635
  0
VERTEX
  5
29D3
  8
SAPA_FOGBAND
 62
     2
 10
-106.5853050186339
 20
-71.227083092198001
 30
0.0
  0
VERTEX
  5
29D4
  8
SAPA_FOGBAND
 62
     2
 10
-106.5158457475671
 20
-71.621006193402849
 30
0.0
  0
VERTEX
  5
29D5
  8
SAPA_FOGBAND
 62
     2
 10
-105.6295187698562
 20
-71.464722833502634
 30
0.0
 42
0.4142135623730951
  0
VERTEX
  5
29D6
  8
SAPA_FOGBAND
 62
     2
 10
-105.3861708972525
 20
-71.117186054298912
 30
0.0
  0
VERTEX
  5
29D7
  8
SAPA_FOGBAND
 62
     2
 10
-105.5942476645086
 20
-69.718839993675346
 30
0.0
 42
-0.4313344489874135
  0
VERTEX
  5
29D8
  8
SAPA_FOGBAND
 62
     2
 10
-105.33365677285229
 20
-69.368776787767018
 30
0.0
  0
VERTEX
  5
29D9
  8
SAPA_FOGBAND
 62
     2
 10
-104.6256672485618
 20
-69.285967935705656
 30
0.0
 42
-0.3972974670000809
  0
VERTEX
  5
29DA
  8
SAPA_FOGBAND
 62
     2
 10
-104.07517764831
 20
-69.695758434552516
 30
0.0
  0
VERTEX
  5
29DB
  8
SAPA_FOGBAND
 62
     2
 10
-103.1052980901282
 20
-75.196218740088142
 30
0.0
  0
VERTEX
  5
29DC
  8
SAPA_FOGBAND
 62
     2
 10
-103.1052980901282
 20
-76.931618425010782
 30
0.0
 42
0.4147066859863004
  0
VERTEX
  5
29DD
  8
SAPA_FOGBAND
 62
     2
 10
-101.6053002153422
 20
-78.434143427438329
 30
0.0
  0
VERTEX
  5
29DE
  8
SAPA_FOGBAND
 62
     2
 10
-99.402773625756154
 20
-78.434143427438215
 30
0.0
 42
0.601131774324047
  0
VERTEX
  5
29DF
  8
SAPA_FOGBAND
 62
     2
 10
-99.470676303320161
 20
-77.514564474861089
 30
0.0
 42
-0.2227389711612139
  0
VERTEX
  5
29E0
  8
SAPA_FOGBAND
 62
     2
 10
-99.582349142447825
 20
-77.386695305642291
 30
0.0
  0
VERTEX
  5
29E1
  8
SAPA_FOGBAND
 62
     2
 10
-100.10536746154089
 20
-75.564858132604371
 30
0.0
 42
0.1796843201953831
  0
VERTEX
  5
29E2
  8
SAPA_FOGBAND
 62
     2
 10
-101.0262134287285
 20
-74.340786267262644
 30
0.0
 42
-1.0
  0
VERTEX
  5
29E3
  8
SAPA_FOGBAND
 62
     2
 10
-100.43237491232961
 20
-73.414851163467034
 30
0.0
  0
SEQEND
  5
29E4
  8
SAPA_FOGBAND
 62
     2
  0
INSERT
  5
18C0
  8
SAPA_FOGBAND
  6
CONTINUOUS
 62
     2
  2
*U159
 10
0.0
 20
0.0
 30
0.0
1001
ACAD
1002
{
1000
R14_HATCH_DATA
1000
18C0
1011
1.0
1021
0.0
1031
0.0
1021
0.0
1031
0.0
1011
0.0
1021
0.0
1031
0.0
1021
1.0
1031
0.0
1011
0.0
1021
0.0
1031
0.0
1021
0.0
1031
1.0
1040
0.0
1010
0.0
1020
0.0
1030
1.0
1000
SOLID
1070
     1
1070
     0
1071
        1
1071
        1
1071
        1
1070
     2
1040
-103.8133054991209
1040
-75.612036622412148
1040
0.2549509756796394
1040
-0.0000000000000001
1040
6.2831853071795862
1070
     0
1071
        0
1070
     0
1070
     1
1071
        1
1040
-110.9231536391063
1040
-66.6313174418909
1040
0.0
1002
}
  0
POLYLINE
  5
18C1
  8
SAPA_FOGBAND
 62
     2
 66
     1
 10
0.0
 20
0.0
 30
0.0
 70
     1
  0
VERTEX
  5
29F6
  8
SAPA_FOGBAND
 62
     2
 10
-105.4558705921892
 20
-72.44953058651484
 30
0.0
 42
-1.0
  0
VERTEX
  5
29F7
  8
SAPA_FOGBAND
 62
     2
 10
-105.2822224145222
 20
-73.434338339527045
 30
0.0
  0
VERTEX
  5
29F8
  8
SAPA_FOGBAND
 62
     2
 10
-106.7594340440406
 20
-73.69481060602746
 30
0.0
 42
-0.9999999999999998
  0
VERTEX
  5
29F9
  8
SAPA_FOGBAND
 62
     2
 10
-106.93308222170749
 20
-72.710002853015254
 30
0.0
  0
SEQEND
  5
29FA
  8
SAPA_FOGBAND
 62
     2
  0
CIRCLE
  5
18C2
  8
SAPA_FOGBAND
 10
-18.616845196720529
 20
-84.637568177760485
 30
0.0
 40
0.2549509756796394
  0
INSERT
  5
18C3
  8
SAPA_FOGBAND
  6
CONTINUOUS
  2
*U160
 10
0.0
 20
0.0
 30
0.0
1001
ACAD
1002
{
1000
R14_HATCH_DATA
1000
18C3
1011
1.0
1021
0.0
1031
0.0
1021
0.0
1031
0.0
1011
0.0
1021
0.0
1031
0.0
1021
1.0
1031
0.0
1011
0.0
1021
0.0
1031
0.0
1021
0.0
1031
1.0
1040
0.0
1010
0.0
1020
0.0
1030
1.0
1000
SOLID
1070
     1
1070
     1
1071
        1
1071
        1
1071
        1
1070
     2
1040
-18.616845196720529
1040
-84.637568177760485
1040
0.2549509756796394
1040
0.0
1040
6.2831853071795862
1070
     1
1071
        1
1005
18C2
1070
     0
1070
     1
1071
        1
1040
-18.853584098290639
1040
-84.555716680431615
1040
0.0
1002
}
  0
POLYLINE
  5
18C4
  8
SAPA_FOGBAND
 66
     1
 10
0.0
 20
0.0
 30
0.0
 70
     1
  0
VERTEX
  5
2A0C
  8
SAPA_FOGBAND
 10
-17.716845196720548
 20
-87.599999957005025
 30
0.0
 42
0.9999999999999998
  0
VERTEX
  5
2A0D
  8
SAPA_FOGBAND
 10
-19.51684519672051
 20
-87.599999957005025
 30
0.0
  0
VERTEX
  5
2A0E
  8
SAPA_FOGBAND
 10
-19.51684519672051
 20
-88.199999957005033
 30
0.0
 42
0.9999999999999998
  0
VERTEX
  5
2A0F
  8
SAPA_FOGBAND
 10
-17.716845196720548
 20
-88.199999957005033
 30
0.0
  0
SEQEND
  5
2A10
  8
SAPA_FOGBAND
  0
POLYLINE
  5
18C5
  8
SAPA_FOGBAND
 66
     1
 10
0.0
 20
0.0
 30
0.0
 70
     1
  0
VERTEX
  5
2A11
  8
SAPA_FOGBAND
 10
-27.244721504893729
 20
-82.499999957005002
 30
0.0
 42
0.0775891054856093
  0
VERTEX
  5
2A12
  8
SAPA_FOGBAND
 10
-23.777939774471179
 20
-82.816635941066352
 30
0.0
  0
VERTEX
  5
2A13
  8
SAPA_FOGBAND
 10
-23.54005028164238
 20
-82.599999957004954
 30
0.0
 42
-0.5773502691896298
  0
VERTEX
  5
2A14
  8
SAPA_FOGBAND
 10
-23.193640120128521
 20
-82.599999957004954
 30
0.0
  0
VERTEX
  5
2A15
  8
SAPA_FOGBAND
 10
-22.955592503397721
 20
-82.816909811228015
 30
0.0
  0
VERTEX
  5
2A16
  8
SAPA_FOGBAND
 10
-22.178097893481091
 20
-82.816909811228015
 30
0.0
  0
VERTEX
  5
2A17
  8
SAPA_FOGBAND
 10
-21.94005028164236
 20
-82.599999957004954
 30
0.0
 42
-0.577350269189699
  0
VERTEX
  5
2A18
  8
SAPA_FOGBAND
 10
-21.593640120128612
 20
-82.599999957004954
 30
0.0
  0
VERTEX
  5
2A19
  8
SAPA_FOGBAND
 10
-21.355592503397819
 20
-82.816909811228015
 30
0.0
  0
VERTEX
  5
2A1A
  8
SAPA_FOGBAND
 10
-20.578097893481068
 20
-82.816909811228015
 30
0.0
  0
VERTEX
  5
2A1B
  8
SAPA_FOGBAND
 10
-20.340050281642341
 20
-82.599999957004954
 30
0.0
 42
-0.577350269189699
  0
VERTEX
  5
2A1C
  8
SAPA_FOGBAND
 10
-19.993640120128589
 20
-82.599999957004954
 30
0.0
  0
VERTEX
  5
2A1D
  8
SAPA_FOGBAND
 10
-19.755592503397789
 20
-82.816909811228015
 30
0.0
  0
VERTEX
  5
2A1E
  8
SAPA_FOGBAND
 10
-18.978097893481049
 20
-82.816909811228015
 30
0.0
  0
VERTEX
  5
2A1F
  8
SAPA_FOGBAND
 10
-18.740050281642421
 20
-82.599999957004954
 30
0.0
 42
-0.5773502691896298
  0
VERTEX
  5
2A20
  8
SAPA_FOGBAND
 10
-18.393640120128559
 20
-82.599999957004954
 30
0.0
  0
VERTEX
  5
2A21
  8
SAPA_FOGBAND
 10
-18.15559250339777
 20
-82.816909811228015
 30
0.0
  0
VERTEX
  5
2A22
  8
SAPA_FOGBAND
 10
-17.378097893481019
 20
-82.816909811228015
 30
0.0
  0
VERTEX
  5
2A23
  8
SAPA_FOGBAND
 10
-17.140050281642399
 20
-82.599999957004954
 30
0.0
 42
-0.5773502691896298
  0
VERTEX
  5
2A24
  8
SAPA_FOGBAND
 10
-16.79364012012854
 20
-82.599999957004954
 30
0.0
  0
VERTEX
  5
2A25
  8
SAPA_FOGBAND
 10
-16.555592503397751
 20
-82.816909811228015
 30
0.0
  0
VERTEX
  5
2A26
  8
SAPA_FOGBAND
 10
-15.778097889316079
 20
-82.816909811228015
 30
0.0
  0
VERTEX
  5
2A27
  8
SAPA_FOGBAND
 10
-15.54005027747735
 20
-82.599999957004954
 30
0.0
 42
-0.577350269189699
  0
VERTEX
  5
2A28
  8
SAPA_FOGBAND
 10
-15.1936401159636
 20
-82.599999957004954
 30
0.0
  0
VERTEX
  5
2A29
  8
SAPA_FOGBAND
 10
-14.3936401164085
 20
-83.673330025489463
 30
0.0
 42
-0.1316524987190269
  0
VERTEX
  5
2A2A
  8
SAPA_FOGBAND
 10
-14.366845196720529
 20
-83.773330026260155
 30
0.0
  0
VERTEX
  5
2A2B
  8
SAPA_FOGBAND
 10
-14.366845196720419
 20
-86.299999957004957
 30
0.0
 42
-0.4142135623730951
  0
VERTEX
  5
2A2C
  8
SAPA_FOGBAND
 10
-14.566845196720459
 20
-86.499999957005002
 30
0.0
  0
VERTEX
  5
2A2D
  8
SAPA_FOGBAND
 10
-16.616845196720529
 20
-86.499999957005002
 30
0.0
 42
0.4142135623730951
  0
VERTEX
  5
2A2E
  8
SAPA_FOGBAND
 10
-17.116845196720529
 20
-86.999999957004988
 30
0.0
  0
VERTEX
  5
2A2F
  8
SAPA_FOGBAND
 10
-17.116845196720529
 20
-87.726794876248164
 30
0.0
  0
VERTEX
  5
2A30
  8
SAPA_FOGBAND
 10
-16.865081387699998
 20
-87.794254785558564
 30
0.0
 42
-0.4740571810232869
  0
VERTEX
  5
2A31
  8
SAPA_FOGBAND
 10
-16.73778752533644
 20
-88.076537371197205
 30
0.0
  0
VERTEX
  5
2A32
  8
SAPA_FOGBAND
 10
-17.357888028094969
 20
-89.522743507956989
 30
0.0
 42
-0.2846003776495916
  0
VERTEX
  5
2A33
  8
SAPA_FOGBAND
 10
-17.805532206555199
 20
-89.799999957004957
 30
0.0
  0
VERTEX
  5
2A34
  8
SAPA_FOGBAND
 10
-19.428158186885749
 20
-89.799999957004957
 30
0.0
 42
-0.2846003776495917
  0
VERTEX
  5
2A35
  8
SAPA_FOGBAND
 10
-19.875802365345969
 20
-89.522743507956989
 30
0.0
  0
VERTEX
  5
2A36
  8
SAPA_FOGBAND
 10
-20.495902868104508
 20
-88.076537371197205
 30
0.0
 42
-0.4740571810232869
  0
VERTEX
  5
2A37
  8
SAPA_FOGBAND
 10
-20.36860900574095
 20
-87.794254785558564
 30
0.0
  0
VERTEX
  5
2A38
  8
SAPA_FOGBAND
 10
-20.116845196720529
 20
-87.726794876248164
 30
0.0
  0
VERTEX
  5
2A39
  8
SAPA_FOGBAND
 10
-20.116845196720529
 20
-86.999999957004988
 30
0.0
 42
0.4142135623730951
  0
VERTEX
  5
2A3A
  8
SAPA_FOGBAND
 10
-20.616845196720529
 20
-86.499999957005002
 30
0.0
  0
VERTEX
  5
2A3B
  8
SAPA_FOGBAND
 10
-23.666845196720491
 20
-86.499999957005002
 30
0.0
 42
0.4142135623730951
  0
VERTEX
  5
2A3C
  8
SAPA_FOGBAND
 10
-23.866845196720529
 20
-86.699999957005048
 30
0.0
  0
VERTEX
  5
2A3D
  8
SAPA_FOGBAND
 10
-23.866845196720419
 20
-87.599999957005025
 30
0.0
 42
-0.4142135623731784
  0
VERTEX
  5
2A3E
  8
SAPA_FOGBAND
 10
-24.066845196720461
 20
-87.799999957004957
 30
0.0
  0
VERTEX
  5
2A3F
  8
SAPA_FOGBAND
 10
-24.76684519672051
 20
-87.79999995700507
 30
0.0
 42
-0.4142135623730398
  0
VERTEX
  5
2A40
  8
SAPA_FOGBAND
 10
-25.066845196720472
 20
-87.499999957005002
 30
0.0
  0
VERTEX
  5
2A41
  8
SAPA_FOGBAND
 10
-25.066845196720472
 20
-86.689488180353464
 30
0.0
 42
0.1316524975873973
  0
VERTEX
  5
2A42
  8
SAPA_FOGBAND
 10
-25.334794389151629
 20
-85.689488180353464
 30
0.0
  0
VERTEX
  5
2A43
  8
SAPA_FOGBAND
 10
-30.497639539192051
 20
-83.099920188261535
 30
0.0
 42
-0.7057658529986604
  0
VERTEX
  5
2A44
  8
SAPA_FOGBAND
 10
-30.230046363833711
 20
-82.499999957005002
 30
0.0
  0
SEQEND
  5
2A45
  8
SAPA_FOGBAND
  0
POLYLINE
  5
18C6
  8
SAPA_FOGBAND
 66
     1
 10
0.0
 20
0.0
 30
0.0
 70
     1
  0
VERTEX
  5
2A46
  8
SAPA_FOGBAND
 10
-19.303393549382889
 20
-34.185369460357037
 30
0.0
 42
-0.9999999999999998
  0
VERTEX
  5
2A47
  8
SAPA_FOGBAND
 10
-21.103393549382901
 20
-34.185369460357037
 30
0.0
  0
VERTEX
  5
2A48
  8
SAPA_FOGBAND
 10
-21.103393549382901
 20
-33.585369460357022
 30
0.0
 42
-0.9999999999999998
  0
VERTEX
  5
2A49
  8
SAPA_FOGBAND
 10
-19.303393549382889
 20
-33.585369460357022
 30
0.0
  0
SEQEND
  5
2A4A
  8
SAPA_FOGBAND
  0
POLYLINE
  5
18C7
  8
SAPA_FOGBAND
 66
     1
 10
0.0
 20
0.0
 30
0.0
  0
VERTEX
  5
2A4B
  8
SAPA_FOGBAND
 10
-23.803393549382889
 20
-35.799999957995851
 30
0.0
  0
VERTEX
  5
2A4C
  8
SAPA_FOGBAND
 10
-23.803393549382889
 20
-35.499999957995783
 30
0.0
  0
VERTEX
  5
2A4D
  8
SAPA_FOGBAND
 10
-23.803393549382889
 20
-35.799999957995851
 30
0.0
 42
0.4142135623730951
  0
VERTEX
  5
2A4E
  8
SAPA_FOGBAND
 10
-23.303393549382889
 20
-36.299999957995851
 30
0.0
  0
VERTEX
  5
2A4F
  8
SAPA_FOGBAND
 10
-16.003393549382931
 20
-36.299999957995851
 30
0.0
 42
0.4142135623730951
  0
VERTEX
  5
2A50
  8
SAPA_FOGBAND
 10
-15.503393549382929
 20
-35.799999957995851
 30
0.0
  0
VERTEX
  5
2A51
  8
SAPA_FOGBAND
 10
-15.503393549382929
 20
-35.499999957995783
 30
0.0
  0
SEQEND
  5
2A52
  8
SAPA_FOGBAND
  0
POLYLINE
  5
18C8
  8
SAPA_FOGBAND
 66
     1
 10
0.0
 20
0.0
 30
0.0
 70
     1
  0
VERTEX
  5
2A53
  8
SAPA_FOGBAND
 10
-17.151678439679241
 20
-40.099999957995777
 30
0.0
  0
VERTEX
  5
2A54
  8
SAPA_FOGBAND
 10
-20.246322549005079
 20
-40.099999957995777
 30
0.0
 42
1.024758115298622
  0
VERTEX
  5
2A55
  8
SAPA_FOGBAND
 10
-20.246322549005079
 20
-43.281531750781269
 30
0.0
  0
VERTEX
  5
2A56
  8
SAPA_FOGBAND
 10
-17.151678439679241
 20
-43.281531750781269
 30
0.0
 42
0.9558128803175696
  0
SEQEND
  5
2A57
  8
SAPA_FOGBAND
  0
POLYLINE
  5
18C9
  8
SAPA_FOGBAND
 66
     1
 10
0.0
 20
0.0
 30
0.0
 70
     1
  0
VERTEX
  5
2A58
  8
SAPA_FOGBAND
 10
-7.9203481005599441
 20
-41.936054084741443
 30
0.0
 42
-0.6274939020253784
  0
VERTEX
  5
2A59
  8
SAPA_FOGBAND
 10
-7.9312729229930863
 20
-43.494698578703172
 30
0.0
  0
VERTEX
  5
2A5A
  8
SAPA_FOGBAND
 10
-11.907132916357741
 20
-44.05844158262591
 30
0.0
 42
-0.4459602482749359
  0
VERTEX
  5
2A5B
  8
SAPA_FOGBAND
 10
-12.90339354938294
 20
-43.163604228393552
 30
0.0
  0
VERTEX
  5
2A5C
  8
SAPA_FOGBAND
 10
-12.90339354938294
 20
-40.440292903528842
 30
0.0
 42
-0.6245270939358744
  0
VERTEX
  5
2A5D
  8
SAPA_FOGBAND
 10
-11.449996876867729
 20
-39.730537929718139
 30
0.0
  0
SEQEND
  5
2A5E
  8
SAPA_FOGBAND
  0
POLYLINE
  5
18CA
  8
SAPA_FOGBAND
 66
     1
 10
0.0
 20
0.0
 30
0.0
 70
     1
  0
VERTEX
  5
2A5F
  8
SAPA_FOGBAND
 10
-18.70339354938292
 20
-34.058574541113899
 30
0.0
  0
VERTEX
  5
2A60
  8
SAPA_FOGBAND
 10
-18.451629740362449
 20
-33.991114631803498
 30
0.0
 42
0.4740571810232144
  0
VERTEX
  5
2A61
  8
SAPA_FOGBAND
 10
-18.324335877998831
 20
-33.708832046164851
 30
0.0
  0
VERTEX
  5
2A62
  8
SAPA_FOGBAND
 10
-18.94443638075742
 20
-32.26262590940496
 30
0.0
 42
0.2846003776496053
  0
VERTEX
  5
2A63
  8
SAPA_FOGBAND
 10
-19.39208055921759
 20
-31.985369460356988
 30
0.0
  0
VERTEX
  5
2A64
  8
SAPA_FOGBAND
 10
-21.0147065395482
 20
-31.985369460356988
 30
0.0
 42
0.2846003776496027
  0
VERTEX
  5
2A65
  8
SAPA_FOGBAND
 10
-21.46235071800837
 20
-32.26262590940496
 30
0.0
  0
VERTEX
  5
2A66
  8
SAPA_FOGBAND
 10
-22.082451220766959
 20
-33.7088320461649
 30
0.0
 42
0.4740571810232332
  0
VERTEX
  5
2A67
  8
SAPA_FOGBAND
 10
-21.955157358403401
 20
-33.991114631803498
 30
0.0
  0
VERTEX
  5
2A68
  8
SAPA_FOGBAND
 10
-21.70339354938292
 20
-34.058574541113899
 30
0.0
  0
VERTEX
  5
2A69
  8
SAPA_FOGBAND
 10
-21.70339354938292
 20
-34.99999995799579
 30
0.0
 42
-0.4142135623730951
  0
VERTEX
  5
2A6A
  8
SAPA_FOGBAND
 10
-22.20339354938293
 20
-35.499999957995783
 30
0.0
  0
VERTEX
  5
2A6B
  8
SAPA_FOGBAND
 10
-24.715553712764368
 20
-35.49999995799584
 30
0.0
 42
0.4027293761437467
  0
VERTEX
  5
2A6C
  8
SAPA_FOGBAND
 10
-25.015321266362239
 20
-35.788192595465148
 30
0.0
  0
VERTEX
  5
2A6D
  8
SAPA_FOGBAND
 10
-25.50316108103166
 20
-45.188192595465182
 30
0.0
 42
0.4257917699693538
  0
VERTEX
  5
2A6E
  8
SAPA_FOGBAND
 10
-25.203393527433811
 20
-45.499999957995833
 30
0.0
  0
VERTEX
  5
2A6F
  8
SAPA_FOGBAND
 10
-11.497859868209931
 20
-45.499999957995833
 30
0.0
  0
VERTEX
  5
2A70
  8
SAPA_FOGBAND
 10
-5.8947182704830547
 20
-44.723465040313208
 30
0.0
 42
0.322530093016903
  0
VERTEX
  5
2A71
  8
SAPA_FOGBAND
 10
-5.2033935274337866
 20
-43.72938773520724
 30
0.0
  0
VERTEX
  5
2A72
  8
SAPA_FOGBAND
 10
-5.2033935274337866
 20
-42.498644178769659
 30
0.0
 42
0.2325311832130604
  0
VERTEX
  5
2A73
  8
SAPA_FOGBAND
 10
-5.3980562841270059
 20
-42.102703314687858
 30
0.0
  0
VERTEX
  5
2A74
  8
SAPA_FOGBAND
 10
-14.564619512034509
 20
-35.708118229832337
 30
0.0
 42
0.1657205760184606
  0
VERTEX
  5
2A75
  8
SAPA_FOGBAND
 10
-15.175293998648129
 20
-35.499999957995783
 30
0.0
  0
VERTEX
  5
2A76
  8
SAPA_FOGBAND
 10
-18.20339354938292
 20
-35.499999957995783
 30
0.0
 42
-0.4142135623730951
  0
VERTEX
  5
2A77
  8
SAPA_FOGBAND
 10
-18.70339354938292
 20
-34.99999995799579
 30
0.0
  0
SEQEND
  5
2A78
  8
SAPA_FOGBAND
  0
POLYLINE
  5
18CB
  8
SAPA_FOGBAND
 66
     1
 10
0.0
 20
0.0
 30
0.0
 70
     1
  0
VERTEX
  5
2A79
  8
SAPA_FOGBAND
 10
-28.499999995341572
 20
3.0607739888916958
 30
0.0
  0
VERTEX
  5
2A7A
  8
SAPA_FOGBAND
 10
-28.499999995341572
 20
0.2274550244719649
 30
0.0
 42
0.577350269189628
  0
VERTEX
  5
2A7B
  8
SAPA_FOGBAND
 10
-28.049999995341519
 20
-0.0323525966634861
 30
0.0
  0
VERTEX
  5
2A7C
  8
SAPA_FOGBAND
 10
-25.39365049849755
 20
2.109361613821533
 30
0.0
 42
-0.8769764629927237
  0
VERTEX
  5
2A7D
  8
SAPA_FOGBAND
 10
-25.031518464141641
 20
1.637421958330264
 30
0.0
  0
VERTEX
  5
2A7E
  8
SAPA_FOGBAND
 10
-28.207106776528011
 20
-2.3323915506477979
 30
0.0
 42
0.1989123673796493
  0
VERTEX
  5
2A7F
  8
SAPA_FOGBAND
 10
-28.499999995341572
 20
-3.0394983318342379
 30
0.0
  0
VERTEX
  5
2A80
  8
SAPA_FOGBAND
 10
-28.499999995341572
 20
-4.7904544612687232
 30
0.0
 42
0.577350269189628
  0
VERTEX
  5
2A81
  8
SAPA_FOGBAND
 10
-28.049999995341519
 20
-5.0502620824039459
 30
0.0
  0
VERTEX
  5
2A82
  8
SAPA_FOGBAND
 10
-25.394519251677941
 20
-2.9692140309239221
 30
0.0
 42
-0.8769764629928424
  0
VERTEX
  5
2A83
  8
SAPA_FOGBAND
 10
-25.032387217322022
 20
-3.4411536864151908
 30
0.0
  0
VERTEX
  5
2A84
  8
SAPA_FOGBAND
 10
-29.282961423841929
 20
-7.9071067381914872
 30
0.0
 42
-0.1989123673796579
  0
VERTEX
  5
2A85
  8
SAPA_FOGBAND
 10
-29.990068205028368
 20
-8.1999999570048203
 30
0.0
  0
VERTEX
  5
2A86
  8
SAPA_FOGBAND
 10
-29.999999995341572
 20
-8.1999999570048203
 30
0.0
 42
-0.4142135623730951
  0
VERTEX
  5
2A87
  8
SAPA_FOGBAND
 10
-30.999999995341572
 20
-7.1999999570048203
 30
0.0
  0
VERTEX
  5
2A88
  8
SAPA_FOGBAND
 10
-32.164084594465074
 20
0.0349925437624279
 30
0.0
 42
-0.6261632875160376
  0
VERTEX
  5
2A89
  8
SAPA_FOGBAND
 10
-31.72211779103873
 20
0.344849472281112
 30
0.0
  0
VERTEX
  5
2A8A
  8
SAPA_FOGBAND
 10
-31.445776145052609
 20
0.1912114774922884
 30
0.0
 42
0.5719685712689121
  0
VERTEX
  5
2A8B
  8
SAPA_FOGBAND
 10
-30.999999995341678
 20
0.4534123817156797
 30
0.0
  0
VERTEX
  5
2A8C
  8
SAPA_FOGBAND
 10
-30.999999995341572
 20
3.2000000429950428
 30
0.0
 42
0.4142135623730118
  0
VERTEX
  5
2A8D
  8
SAPA_FOGBAND
 10
-31.299999995341519
 20
3.5000000429952252
 30
0.0
  0
VERTEX
  5
2A8E
  8
SAPA_FOGBAND
 10
-32.699999995341607
 20
3.5000000429949969
 30
0.0
 42
-0.7754026414785753
  0
VERTEX
  5
2A8F
  8
SAPA_FOGBAND
 10
-32.8447078636475
 20
4.062792038402903
 30
0.0
  0
VERTEX
  5
2A90
  8
SAPA_FOGBAND
 10
-25.384550964556531
 20
8.2164257110667904
 30
0.0
 42
-0.8680589103333867
  0
VERTEX
  5
2A91
  8
SAPA_FOGBAND
 10
-25.027711061894589
 20
7.7415016813030197
 30
0.0
  0
VERTEX
  5
2A92
  8
SAPA_FOGBAND
 10
-28.207106776528011
 20
3.7678807700781358
 30
0.0
 42
0.1989123673796493
  0
SEQEND
  5
2A93
  8
SAPA_FOGBAND
  0
POLYLINE
  5
18CC
  8
SAPA_FOGBAND
 66
     1
 10
0.0
 20
0.0
 30
0.0
 70
     1
  0
VERTEX
  5
2A94
  8
SAPA_FOGBAND
 10
-184.99538695863839
 20
-43.087048511221717
 30
0.0
 42
0.4142135623730951
  0
VERTEX
  5
2A95
  8
SAPA_FOGBAND
 10
-185.99538695863839
 20
-42.087048511221717
 30
0.0
  0
VERTEX
  5
2A96
  8
SAPA_FOGBAND
 10
-187.19538695863841
 20
-42.087048511221717
 30
0.0
 42
-0.4142135623730951
  0
VERTEX
  5
2A97
  8
SAPA_FOGBAND
 10
-187.49538695863839
 20
-41.787048511221542
 30
0.0
  0
VERTEX
  5
2A98
  8
SAPA_FOGBAND
 10
-187.49538695863839
 20
-40.887048511221678
 30
0.0
  0
VERTEX
  5
2A99
  8
SAPA_FOGBAND
 10
-187.1453869586382
 20
-40.887048511221678
 30
0.0
 42
0.6681786379193472
  0
VERTEX
  5
2A9A
  8
SAPA_FOGBAND
 10
-186.93325492428241
 20
-40.374916476865671
 30
0.0
  0
VERTEX
  5
2A9B
  8
SAPA_FOGBAND
 10
-187.7868083148756
 20
-39.521363086272352
 30
0.0
 42
0.1989123673796526
  0
VERTEX
  5
2A9C
  8
SAPA_FOGBAND
 10
-188.35249373982489
 20
-39.287048511221542
 30
0.0
  0
VERTEX
  5
2A9D
  8
SAPA_FOGBAND
 10
-188.51518886224471
 20
-39.287048511221542
 30
0.0
 42
0.3394542588633746
  0
VERTEX
  5
2A9E
  8
SAPA_FOGBAND
 10
-188.80496661013149
 20
-39.509402797690989
 30
0.0
  0
VERTEX
  5
2A9F
  8
SAPA_FOGBAND
 10
-189.1681158535213
 20
-40.86469422475249
 30
0.0
 42
-0.3394542588633744
  0
VERTEX
  5
2AA0
  8
SAPA_FOGBAND
 10
-189.4578936014081
 20
-41.087048511221717
 30
0.0
  0
VERTEX
  5
2AA1
  8
SAPA_FOGBAND
 10
-192.0328803158686
 20
-41.087048511221717
 30
0.0
 42
-0.3394542588633746
  0
VERTEX
  5
2AA2
  8
SAPA_FOGBAND
 10
-192.3226580637554
 20
-40.86469422475249
 30
0.0
  0
VERTEX
  5
2AA3
  8
SAPA_FOGBAND
 10
-192.6858073071453
 20
-39.509402797690989
 30
0.0
 42
0.3394542588633747
  0
VERTEX
  5
2AA4
  8
SAPA_FOGBAND
 10
-192.97558505503201
 20
-39.287048511221542
 30
0.0
  0
VERTEX
  5
2AA5
  8
SAPA_FOGBAND
 10
-193.1382801774518
 20
-39.287048511221542
 30
0.0
 42
0.1989123673796526
  0
VERTEX
  5
2AA6
  8
SAPA_FOGBAND
 10
-193.70396560240121
 20
-39.521363086272352
 30
0.0
  0
VERTEX
  5
2AA7
  8
SAPA_FOGBAND
 10
-194.55751899299429
 20
-40.374916476865671
 30
0.0
 42
0.6681786379193474
  0
VERTEX
  5
2AA8
  8
SAPA_FOGBAND
 10
-194.3453869586385
 20
-40.887048511221678
 30
0.0
  0
VERTEX
  5
2AA9
  8
SAPA_FOGBAND
 10
-193.99538695863839
 20
-40.887048511221678
 30
0.0
  0
VERTEX
  5
2AAA
  8
SAPA_FOGBAND
 10
-193.99538695863839
 20
-41.787048511221542
 30
0.0
 42
-0.4142135623730951
  0
VERTEX
  5
2AAB
  8
SAPA_FOGBAND
 10
-194.29538695863829
 20
-42.087048511221717
 30
0.0
  0
VERTEX
  5
2AAC
  8
SAPA_FOGBAND
 10
-196.39538695863851
 20
-42.087048511221717
 30
0.0
 42
-0.4142135623730951
  0
VERTEX
  5
2AAD
  8
SAPA_FOGBAND
 10
-196.69538695863841
 20
-41.787048511221542
 30
0.0
  0
VERTEX
  5
2AAE
  8
SAPA_FOGBAND
 10
-196.69538695863841
 20
-40.387048511221678
 30
0.0
 42
0.7754026414785753
  0
VERTEX
  5
2AAF
  8
SAPA_FOGBAND
 10
-197.25817895404609
 20
-40.242340642915792
 30
0.0
  0
VERTEX
  5
2AB0
  8
SAPA_FOGBAND
 10
-200.7778814645915
 20
-46.069939654153927
 30
0.0
 42
0.8680589103334742
  0
VERTEX
  5
2AB1
  8
SAPA_FOGBAND
 10
-200.3029574348279
 20
-46.426779556815632
 30
0.0
  0
VERTEX
  5
2AB2
  8
SAPA_FOGBAND
 10
-196.9632676857216
 20
-43.87994173003505
 30
0.0
 42
-0.198912367379658
  0
VERTEX
  5
2AB3
  8
SAPA_FOGBAND
 10
-196.25616090453491
 20
-43.587048511221717
 30
0.0
  0
VERTEX
  5
2AB4
  8
SAPA_FOGBAND
 10
-193.42284194011521
 20
-43.587048511221717
 30
0.0
 42
-0.5773502691896282
  0
VERTEX
  5
2AB5
  8
SAPA_FOGBAND
 10
-193.1630343189799
 20
-44.037048511221542
 30
0.0
  0
VERTEX
  5
2AB6
  8
SAPA_FOGBAND
 10
-194.67081736734619
 20
-46.060840120212667
 30
0.0
 42
0.8769764629927299
  0
VERTEX
  5
2AB7
  8
SAPA_FOGBAND
 10
-194.19887771185489
 20
-46.422972154568797
 30
0.0
  0
VERTEX
  5
2AB8
  8
SAPA_FOGBAND
 10
-190.86299536499561
 20
-43.87994173003505
 30
0.0
 42
-0.198912367379658
  0
VERTEX
  5
2AB9
  8
SAPA_FOGBAND
 10
-190.155888583809
 20
-43.587048511221717
 30
0.0
  0
VERTEX
  5
2ABA
  8
SAPA_FOGBAND
 10
-187.9236142215874
 20
-43.587048511221717
 30
0.0
 42
-0.5773502691896282
  0
VERTEX
  5
2ABB
  8
SAPA_FOGBAND
 10
-187.66380660045201
 20
-44.037048511221542
 30
0.0
  0
VERTEX
  5
2ABC
  8
SAPA_FOGBAND
 10
-189.17108807393581
 20
-46.05997136703229
 30
0.0
 42
0.8769764629927299
  0
VERTEX
  5
2ABD
  8
SAPA_FOGBAND
 10
-188.69914841844451
 20
-46.422103401388419
 30
0.0
  0
VERTEX
  5
2ABE
  8
SAPA_FOGBAND
 10
-185.2882801774519
 20
-43.804087082721367
 30
0.0
 42
0.198912367379658
  0
VERTEX
  5
2ABF
  8
SAPA_FOGBAND
 10
-184.99538695863839
 20
-43.096980301534927
 30
0.0
  0
SEQEND
  5
2AC0
  8
SAPA_FOGBAND
  0
POLYLINE
  5
18CD
  8
SAPA_FOGBAND
 66
     1
 10
0.0
 20
0.0
 30
0.0
 70
     1
  0
VERTEX
  5
2AC1
  8
SAPA_FOGBAND
 10
-184.93717250497451
 20
-71.577387422678953
 30
0.0
 42
-0.4142135623730951
  0
VERTEX
  5
2AC2
  8
SAPA_FOGBAND
 10
-185.93717250497451
 20
-72.577387422678953
 30
0.0
  0
VERTEX
  5
2AC3
  8
SAPA_FOGBAND
 10
-187.13717250497459
 20
-72.577387422678953
 30
0.0
 42
0.4142135623730951
  0
VERTEX
  5
2AC4
  8
SAPA_FOGBAND
 10
-187.43717250497451
 20
-72.877387422679135
 30
0.0
  0
VERTEX
  5
2AC5
  8
SAPA_FOGBAND
 10
-187.43717250497451
 20
-73.777387422678999
 30
0.0
  0
VERTEX
  5
2AC6
  8
SAPA_FOGBAND
 10
-187.08717250497429
 20
-73.777387422678999
 30
0.0
 42
-0.6681786379193472
  0
VERTEX
  5
2AC7
  8
SAPA_FOGBAND
 10
-186.8750404706185
 20
-74.289519457034999
 30
0.0
  0
VERTEX
  5
2AC8
  8
SAPA_FOGBAND
 10
-187.72859386121181
 20
-75.143072847628332
 30
0.0
 42
-0.1989123673796526
  0
VERTEX
  5
2AC9
  8
SAPA_FOGBAND
 10
-188.29427928616099
 20
-75.377387422679135
 30
0.0
  0
VERTEX
  5
2ACA
  8
SAPA_FOGBAND
 10
-188.45697440858081
 20
-75.377387422679135
 30
0.0
 42
-0.3394542588633746
  0
VERTEX
  5
2ACB
  8
SAPA_FOGBAND
 10
-188.74675215646761
 20
-75.155033136209681
 30
0.0
  0
VERTEX
  5
2ACC
  8
SAPA_FOGBAND
 10
-189.10990139985751
 20
-73.799741709148407
 30
0.0
 42
0.3394542588633744
  0
VERTEX
  5
2ACD
  8
SAPA_FOGBAND
 10
-189.39967914774431
 20
-73.577387422678953
 30
0.0
  0
VERTEX
  5
2ACE
  8
SAPA_FOGBAND
 10
-191.97466586220469
 20
-73.577387422678953
 30
0.0
 42
0.3394542588633746
  0
VERTEX
  5
2ACF
  8
SAPA_FOGBAND
 10
-192.26444361009149
 20
-73.799741709148407
 30
0.0
  0
VERTEX
  5
2AD0
  8
SAPA_FOGBAND
 10
-192.62759285348139
 20
-75.155033136209681
 30
0.0
 42
-0.3394542588633747
  0
VERTEX
  5
2AD1
  8
SAPA_FOGBAND
 10
-192.91737060136819
 20
-75.377387422679135
 30
0.0
  0
VERTEX
  5
2AD2
  8
SAPA_FOGBAND
 10
-193.08006572378801
 20
-75.377387422679135
 30
0.0
 42
-0.1989123673796526
  0
VERTEX
  5
2AD3
  8
SAPA_FOGBAND
 10
-193.6457511487373
 20
-75.143072847628332
 30
0.0
  0
VERTEX
  5
2AD4
  8
SAPA_FOGBAND
 10
-194.49930453933041
 20
-74.289519457034999
 30
0.0
 42
-0.6681786379193474
  0
VERTEX
  5
2AD5
  8
SAPA_FOGBAND
 10
-194.28717250497459
 20
-73.777387422678999
 30
0.0
  0
VERTEX
  5
2AD6
  8
SAPA_FOGBAND
 10
-193.93717250497451
 20
-73.777387422678999
 30
0.0
  0
VERTEX
  5
2AD7
  8
SAPA_FOGBAND
 10
-193.93717250497451
 20
-72.877387422679135
 30
0.0
 42
0.4142135623730951
  0
VERTEX
  5
2AD8
  8
SAPA_FOGBAND
 10
-194.2371725049745
 20
-72.577387422678953
 30
0.0
  0
VERTEX
  5
2AD9
  8
SAPA_FOGBAND
 10
-196.3371725049746
 20
-72.577387422678953
 30
0.0
 42
0.4142135623730951
  0
VERTEX
  5
2ADA
  8
SAPA_FOGBAND
 10
-196.6371725049745
 20
-72.877387422679135
 30
0.0
  0
VERTEX
  5
2ADB
  8
SAPA_FOGBAND
 10
-196.6371725049745
 20
-74.277387422679226
 30
0.0
 42
-0.7754026414785753
  0
VERTEX
  5
2ADC
  8
SAPA_FOGBAND
 10
-197.19996450038221
 20
-74.422095290985112
 30
0.0
  0
VERTEX
  5
2ADD
  8
SAPA_FOGBAND
 10
-200.71966701092759
 20
-69.038989518399035
 30
0.0
 42
-0.8680589103334742
  0
VERTEX
  5
2ADE
  8
SAPA_FOGBAND
 10
-200.24474298116411
 20
-68.68214961573733
 30
0.0
  0
VERTEX
  5
2ADF
  8
SAPA_FOGBAND
 10
-196.9050532320577
 20
-70.784494203865606
 30
0.0
 42
0.198912367379658
  0
VERTEX
  5
2AE0
  8
SAPA_FOGBAND
 10
-196.197946450871
 20
-71.077387422678953
 30
0.0
  0
VERTEX
  5
2AE1
  8
SAPA_FOGBAND
 10
-193.3646274864513
 20
-71.077387422678953
 30
0.0
 42
0.5773502691896282
  0
VERTEX
  5
2AE2
  8
SAPA_FOGBAND
 10
-193.10481986531599
 20
-70.627387422679135
 30
0.0
  0
VERTEX
  5
2AE3
  8
SAPA_FOGBAND
 10
-194.61260291368231
 20
-69.048089052340288
 30
0.0
 42
-0.8769764629927299
  0
VERTEX
  5
2AE4
  8
SAPA_FOGBAND
 10
-194.1406632581911
 20
-68.685957017984151
 30
0.0
  0
VERTEX
  5
2AE5
  8
SAPA_FOGBAND
 10
-190.80478091133179
 20
-70.784494203865606
 30
0.0
 42
0.198912367379658
  0
VERTEX
  5
2AE6
  8
SAPA_FOGBAND
 10
-190.09767413014509
 20
-71.077387422678953
 30
0.0
  0
VERTEX
  5
2AE7
  8
SAPA_FOGBAND
 10
-187.86539976792349
 20
-71.077387422678953
 30
0.0
 42
0.5773502691896282
  0
VERTEX
  5
2AE8
  8
SAPA_FOGBAND
 10
-187.60559214678821
 20
-70.627387422679135
 30
0.0
  0
VERTEX
  5
2AE9
  8
SAPA_FOGBAND
 10
-189.1128736202719
 20
-69.048957805520672
 30
0.0
 42
-0.8769764629927299
  0
VERTEX
  5
2AEA
  8
SAPA_FOGBAND
 10
-188.64093396478069
 20
-68.686825771164536
 30
0.0
  0
VERTEX
  5
2AEB
  8
SAPA_FOGBAND
 10
-185.2300657237881
 20
-70.86034885117931
 30
0.0
 42
-0.198912367379658
  0
VERTEX
  5
2AEC
  8
SAPA_FOGBAND
 10
-184.93717250497451
 20
-71.56745563236575
 30
0.0
  0
SEQEND
  5
2AED
  8
SAPA_FOGBAND
  0
DIMENSION
  5
18D6
  8
SAPA_MATT
  2
*D145
 10
-196.49999999549729
 20
-125.3256531728245
 30
0.0
 11
-157.49999999549729
 21
-122.8256531728245
 31
0.0
 70
     0
 13
-118.4999999954973
 23
-78.085786873071314
 33
0.0
 14
-196.49999999549729
 24
-77.00000043544398
 34
0.0
 50
180.0
1001
ACAD
1000
DSTYLE
1002
{
1070
   287
1070
     4
1070
    40
1040
1.0
1070
   279
1070
     1
1002
}
  0
DIMENSION
  5
18D7
  8
SAPA_MATT
  2
*D144
 10
-118.4999999954973
 20
-125.3256531728245
 30
0.0
 11
-103.4999999954973
 21
-122.8256531728245
 31
0.0
 70
     0
 13
-88.499999995497419
 23
-77.199999952131861
 33
0.0
 14
-118.4999999954973
 24
-78.085786873071314
 34
0.0
 50
180.0
1001
ACAD
1000
DSTYLE
1002
{
1070
   287
1070
     4
1070
    40
1040
1.0
1070
   279
1070
     1
1002
}
  0
DIMENSION
  5
18D8
  8
SAPA_MATT
  2
*D143
 10
-88.499999995497419
 20
-125.3256531728245
 30
0.0
 11
-56.749999997748937
 21
-122.8256531728245
 31
0.0
 70
     0
 13
-25.000000000000458
 23
-105.9999999990105
 33
0.0
 14
-88.499999995497419
 24
-77.199999952131861
 34
0.0
 50
180.0
1001
ACAD
1000
DSTYLE
1002
{
1070
   287
1070
     4
1070
    40
1040
1.0
1070
   279
1070
     1
1002
}
  0
DIMENSION
  5
18D9
  8
SAPA_MATT
  2
*D142
 10
-25.000000000000458
 20
-125.3256531728245
 30
0.0
 11
-0.0000000000004546
 21
-122.8256531728245
 31
0.0
 70
     0
 13
24.999999999999549
 23
-105.9999999990105
 33
0.0
 14
-25.000000000000458
 24
-105.9999999990105
 34
0.0
 50
180.0
1001
ACAD
1000
DSTYLE
1002
{
1070
    40
1040
1.0
1002
}
  0
VIEWPORT
  5
C4
 67
     1
  8
0
 10
143.06236603067589
 20
116.00969601843509
 30
0.0
 40
369.98580003443811
 41
256.8421457311839
 68
     1
 69
     1
1001
ACAD
1000
MVIEW
1002
{
1070
    16
1010
0.0
1020
0.0
1030
0.0
1010
0.0
1020
0.0
1030
1.0
1040
0.0
1040
256.8421457311839
1040
99.112914085388169
1040
143.07606935501099
1040
50.0
1040
0.0
1040
0.0
1070
     0
1070
     0
1070
     1
1070
     1
1070
     0
1070
     0
1070
     0
1070
     0
1040
0.0
1040
0.0
1040
0.0
1040
10.0
1040
10.0
1040
10.0
1040
10.0
1070
     0
1002
{
1002
}
1002
}
  0
ENDSEC
  0
EOF
