  0
SECTION
  2
HEADER
  9
$ACADVER
  1
AC1009
  9
$INSBASE
 10
0.0
 20
0.0
 30
0.0
  9
$EXTMIN
 10
-120.85507693445371
 20
-210.51743617940949
 30
0.0
  9
$EXTMAX
 10
82.009403434165677
 20
75.522593981595065
 30
0.0
  9
$LIMMIN
 10
0.0
 20
0.0
  9
$LIMMAX
 10
790.0
 20
790.0
  9
$ORTHOMODE
 70
     0
  9
$REGENMODE
 70
     1
  9
$FILLMODE
 70
     1
  9
$QTEXTMODE
 70
     0
  9
$MIRRTEXT
 70
     1
  9
$DRAGMODE
 70
     2
  9
$LTSCALE
 40
4.0
  9
$OSMODE
 70
   167
  9
$ATTMODE
 70
     1
  9
$TEXTSIZE
 40
3.5
  9
$TRACEWID
 40
0.05
  9
$TEXTSTYLE
  7
ISO
  9
$CLAYER
  8
0
  9
$CELTYPE
  6
BYLAYER
  9
$CECOLOR
 62
   256
  9
$DIMSCALE
 40
0.0
  9
$DIMASZ
 40
3.0
  9
$DIMEXO
 40
1.5
  9
$DIMDLI
 40
10.0
  9
$DIMRND
 40
0.0
  9
$DIMDLE
 40
0.0
  9
$DIMEXE
 40
1.5
  9
$DIMTP
 40
0.0
  9
$DIMTM
 40
0.0
  9
$DIMTXT
 40
3.0
  9
$DIMCEN
 40
-5.0
  9
$DIMTSZ
 40
0.0
  9
$DIMTOL
 70
     0
  9
$DIMLIM
 70
     0
  9
$DIMTIH
 70
     0
  9
$DIMTOH
 70
     0
  9
$DIMSE1
 70
     0
  9
$DIMSE2
 70
     0
  9
$DIMTAD
 70
     1
  9
$DIMZIN
 70
     8
  9
$DIMBLK
  1

  9
$DIMASO
 70
     1
  9
$DIMSHO
 70
     1
  9
$DIMPOST
  1

  9
$DIMAPOST
  1

  9
$DIMALT
 70
     0
  9
$DIMALTD
 70
     0
  9
$DIMALTF
 40
25.399999999999999
  9
$DIMLFAC
 40
-1.0
  9
$DIMTOFL
 70
     1
  9
$DIMTVP
 40
0.0
  9
$DIMTIX
 70
     0
  9
$DIMSOXD
 70
     0
  9
$DIMSAH
 70
     0
  9
$DIMBLK1
  1

  9
$DIMBLK2
  1

  9
$DIMSTYLE
  2
MASKIN
  9
$DIMCLRD
 70
   256
  9
$DIMCLRE
 70
   256
  9
$DIMCLRT
 70
     2
  9
$DIMTFAC
 40
1.0
  9
$DIMGAP
 40
1.0
  9
$LUNITS
 70
     2
  9
$LUPREC
 70
     8
  9
$SKETCHINC
 40
0.1
  9
$FILLETRAD
 40
0.0
  9
$AUNITS
 70
     0
  9
$AUPREC
 70
     8
  9
$MENU
  1
ACAD
  9
$ELEVATION
 40
0.0
  9
$PELEVATION
 40
0.0
  9
$THICKNESS
 40
0.0
  9
$LIMCHECK
 70
     0
  9
$BLIPMODE
 70
     0
  9
$CHAMFERA
 40
0.0
  9
$CHAMFERB
 40
0.0
  9
$SKPOLY
 70
     0
  9
$TDCREATE
 40
2454895.5739526278
  9
$TDUPDATE
 40
2458458.6660804171
  9
$TDINDWG
 40
0.0668240046
  9
$TDUSRTIMER
 40
0.0668238194
  9
$USRTIMER
 70
     1
  9
$ANGBASE
 50
0.0
  9
$ANGDIR
 70
     0
  9
$PDMODE
 70
     0
  9
$PDSIZE
 40
0.0
  9
$PLINEWID
 40
0.0
  9
$COORDS
 70
     1
  9
$SPLFRAME
 70
     0
  9
$SPLINETYPE
 70
     6
  9
$SPLINESEGS
 70
     8
  9
$ATTDIA
 70
     1
  9
$ATTREQ
 70
     1
  9
$HANDLING
 70
     1
  9
$HANDSEED
  5
2E54
  9
$SURFTAB1
 70
     6
  9
$SURFTAB2
 70
     6
  9
$SURFTYPE
 70
     6
  9
$SURFU
 70
     6
  9
$SURFV
 70
     6
  9
$UCSNAME
  2

  9
$UCSORG
 10
0.0
 20
0.0
 30
0.0
  9
$UCSXDIR
 10
1.0
 20
0.0
 30
0.0
  9
$UCSYDIR
 10
0.0
 20
1.0
 30
0.0
  9
$PUCSNAME
  2

  9
$PUCSORG
 10
0.0
 20
0.0
 30
0.0
  9
$PUCSXDIR
 10
1.0
 20
0.0
 30
0.0
  9
$PUCSYDIR
 10
0.0
 20
1.0
 30
0.0
  9
$USERI1
 70
     0
  9
$USERI2
 70
     0
  9
$USERI3
 70
     0
  9
$USERI4
 70
     0
  9
$USERI5
 70
     0
  9
$USERR1
 40
0.0
  9
$USERR2
 40
0.0
  9
$USERR3
 40
0.0
  9
$USERR4
 40
0.0
  9
$USERR5
 40
0.0
  9
$WORLDVIEW
 70
     1
  9
$SHADEDGE
 70
     3
  9
$SHADEDIF
 70
    70
  9
$TILEMODE
 70
     1
  9
$MAXACTVP
 70
    16
  9
$PLIMCHECK
 70
     0
  9
$PEXTMIN
 10
1.0000000000000000E+020
 20
1.0000000000000000E+020
 30
1.0000000000000000E+020
  9
$PEXTMAX
 10
-1.0000000000000000E+020
 20
-1.0000000000000000E+020
 30
-1.0000000000000000E+020
  9
$PLIMMIN
 10
-5.069427490234375
 20
-5.8737497329711914
  9
$PLIMMAX
 10
291.89889526367187
 20
204.0995779037475
  9
$UNITMODE
 70
     0
  9
$VISRETAIN
 70
     1
  9
$PLINEGEN
 70
     0
  9
$PSLTSCALE
 70
     1
  0
ENDSEC
  0
SECTION
  2
TABLES
  0
TABLE
  2
VPORT
 70
     1
  0
VPORT
  2
*ACTIVE
 70
     0
 10
0.0
 20
0.0
 11
1.0
 21
1.0
 12
274.29436967857191
 22
305.18552235511959
 13
0.0
 23
0.0
 14
1.0
 24
1.0
 15
0.0
 25
0.0
 16
0.0
 26
0.0
 36
1.0
 17
0.0
 27
0.0
 37
0.0
 40
712.95083886305099
 41
2.3595505617977519
 42
50.0
 43
0.0
 44
0.0
 50
0.0
 51
0.0
 71
     0
 72
   100
 73
     1
 74
     1
 75
     0
 76
     0
 77
     0
 78
     0
  0
ENDTAB
  0
TABLE
  2
LTYPE
 70
    52
  0
LTYPE
  2
CONTINUOUS
 70
     0
  3
Solid line
 72
    65
 73
     0
 40
0.0
  0
LTYPE
  2
BYGG-01482201$0$NEWDOT
 70
     0
  3
____ . ____ . ____ . ____ . ____ . ____ . ____
 72
    65
 73
     4
 40
2.0
 49
1.0
 49
-0.5
 49
0.0
 49
-0.5
  0
LTYPE
  2
BYGG-014357$0$NEWDOT
 70
     0
  3
____ . ____ . ____ . ____ . ____ . ____ . ____
 72
    65
 73
     4
 40
2.0
 49
1.0
 49
-0.5
 49
0.0
 49
-0.5
  0
LTYPE
  2
BYGG-014357$0$DASHDOT
 70
     0
  3
__ . __ . __ . __ . __ . __ . __ . __ . __ . __
 72
    65
 73
     4
 40
1.0
 49
0.5
 49
-0.25
 49
0.0
 49
-0.25
  0
LTYPE
  2
BYGG-014357$0$DASHED
 70
     0
  3
__ __ __ __ __ __ __ __ __ __ __ __ __ __ __
 72
    65
 73
     2
 40
0.75
 49
0.5
 49
-0.25
  0
LTYPE
  2
BYGG-014279$0$NEWDOT
 70
     0
  3
____ . ____ . ____ . ____ . ____ . ____ . ____
 72
    65
 73
     4
 40
2.0
 49
1.0
 49
-0.5
 49
0.0
 49
-0.5
  0
LTYPE
  2
BYGG-014247$0$DASHDOT
 70
     0
  3
__ . __ . __ . __ . __ . __ . __ . __ . __ . __
 72
    65
 73
     4
 40
1.0
 49
0.5
 49
-0.25
 49
0.0
 49
-0.25
  0
LTYPE
  2
BYGG-014568$0$NEWDOT
 70
     0
  3
____ . ____ . ____ . ____ . ____ . ____ . ____
 72
    65
 73
     4
 40
2.0
 49
1.0
 49
-0.5
 49
0.0
 49
-0.5
  0
LTYPE
  2
BYGG-01482201$0$ZIGZAG
 70
     0
  3
Zig zag /\/\/\/\/\/\/\/\/\/\/\/\/\/\/\/\/\/\/\/\/\/\/\/
 72
    65
 73
     4
 40
20.32254
 49
0.00254
 49
-5.0800000000000001
 49
-10.16
 49
-5.0800000000000001
  0
LTYPE
  2
BYGG-014279$0$ZIGZAG
 70
     0
  3
Zig zag /\/\/\/\/\/\/\/\/\/\/\/\/\/\/\/\/\/\/\/\/\/\/\/
 72
    65
 73
     4
 40
20.32254
 49
0.00254
 49
-5.0800000000000001
 49
-10.16
 49
-5.0800000000000001
  0
LTYPE
  2
BYGG-024817$0$NEWDOT
 70
     0
  3
____ . ____ . ____ . ____ . ____ . ____ . ____
 72
    65
 73
     4
 40
2.0
 49
1.0
 49
-0.5
 49
0.0
 49
-0.5
  0
LTYPE
  2
BYGG-024791$0$NEWDOT
 70
     0
  3
____ . ____ . ____ . ____ . ____ . ____ . ____
 72
    65
 73
     4
 40
2.0
 49
1.0
 49
-0.5
 49
0.0
 49
-0.5
  0
LTYPE
  2
BYGG-024791$0$DASHDOT
 70
     0
  3
__ . __ . __ . __ . __ . __ . __ . __ . __ . __
 72
    65
 73
     4
 40
1.0
 49
0.5
 49
-0.25
 49
0.0
 49
-0.25
  0
LTYPE
  2
BYGG-014568$0$ZIGZAG
 70
     0
  3
Zig zag /\/\/\/\/\/\/\/\/\/\/\/\/\/\/\/\/\/\/\/\/\/\/\/
 72
    65
 73
     4
 40
20.32254
 49
0.00254
 49
-5.0800000000000001
 49
-10.16
 49
-5.0800000000000001
  0
LTYPE
  2
BYGG-025108$0$NEWDOT
 70
     0
  3
____ . ____ . ____ . ____ . ____ . ____ . ____
 72
    65
 73
     4
 40
2.0
 49
1.0
 49
-0.5
 49
0.0
 49
-0.5
  0
LTYPE
  2
BYGG-025108$0$DASHDOT
 70
     0
  3
__ . __ . __ . __ . __ . __ . __ . __ . __ . __
 72
    65
 73
     4
 40
1.0
 49
0.5
 49
-0.25
 49
0.0
 49
-0.25
  0
LTYPE
  2
BYGG-025108$0$DASHED
 70
     0
  3
__ __ __ __ __ __ __ __ __ __ __ __ __ __ __
 72
    65
 73
     2
 40
0.75
 49
0.5
 49
-0.25
  0
LTYPE
  2
BYGG-025108$0$PHANTOM
 70
     0
  3
Phantom ______  __  __  ______  __  __  ______
 72
    65
 73
     6
 40
63.5
 49
31.75
 49
-6.3499999999999988
 49
6.3499999999999988
 49
-6.3499999999999988
 49
6.3499999999999988
 49
-6.3499999999999988
  0
LTYPE
  2
BYGG-020805$0$NEWDOT
 70
     0
  3
____ . ____ . ____ . ____ . ____ . ____ . ____
 72
    65
 73
     4
 40
2.0
 49
1.0
 49
-0.5
 49
0.0
 49
-0.5
  0
LTYPE
  2
BYGG-020805$0$DASHDOT
 70
     0
  3
__ . __ . __ . __ . __ . __ . __ . __ . __ . __
 72
    65
 73
     4
 40
1.0
 49
0.5
 49
-0.25
 49
0.0
 49
-0.25
  0
LTYPE
  2
BYGG-020805$0$DASHED
 70
     0
  3
__ __ __ __ __ __ __ __ __ __ __ __ __ __ __
 72
    65
 73
     2
 40
0.75
 49
0.5
 49
-0.25
  0
LTYPE
  2
BYGG-020805$0$PHANTOM
 70
     0
  3
Phantom ______  __  __  ______  __  __  ______
 72
    65
 73
     6
 40
63.5
 49
31.75
 49
-6.3499999999999988
 49
6.3499999999999988
 49
-6.3499999999999988
 49
6.3499999999999988
 49
-6.3499999999999988
  0
LTYPE
  2
BYGG-028766$0$NEWDOT
 70
     0
  3
____ . ____ . ____ . ____ . ____ . ____ . ____
 72
    65
 73
     4
 40
2.0
 49
1.0
 49
-0.5
 49
0.0
 49
-0.5
  0
LTYPE
  2
BYGG-028766$0$DASHDOT
 70
     0
  3
__ . __ . __ . __ . __ . __ . __ . __ . __ . __
 72
    65
 73
     4
 40
1.0
 49
0.5
 49
-0.25
 49
0.0
 49
-0.25
  0
LTYPE
  2
BYGG-028766$0$DASHED
 70
     0
  3
__ __ __ __ __ __ __ __ __ __ __ __ __ __ __
 72
    65
 73
     2
 40
0.75
 49
0.5
 49
-0.25
  0
LTYPE
  2
BYGG-028766$0$PHANTOM
 70
     0
  3
Phantom ______  __  __  ______  __  __  ______
 72
    65
 73
     6
 40
63.5
 49
31.75
 49
-6.3499999999999988
 49
6.3499999999999988
 49
-6.3499999999999988
 49
6.3499999999999988
 49
-6.3499999999999988
  0
LTYPE
  2
BYGG-033168$0$NEWDOT
 70
     0
  3
____ . ____ . ____ . ____ . ____ . ____ . ____
 72
    65
 73
     4
 40
2.0
 49
1.0
 49
-0.5
 49
0.0
 49
-0.5
  0
LTYPE
  2
BYGG-033168$0$DASHDOT
 70
     0
  3
__ . __ . __ . __ . __ . __ . __ . __ . __ . __
 72
    65
 73
     4
 40
1.0
 49
0.5
 49
-0.25
 49
0.0
 49
-0.25
  0
LTYPE
  2
BYGG-033168$0$DASHED
 70
     0
  3
__ __ __ __ __ __ __ __ __ __ __ __ __ __ __
 72
    65
 73
     2
 40
0.75
 49
0.5
 49
-0.25
  0
LTYPE
  2
BYGG-033168$0$PHANTOM
 70
     0
  3
Phantom ______  __  __  ______  __  __  ______
 72
    65
 73
     6
 40
63.5
 49
31.75
 49
-6.3499999999999988
 49
6.3499999999999988
 49
-6.3499999999999988
 49
6.3499999999999988
 49
-6.3499999999999988
  0
LTYPE
  2
BYGG-027036$0$NEWDOT
 70
     0
  3
____ . ____ . ____ . ____ . ____ . ____ . ____
 72
    65
 73
     4
 40
2.0
 49
1.0
 49
-0.5
 49
0.0
 49
-0.5
  0
LTYPE
  2
BYGG-027036$0$DASHDOT
 70
     0
  3
__ . __ . __ . __ . __ . __ . __ . __ . __ . __
 72
    65
 73
     4
 40
1.0
 49
0.5
 49
-0.25
 49
0.0
 49
-0.25
  0
LTYPE
  2
BYGG-027036$0$DASHED
 70
     0
  3
__ __ __ __ __ __ __ __ __ __ __ __ __ __ __
 72
    65
 73
     2
 40
0.75
 49
0.5
 49
-0.25
  0
LTYPE
  2
BYGG-027036$0$PHANTOM
 70
     0
  3
Phantom ______  __  __  ______  __  __  ______
 72
    65
 73
     6
 40
63.5
 49
31.75
 49
-6.3499999999999988
 49
6.3499999999999988
 49
-6.3499999999999988
 49
6.3499999999999988
 49
-6.3499999999999988
  0
LTYPE
  2
BYGG-027036$0$HIDDEN
 70
     0
  3
_ _ _ _ _ _ _ _ _ _ _ _ _ _ _ _ _ _ _ _ _ _ _
 72
    65
 73
     2
 40
0.375
 49
0.25
 49
-0.125
  0
LTYPE
  2
BYGG-027036$0$DOT
 70
     0
  3
...............................................
 72
    65
 73
     2
 40
0.25
 49
0.0
 49
-0.25
  0
LTYPE
  2
BYGG-027036$0$CENTER
 70
     0
  3
____ _ ____ _ ____ _ ____ _ ____ _ ____ _ ____
 72
    65
 73
     4
 40
0.6
 49
0.375
 49
-0.075
 49
0.075
 49
-0.075
  0
LTYPE
  2
BYGG-014199$0$ZIGZAG
 70
     0
  3
Zig zag /\/\/\/\/\/\/\/\/\/\/\/\/\/\/\/\/\/\/\/\/\/\/\/
 72
    65
 73
     4
 40
20.32254
 49
0.00254
 49
-5.0800000000000001
 49
-10.16
 49
-5.0800000000000001
  0
LTYPE
  2
BYGG-014199$0$NEWDOT
 70
     0
  3
____ . ____ . ____ . ____ . ____ . ____ . ____
 72
    65
 73
     4
 40
2.0
 49
1.0
 49
-0.5
 49
0.0
 49
-0.5
  0
LTYPE
  2
BYGG-038596$0$NEWDOT
 70
     0
  3
____ . ____ . ____ . ____ . ____ . ____ . ____
 72
    65
 73
     4
 40
2.0
 49
1.0
 49
-0.5
 49
0.0
 49
-0.5
  0
LTYPE
  2
BYGG-038596$0$DASHDOT
 70
     0
  3
__ . __ . __ . __ . __ . __ . __ . __ . __ . __
 72
    65
 73
     4
 40
1.0
 49
0.5
 49
-0.25
 49
0.0
 49
-0.25
  0
LTYPE
  2
BYGG-038596$0$DASHED
 70
     0
  3
__ __ __ __ __ __ __ __ __ __ __ __ __ __ __
 72
    65
 73
     2
 40
0.75
 49
0.5
 49
-0.25
  0
LTYPE
  2
BYGG-038596$0$PHANTOM
 70
     0
  3
Phantom ______  __  __  ______  __  __  ______
 72
    65
 73
     6
 40
63.5
 49
31.75
 49
-6.3499999999999988
 49
6.3499999999999988
 49
-6.3499999999999988
 49
6.3499999999999988
 49
-6.3499999999999988
  0
LTYPE
  2
BYGG-037704$0$NEWDOT
 70
     0
  3
____ . ____ . ____ . ____ . ____ . ____ . ____
 72
    65
 73
     4
 40
2.0
 49
1.0
 49
-0.5
 49
0.0
 49
-0.5
  0
LTYPE
  2
BYGG-037704$0$ZIGZAG
 70
     0
  3
Zig zag /\/\/\/\/\/\/\/\/\/\/\/\/\/\/\/\/\/\/\/\/\/\/\/
 72
    65
 73
     4
 40
20.32254
 49
0.00254
 49
-5.0800000000000001
 49
-10.16
 49
-5.0800000000000001
  0
LTYPE
  2
BYGG-021745$0$PHANTOM2
 70
     0
  3
___ _ _ ___ _ _ ___ _ _ ___ _ _
 72
    65
 73
     6
 40
1.25
 49
0.625
 49
-0.125
 49
0.125
 49
-0.125
 49
0.125
 49
-0.125
  0
LTYPE
  2
BYGG-038596$0$PHANTOM2
 70
     0
  3
Phantom (.5x) ___ _ _ ___ _ _ ___ _ _ ___ _ _
 72
    65
 73
     6
 40
1.25
 49
0.625
 49
-0.125
 49
0.125
 49
-0.125
 49
0.125
 49
-0.125
  0
LTYPE
  2
BYGG-024817$0$DASHDOT
 70
     0
  3
__ . __ . __ . __ . __ . __ . __ . __ . __ . __
 72
    65
 73
     4
 40
1.0
 49
0.5
 49
-0.25
 49
0.0
 49
-0.25
  0
LTYPE
  2
BYGG-027036$0$ALF
 70
     0
  3
*alf,- - - - - - - - - - - - -
 72
    65
 73
     2
 40
0.3
 49
0.1
 49
-0.2
  0
LTYPE
  2
BYGG-027036$0$CENTRE2
 70
     0
  3
___ _ ___ _ ___ _ ___ _ ___ _ ___ _ ___ _ ___ _
 72
    65
 73
     4
 40
28.574999999999999
 49
19.050000000000001
 49
-3.1749999999999989
 49
3.1749999999999989
 49
-3.1749999999999989
  0
LTYPE
  2
BYGG-037704$0$DOT_CENTER
 70
     0
  3
Dot_Center
 72
    65
 73
     4
 40
14.0
 49
12.0
 49
-1.0
 49
0.0
 49
-1.0
  0
LTYPE
  2
BYGG-021741$0$PHANTOM2
 70
     0
  3
___ _ _ ___ _ _ ___ _ _ ___ _ _
 72
    65
 73
     6
 40
1.25
 49
0.625
 49
-0.125
 49
0.125
 49
-0.125
 49
0.125
 49
-0.125
  0
ENDTAB
  0
TABLE
  2
LAYER
 70
   291
  0
LAYER
  2
0
 70
     0
 62
     7
  6
CONTINUOUS
  0
LAYER
  2
DEFPOINTS
 70
     0
 62
     7
  6
CONTINUOUS
  0
LAYER
  2
SAPA_ARTIKELNR
 70
     0
 62
     4
  6
CONTINUOUS
  0
LAYER
  2
SAPA_LIGHT
 70
     1
 62
     1
  6
CONTINUOUS
  0
LAYER
  2
SAPA_FYLLNING
 70
     0
 62
     4
  6
CONTINUOUS
  0
LAYER
  2
BYGG-027036$0$DIM
 70
     4
 62
     5
  6
CONTINUOUS
  0
LAYER
  2
BYGG-027036$0$KON
 70
     4
 62
     7
  6
CONTINUOUS
  0
LAYER
  2
SAPA_ISOLATOR
 70
     0
 62
     4
  6
CONTINUOUS
  0
LAYER
  2
SAPA_MATT
 70
     0
 62
     1
  6
CONTINUOUS
  0
LAYER
  2
SAPA_GLAS
 70
     0
 62
     4
  6
CONTINUOUS
  0
LAYER
  2
SAPA_FOGBAND
 70
     0
 62
     2
  6
CONTINUOUS
  0
LAYER
  2
SAPA_PROFIL
 70
     0
 62
     7
  6
CONTINUOUS
  0
ENDTAB
  0
TABLE
  2
STYLE
 70
    65
  0
STYLE
  2
STANDARD
 70
     0
 40
0.0
 41
1.0
 50
0.0
 71
     0
 42
0.2
  3
txt
  4

  0
STYLE
  2
ISO
 70
     0
 40
0.0
 41
1.0
 50
0.0
 71
     0
 42
3.5
  3
txt
  4

  0
STYLE
  2

 70
     1
 40
0.0
 41
1.0
 50
0.0
 71
     0
 42
0.2
  3
ltypeshp.shx
  4

  0
STYLE
  2
BYGG-021589$0$STANDARD
 70
     0
 40
0.0
 41
1.0
 50
0.0
 71
     0
 42
0.2
  3
txt
  4

  0
STYLE
  2
BYGG-021589$0$ISO
 70
     0
 40
0.0
 41
1.0
 50
0.0
 71
     0
 42
3.5
  3
isocp3.shx
  4

  0
STYLE
  2
BYGG-01482201$0$STANDARD
 70
     0
 40
0.0
 41
1.0
 50
0.0
 71
     0
 42
0.2
  3
txt
  4

  0
STYLE
  2
BYGG-01482201$0$ISO
 70
     0
 40
0.0
 41
1.0
 50
0.0
 71
     0
 42
3.5
  3
isocp3.shx
  4

  0
STYLE
  2
BYGG-021610$0$STANDARD
 70
     0
 40
0.0
 41
1.0
 50
0.0
 71
     0
 42
0.2
  3
txt
  4

  0
STYLE
  2
BYGG-021610$0$ISO
 70
     0
 40
0.0
 41
1.0
 50
0.0
 71
     0
 42
3.5
  3
isocp3.shx
  4

  0
STYLE
  2
BYGG-014357$0$STANDARD
 70
     0
 40
0.0
 41
1.0
 50
0.0
 71
     0
 42
0.2
  3
txt
  4

  0
STYLE
  2
BYGG-014357$0$ISO
 70
     0
 40
0.0
 41
1.0
 50
0.0
 71
     0
 42
3.5
  3
isocp3.shx
  4

  0
STYLE
  2
BYGG-014062$0$STANDARD
 70
     0
 40
0.0
 41
1.0
 50
0.0
 71
     0
 42
0.2
  3
txt
  4

  0
STYLE
  2
BYGG-014062$0$ISO
 70
     0
 40
0.0
 41
1.0
 50
0.0
 71
     0
 42
3.5
  3
isocp3.shx
  4

  0
STYLE
  2
BYGG-014062$0$ROMANS
 70
     0
 40
0.0
 41
1.0
 50
0.0
 71
     0
 42
3.5
  3
romans.shx
  4

  0
STYLE
  2
BYGG-021582$0$STANDARD
 70
     0
 40
0.0
 41
1.0
 50
0.0
 71
     0
 42
0.2
  3
txt
  4

  0
STYLE
  2
BYGG-021582$0$ISO
 70
     0
 40
0.0
 41
1.0
 50
0.0
 71
     0
 42
3.5
  3
isocp3.shx
  4

  0
STYLE
  2
BYGG-014279$0$STANDARD
 70
     0
 40
0.0
 41
1.0
 50
0.0
 71
     0
 42
0.2
  3
TXT.shx
  4

  0
STYLE
  2
BYGG-014279$0$ISO
 70
     0
 40
0.0
 41
1.0
 50
0.0
 71
     0
 42
3.5
  3
iso
  4

  0
STYLE
  2
BYGG-021745$0$STANDARD
 70
     0
 40
0.0
 41
1.0
 50
0.0
 71
     0
 42
0.2
  3
txt
  4

  0
STYLE
  2
BYGG-021745$0$ISO
 70
     0
 40
0.0
 41
1.0
 50
0.0
 71
     0
 42
3.5
  3
iso
  4

  0
STYLE
  2
BYGG-014568$0$STANDARD
 70
     0
 40
0.0
 41
1.0
 50
0.0
 71
     0
 42
0.2
  3
txt
  4

  0
STYLE
  2
BYGG-014568$0$ISO
 70
     0
 40
0.0
 41
1.0
 50
0.0
 71
     0
 42
3.5
  3
isocp3.shx
  4

  0
STYLE
  2
BYGG-022675$0$STANDARD
 70
     0
 40
0.0
 41
1.0
 50
0.0
 71
     0
 42
0.2
  3
txt
  4

  0
STYLE
  2
BYGG-022675$0$ISO
 70
     0
 40
0.0
 41
1.0
 50
0.0
 71
     0
 42
3.5
  3
txt
  4

  0
STYLE
  2
BYGG-025108$0$STANDARD
 70
     0
 40
0.0
 41
1.0
 50
0.0
 71
     0
 42
0.2
  3
txt
  4

  0
STYLE
  2
BYGG-025108$0$ISO
 70
     0
 40
0.0
 41
1.0
 50
0.0
 71
     0
 42
3.5
  3
txt
  4

  0
STYLE
  2
BYGG-020805$0$STANDARD
 70
     0
 40
0.0
 41
1.0
 50
0.0
 71
     0
 42
0.2
  3
txt
  4

  0
STYLE
  2
BYGG-020805$0$ISO
 70
     0
 40
0.0
 41
1.0
 50
0.0
 71
     0
 42
3.5
  3
txt
  4

  0
STYLE
  2
BYGG-026226$0$STANDARD
 70
     0
 40
0.0
 41
1.0
 50
0.0
 71
     0
 42
0.2
  3
txt
  4

  0
STYLE
  2
BYGG-026226$0$ISO
 70
     0
 40
0.0
 41
1.0
 50
0.0
 71
     0
 42
3.5
  3
isocp3.shx
  4

  0
STYLE
  2
BYGG-022681$0$STANDARD
 70
     0
 40
0.0
 41
1.0
 50
0.0
 71
     0
 42
0.2
  3
txt
  4

  0
STYLE
  2
BYGG-022681$0$ISO
 70
     0
 40
0.0
 41
1.0
 50
0.0
 71
     0
 42
3.5
  3
txt
  4

  0
STYLE
  2
BYGG-014306$0$STANDARD
 70
     0
 40
0.0
 41
1.0
 50
0.0
 71
     0
 42
0.2
  3
txt
  4

  0
STYLE
  2
BYGG-021754$0$STANDARD
 70
     0
 40
0.0
 41
1.0
 50
0.0
 71
     0
 42
0.2
  3
txt
  4

  0
STYLE
  2
BYGG-021754$0$ISO
 70
     0
 40
0.0
 41
1.0
 50
0.0
 71
     0
 42
3.5
  3
txt
  4

  0
STYLE
  2
BYGG-014199$0$STANDARD
 70
     0
 40
0.0
 41
1.0
 50
0.0
 71
     0
 42
0.2
  3
txt
  4

  0
STYLE
  2
BYGG-014199$0$ISO
 70
     0
 40
0.0
 41
1.0
 50
0.0
 71
     0
 42
3.5
  3
isocp3.shx
  4

  0
STYLE
  2
BYGG-038596$0$STANDARD
 70
     0
 40
0.0
 41
1.0
 50
0.0
 71
     0
 42
0.2
  3
txt
  4

  0
STYLE
  2
BYGG-038596$0$ISO
 70
     0
 40
0.0
 41
1.0
 50
0.0
 71
     0
 42
3.5
  3
txt
  4

  0
STYLE
  2
BYGG-038596$0$ANNOTATIVE
 70
     0
 40
0.0
 41
1.0
 50
0.0
 71
     0
 42
0.2
  3
txt
  4

  0
STYLE
  2
BYGG-028980$0$STANDARD
 70
     0
 40
0.0
 41
1.0
 50
0.0
 71
     0
 42
0.2
  3
txt
  4

  0
STYLE
  2
BYGG-028980$0$ISO
 70
     0
 40
0.0
 41
1.0
 50
0.0
 71
     0
 42
3.5
  3
txt
  4

  0
STYLE
  2
BYGG-024791$0$STANDARD
 70
     0
 40
0.0
 41
1.0
 50
0.0
 71
     0
 42
0.2
  3
txt
  4

  0
STYLE
  2
BYGG-024791$0$ISO
 70
     0
 40
0.0
 41
1.0
 50
0.0
 71
     0
 42
3.5
  3
txt
  4

  0
STYLE
  2
BYGG-024817$0$STANDARD
 70
     0
 40
0.0
 41
1.0
 50
0.0
 71
     0
 42
0.2
  3
txt
  4

  0
STYLE
  2
BYGG-024817$0$ISO
 70
     0
 40
0.0
 41
1.0
 50
0.0
 71
     0
 42
3.5
  3
txt
  4

  0
STYLE
  2
BYGG-033168$0$STANDARD
 70
     0
 40
0.0
 41
1.0
 50
0.0
 71
     0
 42
0.2
  3
txt
  4

  0
STYLE
  2
BYGG-033168$0$ISO
 70
     0
 40
0.0
 41
1.0
 50
0.0
 71
     0
 42
3.5
  3
txt
  4

  0
STYLE
  2
BYGG-027036$0$STANDARD
 70
     0
 40
0.0
 41
1.0
 50
0.0
 71
     0
 42
0.2
  3
txt
  4

  0
STYLE
  2
BYGG-027036$0$ISO
 70
     0
 40
0.0
 41
1.0
 50
0.0
 71
     0
 42
3.5
  3
txt
  4

  0
STYLE
  2
BYGG-027036$0$SIMPLEX
 70
     0
 40
0.0
 41
1.0
 50
0.0
 71
     0
 42
0.4
  3
simplex
  4

  0
STYLE
  2
BYGG-027036$0$ITALIC
 70
     0
 40
0.0
 41
1.0
 50
0.0
 71
     0
 42
0.4
  3
ITALIC
  4

  0
STYLE
  2
BYGG-027036$0$SYMBOL1
 70
     0
 40
0.0
 41
1.0
 50
0.0
 71
     0
 42
0.2
  3
SIMPLEX.SHX
  4

  0
STYLE
  2
BYGG-027036$0$MONOTXT
 70
     0
 40
0.2
 41
1.0
 50
0.0
 71
     0
 42
0.2
  3
MONOTXT
  4

  0
STYLE
  2
BYGG-027036$0$TIMES
 70
     0
 40
0.0
 41
1.0
 50
0.0
 71
     0
 42
100.0
  3
txt
  4

  0
STYLE
  2
BYGG-027036$0$ROMANS
 70
     0
 40
0.0
 41
1.0
 50
0.0
 71
     0
 42
5.0
  3
romans
  4

  0
STYLE
  2
BYGG-027036$0$SEACAD_ARIAL
 70
     0
 40
0.0
 41
1.0
 50
0.0
 71
     0
 42
0.2
  3
txt
  4

  0
STYLE
  2
BYGG-027036$0$ANNOTATIVE
 70
     0
 40
0.0
 41
1.0
 50
0.0
 71
     0
 42
0.2
  3
txt
  4

  0
STYLE
  2
BYGG-037704$0$STANDARD
 70
     0
 40
0.0
 41
1.0
 50
0.0
 71
     0
 42
0.2
  3
txt
  4

  0
STYLE
  2
BYGG-037704$0$ISO
 70
     0
 40
0.0
 41
1.0
 50
0.0
 71
     0
 42
3.5
  3
txt
  4

  0
STYLE
  2
BYGG-021741$0$STANDARD
 70
     0
 40
0.0
 41
1.0
 50
0.0
 71
     0
 42
0.2
  3
txt
  4

  0
STYLE
  2
BYGG-014247$0$STANDARD
 70
     0
 40
0.0
 41
1.0
 50
0.0
 71
     0
 42
0.2
  3
txt
  4

  0
STYLE
  2
BYGG-014247$0$ISO
 70
     0
 40
0.0
 41
1.0
 50
0.0
 71
     0
 42
3.5
  3
isocp3.shx
  4

  0
STYLE
  2
BYGG-028766$0$STANDARD
 70
     0
 40
0.0
 41
1.0
 50
0.0
 71
     0
 42
0.2
  3
txt
  4

  0
STYLE
  2
BYGG-028766$0$ISO
 70
     0
 40
0.0
 41
1.0
 50
0.0
 71
     0
 42
3.5
  3
txt
  4

  0
ENDTAB
  0
TABLE
  2
VIEW
 70
     0
  0
ENDTAB
  0
TABLE
  2
UCS
 70
     0
  0
ENDTAB
  0
TABLE
  2
APPID
 70
    33
  0
APPID
  2
ACAD
 70
     0
  0
APPID
  2
ACAD_DSTYLE_DIMTEXT_FILL
 70
     0
  0
APPID
  2
ACAD_DSTYLE_DIMEXT_LENGTH
 70
     0
  0
APPID
  2
ACAD_DSTYLE_DIMEXT_ENABLED
 70
     0
  0
APPID
  2
ACAD_DSTYLE_DIM_LINETYPE
 70
     0
  0
APPID
  2
ACAD_DSTYLE_DIM_EXT1_LINETYPE
 70
     0
  0
APPID
  2
ACAD_DSTYLE_DIM_EXT2_LINETYPE
 70
     0
  0
APPID
  2
ACAD_DSTYLE_DIMJOGGED_JOGA
 70
     0
  0
APPID
  2
ACAD_DSTYLE_DIMARC_LENGTH_
 70
     0
  0
APPID
  2
ACAD_PSEXT
 70
     0
  0
APPID
  2
ACAD_MLEADERVER
 70
     0
  0
APPID
  2
ACAD_EXEMPT_FROM_CAD_STANDARDS
 70
     0
  0
APPID
  2
AMG_ARCHIVE11
 70
     0
  0
APPID
  2
ACADANNOTATIVE
 70
     0
  0
APPID
  2
ACAECLAYERSTANDARD
 70
     0
  0
APPID
  2
ACDBDYNAMICBLOCKGUID
 70
     0
  0
APPID
  2
ACDBBLOCKREPETAG
 70
     0
  0
APPID
  2
ACAD_DSTYLE_DIMJAG
 70
     0
  0
APPID
  2
ACAD_DSTYLE_DIMTALN
 70
     0
  0
APPID
  2
AME_SOL
 70
     0
  0
APPID
  2
ACAD_NAV_VCDISPLAY
 70
     0
  0
APPID
  2
GRADIENTCOLOR1ACI
 70
     0
  0
APPID
  2
GRADIENTCOLOR2ACI
 70
     0
  0
APPID
  2
ACCMTRANSPARENCY
 70
     0
  0
APPID
  2
ACAUTHENVIRON
 70
     0
  0
APPID
  2
ACDBDYNAMICBLOCKTRUENAME
 70
     0
  0
APPID
  2
DCO15
 70
     0
  0
APPID
  2
PE_URL
 70
     0
  0
APPID
  2
ACDBBLOCKREPBTAG
 70
     0
  0
APPID
  2
ACAD_DSTYLE_DIMRADIAL_EXTENSION
 70
     0
  0
APPID
  2
ACLAYERTOOLS
 70
     0
  0
APPID
  2
ACAD_OBJECT_CHANGE_GUID
 70
     0
  0
APPID
  2
AEC_XDATA_BOUND_SPACE
 70
     0
  0
ENDTAB
  0
TABLE
  2
DIMSTYLE
 70
    61
  0
DIMSTYLE
  2
MASKIN
 70
     0
  3

  4

  5

  6

  7

 40
0.0
 41
3.0
 42
1.5
 43
10.0
 44
1.5
 45
0.0
 46
0.0
 47
0.0
 48
0.0
140
3.0
141
-5.0
142
0.0
143
25.399999999999999
144
-1.0
145
0.0
146
1.0
147
1.0
 71
     0
 72
     0
 73
     0
 74
     0
 75
     0
 76
     0
 77
     1
 78
     8
170
     0
171
     0
172
     1
173
     0
174
     0
175
     0
176
   256
177
   256
178
     2
  0
DIMSTYLE
  2
BYGG-021589$0$MASKIN
 70
     0
  3

  4

  5

  6

  7

 40
0.0
 41
3.0
 42
1.5
 43
10.0
 44
1.5
 45
0.0
 46
0.0
 47
0.0
 48
0.0
140
3.0
141
-5.0
142
0.0
143
25.399999999999999
144
-1.0
145
0.0
146
1.0
147
1.0
 71
     0
 72
     0
 73
     0
 74
     0
 75
     0
 76
     0
 77
     1
 78
     8
170
     0
171
     0
172
     1
173
     0
174
     0
175
     0
176
   256
177
   256
178
   256
  0
DIMSTYLE
  2
BYGG-01482201$0$STANDARD
 70
     0
  3

  4

  5

  6

  7

 40
1.0
 41
0.18
 42
0.0625
 43
0.38
 44
0.18
 45
0.0
 46
0.0
 47
0.0
 48
0.0
140
0.18
141
0.09
142
0.0
143
25.399999999999999
144
1.0
145
0.0
146
1.0
147
0.09
 71
     0
 72
     0
 73
     1
 74
     1
 75
     0
 76
     0
 77
     0
 78
     0
170
     0
171
     2
172
     0
173
     0
174
     0
175
     0
176
     0
177
     0
178
     0
  0
DIMSTYLE
  2
BYGG-01482201$0$MASKIN
 70
     0
  3

  4

  5

  6

  7

 40
0.0
 41
3.0
 42
1.5
 43
10.0
 44
1.5
 45
0.0
 46
0.0
 47
0.0
 48
0.0
140
3.0
141
-5.0
142
0.0
143
25.399999999999999
144
-1.0
145
0.0
146
1.0
147
1.0
 71
     0
 72
     0
 73
     0
 74
     1
 75
     0
 76
     0
 77
     1
 78
     8
170
     0
171
     0
172
     1
173
     0
174
     0
175
     0
176
   256
177
   256
178
     2
  0
DIMSTYLE
  2
BYGG-021610$0$MASKIN
 70
     0
  3

  4

  5

  6

  7

 40
0.0
 41
3.0
 42
1.5
 43
10.0
 44
1.5
 45
0.0
 46
0.0
 47
0.0
 48
0.0
140
3.0
141
-5.0
142
0.0
143
25.399999999999999
144
-1.0
145
0.0
146
1.0
147
1.0
 71
     0
 72
     0
 73
     0
 74
     0
 75
     0
 76
     0
 77
     1
 78
     8
170
     0
171
     0
172
     1
173
     0
174
     0
175
     0
176
   256
177
   256
178
   256
  0
DIMSTYLE
  2
BYGG-014357$0$MASKIN
 70
     0
  3

  4

  5

  6

  7

 40
0.0
 41
3.0
 42
1.5
 43
10.0
 44
1.5
 45
0.0
 46
0.0
 47
0.0
 48
0.0
140
3.0
141
-5.0
142
0.0
143
25.399999999999999
144
-1.0
145
0.0
146
1.0
147
1.0
 71
     0
 72
     0
 73
     0
 74
     0
 75
     0
 76
     0
 77
     1
 78
     8
170
     0
171
     0
172
     1
173
     0
174
     0
175
     0
176
   256
177
   256
178
   256
  0
DIMSTYLE
  2
BYGG-014357$0$MASKIN1
 70
     0
  3

  4

  5

  6

  7

 40
1.0
 41
3.0
 42
1.5
 43
10.0
 44
1.5
 45
0.0
 46
0.0
 47
0.0
 48
0.0
140
3.0
141
-5.0
142
0.0
143
25.399999999999999
144
1.0
145
0.0
146
1.0
147
0.9
 71
     0
 72
     0
 73
     0
 74
     0
 75
     0
 76
     0
 77
     1
 78
     8
170
     0
171
     0
172
     1
173
     0
174
     0
175
     0
176
   256
177
   256
178
   256
  0
DIMSTYLE
  2
BYGG-014357$0$MASKIN2
 70
     0
  3

  4

  5

  6

  7

 40
1.0
 41
3.0
 42
1.5
 43
10.0
 44
1.5
 45
0.0
 46
0.0
 47
0.0
 48
0.0
140
3.0
141
-5.0
142
0.0
143
25.399999999999999
144
1.0
145
0.0
146
1.0
147
0.9
 71
     0
 72
     0
 73
     0
 74
     0
 75
     0
 76
     0
 77
     1
 78
     8
170
     0
171
     0
172
     1
173
     0
174
     0
175
     0
176
   256
177
   256
178
   256
  0
DIMSTYLE
  2
BYGG-014357$0$MASKIN3
 70
     0
  3

  4

  5

  6

  7

 40
1.0
 41
3.0
 42
1.5
 43
10.0
 44
1.5
 45
0.0
 46
0.0
 47
0.0
 48
0.0
140
3.0
141
-5.0
142
0.0
143
25.399999999999999
144
1.0
145
0.0
146
1.0
147
0.9
 71
     0
 72
     0
 73
     0
 74
     0
 75
     0
 76
     0
 77
     1
 78
     8
170
     0
171
     0
172
     1
173
     0
174
     0
175
     0
176
   256
177
   256
178
   256
  0
DIMSTYLE
  2
BYGG-014357$0$DMST_1
 70
     0
  3

  4

  5

  6

  7

 40
1.0
 41
0.7000000000000002
 42
0.0
 43
7.0
 44
0.4
 45
0.0
 46
0.0
 47
0.15
 48
0.15
140
0.7000000000000002
141
0.0
142
0.0
143
25.399999999999999
144
1.0
145
0.0
146
0.7
147
0.09
 71
     1
 72
     0
 73
     0
 74
     0
 75
     0
 76
     0
 77
     1
 78
     9
170
     0
171
     2
172
     0
173
     0
174
     0
175
     0
176
     1
177
     1
178
     2
  0
DIMSTYLE
  2
BYGG-014062$0$MASKIN
 70
     0
  3

  4

  5

  6

  7

 40
0.0
 41
3.0
 42
1.5
 43
10.0
 44
1.5
 45
0.0
 46
0.0
 47
0.0
 48
0.0
140
3.0
141
-5.0
142
0.0
143
25.399999999999999
144
-1.0
145
0.0
146
1.0
147
1.0
 71
     0
 72
     0
 73
     0
 74
     0
 75
     0
 76
     0
 77
     1
 78
     8
170
     0
171
     0
172
     1
173
     0
174
     0
175
     0
176
   256
177
   256
178
   256
  0
DIMSTYLE
  2
BYGG-014062$0$STANDARD
 70
     0
  3

  4

  5

  6

  7

 40
1.0
 41
0.18
 42
0.0625
 43
0.38
 44
0.18
 45
0.0
 46
0.0
 47
0.0
 48
0.0
140
0.18
141
0.09
142
0.0
143
25.399999999999999
144
1.0
145
0.0
146
1.0
147
0.09
 71
     0
 72
     0
 73
     1
 74
     1
 75
     0
 76
     0
 77
     0
 78
     0
170
     0
171
     2
172
     0
173
     0
174
     0
175
     0
176
     0
177
     0
178
     0
  0
DIMSTYLE
  2
BYGG-014062$0$PRIMO_1-1
 70
     0
  3

  4

  5

  6

  7

 40
1.0
 41
3.0
 42
1.0
 43
5.0
 44
1.0
 45
0.0
 46
0.0
 47
0.0
 48
0.0
140
3.0
141
3.0
142
0.0
143
25.399999999999999
144
1.0
145
0.0
146
1.0
147
1.0
 71
     0
 72
     0
 73
     0
 74
     0
 75
     0
 76
     0
 77
     1
 78
     8
170
     0
171
     2
172
     0
173
     0
174
     0
175
     0
176
   256
177
   256
178
     6
  0
DIMSTYLE
  2
BYGG-014062$0$PRIMO_2-1
 70
     0
  3

  4

  5

  6

  7

 40
0.5
 41
3.0
 42
1.0
 43
5.0
 44
1.0
 45
0.0
 46
0.0
 47
0.0
 48
0.0
140
3.0
141
3.0
142
0.0
143
25.399999999999999
144
1.0
145
0.0
146
1.0
147
1.0
 71
     0
 72
     0
 73
     0
 74
     0
 75
     0
 76
     0
 77
     1
 78
     8
170
     0
171
     2
172
     0
173
     0
174
     0
175
     0
176
   256
177
   256
178
     6
  0
DIMSTYLE
  2
BYGG-014062$0$PRIMO_2_5-1
 70
     0
  3

  4

  5

  6

  7

 40
0.4
 41
3.0
 42
1.0
 43
5.0
 44
1.0
 45
0.0
 46
0.0
 47
0.0
 48
0.0
140
3.0
141
3.0
142
0.0
143
25.399999999999999
144
1.0
145
0.0
146
1.0
147
1.0
 71
     0
 72
     0
 73
     0
 74
     0
 75
     0
 76
     0
 77
     1
 78
     8
170
     0
171
     2
172
     0
173
     0
174
     0
175
     0
176
   256
177
   256
178
     6
  0
DIMSTYLE
  2
BYGG-014062$0$PRIMO_1-10
 70
     0
  3

  4

  5

  6

  7

 40
10.0
 41
3.0
 42
1.0
 43
5.0
 44
1.0
 45
0.0
 46
0.0
 47
0.0
 48
0.0
140
3.0
141
3.0
142
0.0
143
25.399999999999999
144
1.0
145
0.0
146
1.0
147
1.0
 71
     0
 72
     0
 73
     0
 74
     0
 75
     0
 76
     0
 77
     1
 78
     8
170
     0
171
     2
172
     0
173
     0
174
     0
175
     0
176
   256
177
   256
178
     6
  0
DIMSTYLE
  2
BYGG-014062$0$PRIMO_1-5
 70
     0
  3

  4

  5

  6

  7

 40
5.0
 41
3.0
 42
1.0
 43
5.0
 44
1.0
 45
0.0
 46
0.0
 47
0.0
 48
0.0
140
3.0
141
3.0
142
0.0
143
25.399999999999999
144
1.0
145
0.0
146
1.0
147
1.0
 71
     0
 72
     0
 73
     0
 74
     0
 75
     0
 76
     0
 77
     1
 78
     8
170
     0
171
     2
172
     0
173
     0
174
     0
175
     0
176
   256
177
   256
178
     6
  0
DIMSTYLE
  2
BYGG-014062$0$PRIMO_1-2
 70
     0
  3

  4

  5

  6

  7

 40
2.0
 41
3.0
 42
1.0
 43
5.0
 44
1.0
 45
0.0
 46
0.0
 47
0.0
 48
0.0
140
3.0
141
3.0
142
0.0
143
25.399999999999999
144
1.0
145
0.0
146
1.0
147
1.0
 71
     0
 72
     0
 73
     0
 74
     0
 75
     0
 76
     0
 77
     1
 78
     8
170
     0
171
     2
172
     0
173
     0
174
     0
175
     0
176
   256
177
   256
178
     6
  0
DIMSTYLE
  2
BYGG-021582$0$MASKIN
 70
     0
  3

  4

  5

  6

  7

 40
0.0
 41
3.0
 42
1.5
 43
10.0
 44
1.5
 45
0.0
 46
0.0
 47
0.0
 48
0.0
140
3.0
141
-5.0
142
0.0
143
25.399999999999999
144
-1.0
145
0.0
146
1.0
147
1.0
 71
     0
 72
     0
 73
     0
 74
     0
 75
     0
 76
     0
 77
     1
 78
     8
170
     0
171
     0
172
     1
173
     0
174
     0
175
     0
176
   256
177
   256
178
   256
  0
DIMSTYLE
  2
BYGG-014279$0$STANDARD
 70
     0
  3

  4

  5

  6

  7

 40
1.0
 41
0.18
 42
0.0625
 43
0.38
 44
0.18
 45
0.0
 46
0.0
 47
0.0
 48
0.0
140
0.18
141
0.09
142
0.0
143
25.399999999999999
144
1.0
145
0.0
146
1.0
147
0.09
 71
     0
 72
     0
 73
     1
 74
     1
 75
     0
 76
     0
 77
     0
 78
     0
170
     0
171
     2
172
     0
173
     0
174
     0
175
     0
176
     0
177
     0
178
     0
  0
DIMSTYLE
  2
BYGG-014279$0$MASKIN
 70
     0
  3

  4

  5

  6

  7

 40
0.0
 41
3.0
 42
1.5
 43
10.0
 44
1.5
 45
0.0
 46
0.0
 47
0.0
 48
0.0
140
3.0
141
-5.0
142
0.0
143
25.399999999999999
144
-1.0
145
0.0
146
1.0
147
1.0
 71
     0
 72
     0
 73
     0
 74
     1
 75
     0
 76
     0
 77
     1
 78
     8
170
     0
171
     0
172
     1
173
     0
174
     0
175
     0
176
   256
177
   256
178
     2
  0
DIMSTYLE
  2
BYGG-021745$0$STANDARD
 70
     0
  3

  4

  5

  6

  7

 40
1.0
 41
0.18
 42
0.0625
 43
0.38
 44
0.18
 45
0.0
 46
0.0
 47
0.0
 48
0.0
140
0.18
141
0.09
142
0.0
143
25.399999999999999
144
1.0
145
0.0
146
1.0
147
0.09
 71
     0
 72
     0
 73
     1
 74
     1
 75
     0
 76
     0
 77
     0
 78
     0
170
     0
171
     2
172
     0
173
     0
174
     0
175
     0
176
     0
177
     0
178
     0
  0
DIMSTYLE
  2
BYGG-014568$0$STANDARD
 70
     0
  3

  4

  5

  6

  7

 40
1.0
 41
0.18
 42
0.0625
 43
0.38
 44
0.18
 45
0.0
 46
0.0
 47
0.0
 48
0.0
140
0.18
141
0.09
142
0.0
143
25.399999999999999
144
1.0
145
0.0
146
1.0
147
0.09
 71
     0
 72
     0
 73
     1
 74
     1
 75
     0
 76
     0
 77
     0
 78
     0
170
     0
171
     2
172
     0
173
     0
174
     0
175
     0
176
     0
177
     0
178
     0
  0
DIMSTYLE
  2
BYGG-014568$0$MASKIN
 70
     0
  3

  4

  5

  6

  7

 40
0.0
 41
3.0
 42
1.5
 43
10.0
 44
1.5
 45
0.0
 46
0.0
 47
0.0
 48
0.0
140
3.0
141
-5.0
142
0.0
143
25.399999999999999
144
-1.0
145
0.0
146
1.0
147
1.0
 71
     0
 72
     0
 73
     0
 74
     0
 75
     0
 76
     0
 77
     1
 78
     8
170
     0
171
     0
172
     1
173
     0
174
     0
175
     0
176
   256
177
   256
178
     2
  0
DIMSTYLE
  2
BYGG-022675$0$STANDARD
 70
     0
  3

  4

  5

  6

  7

 40
1.0
 41
0.18
 42
0.0625
 43
0.38
 44
0.18
 45
0.0
 46
0.0
 47
0.0
 48
0.0
140
0.18
141
0.09
142
0.0
143
25.399999999999999
144
1.0
145
0.0
146
1.0
147
0.09
 71
     0
 72
     0
 73
     1
 74
     1
 75
     0
 76
     0
 77
     0
 78
     0
170
     0
171
     2
172
     0
173
     0
174
     0
175
     0
176
     0
177
     0
178
     0
  0
DIMSTYLE
  2
BYGG-022675$0$MASKIN
 70
     0
  3

  4

  5

  6

  7

 40
0.0
 41
3.0
 42
1.5
 43
10.0
 44
1.5
 45
0.0
 46
0.0
 47
0.0
 48
0.0
140
3.0
141
-5.0
142
0.0
143
25.399999999999999
144
-1.0
145
0.0
146
1.0
147
1.0
 71
     0
 72
     0
 73
     0
 74
     0
 75
     0
 76
     0
 77
     1
 78
     8
170
     0
171
     0
172
     1
173
     0
174
     0
175
     0
176
   256
177
   256
178
     2
  0
DIMSTYLE
  2
BYGG-025108$0$STANDARD
 70
     0
  3

  4

  5

  6

  7

 40
1.0
 41
0.18
 42
0.0625
 43
0.38
 44
0.18
 45
0.0
 46
0.0
 47
0.0
 48
0.0
140
0.18
141
0.09
142
0.0
143
25.399999999999999
144
1.0
145
0.0
146
1.0
147
0.09
 71
     0
 72
     0
 73
     1
 74
     1
 75
     0
 76
     0
 77
     0
 78
     0
170
     0
171
     2
172
     0
173
     0
174
     0
175
     0
176
     0
177
     0
178
     0
  0
DIMSTYLE
  2
BYGG-025108$0$MASKIN
 70
     0
  3

  4

  5

  6

  7

 40
0.0
 41
3.0
 42
1.5
 43
10.0
 44
1.5
 45
0.0
 46
0.0
 47
0.0
 48
0.0
140
3.0
141
-5.0
142
0.0
143
25.399999999999999
144
-1.0
145
0.0
146
1.0
147
1.0
 71
     0
 72
     0
 73
     0
 74
     0
 75
     0
 76
     0
 77
     1
 78
     8
170
     0
171
     0
172
     1
173
     0
174
     0
175
     0
176
   256
177
   256
178
     2
  0
DIMSTYLE
  2
BYGG-020805$0$STANDARD
 70
     0
  3

  4

  5

  6

  7

 40
1.0
 41
0.18
 42
0.0625
 43
0.38
 44
0.18
 45
0.0
 46
0.0
 47
0.0
 48
0.0
140
0.18
141
0.09
142
0.0
143
25.399999999999999
144
1.0
145
0.0
146
1.0
147
0.09
 71
     0
 72
     0
 73
     1
 74
     1
 75
     0
 76
     0
 77
     0
 78
     0
170
     0
171
     2
172
     0
173
     0
174
     0
175
     0
176
     0
177
     0
178
     0
  0
DIMSTYLE
  2
BYGG-020805$0$MASKIN
 70
     0
  3

  4

  5

  6

  7

 40
0.0
 41
3.0
 42
1.5
 43
10.0
 44
1.5
 45
0.0
 46
0.0
 47
0.0
 48
0.0
140
3.0
141
-5.0
142
0.0
143
25.399999999999999
144
-1.0
145
0.0
146
1.0
147
1.0
 71
     0
 72
     0
 73
     0
 74
     0
 75
     0
 76
     0
 77
     1
 78
     8
170
     0
171
     0
172
     1
173
     0
174
     0
175
     0
176
   256
177
   256
178
     2
  0
DIMSTYLE
  2
BYGG-026226$0$MASKIN
 70
     0
  3

  4

  5

  6

  7

 40
0.0
 41
3.0
 42
1.5
 43
10.0
 44
1.5
 45
0.0
 46
0.0
 47
0.0
 48
0.0
140
3.0
141
-5.0
142
0.0
143
25.399999999999999
144
-1.0
145
0.0
146
1.0
147
1.0
 71
     0
 72
     0
 73
     0
 74
     0
 75
     0
 76
     0
 77
     1
 78
     8
170
     0
171
     0
172
     1
173
     0
174
     0
175
     0
176
   256
177
   256
178
   256
  0
DIMSTYLE
  2
BYGG-022681$0$STANDARD
 70
     0
  3

  4

  5

  6

  7

 40
1.0
 41
0.18
 42
0.0625
 43
0.38
 44
0.18
 45
0.0
 46
0.0
 47
0.0
 48
0.0
140
0.18
141
0.09
142
0.0
143
25.399999999999999
144
1.0
145
0.0
146
1.0
147
0.09
 71
     0
 72
     0
 73
     1
 74
     1
 75
     0
 76
     0
 77
     0
 78
     0
170
     0
171
     2
172
     0
173
     0
174
     0
175
     0
176
     0
177
     0
178
     0
  0
DIMSTYLE
  2
BYGG-022681$0$MASKIN
 70
     0
  3

  4

  5

  6

  7

 40
0.0
 41
3.0
 42
1.5
 43
10.0
 44
1.5
 45
0.0
 46
0.0
 47
0.0
 48
0.0
140
3.0
141
-5.0
142
0.0
143
25.399999999999999
144
-1.0
145
0.0
146
1.0
147
1.0
 71
     0
 72
     0
 73
     0
 74
     0
 75
     0
 76
     0
 77
     1
 78
     8
170
     0
171
     0
172
     1
173
     0
174
     0
175
     0
176
   256
177
   256
178
     2
  0
DIMSTYLE
  2
BYGG-014306$0$STANDARD
 70
     0
  3

  4

  5

  6

  7

 40
1.0
 41
0.18
 42
0.0625
 43
0.38
 44
0.18
 45
0.0
 46
0.0
 47
0.0
 48
0.0
140
0.18
141
0.09
142
0.0
143
25.399999999999999
144
1.0
145
0.0
146
1.0
147
0.09
 71
     0
 72
     0
 73
     1
 74
     1
 75
     0
 76
     0
 77
     0
 78
     0
170
     0
171
     2
172
     0
173
     0
174
     0
175
     0
176
     0
177
     0
178
     0
  0
DIMSTYLE
  2
BYGG-021754$0$STANDARD
 70
     0
  3

  4

  5

  6

  7

 40
1.0
 41
0.18
 42
0.0625
 43
0.38
 44
0.18
 45
0.0
 46
0.0
 47
0.0
 48
0.0
140
0.18
141
0.09
142
0.0
143
25.399999999999999
144
1.0
145
0.0
146
1.0
147
0.09
 71
     0
 72
     0
 73
     1
 74
     1
 75
     0
 76
     0
 77
     0
 78
     0
170
     0
171
     2
172
     0
173
     0
174
     0
175
     0
176
     0
177
     0
178
     0
  0
DIMSTYLE
  2
BYGG-021754$0$MASKIN
 70
     0
  3

  4

  5

  6

  7

 40
0.0
 41
3.0
 42
1.5
 43
10.0
 44
1.5
 45
0.0
 46
0.0
 47
0.0
 48
0.0
140
3.0
141
-5.0
142
0.0
143
25.399999999999999
144
-1.0
145
0.0
146
1.0
147
1.0
 71
     0
 72
     0
 73
     0
 74
     0
 75
     0
 76
     0
 77
     1
 78
     8
170
     0
171
     0
172
     1
173
     0
174
     0
175
     0
176
   256
177
   256
178
     2
  0
DIMSTYLE
  2
BYGG-014199$0$STANDARD
 70
     0
  3

  4

  5

  6

  7

 40
1.0
 41
0.18
 42
0.0625
 43
0.38
 44
0.18
 45
0.0
 46
0.0
 47
0.0
 48
0.0
140
0.18
141
0.09
142
0.0
143
25.399999999999999
144
1.0
145
0.0
146
1.0
147
0.09
 71
     0
 72
     0
 73
     1
 74
     1
 75
     0
 76
     0
 77
     0
 78
     0
170
     0
171
     2
172
     0
173
     0
174
     0
175
     0
176
     0
177
     0
178
     0
  0
DIMSTYLE
  2
BYGG-014199$0$MASKIN
 70
     0
  3

  4

  5

  6

  7

 40
0.0
 41
3.0
 42
1.5
 43
10.0
 44
1.5
 45
0.0
 46
0.0
 47
0.0
 48
0.0
140
3.0
141
-5.0
142
0.0
143
25.399999999999999
144
-1.0
145
0.0
146
1.0
147
1.0
 71
     0
 72
     0
 73
     0
 74
     0
 75
     0
 76
     0
 77
     1
 78
     8
170
     0
171
     0
172
     1
173
     0
174
     0
175
     0
176
   256
177
   256
178
   256
  0
DIMSTYLE
  2
BYGG-038596$0$STANDARD
 70
     0
  3

  4

  5

  6

  7

 40
1.0
 41
0.18
 42
0.0625
 43
0.38
 44
0.18
 45
0.0
 46
0.0
 47
0.0
 48
0.0
140
0.18
141
0.09
142
0.0
143
25.399999999999999
144
1.0
145
0.0
146
1.0
147
0.09
 71
     0
 72
     0
 73
     1
 74
     1
 75
     0
 76
     0
 77
     0
 78
     0
170
     0
171
     2
172
     0
173
     0
174
     0
175
     0
176
     0
177
     0
178
     0
  0
DIMSTYLE
  2
BYGG-038596$0$MASKIN
 70
     0
  3

  4

  5

  6

  7

 40
0.0
 41
3.0
 42
1.5
 43
10.0
 44
1.5
 45
0.0
 46
0.0
 47
0.0
 48
0.0
140
3.0
141
-5.0
142
0.0
143
25.399999999999999
144
-1.0
145
0.0
146
1.0
147
1.0
 71
     0
 72
     0
 73
     0
 74
     0
 75
     0
 76
     0
 77
     1
 78
     8
170
     0
171
     0
172
     1
173
     0
174
     0
175
     0
176
   256
177
   256
178
     2
  0
DIMSTYLE
  2
BYGG-038596$0$ANNOTATIVE
 70
     0
  3

  4

  5

  6

  7

 40
1.0
 41
0.18
 42
0.0625
 43
0.38
 44
0.18
 45
0.0
 46
0.0
 47
0.0
 48
0.0
140
0.18
141
0.09
142
0.0
143
25.399999999999999
144
1.0
145
0.0
146
1.0
147
0.09
 71
     0
 72
     0
 73
     1
 74
     1
 75
     0
 76
     0
 77
     0
 78
     0
170
     0
171
     2
172
     0
173
     0
174
     0
175
     0
176
     0
177
     0
178
     0
  0
DIMSTYLE
  2
BYGG-028980$0$STANDARD
 70
     0
  3

  4

  5

  6

  7

 40
1.0
 41
0.18
 42
0.0625
 43
0.38
 44
0.18
 45
0.0
 46
0.0
 47
0.0
 48
0.0
140
0.18
141
0.09
142
0.0
143
25.399999999999999
144
1.0
145
0.0
146
1.0
147
0.09
 71
     0
 72
     0
 73
     1
 74
     1
 75
     0
 76
     0
 77
     0
 78
     0
170
     0
171
     2
172
     0
173
     0
174
     0
175
     0
176
     0
177
     0
178
     0
  0
DIMSTYLE
  2
BYGG-028980$0$MASKIN
 70
     0
  3

  4

  5

  6

  7

 40
0.0
 41
3.0
 42
1.5
 43
10.0
 44
1.5
 45
0.0
 46
0.0
 47
0.0
 48
0.0
140
3.0
141
-5.0
142
0.0
143
25.399999999999999
144
-1.0
145
0.0
146
1.0
147
1.0
 71
     0
 72
     0
 73
     0
 74
     0
 75
     0
 76
     0
 77
     1
 78
     8
170
     0
171
     0
172
     1
173
     0
174
     0
175
     0
176
   256
177
   256
178
     2
  0
DIMSTYLE
  2
BYGG-024791$0$MASKIN
 70
     0
  3

  4

  5

  6

  7

 40
0.0
 41
3.0
 42
1.5
 43
10.0
 44
1.5
 45
0.0
 46
0.0
 47
0.0
 48
0.0
140
3.0
141
-5.0
142
0.0
143
25.399999999999999
144
-1.0
145
0.0
146
1.0
147
1.0
 71
     0
 72
     0
 73
     0
 74
     0
 75
     0
 76
     0
 77
     1
 78
     8
170
     0
171
     0
172
     1
173
     0
174
     0
175
     0
176
   256
177
   256
178
     2
  0
DIMSTYLE
  2
BYGG-024791$0$STANDARD
 70
     0
  3

  4

  5

  6

  7

 40
1.0
 41
0.18
 42
0.0625
 43
0.38
 44
0.18
 45
0.0
 46
0.0
 47
0.0
 48
0.0
140
0.18
141
0.09
142
0.0
143
25.399999999999999
144
1.0
145
0.0
146
1.0
147
0.09
 71
     0
 72
     0
 73
     1
 74
     1
 75
     0
 76
     0
 77
     0
 78
     0
170
     0
171
     2
172
     0
173
     0
174
     0
175
     0
176
     0
177
     0
178
     0
  0
DIMSTYLE
  2
BYGG-024817$0$MASKIN
 70
     0
  3

  4

  5

  6

  7

 40
0.0
 41
3.0
 42
1.5
 43
10.0
 44
1.5
 45
0.0
 46
0.0
 47
0.0
 48
0.0
140
3.0
141
-5.0
142
0.0
143
25.399999999999999
144
-1.0
145
0.0
146
1.0
147
1.0
 71
     0
 72
     0
 73
     0
 74
     0
 75
     0
 76
     0
 77
     1
 78
     8
170
     0
171
     0
172
     1
173
     0
174
     0
175
     0
176
   256
177
   256
178
     2
  0
DIMSTYLE
  2
BYGG-024817$0$STANDARD
 70
     0
  3

  4

  5

  6

  7

 40
1.0
 41
0.18
 42
0.0625
 43
0.38
 44
0.18
 45
0.0
 46
0.0
 47
0.0
 48
0.0
140
0.18
141
0.09
142
0.0
143
25.399999999999999
144
1.0
145
0.0
146
1.0
147
0.09
 71
     0
 72
     0
 73
     1
 74
     1
 75
     0
 76
     0
 77
     0
 78
     0
170
     0
171
     2
172
     0
173
     0
174
     0
175
     0
176
     0
177
     0
178
     0
  0
DIMSTYLE
  2
BYGG-033168$0$STANDARD
 70
     0
  3

  4

  5

  6

  7

 40
1.0
 41
0.18
 42
0.0625
 43
0.38
 44
0.18
 45
0.0
 46
0.0
 47
0.0
 48
0.0
140
0.18
141
0.09
142
0.0
143
25.399999999999999
144
1.0
145
0.0
146
1.0
147
0.09
 71
     0
 72
     0
 73
     1
 74
     1
 75
     0
 76
     0
 77
     0
 78
     0
170
     0
171
     2
172
     0
173
     0
174
     0
175
     0
176
     0
177
     0
178
     0
  0
DIMSTYLE
  2
BYGG-033168$0$MASKIN
 70
     0
  3

  4

  5

  6

  7

 40
0.0
 41
3.0
 42
1.5
 43
10.0
 44
1.5
 45
0.0
 46
0.0
 47
0.0
 48
0.0
140
3.0
141
-5.0
142
0.0
143
25.399999999999999
144
-1.0
145
0.0
146
1.0
147
1.0
 71
     0
 72
     0
 73
     0
 74
     0
 75
     0
 76
     0
 77
     1
 78
     8
170
     0
171
     0
172
     1
173
     0
174
     0
175
     0
176
   256
177
   256
178
     2
  0
DIMSTYLE
  2
BYGG-027036$0$STANDARD
 70
     0
  3

  4

  5

  6

  7

 40
1.0
 41
0.18
 42
0.0625
 43
0.38
 44
0.18
 45
0.0
 46
0.0
 47
0.0
 48
0.0
140
0.18
141
0.09
142
0.0
143
25.399999999999999
144
1.0
145
0.0
146
1.0
147
0.09
 71
     0
 72
     0
 73
     1
 74
     1
 75
     0
 76
     0
 77
     0
 78
     0
170
     0
171
     2
172
     0
173
     0
174
     0
175
     0
176
     0
177
     0
178
     0
  0
DIMSTYLE
  2
BYGG-027036$0$MASKIN
 70
     0
  3

  4

  5

  6

  7

 40
0.0
 41
3.0
 42
1.5
 43
10.0
 44
1.5
 45
0.0
 46
0.0
 47
0.0
 48
0.0
140
3.0
141
-5.0
142
0.0
143
25.399999999999999
144
-1.0
145
0.0
146
1.0
147
1.0
 71
     0
 72
     0
 73
     0
 74
     0
 75
     0
 76
     0
 77
     1
 78
     8
170
     0
171
     0
172
     1
173
     0
174
     0
175
     0
176
   256
177
   256
178
     2
  0
DIMSTYLE
  2
BYGG-027036$0$STANDARD$4
 70
     0
  3

  4

  5

  6

  7

 40
1.0
 41
2.5
 42
2.0
 43
3.75
 44
1.0
 45
0.0
 46
0.0
 47
0.0
 48
0.0
140
5.0
141
3.0
142
0.0
143
0.0394
144
1.0
145
1.0
146
1.0
147
1.0
 71
     0
 72
     0
 73
     1
 74
     0
 75
     0
 76
     0
 77
     1
 78
     8
170
     0
171
     2
172
     1
173
     0
174
     0
175
     0
176
     5
177
     5
178
     5
  0
DIMSTYLE
  2
BYGG-027036$0$STANDARD$2
 70
     0
  3

  4

  5

  6

  7

 40
1.0
 41
2.5
 42
2.0
 43
3.75
 44
1.0
 45
0.0
 46
0.0
 47
0.0
 48
0.0
140
5.0
141
3.0
142
0.0
143
0.0394
144
1.0
145
1.0
146
1.0
147
1.0
 71
     0
 72
     0
 73
     1
 74
     0
 75
     0
 76
     0
 77
     1
 78
     8
170
     0
171
     2
172
     1
173
     0
174
     0
175
     0
176
     5
177
     5
178
     5
  0
DIMSTYLE
  2
BYGG-027036$0$DMST_1
 70
     0
  3

  4

  5

  6

  7

 40
1.0
 41
0.3500000000000001
 42
0.0
 43
7.0
 44
0.2
 45
0.0
 46
0.0
 47
0.0
 48
0.0
140
0.3500000000000001
141
0.0
142
0.0
143
25.399999999999999
144
1.0
145
0.0
146
1.0
147
0.09
 71
     0
 72
     0
 73
     0
 74
     0
 75
     0
 76
     0
 77
     1
 78
     9
170
     0
171
     2
172
     0
173
     0
174
     0
175
     0
176
     1
177
     1
178
     2
  0
DIMSTYLE
  2
BYGG-027036$0$ANNOTATIVE
 70
     0
  3

  4

  5

  6

  7

 40
1.0
 41
0.18
 42
0.0625
 43
0.38
 44
0.18
 45
0.0
 46
0.0
 47
0.0
 48
0.0
140
0.18
141
0.09
142
0.0
143
25.399999999999999
144
1.0
145
0.0
146
1.0
147
0.09
 71
     0
 72
     0
 73
     1
 74
     1
 75
     0
 76
     0
 77
     0
 78
     0
170
     0
171
     2
172
     0
173
     0
174
     0
175
     0
176
     0
177
     0
178
     0
  0
DIMSTYLE
  2
BYGG-037704$0$STANDARD
 70
     0
  3

  4

  5

  6

  7

 40
1.0
 41
0.18
 42
0.0625
 43
0.38
 44
0.18
 45
0.0
 46
0.0
 47
0.0
 48
0.0
140
0.18
141
0.09
142
0.0
143
25.399999999999999
144
1.0
145
0.0
146
1.0
147
0.09
 71
     0
 72
     0
 73
     1
 74
     1
 75
     0
 76
     0
 77
     0
 78
     0
170
     0
171
     2
172
     0
173
     0
174
     0
175
     0
176
     0
177
     0
178
     0
  0
DIMSTYLE
  2
BYGG-037704$0$MASKIN
 70
     0
  3

  4

  5

  6

  7

 40
0.0
 41
3.0
 42
1.5
 43
10.0
 44
1.5
 45
0.0
 46
0.0
 47
0.0
 48
0.0
140
3.0
141
-5.0
142
0.0
143
25.399999999999999
144
-1.0
145
0.0
146
1.0
147
1.0
 71
     0
 72
     0
 73
     0
 74
     0
 75
     0
 76
     0
 77
     1
 78
     8
170
     0
171
     0
172
     1
173
     0
174
     0
175
     0
176
   256
177
   256
178
     2
  0
DIMSTYLE
  2
BYGG-021741$0$STANDARD
 70
     0
  3

  4

  5

  6

  7

 40
1.0
 41
0.18
 42
0.0625
 43
0.38
 44
0.18
 45
0.0
 46
0.0
 47
0.0
 48
0.0
140
0.18
141
0.09
142
0.0
143
25.399999999999999
144
1.0
145
0.0
146
1.0
147
0.09
 71
     0
 72
     0
 73
     1
 74
     1
 75
     0
 76
     0
 77
     0
 78
     0
170
     0
171
     2
172
     0
173
     0
174
     0
175
     0
176
     0
177
     0
178
     0
  0
DIMSTYLE
  2
BYGG-014247$0$MASKIN
 70
     0
  3

  4

  5

  6

  7

 40
0.0
 41
3.0
 42
1.5
 43
10.0
 44
1.5
 45
0.0
 46
0.0
 47
0.0
 48
0.0
140
3.0
141
-5.0
142
0.0
143
25.399999999999999
144
-1.0
145
0.0
146
1.0
147
1.0
 71
     0
 72
     0
 73
     0
 74
     0
 75
     0
 76
     0
 77
     1
 78
     8
170
     0
171
     0
172
     1
173
     0
174
     0
175
     0
176
   256
177
   256
178
   256
  0
DIMSTYLE
  2
BYGG-028766$0$STANDARD
 70
     0
  3

  4

  5

  6

  7

 40
1.0
 41
0.18
 42
0.0625
 43
0.38
 44
0.18
 45
0.0
 46
0.0
 47
0.0
 48
0.0
140
0.18
141
0.09
142
0.0
143
25.399999999999999
144
1.0
145
0.0
146
1.0
147
0.09
 71
     0
 72
     0
 73
     1
 74
     1
 75
     0
 76
     0
 77
     0
 78
     0
170
     0
171
     2
172
     0
173
     0
174
     0
175
     0
176
     0
177
     0
178
     0
  0
DIMSTYLE
  2
BYGG-028766$0$MASKIN
 70
     0
  3

  4

  5

  6

  7

 40
0.0
 41
3.0
 42
1.5
 43
10.0
 44
1.5
 45
0.0
 46
0.0
 47
0.0
 48
0.0
140
3.0
141
-5.0
142
0.0
143
25.399999999999999
144
-1.0
145
0.0
146
1.0
147
1.0
 71
     0
 72
     0
 73
     0
 74
     0
 75
     0
 76
     0
 77
     1
 78
     8
170
     0
171
     0
172
     1
173
     0
174
     0
175
     0
176
   256
177
   256
178
     2
  0
ENDTAB
  0
ENDSEC
  0
SECTION
  2
BLOCKS
  0
BLOCK
  8
0
  2
$MODEL_SPACE
 70
     0
 10
0.0
 20
0.0
 30
0.0
  3
$MODEL_SPACE
  1

  0
ENDBLK
  5
37
  8
0
  0
BLOCK
 67
     1
  8
0
  2
$PAPER_SPACE
 70
     0
 10
0.0
 20
0.0
 30
0.0
  3
$PAPER_SPACE
  1

  0
ENDBLK
  5
35
 67
     1
  8
0
  0
BLOCK
  8
0
  2
BYGG-027036$0$RH
 70
     2
 10
0.0
 20
0.0
 30
0.0
  3
BYGG-027036$0$RH
  1

  0
ATTDEF
  5
1205
  8
BYGG-027036$0$KON
 10
11.0
 20
2.2999999999999989
 30
0.0
 40
0.4400000000000001
  1

  7
BYGG-027036$0$SIMPLEX
 72
     4
 11
11.0
 21
2.2999999999999989
 31
0.0
  3
Benämning
  2
BENÄMNING
 70
     0
  0
ATTDEF
  5
1207
  8
BYGG-027036$0$KON
 10
11.0
 20
1.5
 30
0.0
 40
0.4400000000000001
  1

  7
BYGG-027036$0$SIMPLEX
 72
     4
 11
11.0
 21
1.5
 31
0.0
  3
Gummi-hårdhet-färg
  2
GUMMI-HÅRDHET-FÄRG
 70
     0
  0
ATTDEF
  5
1208
  8
BYGG-027036$0$KON
 10
11.0
 20
0.7
 30
0.0
 40
0.4400000000000001
  1

  7
BYGG-027036$0$SIMPLEX
 72
     4
 11
11.0
 21
0.7
 31
0.0
  3
Kund
  2
KUND
 70
     0
  0
ATTDEF
  5
1209
  8
BYGG-027036$0$KON
 10
18.399999999999999
 20
0.8
 30
0.0
 40
0.4
  1

  7
BYGG-027036$0$SIMPLEX
 72
     4
 11
18.399999999999999
 21
0.8
 31
0.0
  3
Rit.Nr:
  2
RIT.NR:
 70
     0
  0
ATTDEF
  5
120A
  8
BYGG-027036$0$KON
 10
18.399999999999999
 20
3.2000000000000002
 30
0.0
 40
0.4
  1

  7
BYGG-027036$0$SIMPLEX
 72
     4
 11
18.399999999999999
 21
3.2000000000000002
 31
0.0
  3
Det.Nr:
  2
DET.NR:
 70
     0
  0
ATTDEF
  5
120B
  8
BYGG-027036$0$KON
 10
18.800000000000001
 20
2.0
 30
0.0
 40
0.4
  1

  7
BYGG-027036$0$SIMPLEX
 72
     4
 11
18.800000000000001
 21
2.0
 31
0.0
  3
Skala:
  2
SKALA:
 70
     1
  0
ATTDEF
  5
120C
  8
BYGG-027036$0$KON
 10
3.6000000000000001
 20
1.8999999999999999
 30
0.0
 40
0.3
  1

  7
BYGG-027036$0$SIMPLEX
 72
     4
 11
3.6000000000000001
 21
1.8999999999999999
 31
0.0
  3
Datum
  2
DATUM
 70
     0
  0
ATTDEF
  5
120D
  8
BYGG-027036$0$KON
 10
3.399999999999999
 20
0.9
 30
0.0
 40
0.4
  1

  7
BYGG-027036$0$SIMPLEX
 72
     4
 11
3.399999999999999
 21
0.9
 31
0.0
  3
Ritad av:
  2
RITAD:
 70
     1
  0
ATTDEF
  5
120E
  8
BYGG-027036$0$KON
 10
3.1999999999999988
 20
5.2999999999999989
 30
0.0
 40
0.4
  1

  7
BYGG-027036$0$SIMPLEX
  3
Säljare:
  2
SÄLJARE
 70
     1
  0
ENDBLK
  5
120F
  8
0
  0
BLOCK
  8
0
  2
*D156
 70
     1
 10
0.0
 20
0.0
 30
0.0
  3
*D156
  1

  0
LINE
  5
1C23
  8
SAPA_MATT
 10
-97.499999999010555
 20
24.99999999999968
 30
0.0
 11
-116.8256531728245
 21
24.99999999999968
 31
0.0
  0
LINE
  5
1C24
  8
SAPA_MATT
 10
-97.499999999010555
 20
-25.00000000000033
 30
0.0
 11
-116.8256531728245
 21
-25.00000000000032
 31
0.0
  0
LINE
  5
1C25
  8
SAPA_MATT
 10
-115.3256531728245
 20
21.99999999999968
 30
0.0
 11
-115.3256531728245
 21
-22.00000000000033
 31
0.0
  0
SOLID
  5
1C26
  8
SAPA_MATT
 10
-115.8256531728245
 20
21.99999999999968
 30
0.0
 11
-114.8256531728245
 21
21.99999999999968
 31
0.0
 12
-115.3256531728245
 22
24.99999999999968
 32
0.0
 13
-115.3256531728245
 23
24.99999999999968
 33
0.0
  0
SOLID
  5
1C27
  8
SAPA_MATT
 10
-115.8256531728245
 20
-22.00000000000033
 30
0.0
 11
-114.8256531728245
 21
-22.00000000000033
 31
0.0
 12
-115.3256531728245
 22
-25.00000000000032
 32
0.0
 13
-115.3256531728245
 23
-25.00000000000032
 33
0.0
  0
INSERT
  5
1C28
  8
0
  2
*U176
 10
0.0
 20
0.0
 30
0.0
  0
POINT
  5
1C29
  8
DEFPOINTS
 62
     0
 10
-95.999999999010555
 20
24.99999999999968
 30
0.0
  0
POINT
  5
1C2A
  8
DEFPOINTS
 62
     0
 10
-95.999999999010555
 20
-25.00000000000033
 30
0.0
  0
POINT
  5
1C2B
  8
DEFPOINTS
 62
     0
 10
-115.3256531728245
 20
-25.00000000000032
 30
0.0
  0
ENDBLK
  5
1BDA
  8
0
  0
BLOCK
  8
0
  2
*D157
 70
     1
 10
0.0
 20
0.0
 30
0.0
  3
*D157
  1

  0
LINE
  5
2DBF
  8
SAPA_MATT
 10
-68.729423760639293
 20
-88.543271862275915
 30
0.0
 11
-116.85507693445371
 21
-88.543271862275887
 31
0.0
  0
LINE
  5
2DC0
  8
SAPA_MATT
 10
-69.615210681578532
 20
-118.5432718622756
 30
0.0
 11
-116.85507693445371
 21
-118.5432718622756
 31
0.0
  0
LINE
  5
2DC1
  8
SAPA_MATT
 10
-115.35507693445371
 20
-91.543271862275887
 30
0.0
 11
-115.35507693445371
 21
-115.5432718622756
 31
0.0
  0
SOLID
  5
2DC2
  8
SAPA_MATT
 10
-115.85507693445371
 20
-91.543271862275887
 30
0.0
 11
-114.85507693445371
 21
-91.543271862275887
 31
0.0
 12
-115.35507693445371
 22
-88.543271862275887
 32
0.0
 13
-115.35507693445371
 23
-88.543271862275887
 33
0.0
  0
SOLID
  5
2DC3
  8
SAPA_MATT
 10
-115.85507693445371
 20
-115.5432718622756
 30
0.0
 11
-114.85507693445371
 21
-115.5432718622756
 31
0.0
 12
-115.35507693445371
 22
-118.5432718622756
 32
0.0
 13
-115.35507693445371
 23
-118.5432718622756
 33
0.0
  0
TEXT
  8
SAPA_MATT
  40
3
  5
2DD0
  62
2
  72
0
  71
0
 10
-123.855
 20
-108.853
 30
0.000000
  1
30
  7
ISO
  0
POINT
  5
2DC5
  8
DEFPOINTS
 62
     0
 10
-67.229423760639293
 20
-88.543271862275915
 30
0.0
  0
POINT
  5
2DC6
  8
DEFPOINTS
 62
     0
 10
-68.115210681578532
 20
-118.5432718622756
 30
0.0
  0
POINT
  5
2DC7
  8
DEFPOINTS
 62
     0
 10
-115.35507693445371
 20
-118.5432718622756
 30
0.0
  0
ENDBLK
  5
1BE6
  8
0
  0
BLOCK
  8
0
  2
*D158
 70
     1
 10
0.0
 20
0.0
 30
0.0
  3
*D158
  1

  0
LINE
  5
2DB6
  8
SAPA_MATT
 10
-69.61521068157856
 20
-118.5432718622756
 30
0.0
 11
-116.85507693445381
 21
-118.5432718622756
 31
0.0
  0
LINE
  5
2DB7
  8
SAPA_MATT
 10
-68.529424243951468
 20
-196.5432718622757
 30
0.0
 11
-116.85507693445381
 21
-196.5432718622757
 31
0.0
  0
LINE
  5
2DB8
  8
SAPA_MATT
 10
-115.35507693445371
 20
-121.5432718622756
 30
0.0
 11
-115.35507693445381
 21
-193.5432718622757
 31
0.0
  0
SOLID
  5
2DB9
  8
SAPA_MATT
 10
-115.85507693445381
 20
-121.5432718622756
 30
0.0
 11
-114.85507693445381
 21
-121.5432718622756
 31
0.0
 12
-115.35507693445371
 22
-118.5432718622756
 32
0.0
 13
-115.35507693445371
 23
-118.5432718622756
 33
0.0
  0
SOLID
  5
2DBA
  8
SAPA_MATT
 10
-115.85507693445381
 20
-193.5432718622757
 30
0.0
 11
-114.85507693445381
 21
-193.5432718622757
 31
0.0
 12
-115.35507693445381
 22
-196.5432718622757
 32
0.0
 13
-115.35507693445381
 23
-196.5432718622757
 33
0.0
  0
TEXT
  8
SAPA_MATT
  40
3
  5
2DD1
  62
2
  72
0
  71
0
 10
-123.855
 20
-162.853
 30
0.000000
  1
78
  7
ISO
  0
POINT
  5
2DBC
  8
DEFPOINTS
 62
     0
 10
-68.11521068157856
 20
-118.5432718622756
 30
0.0
  0
POINT
  5
2DBD
  8
DEFPOINTS
 62
     0
 10
-67.029424243951453
 20
-196.5432718622757
 30
0.0
  0
POINT
  5
2DBE
  8
DEFPOINTS
 62
     0
 10
-115.35507693445381
 20
-196.5432718622757
 30
0.0
  0
ENDBLK
  5
1BF2
  8
0
  0
BLOCK
  8
0
  2
*D159
 70
     1
 10
0.0
 20
0.0
 30
0.0
  3
*D159
  1

  0
LINE
  5
1C08
  8
SAPA_MATT
 10
-68.729423760639293
 20
-88.543271862275915
 30
0.0
 11
-116.85507693445371
 21
-88.543271862275887
 31
0.0
  0
LINE
  5
1C09
  8
SAPA_MATT
 10
-83.329425158612935
 20
-25.043271862835471
 30
0.0
 11
-116.85507693445371
 21
-25.043271862835461
 31
0.0
  0
LINE
  5
1C0A
  8
SAPA_MATT
 10
-115.35507693445371
 20
-85.543271862275887
 30
0.0
 11
-115.35507693445371
 21
-28.043271862835461
 31
0.0
  0
SOLID
  5
1C0B
  8
SAPA_MATT
 10
-115.85507693445371
 20
-85.543271862275887
 30
0.0
 11
-114.85507693445371
 21
-85.543271862275887
 31
0.0
 12
-115.35507693445371
 22
-88.543271862275887
 32
0.0
 13
-115.35507693445371
 23
-88.543271862275887
 33
0.0
  0
SOLID
  5
1C0C
  8
SAPA_MATT
 10
-115.85507693445371
 20
-28.043271862835461
 30
0.0
 11
-114.85507693445371
 21
-28.043271862835461
 31
0.0
 12
-115.35507693445371
 22
-25.043271862835461
 32
0.0
 13
-115.35507693445371
 23
-25.043271862835461
 33
0.0
  0
INSERT
  5
1C0D
  8
0
  2
*U175
 10
0.0
 20
0.0
 30
0.0
  0
POINT
  5
1C0E
  8
DEFPOINTS
 62
     0
 10
-67.229423760639293
 20
-88.543271862275915
 30
0.0
  0
POINT
  5
1C0F
  8
DEFPOINTS
 62
     0
 10
-81.829425158612935
 20
-25.043271862835471
 30
0.0
  0
POINT
  5
1C10
  8
DEFPOINTS
 62
     0
 10
-115.35507693445371
 20
-25.043271862835461
 30
0.0
  0
ENDBLK
  5
1BFE
  8
0
  0
BLOCK
  8
0
  2
*U160
 70
     1
 10
0.0
 20
0.0
 30
0.0
  3
*U160
  1

  0
TEXT
  5
1CC1
  8
SAPA_ARTIKELNR
 10
70.047323601623702
 20
-6.542025809229548
 30
0.0
 40
3.5
  1
68654
 50
89.999999999999986
  7
ISO
  0
ENDBLK
  5
1CC3
  8
0
  0
BLOCK
  8
0
  2
*U161
 70
     1
 10
0.0
 20
0.0
 30
0.0
  3
*U161
  1

  0
TEXT
  5
1CC5
  8
SAPA_ARTIKELNR
 10
-89.206322519564083
 20
-6.1348376276667906
 30
0.0
 40
3.5
  1
42657
 50
89.999999999999986
  7
ISO
  0
ENDBLK
  5
1CC7
  8
0
  0
BLOCK
  8
0
  2
*U162
 70
     1
 10
0.0
 20
0.0
 30
0.0
  3
*U162
  1

  0
TEXT
  5
1CC9
  8
SAPA_ARTIKELNR
 10
-97.966053788171848
 20
-6.1348376276667933
 30
0.0
 40
3.5
  1
42227
 50
89.999999999999986
  7
ISO
  0
ENDBLK
  5
1CCB
  8
0
  0
BLOCK
  8
0
  2
*U163
 70
     1
 10
0.0
 20
0.0
 30
0.0
  3
*U163
  1

  0
TEXT
  5
1CF2
  8
SAPA_ARTIKELNR
 10
15.477408919593699
 20
-46.74891679101087
 30
0.0
 40
3.5
  1
86102
 50
270.0
  7
ISO
  0
ENDBLK
  5
1CF4
  8
0
  0
BLOCK
  8
0
  2
*U164
 70
     1
 10
0.0
 20
0.0
 30
0.0
  3
*U164
  1

  0
TEXT
  5
1CF6
  8
SAPA_ARTIKELNR
 10
-9.6979206415328463
 20
-95.274048480007835
 30
0.0
 40
3.5
  1
42614/42138
 50
270.0
  7
ISO
  0
ENDBLK
  5
1CF8
  8
0
  0
BLOCK
  8
0
  2
*U165
 70
     1
 10
0.0
 20
0.0
 30
0.0
  3
*U165
  1

  0
TEXT
  5
1CFA
  8
SAPA_ARTIKELNR
 10
-10.28161877307252
 20
-138.8203636205607
 30
0.0
 40
3.5
  1
68059
 50
270.0
  7
ISO
  0
ENDBLK
  5
1CFC
  8
0
  0
BLOCK
  8
0
  2
*U166
 70
     1
 10
0.0
 20
0.0
 30
0.0
  3
*U166
  1

  0
TEXT
  5
1CFE
  8
SAPA_ARTIKELNR
 10
11.361261529586949
 20
-80.592532218084799
 30
0.0
 40
3.5
  1
42780
 50
270.0
  7
ISO
  0
ENDBLK
  5
1D00
  8
0
  0
BLOCK
  8
0
  2
*U167
 70
     1
 10
0.0
 20
0.0
 30
0.0
  3
*U167
  1

  0
SOLID
  5
2A15
  8
SAPA_FOGBAND
  6
CONTINUOUS
 62
     2
 10
-19.418479258133502
 20
-103.023675039265
 30
0.0
 11
-19.598756821906701
 21
-103.0983484511714
 31
0.0
 12
-19.238201694360299
 22
-103.0983484511714
 32
0.0
 13
-19.238201694360299
 23
-103.0983484511714
 33
0.0
210
0.0
220
0.0
230
1.0
  0
SOLID
  5
2A16
  8
SAPA_FOGBAND
  6
CONTINUOUS
 62
     2
 10
-19.598756821906701
 20
-103.0983484511714
 30
0.0
 11
-19.673430233813139
 21
-103.27862601494461
 31
0.0
 12
-19.163528282453861
 22
-103.27862601494461
 32
0.0
 13
-19.163528282453861
 23
-103.27862601494461
 33
0.0
210
0.0
220
0.0
230
1.0
  0
SOLID
  5
2A17
  8
SAPA_FOGBAND
  6
CONTINUOUS
 62
     2
 10
19.598756821906701
 20
-103.0983484511714
 30
0.0
 11
19.238201694360299
 21
-103.0983484511714
 31
0.0
 12
19.163528282453861
 22
-103.27862601494461
 32
0.0
 13
19.163528282453861
 23
-103.27862601494461
 33
0.0
210
0.0
220
0.0
230
-1.0
  0
SOLID
  5
2A18
  8
SAPA_FOGBAND
  6
CONTINUOUS
 62
     2
 10
19.598756821906701
 20
-103.45890357871779
 30
0.0
 11
19.238201694360299
 21
-103.45890357871779
 31
0.0
 12
19.418479258133502
 22
-103.5335769906243
 32
0.0
 13
19.418479258133502
 23
-103.5335769906243
 33
0.0
210
0.0
220
0.0
230
-1.0
  0
SOLID
  5
2A19
  8
SAPA_FOGBAND
  6
CONTINUOUS
 62
     2
 10
-19.673430233813139
 20
-103.27862601494461
 30
0.0
 11
-19.598756821906701
 21
-103.45890357871779
 31
0.0
 12
-19.238201694360299
 22
-103.45890357871779
 32
0.0
 13
-19.238201694360299
 23
-103.45890357871779
 33
0.0
210
0.0
220
0.0
230
1.0
  0
SOLID
  5
2A1A
  8
SAPA_FOGBAND
  6
CONTINUOUS
 62
     2
 10
19.673430233813139
 20
-103.27862601494461
 30
0.0
 11
19.163528282453861
 21
-103.27862601494461
 31
0.0
 12
19.238201694360299
 22
-103.45890357871779
 32
0.0
 13
19.238201694360299
 23
-103.45890357871779
 33
0.0
210
0.0
220
0.0
230
-1.0
  0
LINE
  5
2A1B
  8
SAPA_FOGBAND
  6
CONTINUOUS
 62
     2
 10
-19.418479258133502
 20
-103.023675039265
 30
0.0
 11
-19.598756821906701
 21
-103.0983484511714
 31
0.0
  0
LINE
  5
2A1C
  8
SAPA_FOGBAND
  6
CONTINUOUS
 62
     2
 10
-19.238201694360299
 20
-103.0983484511714
 30
0.0
 11
-19.418479258133502
 21
-103.023675039265
 31
0.0
  0
LINE
  5
2A1D
  8
SAPA_FOGBAND
  6
CONTINUOUS
 62
     2
 10
-19.598756821906701
 20
-103.0983484511714
 30
0.0
 11
-19.673430233813139
 21
-103.27862601494461
 31
0.0
  0
LINE
  5
2A1E
  8
SAPA_FOGBAND
  6
CONTINUOUS
 62
     2
 10
-19.238201694360299
 20
-103.0983484511714
 30
0.0
 11
-19.163528282453861
 21
-103.27862601494461
 31
0.0
  0
LINE
  5
2A1F
  8
SAPA_FOGBAND
  6
CONTINUOUS
 62
     2
 10
-19.238201694360299
 20
-103.45890357871779
 30
0.0
 11
-19.418479258133502
 21
-103.5335769906243
 31
0.0
  0
LINE
  5
2A20
  8
SAPA_FOGBAND
  6
CONTINUOUS
 62
     2
 10
-19.418479258133502
 20
-103.5335769906243
 30
0.0
 11
-19.598756821906701
 21
-103.45890357871779
 31
0.0
  0
LINE
  5
2A21
  8
SAPA_FOGBAND
  6
CONTINUOUS
 62
     2
 10
-19.673430233813139
 20
-103.27862601494461
 30
0.0
 11
-19.598756821906701
 21
-103.45890357871779
 31
0.0
  0
LINE
  5
2A22
  8
SAPA_FOGBAND
  6
CONTINUOUS
 62
     2
 10
-19.163528282453861
 20
-103.27862601494461
 30
0.0
 11
-19.238201694360299
 21
-103.45890357871779
 31
0.0
  0
ENDBLK
  5
2A24
  8
0
  0
BLOCK
  8
0
  2
*U168
 70
     1
 10
0.0
 20
0.0
 30
0.0
  3
*U168
  1

  0
SOLID
  5
2A4F
  8
SAPA_FOGBAND
  6
CONTINUOUS
 62
     2
 10
-65.641460430919579
 20
-103.60162639021971
 30
0.0
 11
-65.821737994692782
 21
-103.6762998021261
 31
0.0
 12
-65.461182867146377
 22
-103.6762998021261
 32
0.0
 13
-65.461182867146377
 23
-103.6762998021261
 33
0.0
210
0.0
220
0.0
230
1.0
  0
SOLID
  5
2A50
  8
SAPA_FOGBAND
  6
CONTINUOUS
 62
     2
 10
-65.821737994692782
 20
-103.6762998021261
 30
0.0
 11
-65.896411406599213
 21
-103.8565773658993
 31
0.0
 12
-65.386509455239946
 22
-103.8565773658993
 32
0.0
 13
-65.386509455239946
 23
-103.8565773658993
 33
0.0
210
0.0
220
0.0
230
1.0
  0
SOLID
  5
2A51
  8
SAPA_FOGBAND
  6
CONTINUOUS
 62
     2
 10
65.821737994692782
 20
-103.6762998021261
 30
0.0
 11
65.461182867146377
 21
-103.6762998021261
 31
0.0
 12
65.386509455239946
 22
-103.8565773658993
 32
0.0
 13
65.386509455239946
 23
-103.8565773658993
 33
0.0
210
0.0
220
0.0
230
-1.0
  0
SOLID
  5
2A52
  8
SAPA_FOGBAND
  6
CONTINUOUS
 62
     2
 10
65.821737994692782
 20
-104.0368549296725
 30
0.0
 11
65.461182867146377
 21
-104.0368549296725
 31
0.0
 12
65.641460430919579
 22
-104.1115283415789
 32
0.0
 13
65.641460430919579
 23
-104.1115283415789
 33
0.0
210
0.0
220
0.0
230
-1.0
  0
SOLID
  5
2A53
  8
SAPA_FOGBAND
  6
CONTINUOUS
 62
     2
 10
-65.896411406599213
 20
-103.8565773658993
 30
0.0
 11
-65.821737994692782
 21
-104.0368549296725
 31
0.0
 12
-65.461182867146377
 22
-104.0368549296725
 32
0.0
 13
-65.461182867146377
 23
-104.0368549296725
 33
0.0
210
0.0
220
0.0
230
1.0
  0
SOLID
  5
2A54
  8
SAPA_FOGBAND
  6
CONTINUOUS
 62
     2
 10
65.896411406599213
 20
-103.8565773658993
 30
0.0
 11
65.386509455239946
 21
-103.8565773658993
 31
0.0
 12
65.461182867146377
 22
-104.0368549296725
 32
0.0
 13
65.461182867146377
 23
-104.0368549296725
 33
0.0
210
0.0
220
0.0
230
-1.0
  0
LINE
  5
2A55
  8
SAPA_FOGBAND
  6
CONTINUOUS
 62
     2
 10
-65.641460430919579
 20
-103.60162639021971
 30
0.0
 11
-65.821737994692782
 21
-103.6762998021261
 31
0.0
  0
LINE
  5
2A56
  8
SAPA_FOGBAND
  6
CONTINUOUS
 62
     2
 10
-65.461182867146377
 20
-103.6762998021261
 30
0.0
 11
-65.641460430919579
 21
-103.60162639021971
 31
0.0
  0
LINE
  5
2A57
  8
SAPA_FOGBAND
  6
CONTINUOUS
 62
     2
 10
-65.821737994692782
 20
-103.6762998021261
 30
0.0
 11
-65.896411406599213
 21
-103.8565773658993
 31
0.0
  0
LINE
  5
2A58
  8
SAPA_FOGBAND
  6
CONTINUOUS
 62
     2
 10
-65.461182867146377
 20
-103.6762998021261
 30
0.0
 11
-65.386509455239946
 21
-103.8565773658993
 31
0.0
  0
LINE
  5
2A59
  8
SAPA_FOGBAND
  6
CONTINUOUS
 62
     2
 10
-65.461182867146377
 20
-104.0368549296725
 30
0.0
 11
-65.641460430919579
 21
-104.1115283415789
 31
0.0
  0
LINE
  5
2A5A
  8
SAPA_FOGBAND
  6
CONTINUOUS
 62
     2
 10
-65.641460430919579
 20
-104.1115283415789
 30
0.0
 11
-65.821737994692782
 21
-104.0368549296725
 31
0.0
  0
LINE
  5
2A5B
  8
SAPA_FOGBAND
  6
CONTINUOUS
 62
     2
 10
-65.896411406599213
 20
-103.8565773658993
 30
0.0
 11
-65.821737994692782
 21
-104.0368549296725
 31
0.0
  0
LINE
  5
2A5C
  8
SAPA_FOGBAND
  6
CONTINUOUS
 62
     2
 10
-65.386509455239946
 20
-103.8565773658993
 30
0.0
 11
-65.461182867146377
 21
-104.0368549296725
 31
0.0
  0
ENDBLK
  5
2A5E
  8
0
  0
BLOCK
  8
0
  2
*U169
 70
     1
 10
0.0
 20
0.0
 30
0.0
  3
*U169
  1

  0
SOLID
  5
2A65
  8
SAPA_FOGBAND
  6
CONTINUOUS
 10
-74.666991939389959
 20
-18.405166088534219
 30
0.0
 11
-74.847269503163162
 21
-18.479839500440661
 31
0.0
 12
-74.486714375616756
 22
-18.479839500440661
 32
0.0
 13
-74.486714375616756
 23
-18.479839500440661
 33
0.0
210
0.0
220
0.0
230
1.0
  0
SOLID
  5
2A66
  8
SAPA_FOGBAND
  6
CONTINUOUS
 10
-74.847269503163162
 20
-18.479839500440661
 30
0.0
 11
-74.921942915069593
 21
-18.660117064213861
 31
0.0
 12
-74.412040963710325
 22
-18.660117064213861
 32
0.0
 13
-74.412040963710325
 23
-18.660117064213861
 33
0.0
210
0.0
220
0.0
230
1.0
  0
SOLID
  5
2A67
  8
SAPA_FOGBAND
  6
CONTINUOUS
 10
74.847269503163162
 20
-18.479839500440661
 30
0.0
 11
74.486714375616756
 21
-18.479839500440661
 31
0.0
 12
74.412040963710325
 22
-18.660117064213861
 32
0.0
 13
74.412040963710325
 23
-18.660117064213861
 33
0.0
210
0.0
220
0.0
230
-1.0
  0
SOLID
  5
2A68
  8
SAPA_FOGBAND
  6
CONTINUOUS
 10
74.847269503163162
 20
-18.84039462798706
 30
0.0
 11
74.486714375616756
 21
-18.84039462798706
 31
0.0
 12
74.666991939389959
 22
-18.915068039893502
 32
0.0
 13
74.666991939389959
 23
-18.915068039893502
 33
0.0
210
0.0
220
0.0
230
-1.0
  0
SOLID
  5
2A69
  8
SAPA_FOGBAND
  6
CONTINUOUS
 10
-74.921942915069593
 20
-18.660117064213861
 30
0.0
 11
-74.847269503163162
 21
-18.84039462798706
 31
0.0
 12
-74.486714375616756
 22
-18.84039462798706
 32
0.0
 13
-74.486714375616756
 23
-18.84039462798706
 33
0.0
210
0.0
220
0.0
230
1.0
  0
SOLID
  5
2A6A
  8
SAPA_FOGBAND
  6
CONTINUOUS
 10
74.921942915069593
 20
-18.660117064213861
 30
0.0
 11
74.412040963710325
 21
-18.660117064213861
 31
0.0
 12
74.486714375616756
 22
-18.84039462798706
 32
0.0
 13
74.486714375616756
 23
-18.84039462798706
 33
0.0
210
0.0
220
0.0
230
-1.0
  0
LINE
  5
2A6B
  8
SAPA_FOGBAND
  6
CONTINUOUS
 10
-74.666991939389959
 20
-18.405166088534219
 30
0.0
 11
-74.847269503163162
 21
-18.479839500440661
 31
0.0
  0
LINE
  5
2A6C
  8
SAPA_FOGBAND
  6
CONTINUOUS
 10
-74.486714375616756
 20
-18.479839500440661
 30
0.0
 11
-74.666991939389959
 21
-18.405166088534219
 31
0.0
  0
LINE
  5
2A6D
  8
SAPA_FOGBAND
  6
CONTINUOUS
 10
-74.847269503163162
 20
-18.479839500440661
 30
0.0
 11
-74.921942915069593
 21
-18.660117064213861
 31
0.0
  0
LINE
  5
2A6E
  8
SAPA_FOGBAND
  6
CONTINUOUS
 10
-74.486714375616756
 20
-18.479839500440661
 30
0.0
 11
-74.412040963710325
 21
-18.660117064213861
 31
0.0
  0
LINE
  5
2A6F
  8
SAPA_FOGBAND
  6
CONTINUOUS
 10
-74.486714375616756
 20
-18.84039462798706
 30
0.0
 11
-74.666991939389959
 21
-18.915068039893502
 31
0.0
  0
LINE
  5
2A70
  8
SAPA_FOGBAND
  6
CONTINUOUS
 10
-74.666991939389959
 20
-18.915068039893502
 30
0.0
 11
-74.847269503163162
 21
-18.84039462798706
 31
0.0
  0
LINE
  5
2A71
  8
SAPA_FOGBAND
  6
CONTINUOUS
 10
-74.921942915069593
 20
-18.660117064213861
 30
0.0
 11
-74.847269503163162
 21
-18.84039462798706
 31
0.0
  0
LINE
  5
2A72
  8
SAPA_FOGBAND
  6
CONTINUOUS
 10
-74.412040963710325
 20
-18.660117064213861
 30
0.0
 11
-74.486714375616756
 21
-18.84039462798706
 31
0.0
  0
ENDBLK
  5
2A74
  8
0
  0
BLOCK
  8
0
  2
*U170
 70
     1
 10
0.0
 20
0.0
 30
0.0
  3
*U170
  1

  0
SOLID
  5
2AE1
  8
SAPA_FOGBAND
  6
CONTINUOUS
 10
-74.637568219765171
 20
18.88430777128233
 30
0.0
 11
-74.817845783538374
 21
18.809634359375892
 31
0.0
 12
-74.457290655991969
 22
18.809634359375892
 32
0.0
 13
-74.457290655991969
 23
18.809634359375892
 33
0.0
210
0.0
220
0.0
230
1.0
  0
SOLID
  5
2AE2
  8
SAPA_FOGBAND
  6
CONTINUOUS
 10
-74.817845783538374
 20
18.809634359375892
 30
0.0
 11
-74.892519195444805
 21
18.629356795602689
 31
0.0
 12
-74.382617244085537
 22
18.629356795602689
 32
0.0
 13
-74.382617244085537
 23
18.629356795602689
 33
0.0
210
0.0
220
0.0
230
1.0
  0
SOLID
  5
2AE3
  8
SAPA_FOGBAND
  6
CONTINUOUS
 10
74.817845783538374
 20
18.809634359375892
 30
0.0
 11
74.457290655991969
 21
18.809634359375892
 31
0.0
 12
74.382617244085537
 22
18.629356795602689
 32
0.0
 13
74.382617244085537
 23
18.629356795602689
 33
0.0
210
0.0
220
0.0
230
-1.0
  0
SOLID
  5
2AE4
  8
SAPA_FOGBAND
  6
CONTINUOUS
 10
74.817845783538374
 20
18.44907923182949
 30
0.0
 11
74.457290655991969
 21
18.44907923182949
 31
0.0
 12
74.637568219765171
 22
18.374405819923052
 32
0.0
 13
74.637568219765171
 23
18.374405819923052
 33
0.0
210
0.0
220
0.0
230
-1.0
  0
SOLID
  5
2AE5
  8
SAPA_FOGBAND
  6
CONTINUOUS
 10
-74.892519195444805
 20
18.629356795602689
 30
0.0
 11
-74.817845783538374
 21
18.44907923182949
 31
0.0
 12
-74.457290655991969
 22
18.44907923182949
 32
0.0
 13
-74.457290655991969
 23
18.44907923182949
 33
0.0
210
0.0
220
0.0
230
1.0
  0
SOLID
  5
2AE6
  8
SAPA_FOGBAND
  6
CONTINUOUS
 10
74.892519195444805
 20
18.629356795602689
 30
0.0
 11
74.382617244085537
 21
18.629356795602689
 31
0.0
 12
74.457290655991969
 22
18.44907923182949
 32
0.0
 13
74.457290655991969
 23
18.44907923182949
 33
0.0
210
0.0
220
0.0
230
-1.0
  0
LINE
  5
2AE7
  8
SAPA_FOGBAND
  6
CONTINUOUS
 10
-74.637568219765171
 20
18.88430777128233
 30
0.0
 11
-74.817845783538374
 21
18.809634359375892
 31
0.0
  0
LINE
  5
2AE8
  8
SAPA_FOGBAND
  6
CONTINUOUS
 10
-74.457290655991969
 20
18.809634359375892
 30
0.0
 11
-74.637568219765171
 21
18.88430777128233
 31
0.0
  0
LINE
  5
2AE9
  8
SAPA_FOGBAND
  6
CONTINUOUS
 10
-74.817845783538374
 20
18.809634359375892
 30
0.0
 11
-74.892519195444805
 21
18.629356795602689
 31
0.0
  0
LINE
  5
2AEA
  8
SAPA_FOGBAND
  6
CONTINUOUS
 10
-74.457290655991969
 20
18.809634359375892
 30
0.0
 11
-74.382617244085537
 21
18.629356795602689
 31
0.0
  0
LINE
  5
2AEB
  8
SAPA_FOGBAND
  6
CONTINUOUS
 10
-74.457290655991969
 20
18.44907923182949
 30
0.0
 11
-74.637568219765171
 21
18.374405819923052
 31
0.0
  0
LINE
  5
2AEC
  8
SAPA_FOGBAND
  6
CONTINUOUS
 10
-74.637568219765171
 20
18.374405819923052
 30
0.0
 11
-74.817845783538374
 21
18.44907923182949
 31
0.0
  0
LINE
  5
2AED
  8
SAPA_FOGBAND
  6
CONTINUOUS
 10
-74.892519195444805
 20
18.629356795602689
 30
0.0
 11
-74.817845783538374
 21
18.44907923182949
 31
0.0
  0
LINE
  5
2AEE
  8
SAPA_FOGBAND
  6
CONTINUOUS
 10
-74.382617244085537
 20
18.629356795602689
 30
0.0
 11
-74.457290655991969
 21
18.44907923182949
 31
0.0
  0
ENDBLK
  5
2AF0
  8
0
  0
BLOCK
  8
0
  2
*U171
 70
     1
 10
0.0
 20
0.0
 30
0.0
  3
*U171
  1

  0
SOLID
  5
2BF8
  8
SAPA_FOGBAND
  6
CONTINUOUS
 62
     2
 10
-19.418479258133502
 20
-103.023675039265
 30
0.0
 11
-19.598756821906701
 21
-103.0983484511714
 31
0.0
 12
-19.238201694360299
 22
-103.0983484511714
 32
0.0
 13
-19.238201694360299
 23
-103.0983484511714
 33
0.0
210
0.0
220
0.0
230
1.0
  0
SOLID
  5
2BF9
  8
SAPA_FOGBAND
  6
CONTINUOUS
 62
     2
 10
-19.598756821906701
 20
-103.0983484511714
 30
0.0
 11
-19.673430233813139
 21
-103.27862601494461
 31
0.0
 12
-19.163528282453861
 22
-103.27862601494461
 32
0.0
 13
-19.163528282453861
 23
-103.27862601494461
 33
0.0
210
0.0
220
0.0
230
1.0
  0
SOLID
  5
2BFA
  8
SAPA_FOGBAND
  6
CONTINUOUS
 62
     2
 10
19.598756821906701
 20
-103.0983484511714
 30
0.0
 11
19.238201694360299
 21
-103.0983484511714
 31
0.0
 12
19.163528282453861
 22
-103.27862601494461
 32
0.0
 13
19.163528282453861
 23
-103.27862601494461
 33
0.0
210
0.0
220
0.0
230
-1.0
  0
SOLID
  5
2BFB
  8
SAPA_FOGBAND
  6
CONTINUOUS
 62
     2
 10
19.598756821906701
 20
-103.45890357871779
 30
0.0
 11
19.238201694360299
 21
-103.45890357871779
 31
0.0
 12
19.418479258133502
 22
-103.5335769906243
 32
0.0
 13
19.418479258133502
 23
-103.5335769906243
 33
0.0
210
0.0
220
0.0
230
-1.0
  0
SOLID
  5
2BFC
  8
SAPA_FOGBAND
  6
CONTINUOUS
 62
     2
 10
-19.673430233813139
 20
-103.27862601494461
 30
0.0
 11
-19.598756821906701
 21
-103.45890357871779
 31
0.0
 12
-19.238201694360299
 22
-103.45890357871779
 32
0.0
 13
-19.238201694360299
 23
-103.45890357871779
 33
0.0
210
0.0
220
0.0
230
1.0
  0
SOLID
  5
2BFD
  8
SAPA_FOGBAND
  6
CONTINUOUS
 62
     2
 10
19.673430233813139
 20
-103.27862601494461
 30
0.0
 11
19.163528282453861
 21
-103.27862601494461
 31
0.0
 12
19.238201694360299
 22
-103.45890357871779
 32
0.0
 13
19.238201694360299
 23
-103.45890357871779
 33
0.0
210
0.0
220
0.0
230
-1.0
  0
LINE
  5
2BFE
  8
SAPA_FOGBAND
  6
CONTINUOUS
 62
     2
 10
-19.418479258133502
 20
-103.023675039265
 30
0.0
 11
-19.598756821906701
 21
-103.0983484511714
 31
0.0
  0
LINE
  5
2BFF
  8
SAPA_FOGBAND
  6
CONTINUOUS
 62
     2
 10
-19.238201694360299
 20
-103.0983484511714
 30
0.0
 11
-19.418479258133502
 21
-103.023675039265
 31
0.0
  0
LINE
  5
2C00
  8
SAPA_FOGBAND
  6
CONTINUOUS
 62
     2
 10
-19.598756821906701
 20
-103.0983484511714
 30
0.0
 11
-19.673430233813139
 21
-103.27862601494461
 31
0.0
  0
LINE
  5
2C01
  8
SAPA_FOGBAND
  6
CONTINUOUS
 62
     2
 10
-19.238201694360299
 20
-103.0983484511714
 30
0.0
 11
-19.163528282453861
 21
-103.27862601494461
 31
0.0
  0
LINE
  5
2C02
  8
SAPA_FOGBAND
  6
CONTINUOUS
 62
     2
 10
-19.238201694360299
 20
-103.45890357871779
 30
0.0
 11
-19.418479258133502
 21
-103.5335769906243
 31
0.0
  0
LINE
  5
2C03
  8
SAPA_FOGBAND
  6
CONTINUOUS
 62
     2
 10
-19.418479258133502
 20
-103.5335769906243
 30
0.0
 11
-19.598756821906701
 21
-103.45890357871779
 31
0.0
  0
LINE
  5
2C04
  8
SAPA_FOGBAND
  6
CONTINUOUS
 62
     2
 10
-19.673430233813139
 20
-103.27862601494461
 30
0.0
 11
-19.598756821906701
 21
-103.45890357871779
 31
0.0
  0
LINE
  5
2C05
  8
SAPA_FOGBAND
  6
CONTINUOUS
 62
     2
 10
-19.163528282453861
 20
-103.27862601494461
 30
0.0
 11
-19.238201694360299
 21
-103.45890357871779
 31
0.0
  0
ENDBLK
  5
2C07
  8
0
  0
BLOCK
  8
0
  2
*U172
 70
     1
 10
0.0
 20
0.0
 30
0.0
  3
*U172
  1

  0
SOLID
  5
2C32
  8
SAPA_FOGBAND
  6
CONTINUOUS
 62
     2
 10
-65.641460430919579
 20
-103.60162639021971
 30
0.0
 11
-65.821737994692782
 21
-103.6762998021261
 31
0.0
 12
-65.461182867146377
 22
-103.6762998021261
 32
0.0
 13
-65.461182867146377
 23
-103.6762998021261
 33
0.0
210
0.0
220
0.0
230
1.0
  0
SOLID
  5
2C33
  8
SAPA_FOGBAND
  6
CONTINUOUS
 62
     2
 10
-65.821737994692782
 20
-103.6762998021261
 30
0.0
 11
-65.896411406599213
 21
-103.8565773658993
 31
0.0
 12
-65.386509455239946
 22
-103.8565773658993
 32
0.0
 13
-65.386509455239946
 23
-103.8565773658993
 33
0.0
210
0.0
220
0.0
230
1.0
  0
SOLID
  5
2C34
  8
SAPA_FOGBAND
  6
CONTINUOUS
 62
     2
 10
65.821737994692782
 20
-103.6762998021261
 30
0.0
 11
65.461182867146377
 21
-103.6762998021261
 31
0.0
 12
65.386509455239946
 22
-103.8565773658993
 32
0.0
 13
65.386509455239946
 23
-103.8565773658993
 33
0.0
210
0.0
220
0.0
230
-1.0
  0
SOLID
  5
2C35
  8
SAPA_FOGBAND
  6
CONTINUOUS
 62
     2
 10
65.821737994692782
 20
-104.0368549296725
 30
0.0
 11
65.461182867146377
 21
-104.0368549296725
 31
0.0
 12
65.641460430919579
 22
-104.1115283415789
 32
0.0
 13
65.641460430919579
 23
-104.1115283415789
 33
0.0
210
0.0
220
0.0
230
-1.0
  0
SOLID
  5
2C36
  8
SAPA_FOGBAND
  6
CONTINUOUS
 62
     2
 10
-65.896411406599213
 20
-103.8565773658993
 30
0.0
 11
-65.821737994692782
 21
-104.0368549296725
 31
0.0
 12
-65.461182867146377
 22
-104.0368549296725
 32
0.0
 13
-65.461182867146377
 23
-104.0368549296725
 33
0.0
210
0.0
220
0.0
230
1.0
  0
SOLID
  5
2C37
  8
SAPA_FOGBAND
  6
CONTINUOUS
 62
     2
 10
65.896411406599213
 20
-103.8565773658993
 30
0.0
 11
65.386509455239946
 21
-103.8565773658993
 31
0.0
 12
65.461182867146377
 22
-104.0368549296725
 32
0.0
 13
65.461182867146377
 23
-104.0368549296725
 33
0.0
210
0.0
220
0.0
230
-1.0
  0
LINE
  5
2C38
  8
SAPA_FOGBAND
  6
CONTINUOUS
 62
     2
 10
-65.641460430919579
 20
-103.60162639021971
 30
0.0
 11
-65.821737994692782
 21
-103.6762998021261
 31
0.0
  0
LINE
  5
2C39
  8
SAPA_FOGBAND
  6
CONTINUOUS
 62
     2
 10
-65.461182867146377
 20
-103.6762998021261
 30
0.0
 11
-65.641460430919579
 21
-103.60162639021971
 31
0.0
  0
LINE
  5
2C3A
  8
SAPA_FOGBAND
  6
CONTINUOUS
 62
     2
 10
-65.821737994692782
 20
-103.6762998021261
 30
0.0
 11
-65.896411406599213
 21
-103.8565773658993
 31
0.0
  0
LINE
  5
2C3B
  8
SAPA_FOGBAND
  6
CONTINUOUS
 62
     2
 10
-65.461182867146377
 20
-103.6762998021261
 30
0.0
 11
-65.386509455239946
 21
-103.8565773658993
 31
0.0
  0
LINE
  5
2C3C
  8
SAPA_FOGBAND
  6
CONTINUOUS
 62
     2
 10
-65.461182867146377
 20
-104.0368549296725
 30
0.0
 11
-65.641460430919579
 21
-104.1115283415789
 31
0.0
  0
LINE
  5
2C3D
  8
SAPA_FOGBAND
  6
CONTINUOUS
 62
     2
 10
-65.641460430919579
 20
-104.1115283415789
 30
0.0
 11
-65.821737994692782
 21
-104.0368549296725
 31
0.0
  0
LINE
  5
2C3E
  8
SAPA_FOGBAND
  6
CONTINUOUS
 62
     2
 10
-65.896411406599213
 20
-103.8565773658993
 30
0.0
 11
-65.821737994692782
 21
-104.0368549296725
 31
0.0
  0
LINE
  5
2C3F
  8
SAPA_FOGBAND
  6
CONTINUOUS
 62
     2
 10
-65.386509455239946
 20
-103.8565773658993
 30
0.0
 11
-65.461182867146377
 21
-104.0368549296725
 31
0.0
  0
ENDBLK
  5
2C41
  8
0
  0
BLOCK
  8
0
  2
*U173
 70
     1
 10
0.0
 20
0.0
 30
0.0
  3
*U173
  1

  0
SOLID
  5
2C48
  8
SAPA_FOGBAND
  6
CONTINUOUS
 10
-74.666991939389959
 20
-18.405166088534219
 30
0.0
 11
-74.847269503163162
 21
-18.479839500440661
 31
0.0
 12
-74.486714375616756
 22
-18.479839500440661
 32
0.0
 13
-74.486714375616756
 23
-18.479839500440661
 33
0.0
210
0.0
220
0.0
230
1.0
  0
SOLID
  5
2C49
  8
SAPA_FOGBAND
  6
CONTINUOUS
 10
-74.847269503163162
 20
-18.479839500440661
 30
0.0
 11
-74.921942915069593
 21
-18.660117064213861
 31
0.0
 12
-74.412040963710325
 22
-18.660117064213861
 32
0.0
 13
-74.412040963710325
 23
-18.660117064213861
 33
0.0
210
0.0
220
0.0
230
1.0
  0
SOLID
  5
2C4A
  8
SAPA_FOGBAND
  6
CONTINUOUS
 10
74.847269503163162
 20
-18.479839500440661
 30
0.0
 11
74.486714375616756
 21
-18.479839500440661
 31
0.0
 12
74.412040963710325
 22
-18.660117064213861
 32
0.0
 13
74.412040963710325
 23
-18.660117064213861
 33
0.0
210
0.0
220
0.0
230
-1.0
  0
SOLID
  5
2C4B
  8
SAPA_FOGBAND
  6
CONTINUOUS
 10
74.847269503163162
 20
-18.84039462798706
 30
0.0
 11
74.486714375616756
 21
-18.84039462798706
 31
0.0
 12
74.666991939389959
 22
-18.915068039893502
 32
0.0
 13
74.666991939389959
 23
-18.915068039893502
 33
0.0
210
0.0
220
0.0
230
-1.0
  0
SOLID
  5
2C4C
  8
SAPA_FOGBAND
  6
CONTINUOUS
 10
-74.921942915069593
 20
-18.660117064213861
 30
0.0
 11
-74.847269503163162
 21
-18.84039462798706
 31
0.0
 12
-74.486714375616756
 22
-18.84039462798706
 32
0.0
 13
-74.486714375616756
 23
-18.84039462798706
 33
0.0
210
0.0
220
0.0
230
1.0
  0
SOLID
  5
2C4D
  8
SAPA_FOGBAND
  6
CONTINUOUS
 10
74.921942915069593
 20
-18.660117064213861
 30
0.0
 11
74.412040963710325
 21
-18.660117064213861
 31
0.0
 12
74.486714375616756
 22
-18.84039462798706
 32
0.0
 13
74.486714375616756
 23
-18.84039462798706
 33
0.0
210
0.0
220
0.0
230
-1.0
  0
LINE
  5
2C4E
  8
SAPA_FOGBAND
  6
CONTINUOUS
 10
-74.666991939389959
 20
-18.405166088534219
 30
0.0
 11
-74.847269503163162
 21
-18.479839500440661
 31
0.0
  0
LINE
  5
2C4F
  8
SAPA_FOGBAND
  6
CONTINUOUS
 10
-74.486714375616756
 20
-18.479839500440661
 30
0.0
 11
-74.666991939389959
 21
-18.405166088534219
 31
0.0
  0
LINE
  5
2C50
  8
SAPA_FOGBAND
  6
CONTINUOUS
 10
-74.847269503163162
 20
-18.479839500440661
 30
0.0
 11
-74.921942915069593
 21
-18.660117064213861
 31
0.0
  0
LINE
  5
2C51
  8
SAPA_FOGBAND
  6
CONTINUOUS
 10
-74.486714375616756
 20
-18.479839500440661
 30
0.0
 11
-74.412040963710325
 21
-18.660117064213861
 31
0.0
  0
LINE
  5
2C52
  8
SAPA_FOGBAND
  6
CONTINUOUS
 10
-74.486714375616756
 20
-18.84039462798706
 30
0.0
 11
-74.666991939389959
 21
-18.915068039893502
 31
0.0
  0
LINE
  5
2C53
  8
SAPA_FOGBAND
  6
CONTINUOUS
 10
-74.666991939389959
 20
-18.915068039893502
 30
0.0
 11
-74.847269503163162
 21
-18.84039462798706
 31
0.0
  0
LINE
  5
2C54
  8
SAPA_FOGBAND
  6
CONTINUOUS
 10
-74.921942915069593
 20
-18.660117064213861
 30
0.0
 11
-74.847269503163162
 21
-18.84039462798706
 31
0.0
  0
LINE
  5
2C55
  8
SAPA_FOGBAND
  6
CONTINUOUS
 10
-74.412040963710325
 20
-18.660117064213861
 30
0.0
 11
-74.486714375616756
 21
-18.84039462798706
 31
0.0
  0
ENDBLK
  5
2C57
  8
0
  0
BLOCK
  8
0
  2
*U174
 70
     1
 10
0.0
 20
0.0
 30
0.0
  3
*U174
  1

  0
SOLID
  5
2CC4
  8
SAPA_FOGBAND
  6
CONTINUOUS
 10
-74.637568219765171
 20
18.88430777128233
 30
0.0
 11
-74.817845783538374
 21
18.809634359375892
 31
0.0
 12
-74.457290655991969
 22
18.809634359375892
 32
0.0
 13
-74.457290655991969
 23
18.809634359375892
 33
0.0
210
0.0
220
0.0
230
1.0
  0
SOLID
  5
2CC5
  8
SAPA_FOGBAND
  6
CONTINUOUS
 10
-74.817845783538374
 20
18.809634359375892
 30
0.0
 11
-74.892519195444805
 21
18.629356795602689
 31
0.0
 12
-74.382617244085537
 22
18.629356795602689
 32
0.0
 13
-74.382617244085537
 23
18.629356795602689
 33
0.0
210
0.0
220
0.0
230
1.0
  0
SOLID
  5
2CC6
  8
SAPA_FOGBAND
  6
CONTINUOUS
 10
74.817845783538374
 20
18.809634359375892
 30
0.0
 11
74.457290655991969
 21
18.809634359375892
 31
0.0
 12
74.382617244085537
 22
18.629356795602689
 32
0.0
 13
74.382617244085537
 23
18.629356795602689
 33
0.0
210
0.0
220
0.0
230
-1.0
  0
SOLID
  5
2CC7
  8
SAPA_FOGBAND
  6
CONTINUOUS
 10
74.817845783538374
 20
18.44907923182949
 30
0.0
 11
74.457290655991969
 21
18.44907923182949
 31
0.0
 12
74.637568219765171
 22
18.374405819923052
 32
0.0
 13
74.637568219765171
 23
18.374405819923052
 33
0.0
210
0.0
220
0.0
230
-1.0
  0
SOLID
  5
2CC8
  8
SAPA_FOGBAND
  6
CONTINUOUS
 10
-74.892519195444805
 20
18.629356795602689
 30
0.0
 11
-74.817845783538374
 21
18.44907923182949
 31
0.0
 12
-74.457290655991969
 22
18.44907923182949
 32
0.0
 13
-74.457290655991969
 23
18.44907923182949
 33
0.0
210
0.0
220
0.0
230
1.0
  0
SOLID
  5
2CC9
  8
SAPA_FOGBAND
  6
CONTINUOUS
 10
74.892519195444805
 20
18.629356795602689
 30
0.0
 11
74.382617244085537
 21
18.629356795602689
 31
0.0
 12
74.457290655991969
 22
18.44907923182949
 32
0.0
 13
74.457290655991969
 23
18.44907923182949
 33
0.0
210
0.0
220
0.0
230
-1.0
  0
LINE
  5
2CCA
  8
SAPA_FOGBAND
  6
CONTINUOUS
 10
-74.637568219765171
 20
18.88430777128233
 30
0.0
 11
-74.817845783538374
 21
18.809634359375892
 31
0.0
  0
LINE
  5
2CCB
  8
SAPA_FOGBAND
  6
CONTINUOUS
 10
-74.457290655991969
 20
18.809634359375892
 30
0.0
 11
-74.637568219765171
 21
18.88430777128233
 31
0.0
  0
LINE
  5
2CCC
  8
SAPA_FOGBAND
  6
CONTINUOUS
 10
-74.817845783538374
 20
18.809634359375892
 30
0.0
 11
-74.892519195444805
 21
18.629356795602689
 31
0.0
  0
LINE
  5
2CCD
  8
SAPA_FOGBAND
  6
CONTINUOUS
 10
-74.457290655991969
 20
18.809634359375892
 30
0.0
 11
-74.382617244085537
 21
18.629356795602689
 31
0.0
  0
LINE
  5
2CCE
  8
SAPA_FOGBAND
  6
CONTINUOUS
 10
-74.457290655991969
 20
18.44907923182949
 30
0.0
 11
-74.637568219765171
 21
18.374405819923052
 31
0.0
  0
LINE
  5
2CCF
  8
SAPA_FOGBAND
  6
CONTINUOUS
 10
-74.637568219765171
 20
18.374405819923052
 30
0.0
 11
-74.817845783538374
 21
18.44907923182949
 31
0.0
  0
LINE
  5
2CD0
  8
SAPA_FOGBAND
  6
CONTINUOUS
 10
-74.892519195444805
 20
18.629356795602689
 30
0.0
 11
-74.817845783538374
 21
18.44907923182949
 31
0.0
  0
LINE
  5
2CD1
  8
SAPA_FOGBAND
  6
CONTINUOUS
 10
-74.382617244085537
 20
18.629356795602689
 30
0.0
 11
-74.457290655991969
 21
18.44907923182949
 31
0.0
  0
ENDBLK
  5
2CD3
  8
0
  0
BLOCK
  8
0
  2
*U175
 70
     1
 10
0.0
 20
0.0
 30
0.0
  3
*U175
  1

  0
TEXT
  5
2DC9
  8
SAPA_MATT
 62
     2
 10
-116.35507693445371
 20
-60.393271862555693
 30
0.0
 40
3.0
  1
63.5
 50
90.0
  7
ISO
  0
ENDBLK
  5
2DCB
  8
0
  0
BLOCK
  8
0
  2
*U176
 70
     1
 10
0.0
 20
0.0
 30
0.0
  3
*U176
  1

  0
TEXT
  5
2DCD
  8
SAPA_MATT
 62
     2
 10
-116.3256531728245
 20
-2.1000000000003398
 30
0.0
 40
3.0
  1
50
 50
90.0
  7
ISO
  0
ENDBLK
  5
2DCF
  8
0
  0
ENDSEC
  0
SECTION
  2
ENTITIES
  0
POLYLINE
  5
835
  8
SAPA_LIGHT
 66
     1
 10
0.0
 20
0.0
 30
0.0
  0
VERTEX
  5
1C89
  8
SAPA_LIGHT
 10
-96.499999999010583
 20
24.99999999999973
 30
0.0
  0
VERTEX
  5
1C8A
  8
SAPA_LIGHT
 10
-72.499999999011749
 20
24.99999999999968
 30
0.0
  0
VERTEX
  5
1C8B
  8
SAPA_LIGHT
 10
-72.499999999011763
 20
5.000000000000524
 30
0.0
  0
VERTEX
  5
1C8C
  8
SAPA_LIGHT
 10
-35.500000000001137
 20
5.0000000000005169
 30
0.0
  0
VERTEX
  5
1C8D
  8
SAPA_LIGHT
 10
-35.500000000001933
 20
25.000000000000291
 30
0.0
  0
VERTEX
  5
1C8E
  8
SAPA_LIGHT
 10
64.499999999998892
 20
25.00000000000027
 30
0.0
  0
VERTEX
  5
1C8F
  8
SAPA_LIGHT
 10
64.499999999998892
 20
-24.99999999999973
 30
0.0
  0
VERTEX
  5
1C90
  8
SAPA_LIGHT
 10
-49.000000031211592
 20
-24.999999999999709
 30
0.0
  0
VERTEX
  5
1C91
  8
SAPA_LIGHT
 10
-49.000000031211577
 20
-4.999999999999706
 30
0.0
  0
VERTEX
  5
1C92
  8
SAPA_LIGHT
 10
-73.49999998637054
 20
-4.9999999999997016
 30
0.0
  0
VERTEX
  5
1C93
  8
SAPA_LIGHT
 10
-73.499999986370597
 20
-25.00000000000027
 30
0.0
  0
VERTEX
  5
1C94
  8
SAPA_LIGHT
 10
-96.499999999010583
 20
-25.00000000000027
 30
0.0
  0
VERTEX
  5
1C95
  8
SAPA_LIGHT
 10
-96.499999999010583
 20
24.99999999999973
 30
0.0
  0
SEQEND
  5
1C96
  8
SAPA_LIGHT
  0
POLYLINE
  5
837
  8
SAPA_LIGHT
 66
     1
 10
0.0
 20
0.0
 30
0.0
  0
VERTEX
  5
1C97
  8
SAPA_LIGHT
 10
0.5000000065477676
 20
-24.999999999999719
 30
0.0
  0
VERTEX
  5
1C98
  8
SAPA_LIGHT
 10
0.5000000065477585
 20
-76.000000000002444
 30
0.0
  0
VERTEX
  5
1C99
  8
SAPA_LIGHT
 10
-73.499999989503749
 20
-76.000000000002316
 30
0.0
  0
VERTEX
  5
1C9A
  8
SAPA_LIGHT
 10
-73.499999989503877
 20
-9.0000000000351719
 30
0.0
  0
VERTEX
  5
1C9B
  8
SAPA_LIGHT
 10
-49.000000031211577
 20
-9.0000000000351772
 30
0.0
  0
VERTEX
  5
1C9C
  8
SAPA_LIGHT
 10
-49.000000031215222
 20
-24.999999999999709
 30
0.0
  0
VERTEX
  5
1C9D
  8
SAPA_LIGHT
 10
0.5000000065477676
 20
-24.999999999999719
 30
0.0
  0
SEQEND
  5
1C9E
  8
SAPA_LIGHT
  0
POLYLINE
  5
839
  8
SAPA_LIGHT
 66
     1
 10
0.0
 20
0.0
 30
0.0
  0
VERTEX
  5
1C9F
  8
SAPA_LIGHT
 10
2.0000008731941108
 20
-72.83409818242211
 30
0.0
  0
VERTEX
  5
1CA0
  8
SAPA_LIGHT
 10
4.5000008731941401
 20
-72.83409818242211
 30
0.0
  0
VERTEX
  5
1CA1
  8
SAPA_LIGHT
 10
4.5000008731941401
 20
-81.500000076061426
 30
0.0
  0
VERTEX
  5
1CA2
  8
SAPA_LIGHT
 10
-6.0999991268057681
 20
-81.500000076061426
 30
0.0
  0
VERTEX
  5
1CA3
  8
SAPA_LIGHT
 10
-6.0999991268057681
 20
-113.07612046749151
 30
0.0
  0
VERTEX
  5
1CA4
  8
SAPA_LIGHT
 10
-66.90364052477949
 20
-113.07612046749151
 30
0.0
  0
VERTEX
  5
1CA5
  8
SAPA_LIGHT
 10
-66.90364052477976
 20
-81.500000076061426
 30
0.0
  0
VERTEX
  5
1CA6
  8
SAPA_LIGHT
 10
-77.499999126805875
 20
-81.500000076061312
 30
0.0
  0
VERTEX
  5
1CA7
  8
SAPA_LIGHT
 10
-77.499999126806046
 20
-73.058578719823956
 30
0.0
  0
VERTEX
  5
1CA8
  8
SAPA_LIGHT
 10
-74.999999126805861
 20
-73.058578719823956
 30
0.0
  0
VERTEX
  5
1CA9
  8
SAPA_LIGHT
 10
-74.999999126805889
 20
-76.000000000002316
 30
0.0
  0
VERTEX
  5
1CAA
  8
SAPA_LIGHT
 10
2.0000008731941108
 20
-76.00000007606144
 30
0.0
  0
VERTEX
  5
1CAB
  8
SAPA_LIGHT
 10
2.0000008731941108
 20
-72.83409818242211
 30
0.0
  0
SEQEND
  5
1CAC
  8
SAPA_LIGHT
  0
POLYLINE
  5
83A
  8
SAPA_LIGHT
 66
     1
 10
0.0
 20
0.0
 30
0.0
  0
VERTEX
  5
1CAD
  8
SAPA_LIGHT
 10
-6.4999990748423411
 20
-113.07612046749151
 30
0.0
  0
VERTEX
  5
1CAE
  8
SAPA_LIGHT
 10
-6.49999907484235
 20
-169.00000000000281
 30
0.0
  0
VERTEX
  5
1CAF
  8
SAPA_LIGHT
 10
-11.025592636620599
 20
-169.00000000000281
 30
0.0
  0
VERTEX
  5
1CB0
  8
SAPA_LIGHT
 10
-11.02559263662061
 20
-190.9209486166036
 30
0.0
  0
VERTEX
  5
1CB1
  8
SAPA_LIGHT
 10
-28.597515156488569
 20
-190.9209486166034
 30
0.0
  0
VERTEX
  5
1CB2
  8
SAPA_LIGHT
 10
-28.597515156488608
 20
-169.00000000000281
 30
0.0
  0
VERTEX
  5
1CB3
  8
SAPA_LIGHT
 10
-52.597515156488427
 20
-169.00000000000281
 30
0.0
  0
VERTEX
  5
1CB4
  8
SAPA_LIGHT
 10
-52.597515156488441
 20
-191.00000000000259
 30
0.0
  0
VERTEX
  5
1CB5
  8
SAPA_LIGHT
 10
-61.999999074842371
 20
-191.00000000000259
 30
0.0
  0
VERTEX
  5
1CB6
  8
SAPA_LIGHT
 10
-61.99999907484235
 20
-170.74264068712171
 30
0.0
  0
VERTEX
  5
1CB7
  8
SAPA_LIGHT
 10
-66.49999907484235
 20
-170.74264068712199
 30
0.0
  0
VERTEX
  5
1CB8
  8
SAPA_LIGHT
 10
-66.499999074842364
 20
-113.07612046749151
 30
0.0
  0
VERTEX
  5
1CB9
  8
SAPA_LIGHT
 10
-6.4999990748423411
 20
-113.07612046749151
 30
0.0
  0
SEQEND
  5
1CBA
  8
SAPA_LIGHT
  0
POLYLINE
  5
842
  8
SAPA_LIGHT
 66
     1
 10
0.0
 20
0.0
 30
0.0
  0
VERTEX
  5
1CBB
  8
SAPA_LIGHT
 10
-28.597515156488662
 20
-202.800000000003
 30
0.0
  0
VERTEX
  5
1CBC
  8
SAPA_LIGHT
 10
-28.597515156488431
 20
-174.00000000000321
 30
0.0
  0
VERTEX
  5
1CBD
  8
SAPA_LIGHT
 10
-52.597515156488427
 20
-174.00000000000321
 30
0.0
  0
VERTEX
  5
1CBE
  8
SAPA_LIGHT
 10
-52.597515156488441
 20
-202.800000000003
 30
0.0
  0
SEQEND
  5
1CBF
  8
SAPA_LIGHT
  0
INSERT
  5
844
  8
0
  2
*U160
 10
0.0
 20
0.0
 30
0.0
  0
INSERT
  5
845
  8
0
  2
*U161
 10
0.0
 20
0.0
 30
0.0
  0
INSERT
  5
846
  8
0
  2
*U162
 10
0.0
 20
0.0
 30
0.0
  0
POLYLINE
  5
8ED
  8
SAPA_LIGHT
 66
     1
 10
0.0
 20
0.0
 30
0.0
  0
VERTEX
  5
1CCC
  8
SAPA_LIGHT
 10
-35.50000000000184
 20
75.522593981594156
 30
0.0
  0
VERTEX
  5
1CCD
  8
SAPA_LIGHT
 10
-35.500000000001819
 20
14.03511389911279
 30
0.0
  0
VERTEX
  5
1CCE
  8
SAPA_LIGHT
 10
-44.501825424425988
 20
14.03511389911278
 30
0.0
  0
VERTEX
  5
1CCF
  8
SAPA_LIGHT
 10
-44.501825424426002
 20
75.522593981594156
 30
0.0
  0
SEQEND
  5
1CD0
  8
SAPA_LIGHT
  0
POLYLINE
  5
8EE
  8
SAPA_LIGHT
 66
     1
 10
0.0
 20
0.0
 30
0.0
  0
VERTEX
  5
1CD1
  8
SAPA_LIGHT
 10
-64.499999999011152
 20
75.522593981594326
 30
0.0
  0
VERTEX
  5
1CD2
  8
SAPA_LIGHT
 10
-64.499999999011607
 20
11.000967646493841
 30
0.0
  0
VERTEX
  5
1CD3
  8
SAPA_LIGHT
 10
-70.499999999010925
 20
11.000967646493841
 30
0.0
  0
VERTEX
  5
1CD4
  8
SAPA_LIGHT
 10
-70.499999999010925
 20
75.522593981595065
 30
0.0
  0
SEQEND
  5
1CD5
  8
SAPA_LIGHT
  0
POLYLINE
  5
8EF
  8
SAPA_LIGHT
 66
     1
 10
0.0
 20
0.0
 30
0.0
  0
VERTEX
  5
1CD6
  8
SAPA_LIGHT
 10
62.499999999998849
 20
75.000000000000384
 30
0.0
  0
VERTEX
  5
1CD7
  8
SAPA_LIGHT
 10
62.499999999998863
 20
26.000000000000391
 30
0.0
  0
VERTEX
  5
1CD8
  8
SAPA_LIGHT
 10
50.999999999998799
 20
26.000000000000391
 30
0.0
  0
VERTEX
  5
1CD9
  8
SAPA_LIGHT
 10
50.999999999998792
 20
75.000000000000384
 30
0.0
  0
SEQEND
  5
1CDA
  8
SAPA_LIGHT
  0
INSERT
  5
D3D
  8
0
  2
*U163
 10
0.0
 20
0.0
 30
0.0
  0
INSERT
  5
D3E
  8
0
  2
*U164
 10
0.0
 20
0.0
 30
0.0
  0
INSERT
  5
D3F
  8
0
  2
*U165
 10
0.0
 20
0.0
 30
0.0
  0
INSERT
  5
D42
  8
0
  2
*U166
 10
0.0
 20
0.0
 30
0.0
  0
LINE
  5
1610
  8
SAPA_FYLLNING
 10
-29.500000000003642
 20
31.348467485783349
 30
0.0
 11
42.799999999999258
 21
31.34846748578336
 31
0.0
  0
ARC
  5
1611
  8
SAPA_FYLLNING
 10
42.799999999999258
 20
37.34846748578336
 30
0.0
 40
6.0
 50
270.0
 51
90.0
  0
LINE
  5
1612
  8
SAPA_FYLLNING
 10
42.799999999999258
 20
43.348467485783353
 30
0.0
 11
-29.500000000003642
 21
43.348467485785157
 31
0.0
  0
ARC
  5
1613
  8
SAPA_FYLLNING
 10
-29.500000000003649
 20
49.348467485784262
 30
0.0
 40
5.9999999999990896
 50
90.000000000000057
 51
270.00000000000011
  0
LINE
  5
1614
  8
SAPA_FYLLNING
 10
-29.500000000003649
 20
55.348467485783353
 30
0.0
 11
44.999999999998167
 21
55.348467485785179
 31
0.0
  0
ARC
  5
1615
  8
SAPA_FYLLNING
 10
44.999999999998167
 20
61.348467485784283
 30
0.0
 40
5.9999999999990967
 50
270.00000000000011
 51
90.0
  0
LINE
  5
1616
  8
SAPA_FYLLNING
 10
44.999999999998167
 20
67.348467485783374
 30
0.0
 11
-29.500000000003649
 21
67.348467485783345
 31
0.0
  0
INSERT
  5
18A8
  8
BYGG-027036$0$KON
 66
     1
  2
BYGG-027036$0$RH
 10
386.96599693449059
 20
-560.0268623626722
 30
0.0
 43
-1.0
 50
270.0
210
0.0
220
0.0
230
-1.0
  0
ATTRIB
  5
18A9
  8
BYGG-027036$0$KON
 10
-392.2659969344906
 20
-563.22686236267225
 30
0.0
 40
0.3999999999999772
  1
GGFJ
 50
270.0
  7
BYGG-027036$0$SIMPLEX
 71
     4
  2
SÄLJARE
 70
     1
  0
ATTRIB
  5
18AA
  8
BYGG-027036$0$KON
 10
-388.86599693449051
 20
-563.62686236267223
 30
0.0
 40
0.3000000000000114
  1

 50
270.0
  7
BYGG-027036$0$SIMPLEX
 71
     4
 72
     4
 11
-388.86599693449051
 21
-563.62686236267223
 31
0.0
  2
DATUM
 70
     0
  0
ATTRIB
  5
18AB
  8
BYGG-027036$0$KON
 10
-387.86599693449051
 20
-563.42686236267218
 30
0.0
 40
0.3999999999999772
  1

 50
270.0
  7
BYGG-027036$0$SIMPLEX
 71
     4
 72
     4
 11
-387.86599693449051
 21
-563.42686236267218
 31
0.0
  2
RITAD:
 70
     1
  0
ATTRIB
  5
18AC
  8
BYGG-027036$0$KON
 10
-389.26599693449049
 20
-571.02686236267209
 30
0.0
 40
0.4399999999999978
  1

 50
270.0
  7
BYGG-027036$0$SIMPLEX
 71
     4
 72
     4
 11
-389.26599693449049
 21
-571.02686236267209
 31
0.0
  2
BENÄMNING
 70
     0
  0
ATTRIB
  5
18AD
  8
BYGG-027036$0$KON
 10
-388.46599693449048
 20
-571.02686236267209
 30
0.0
 40
0.4399999999999978
  1

 50
270.0
  7
BYGG-027036$0$SIMPLEX
 71
     4
 72
     4
 11
-388.46599693449048
 21
-571.02686236267209
 31
0.0
  2
GUMMI-HÅRDHET-FÄRG
 70
     0
  0
ATTRIB
  5
18AE
  8
BYGG-027036$0$KON
 10
-387.66599693449052
 20
-571.02686236267209
 30
0.0
 40
0.4399999999999978
  1

 50
270.0
  7
BYGG-027036$0$SIMPLEX
 71
     4
 72
     4
 11
-387.66599693449052
 21
-571.02686236267209
 31
0.0
  2
KUND
 70
     0
  0
ATTRIB
  5
18AF
  8
BYGG-027036$0$KON
 10
-388.96599693449048
 20
-578.82686236267205
 30
0.0
 40
0.3999999999999772
  1

 50
270.0
  7
BYGG-027036$0$SIMPLEX
 71
     4
 72
     4
 11
-388.96599693449048
 21
-578.82686236267205
 31
0.0
  2
SKALA:
 70
     1
  0
ATTRIB
  5
18B0
  8
BYGG-027036$0$KON
 10
-387.7659969344906
 20
-578.42686236267207
 30
0.0
 40
0.3999999999999772
  1

 50
270.0
  7
BYGG-027036$0$SIMPLEX
 71
     4
 72
     4
 11
-387.7659969344906
 21
-578.42686236267207
 31
0.0
  2
RIT.NR:
 70
     0
  0
ATTRIB
  5
18B1
  8
BYGG-027036$0$KON
 10
-390.16599693449052
 20
-578.42686236267207
 30
0.0
 40
0.3999999999999772
  1

 50
270.0
  7
BYGG-027036$0$SIMPLEX
 71
     4
 72
     4
 11
-390.16599693449052
 21
-578.42686236267207
 31
0.0
  2
DET.NR:
 70
     0
  0
SEQEND
  5
18CB
  8
BYGG-027036$0$KON
  0
INSERT
  5
18B2
  8
BYGG-027036$0$KON
 66
     1
  2
BYGG-027036$0$RH
 10
386.96599693449059
 20
-560.0268623626722
 30
0.0
 43
-1.0
 50
270.0
210
0.0
220
0.0
230
-1.0
  0
ATTRIB
  5
18B3
  8
BYGG-027036$0$KON
 10
-389.26599693449049
 20
-571.02686236267209
 30
0.0
 40
0.4399999999999978
  1

 50
270.0
  7
BYGG-027036$0$SIMPLEX
 71
     4
 72
     4
 11
-389.26599693449049
 21
-571.02686236267209
 31
0.0
  2
BENÄMNING
 70
     0
  0
ATTRIB
  5
18B4
  8
BYGG-027036$0$KON
 10
-388.46599693449048
 20
-571.02686236267209
 30
0.0
 40
0.4399999999999978
  1

 50
270.0
  7
BYGG-027036$0$SIMPLEX
 71
     4
 72
     4
 11
-388.46599693449048
 21
-571.02686236267209
 31
0.0
  2
GUMMI-HÅRDHET-FÄRG
 70
     0
  0
ATTRIB
  5
18B5
  8
BYGG-027036$0$KON
 10
-387.66599693449052
 20
-571.02686236267209
 30
0.0
 40
0.4399999999999978
  1

 50
270.0
  7
BYGG-027036$0$SIMPLEX
 71
     4
 72
     4
 11
-387.66599693449052
 21
-571.02686236267209
 31
0.0
  2
KUND
 70
     0
  0
ATTRIB
  5
18B6
  8
BYGG-027036$0$KON
 10
-387.7659969344906
 20
-578.42686236267207
 30
0.0
 40
0.3999999999999772
  1

 50
270.0
  7
BYGG-027036$0$SIMPLEX
 71
     4
 72
     4
 11
-387.7659969344906
 21
-578.42686236267207
 31
0.0
  2
RIT.NR:
 70
     0
  0
ATTRIB
  5
18B7
  8
BYGG-027036$0$KON
 10
-390.16599693449052
 20
-578.42686236267207
 30
0.0
 40
0.3999999999999772
  1

 50
270.0
  7
BYGG-027036$0$SIMPLEX
 71
     4
 72
     4
 11
-390.16599693449052
 21
-578.42686236267207
 31
0.0
  2
DET.NR:
 70
     0
  0
ATTRIB
  5
18B8
  8
BYGG-027036$0$KON
 10
-388.96599693449048
 20
-578.82686236267205
 30
0.0
 40
0.3999999999999772
  1

 50
270.0
  7
BYGG-027036$0$SIMPLEX
 71
     4
 72
     4
 11
-388.96599693449048
 21
-578.82686236267205
 31
0.0
  2
SKALA:
 70
     1
  0
ATTRIB
  5
18B9
  8
BYGG-027036$0$KON
 10
-388.86599693449051
 20
-563.62686236267223
 30
0.0
 40
0.3000000000000114
  1

 50
270.0
  7
BYGG-027036$0$SIMPLEX
 71
     4
 72
     4
 11
-388.86599693449051
 21
-563.62686236267223
 31
0.0
  2
DATUM
 70
     0
  0
ATTRIB
  5
18BA
  8
BYGG-027036$0$KON
 10
-387.86599693449051
 20
-563.42686236267218
 30
0.0
 40
0.3999999999999772
  1

 50
270.0
  7
BYGG-027036$0$SIMPLEX
 71
     4
 72
     4
 11
-387.86599693449051
 21
-563.42686236267218
 31
0.0
  2
RITAD:
 70
     1
  0
ATTRIB
  5
18BB
  8
BYGG-027036$0$KON
 10
-392.2659969344906
 20
-563.22686236267225
 30
0.0
 40
0.3999999999999772
  1

 50
270.0
  7
BYGG-027036$0$SIMPLEX
 71
     4
  2
SÄLJARE
 70
     1
  0
SEQEND
  5
18CC
  8
BYGG-027036$0$KON
  0
INSERT
  5
18BC
  8
BYGG-027036$0$DIM
 66
     1
  2
BYGG-027036$0$RH
 10
386.96599693449059
 20
-560.0268623626722
 30
0.0
 43
-1.0
 50
270.0
210
0.0
220
0.0
230
-1.0
  0
ATTRIB
  5
18BD
  8
BYGG-027036$0$KON
 10
-389.26599693449049
 20
-571.02686236267209
 30
0.0
 40
0.4399999999999978
  1

 50
270.0
  7
BYGG-027036$0$SIMPLEX
 71
     4
 72
     4
 11
-389.26599693449049
 21
-571.02686236267209
 31
0.0
  2
BENÄMNING
 70
     0
  0
ATTRIB
  5
18BE
  8
BYGG-027036$0$KON
 10
-388.46599693449048
 20
-571.02686236267209
 30
0.0
 40
0.4399999999999978
  1

 50
270.0
  7
BYGG-027036$0$SIMPLEX
 71
     4
 72
     4
 11
-388.46599693449048
 21
-571.02686236267209
 31
0.0
  2
GUMMI-HÅRDHET-FÄRG
 70
     0
  0
ATTRIB
  5
18BF
  8
BYGG-027036$0$KON
 10
-387.66599693449052
 20
-571.02686236267209
 30
0.0
 40
0.4399999999999978
  1

 50
270.0
  7
BYGG-027036$0$SIMPLEX
 71
     4
 72
     4
 11
-387.66599693449052
 21
-571.02686236267209
 31
0.0
  2
KUND
 70
     0
  0
ATTRIB
  5
18C0
  8
BYGG-027036$0$KON
 10
-387.7659969344906
 20
-578.42686236267207
 30
0.0
 40
0.3999999999999772
  1

 50
270.0
  7
BYGG-027036$0$SIMPLEX
 71
     4
 72
     4
 11
-387.7659969344906
 21
-578.42686236267207
 31
0.0
  2
RIT.NR:
 70
     0
  0
ATTRIB
  5
18C1
  8
BYGG-027036$0$KON
 10
-390.16599693449052
 20
-578.42686236267207
 30
0.0
 40
0.3999999999999772
  1

 50
270.0
  7
BYGG-027036$0$SIMPLEX
 71
     4
 72
     4
 11
-390.16599693449052
 21
-578.42686236267207
 31
0.0
  2
DET.NR:
 70
     0
  0
ATTRIB
  5
18C2
  8
BYGG-027036$0$KON
 10
-388.96599693449048
 20
-578.82686236267205
 30
0.0
 40
0.3999999999999772
  1

 50
270.0
  7
BYGG-027036$0$SIMPLEX
 71
     4
 72
     4
 11
-388.96599693449048
 21
-578.82686236267205
 31
0.0
  2
SKALA:
 70
     1
  0
ATTRIB
  5
18C3
  8
BYGG-027036$0$KON
 10
-388.86599693449051
 20
-563.62686236267223
 30
0.0
 40
0.3000000000000114
  1

 50
270.0
  7
BYGG-027036$0$SIMPLEX
 71
     4
 72
     4
 11
-388.86599693449051
 21
-563.62686236267223
 31
0.0
  2
DATUM
 70
     0
  0
ATTRIB
  5
18C4
  8
BYGG-027036$0$KON
 10
-387.86599693449051
 20
-563.42686236267218
 30
0.0
 40
0.3999999999999772
  1

 50
270.0
  7
BYGG-027036$0$SIMPLEX
 71
     4
 72
     4
 11
-387.86599693449051
 21
-563.42686236267218
 31
0.0
  2
RITAD:
 70
     1
  0
ATTRIB
  5
18C5
  8
BYGG-027036$0$KON
 10
-392.2659969344906
 20
-563.22686236267225
 30
0.0
 40
0.3999999999999772
  1

 50
270.0
  7
BYGG-027036$0$SIMPLEX
 71
     4
  2
SÄLJARE
 70
     1
  0
SEQEND
  5
18CD
  8
BYGG-027036$0$DIM
  0
POLYLINE
  5
1AA9
  8
SAPA_PROFIL
 66
     1
 10
0.0
 20
0.0
 30
0.0
 70
     1
  0
VERTEX
  5
2369
  8
SAPA_PROFIL
 10
-29.36038478031017
 20
-106.5445363873113
 30
0.0
 42
0.4557262555325856
  0
VERTEX
  5
236A
  8
SAPA_PROFIL
 10
-29.929970811151239
 20
-107.03966996996689
 30
0.0
  0
VERTEX
  5
236B
  8
SAPA_PROFIL
 10
-29.929970811151239
 20
-108.5464138622759
 30
0.0
  0
VERTEX
  5
236C
  8
SAPA_PROFIL
 10
-31.429970811151239
 20
-108.5464138622759
 30
0.0
  0
VERTEX
  5
236D
  8
SAPA_PROFIL
 10
-31.429970811151239
 20
-109.5464138622759
 30
0.0
  0
VERTEX
  5
236E
  8
SAPA_PROFIL
 10
-41.662439407366911
 20
-109.5464138622759
 30
0.0
  0
VERTEX
  5
236F
  8
SAPA_PROFIL
 10
-42.528464811151338
 20
-110.0464138622758
 30
0.0
  0
VERTEX
  5
2370
  8
SAPA_PROFIL
 10
-43.394490214935701
 20
-109.5464138622759
 30
0.0
  0
VERTEX
  5
2371
  8
SAPA_PROFIL
 10
-53.626958811151411
 20
-109.5464138622759
 30
0.0
  0
VERTEX
  5
2372
  8
SAPA_PROFIL
 10
-53.626958811151411
 20
-108.5464138622759
 30
0.0
  0
VERTEX
  5
2373
  8
SAPA_PROFIL
 10
-55.126958811151418
 20
-108.5464138622759
 30
0.0
  0
VERTEX
  5
2374
  8
SAPA_PROFIL
 10
-55.126958811151418
 20
-106.5464138622759
 30
0.0
  0
VERTEX
  5
2375
  8
SAPA_PROFIL
 10
-60.96090675697841
 20
-105.5177314353778
 30
0.0
 42
0.4142135623730531
  0
VERTEX
  5
2376
  8
SAPA_PROFIL
 10
-61.540134722317902
 20
-105.9233112230504
 30
0.0
  0
VERTEX
  5
2377
  8
SAPA_PROFIL
 10
-61.626958811151418
 20
-106.41571509955649
 30
0.0
  0
VERTEX
  5
2378
  8
SAPA_PROFIL
 10
-60.937593384042792
 20
-106.5372688239233
 30
0.0
 42
-0.6705660098148247
  0
VERTEX
  5
2379
  8
SAPA_PROFIL
 10
-60.819239250164479
 20
-107.07958617717669
 30
0.0
  0
VERTEX
  5
237A
  8
SAPA_PROFIL
 10
-63.206087658975363
 20
-108.7275249883979
 30
0.0
 42
-0.4103557430781616
  0
VERTEX
  5
237B
  8
SAPA_PROFIL
 10
-63.888171894140811
 20
-108.60725513462231
 30
0.0
  0
VERTEX
  5
237C
  8
SAPA_PROFIL
 10
-65.567447462429115
 20
-106.2423489593329
 30
0.0
 42
-0.6705660098148535
  0
VERTEX
  5
237D
  8
SAPA_PROFIL
 10
-65.270747497296483
 20
-105.773216842189
 30
0.0
  0
VERTEX
  5
237E
  8
SAPA_PROFIL
 10
-64.581382070187985
 20
-105.89477056655581
 30
0.0
  0
VERTEX
  5
237F
  8
SAPA_PROFIL
 10
-64.494557981354518
 20
-105.4023666900497
 30
0.0
 42
0.4142135623731039
  0
VERTEX
  5
2380
  8
SAPA_PROFIL
 10
-64.900137769027168
 20
-104.8231387247102
 30
0.0
  0
VERTEX
  5
2381
  8
SAPA_PROFIL
 10
-65.33582882733711
 20
-104.7463146358766
 30
0.0
  0
VERTEX
  5
2382
  8
SAPA_PROFIL
 10
-66.922312806296233
 20
-104.7489852235924
 30
0.0
 42
-0.4147066859862996
  0
VERTEX
  5
2383
  8
SAPA_PROFIL
 10
-69.927362811151312
 20
-101.74898947402021
 30
0.0
  0
VERTEX
  5
2384
  8
SAPA_PROFIL
 10
-69.927362811151312
 20
-94.042360862275871
 30
0.0
 42
0.6638253569871671
  0
VERTEX
  5
2385
  8
SAPA_PROFIL
 10
-70.806549004085895
 20
-93.684387055288767
 30
0.0
  0
VERTEX
  5
2386
  8
SAPA_PROFIL
 10
-72.785587201744619
 20
-95.663425252947334
 30
0.0
 42
0.1989123673796449
  0
VERTEX
  5
2387
  8
SAPA_PROFIL
 10
-72.932033811151285
 20
-96.016978643540654
 30
0.0
  0
VERTEX
  5
2388
  8
SAPA_PROFIL
 10
-72.932033811151285
 20
-107.83525361794079
 30
0.0
 42
0.1989123673796422
  0
VERTEX
  5
2389
  8
SAPA_PROFIL
 10
-72.78558720174459
 20
-108.1888070085341
 30
0.0
  0
VERTEX
  5
238A
  8
SAPA_PROFIL
 10
-67.424840420558013
 20
-113.5495537897206
 30
0.0
 42
-0.1989123673796659
  0
VERTEX
  5
238B
  8
SAPA_PROFIL
 10
-67.27839381115129
 20
-113.9031071803139
 30
0.0
  0
VERTEX
  5
238C
  8
SAPA_PROFIL
 10
-67.27839381115129
 20
-118.5432718622758
 30
0.0
  0
VERTEX
  5
238D
  8
SAPA_PROFIL
 10
-64.028393811151275
 20
-118.5432718622758
 30
0.0
  0
VERTEX
  5
238E
  8
SAPA_PROFIL
 10
-62.52839381115129
 20
-120.0432718622758
 30
0.0
  0
VERTEX
  5
238F
  8
SAPA_PROFIL
 10
-61.02839381115129
 20
-118.5432718622758
 30
0.0
  0
VERTEX
  5
2390
  8
SAPA_PROFIL
 10
-57.429424811151293
 20
-118.5432718622758
 30
0.0
 42
-0.4142140000000165
  0
VERTEX
  5
2391
  8
SAPA_PROFIL
 10
-56.929424811151293
 20
-119.0432718622758
 30
0.0
  0
VERTEX
  5
2392
  8
SAPA_PROFIL
 10
-56.929424811151293
 20
-120.5464138622758
 30
0.0
 42
0.4142140000000145
  0
VERTEX
  5
2393
  8
SAPA_PROFIL
 10
-55.929424811151293
 20
-121.5464138622758
 30
0.0
  0
VERTEX
  5
2394
  8
SAPA_PROFIL
 10
-54.929424811151257
 20
-121.5464138622758
 30
0.0
  0
VERTEX
  5
2395
  8
SAPA_PROFIL
 10
-52.984429387462903
 20
-114.28759473035331
 30
0.0
 42
-0.3394542338034085
  0
VERTEX
  5
2396
  8
SAPA_PROFIL
 10
-52.018503584437177
 20
-113.5464138622758
 30
0.0
  0
VERTEX
  5
2397
  8
SAPA_PROFIL
 10
-33.040344903465609
 20
-113.5464138622758
 30
0.0
 42
-0.3394542744563553
  0
VERTEX
  5
2398
  8
SAPA_PROFIL
 10
-32.074419062701402
 20
-114.2875948711951
 30
0.0
  0
VERTEX
  5
2399
  8
SAPA_PROFIL
 10
-30.129424811151239
 20
-121.5464138622758
 30
0.0
  0
VERTEX
  5
239A
  8
SAPA_PROFIL
 10
-29.129424811151239
 20
-121.5464138622758
 30
0.0
 42
0.4142139999999982
  0
VERTEX
  5
239B
  8
SAPA_PROFIL
 10
-28.129424811151349
 20
-120.5464138622758
 30
0.0
  0
VERTEX
  5
239C
  8
SAPA_PROFIL
 10
-28.129424811151239
 20
-119.05600786227591
 30
0.0
 42
-0.4142140000000124
  0
VERTEX
  5
239D
  8
SAPA_PROFIL
 10
-27.629424811151271
 20
-118.55600786227591
 30
0.0
  0
VERTEX
  5
239E
  8
SAPA_PROFIL
 10
-24.02942481115133
 20
-118.55600786227591
 30
0.0
  0
VERTEX
  5
239F
  8
SAPA_PROFIL
 10
-22.52942481115133
 20
-120.05600786227591
 30
0.0
  0
VERTEX
  5
23A0
  8
SAPA_PROFIL
 10
-21.02942481115133
 20
-118.55600786227591
 30
0.0
  0
VERTEX
  5
23A1
  8
SAPA_PROFIL
 10
-17.779424811151269
 20
-118.55600786227591
 30
0.0
  0
VERTEX
  5
23A2
  8
SAPA_PROFIL
 10
-17.779424811151269
 20
-110.54345380527749
 30
0.0
 42
0.3780475071674513
  0
VERTEX
  5
23A3
  8
SAPA_PROFIL
 10
-20.405289823667939
 20
-107.5668747266805
 30
0.0
  0
VERTEX
  5
23A4
  8
SAPA_PROFIL
 10
-23.296171369746471
 20
-107.2035113143542
 30
0.0
 42
0.4247728136669583
  0
VERTEX
  5
23A5
  8
SAPA_PROFIL
 10
-24.429970811151289
 20
-108.0902548622758
 30
0.0
  0
VERTEX
  5
23A6
  8
SAPA_PROFIL
 10
-23.179970811151239
 20
-108.0902548622758
 30
0.0
  0
VERTEX
  5
23A7
  8
SAPA_PROFIL
 10
-23.179970811151239
 20
-109.19025486227579
 30
0.0
  0
VERTEX
  5
23A8
  8
SAPA_PROFIL
 10
-28.37997081115131
 20
-109.19025486227579
 30
0.0
  0
VERTEX
  5
23A9
  8
SAPA_PROFIL
 10
-28.37997081115131
 20
-108.0902548622758
 30
0.0
  0
VERTEX
  5
23AA
  8
SAPA_PROFIL
 10
-27.12997081115131
 20
-108.0902548622758
 30
0.0
  0
VERTEX
  5
23AB
  8
SAPA_PROFIL
 10
-27.12997081115131
 20
-107.7167327189231
 30
0.0
 42
0.3760477967976817
  0
VERTEX
  5
23AC
  8
SAPA_PROFIL
 10
-27.99831371069067
 20
-106.7254374007165
 30
0.0
  0
SEQEND
  5
23AD
  8
SAPA_PROFIL
  0
POLYLINE
  5
1AAA
  8
SAPA_PROFIL
 66
     1
 10
0.0
 20
0.0
 30
0.0
 70
     1
  0
VERTEX
  5
23AE
  8
SAPA_PROFIL
 10
-55.698049875367701
 20
-100.54200733724031
 30
0.0
 42
0.4557262555325856
  0
VERTEX
  5
23AF
  8
SAPA_PROFIL
 10
-55.128463844526642
 20
-100.04687375458469
 30
0.0
  0
VERTEX
  5
23B0
  8
SAPA_PROFIL
 10
-55.128463844526642
 20
-98.540129862275805
 30
0.0
  0
VERTEX
  5
23B1
  8
SAPA_PROFIL
 10
-53.628463844526628
 20
-98.540129862275805
 30
0.0
  0
VERTEX
  5
23B2
  8
SAPA_PROFIL
 10
-53.628463844526628
 20
-97.540129862275791
 30
0.0
  0
VERTEX
  5
23B3
  8
SAPA_PROFIL
 10
-43.395995248310953
 20
-97.540129862275791
 30
0.0
  0
VERTEX
  5
23B4
  8
SAPA_PROFIL
 10
-42.529969844526534
 20
-97.040129862275805
 30
0.0
  0
VERTEX
  5
23B5
  8
SAPA_PROFIL
 10
-41.663944440742164
 20
-97.540129862275791
 30
0.0
  0
VERTEX
  5
23B6
  8
SAPA_PROFIL
 10
-31.431475844526471
 20
-97.540129862275791
 30
0.0
  0
VERTEX
  5
23B7
  8
SAPA_PROFIL
 10
-31.431475844526471
 20
-98.540129862275805
 30
0.0
  0
VERTEX
  5
23B8
  8
SAPA_PROFIL
 10
-29.93147584452646
 20
-98.540129862275805
 30
0.0
  0
VERTEX
  5
23B9
  8
SAPA_PROFIL
 10
-29.93147584452646
 20
-100.5401298622758
 30
0.0
  0
VERTEX
  5
23BA
  8
SAPA_PROFIL
 10
-24.097527898699472
 20
-101.56881228917381
 30
0.0
 42
0.4142135623730531
  0
VERTEX
  5
23BB
  8
SAPA_PROFIL
 10
-23.51829993335998
 20
-101.1632325015012
 30
0.0
  0
VERTEX
  5
23BC
  8
SAPA_PROFIL
 10
-23.43147584452646
 20
-100.6708286249951
 30
0.0
  0
VERTEX
  5
23BD
  8
SAPA_PROFIL
 10
-24.120841271635101
 20
-100.5492749006283
 30
0.0
 42
-0.6705660098148247
  0
VERTEX
  5
23BE
  8
SAPA_PROFIL
 10
-24.239195405513399
 20
-100.0069575473749
 30
0.0
  0
VERTEX
  5
23BF
  8
SAPA_PROFIL
 10
-21.852346996702519
 20
-98.359018736153729
 30
0.0
 42
-0.4103557430781616
  0
VERTEX
  5
23C0
  8
SAPA_PROFIL
 10
-21.170262761537071
 20
-98.479288589929297
 30
0.0
  0
VERTEX
  5
23C1
  8
SAPA_PROFIL
 10
-19.490987193248749
 20
-100.8441947652187
 30
0.0
 42
-0.6705660098148535
  0
VERTEX
  5
23C2
  8
SAPA_PROFIL
 10
-19.787687158381399
 20
-101.3133268823626
 30
0.0
  0
VERTEX
  5
23C3
  8
SAPA_PROFIL
 10
-20.477052585489901
 20
-101.1917731579959
 30
0.0
  0
VERTEX
  5
23C4
  8
SAPA_PROFIL
 10
-20.563876674323371
 20
-101.6841770345019
 30
0.0
 42
0.4142135623731039
  0
VERTEX
  5
23C5
  8
SAPA_PROFIL
 10
-20.158296886650721
 20
-102.2634049998415
 30
0.0
  0
VERTEX
  5
23C6
  8
SAPA_PROFIL
 10
-19.722605828340772
 20
-102.340229088675
 30
0.0
  0
VERTEX
  5
23C7
  8
SAPA_PROFIL
 10
-18.136121849381642
 20
-102.3375585009592
 30
0.0
 42
-0.4147066859862996
  0
VERTEX
  5
23C8
  8
SAPA_PROFIL
 10
-15.13107184452657
 20
-105.3375542505314
 30
0.0
  0
VERTEX
  5
23C9
  8
SAPA_PROFIL
 10
-15.13107184452657
 20
-113.0441828622758
 30
0.0
 42
0.6638253569871671
  0
VERTEX
  5
23CA
  8
SAPA_PROFIL
 10
-14.251885651591991
 20
-113.40215666926289
 30
0.0
  0
VERTEX
  5
23CB
  8
SAPA_PROFIL
 10
-12.272847453933259
 20
-111.4231184716043
 30
0.0
 42
0.1989123673796449
  0
VERTEX
  5
23CC
  8
SAPA_PROFIL
 10
-12.1264008445266
 20
-111.06956508101101
 30
0.0
  0
VERTEX
  5
23CD
  8
SAPA_PROFIL
 10
-12.1264008445266
 20
-99.251290106610796
 30
0.0
 42
0.1989123673796422
  0
VERTEX
  5
23CE
  8
SAPA_PROFIL
 10
-12.27284745393329
 20
-98.897736716017533
 30
0.0
  0
VERTEX
  5
23CF
  8
SAPA_PROFIL
 10
-17.633594235119858
 20
-93.536989934830984
 30
0.0
 42
-0.1989123673796659
  0
VERTEX
  5
23D0
  8
SAPA_PROFIL
 10
-17.780040844526582
 20
-93.183436544237694
 30
0.0
  0
VERTEX
  5
23D1
  8
SAPA_PROFIL
 10
-17.780040844526582
 20
-88.543271862275816
 30
0.0
  0
VERTEX
  5
23D2
  8
SAPA_PROFIL
 10
-21.030040844526582
 20
-88.543271862275816
 30
0.0
  0
VERTEX
  5
23D3
  8
SAPA_PROFIL
 10
-22.530040844526582
 20
-87.043271862275816
 30
0.0
  0
VERTEX
  5
23D4
  8
SAPA_PROFIL
 10
-24.030040844526582
 20
-88.543271862275816
 30
0.0
  0
VERTEX
  5
23D5
  8
SAPA_PROFIL
 10
-27.629009844526578
 20
-88.543271862275816
 30
0.0
 42
-0.4142140000000165
  0
VERTEX
  5
23D6
  8
SAPA_PROFIL
 10
-28.129009844526578
 20
-88.043271862275816
 30
0.0
  0
VERTEX
  5
23D7
  8
SAPA_PROFIL
 10
-28.129009844526578
 20
-86.540129862275819
 30
0.0
 42
0.4142140000000145
  0
VERTEX
  5
23D8
  8
SAPA_PROFIL
 10
-29.129009844526578
 20
-85.540129862275791
 30
0.0
  0
VERTEX
  5
23D9
  8
SAPA_PROFIL
 10
-30.12900984452661
 20
-85.540129862275805
 30
0.0
  0
VERTEX
  5
23DA
  8
SAPA_PROFIL
 10
-32.074005268214982
 20
-92.798948994198383
 30
0.0
 42
-0.3394542338034085
  0
VERTEX
  5
23DB
  8
SAPA_PROFIL
 10
-33.039931071240687
 20
-93.540129862275776
 30
0.0
  0
VERTEX
  5
23DC
  8
SAPA_PROFIL
 10
-52.018089752212262
 20
-93.540129862275776
 30
0.0
 42
-0.3394542744563553
  0
VERTEX
  5
23DD
  8
SAPA_PROFIL
 10
-52.984015592976483
 20
-92.798948853356549
 30
0.0
  0
VERTEX
  5
23DE
  8
SAPA_PROFIL
 10
-54.929009844526632
 20
-85.540129862275791
 30
0.0
  0
VERTEX
  5
23DF
  8
SAPA_PROFIL
 10
-55.929009844526632
 20
-85.540129862275791
 30
0.0
 42
0.4142139999999982
  0
VERTEX
  5
23E0
  8
SAPA_PROFIL
 10
-56.929009844526519
 20
-86.540129862275791
 30
0.0
  0
VERTEX
  5
23E1
  8
SAPA_PROFIL
 10
-56.929009844526632
 20
-88.030535862275755
 30
0.0
 42
-0.4142140000000124
  0
VERTEX
  5
23E2
  8
SAPA_PROFIL
 10
-57.429009844526597
 20
-88.530535862275769
 30
0.0
  0
VERTEX
  5
23E3
  8
SAPA_PROFIL
 10
-61.029009844526541
 20
-88.530535862275769
 30
0.0
  0
VERTEX
  5
23E4
  8
SAPA_PROFIL
 10
-62.529009844526541
 20
-87.030535862275769
 30
0.0
  0
VERTEX
  5
23E5
  8
SAPA_PROFIL
 10
-64.029009844526541
 20
-88.530535862275741
 30
0.0
  0
VERTEX
  5
23E6
  8
SAPA_PROFIL
 10
-67.279009844526584
 20
-88.530535862275741
 30
0.0
  0
VERTEX
  5
23E7
  8
SAPA_PROFIL
 10
-67.279009844526584
 20
-96.543089919274152
 30
0.0
 42
0.3780475071674513
  0
VERTEX
  5
23E8
  8
SAPA_PROFIL
 10
-64.653144832009929
 20
-99.519668997871094
 30
0.0
  0
VERTEX
  5
23E9
  8
SAPA_PROFIL
 10
-61.762263285931397
 20
-99.883032410197487
 30
0.0
 42
0.4247728136669583
  0
VERTEX
  5
23EA
  8
SAPA_PROFIL
 10
-60.628463844526578
 20
-98.996288862275804
 30
0.0
  0
VERTEX
  5
23EB
  8
SAPA_PROFIL
 10
-61.878463844526628
 20
-98.996288862275804
 30
0.0
  0
VERTEX
  5
23EC
  8
SAPA_PROFIL
 10
-61.878463844526628
 20
-97.896288862275782
 30
0.0
  0
VERTEX
  5
23ED
  8
SAPA_PROFIL
 10
-56.678463844526561
 20
-97.896288862275782
 30
0.0
  0
VERTEX
  5
23EE
  8
SAPA_PROFIL
 10
-56.678463844526561
 20
-98.996288862275804
 30
0.0
  0
VERTEX
  5
23EF
  8
SAPA_PROFIL
 10
-57.928463844526561
 20
-98.996288862275804
 30
0.0
  0
VERTEX
  5
23F0
  8
SAPA_PROFIL
 10
-57.928463844526561
 20
-99.369811005628577
 30
0.0
 42
0.3760477967976817
  0
VERTEX
  5
23F1
  8
SAPA_PROFIL
 10
-57.060120944987212
 20
-100.3611063238351
 30
0.0
  0
SEQEND
  5
23F2
  8
SAPA_PROFIL
  0
POLYLINE
  5
1AAB
  8
SAPA_PROFIL
 66
     1
 10
0.0
 20
0.0
 30
0.0
 70
     1
  0
VERTEX
  5
23F3
  8
SAPA_PROFIL
 10
-48.378179235494812
 20
-72.887071517118741
 30
0.0
 42
-0.5773502691897452
  0
VERTEX
  5
23F4
  8
SAPA_PROFIL
 10
-48.084022935239972
 20
-72.704117777008591
 30
0.0
  0
VERTEX
  5
23F5
  8
SAPA_PROFIL
 10
-47.799340652008333
 20
-72.856251688117354
 30
0.0
 42
-0.2216946626430179
  0
VERTEX
  5
23F6
  8
SAPA_PROFIL
 10
-47.39353174685354
 20
-73.39713151959414
 30
0.0
  0
VERTEX
  5
23F7
  8
SAPA_PROFIL
 10
-47.012085150725817
 20
-75.210361990252366
 30
0.0
 42
-0.476975532698164
  0
VERTEX
  5
23F8
  8
SAPA_PROFIL
 10
-47.314337975232291
 20
-75.582018865198265
 30
0.0
  0
VERTEX
  5
23F9
  8
SAPA_PROFIL
 10
-48.817439055994299
 20
-75.581935257314612
 30
0.0
  0
VERTEX
  5
23FA
  8
SAPA_PROFIL
 10
-48.831957465241402
 20
-75.534089507316125
 30
0.0
 42
0.4142135623730957
  0
VERTEX
  5
23FB
  8
SAPA_PROFIL
 10
-49.206142420717207
 20
-75.334125462808728
 30
0.0
  0
VERTEX
  5
23FC
  8
SAPA_PROFIL
 10
-50.523440096953081
 20
-75.843271862119948
 30
0.0
  0
VERTEX
  5
23FD
  8
SAPA_PROFIL
 10
-53.519707006234178
 20
-75.84327186211992
 30
0.0
 42
-0.2562769743570943
  0
VERTEX
  5
23FE
  8
SAPA_PROFIL
 10
-53.688379510721411
 20
-75.75074086337149
 30
0.0
  0
VERTEX
  5
23FF
  8
SAPA_PROFIL
 10
-54.482432512538352
 20
-74.504475363997315
 30
0.0
 42
-0.5920056172513193
  0
VERTEX
  5
2400
  8
SAPA_PROFIL
 10
-54.229423755807503
 20
-74.04327186211988
 30
0.0
  0
VERTEX
  5
2401
  8
SAPA_PROFIL
 10
-52.829423755807511
 20
-74.043271862119937
 30
0.0
 42
0.4142135623731021
  0
VERTEX
  5
2402
  8
SAPA_PROFIL
 10
-52.529423755807478
 20
-73.743271862119926
 30
0.0
  0
VERTEX
  5
2403
  8
SAPA_PROFIL
 10
-52.529423755807471
 20
-71.343271862119835
 30
0.0
 42
0.4142135623731402
  0
VERTEX
  5
2404
  8
SAPA_PROFIL
 10
-52.829423755807511
 20
-71.043271862119852
 30
0.0
  0
VERTEX
  5
2405
  8
SAPA_PROFIL
 10
-70.229423755807744
 20
-71.043271862119823
 30
0.0
 42
0.4142135623730796
  0
VERTEX
  5
2406
  8
SAPA_PROFIL
 10
-70.529423755807784
 20
-71.343271862119806
 30
0.0
  0
VERTEX
  5
2407
  8
SAPA_PROFIL
 10
-70.529423755807827
 20
-73.74327186211984
 30
0.0
 42
0.4142135623731315
  0
VERTEX
  5
2408
  8
SAPA_PROFIL
 10
-70.229423755807815
 20
-74.043271862119937
 30
0.0
  0
VERTEX
  5
2409
  8
SAPA_PROFIL
 10
-68.829423755807753
 20
-74.043271862119852
 30
0.0
 42
-0.5877032589249549
  0
VERTEX
  5
240A
  8
SAPA_PROFIL
 10
-68.574377538497643
 20
-74.501232069247536
 30
0.0
  0
VERTEX
  5
240B
  8
SAPA_PROFIL
 10
-69.470776515739871
 20
-75.948578666871711
 30
0.0
 42
-0.2596812337301922
  0
VERTEX
  5
240C
  8
SAPA_PROFIL
 10
-69.640807327279973
 20
-76.043271862119937
 30
0.0
  0
VERTEX
  5
240D
  8
SAPA_PROFIL
 10
-72.229423760639492
 20
-76.043271862119937
 30
0.0
 42
-0.4142135623730864
  0
VERTEX
  5
240E
  8
SAPA_PROFIL
 10
-72.529423760639474
 20
-75.743271862119926
 30
0.0
  0
VERTEX
  5
240F
  8
SAPA_PROFIL
 10
-72.529423760639276
 20
-9.5432718621066321
 30
0.0
 42
-0.4142135623560339
  0
VERTEX
  5
2410
  8
SAPA_PROFIL
 10
-72.029423760668394
 20
-9.0432718621066321
 30
0.0
  0
VERTEX
  5
2411
  8
SAPA_PROFIL
 10
-68.331992910815359
 20
-9.0432718618947643
 30
0.0
 42
-0.4142135623902403
  0
VERTEX
  5
2412
  8
SAPA_PROFIL
 10
-68.031992910797868
 20
-9.3432718618948183
 30
0.0
  0
VERTEX
  5
2413
  8
SAPA_PROFIL
 10
-68.031992910797783
 20
-10.11081632992118
 30
0.0
 42
-0.2896898632854853
  0
VERTEX
  5
2414
  8
SAPA_PROFIL
 10
-68.603421482168642
 20
-11.014324232799019
 30
0.0
 42
-0.5507604245881251
  0
VERTEX
  5
2415
  8
SAPA_PROFIL
 10
-69.031992910757182
 20
-10.743271861953479
 30
0.0
  0
VERTEX
  5
2416
  8
SAPA_PROFIL
 10
-69.031992910768849
 20
-10.543271861930741
 30
0.0
 42
0.4142135623681871
  0
VERTEX
  5
2417
  8
SAPA_PROFIL
 10
-69.331992910781281
 20
-10.243271861948241
 30
0.0
  0
VERTEX
  5
2418
  8
SAPA_PROFIL
 10
-70.829423761792356
 20
-10.24327186200785
 30
0.0
 42
0.4142135623609537
  0
VERTEX
  5
2419
  8
SAPA_PROFIL
 10
-71.329423761792427
 20
-10.74327186200788
 30
0.0
  0
VERTEX
  5
241A
  8
SAPA_PROFIL
 10
-71.329423761792356
 20
-14.04327186200873
 30
0.0
 42
0.4142135623852031
  0
VERTEX
  5
241B
  8
SAPA_PROFIL
 10
-70.829423761771736
 20
-14.543271862008719
 30
0.0
  0
VERTEX
  5
241C
  8
SAPA_PROFIL
 10
-69.33199291054099
 20
-14.543271861949091
 30
0.0
 42
0.4142135623779909
  0
VERTEX
  5
241D
  8
SAPA_PROFIL
 10
-69.031992910553441
 20
-14.24327186193163
 30
0.0
  0
VERTEX
  5
241E
  8
SAPA_PROFIL
 10
-69.031992910565108
 20
-14.04327186195402
 30
0.0
 42
-0.5507604245841421
  0
VERTEX
  5
241F
  8
SAPA_PROFIL
 10
-68.603421482011044
 20
-13.772219491056401
 30
0.0
 42
-0.2896898633203124
  0
VERTEX
  5
2420
  8
SAPA_PROFIL
 10
-68.031992910524124
 20
-14.675727393989471
 30
0.0
  0
VERTEX
  5
2421
  8
SAPA_PROFIL
 10
-68.031992910524139
 20
-15.67319920605423
 30
0.0
 42
-0.0436609429084968
  0
VERTEX
  5
2422
  8
SAPA_PROFIL
 10
-68.039589034018036
 20
-15.76002329488767
 30
0.0
  0
VERTEX
  5
2423
  8
SAPA_PROFIL
 10
-68.316435204940561
 20
-17.330095950871652
 30
0.0
 42
-0.8390996311773407
  0
VERTEX
  5
2424
  8
SAPA_PROFIL
 10
-69.301242957952795
 20
-17.330095950871609
 30
0.0
  0
VERTEX
  5
2425
  8
SAPA_PROFIL
 10
-69.5081887975348
 20
-16.1564477732047
 30
0.0
 42
0.363970234266182
  0
VERTEX
  5
2426
  8
SAPA_PROFIL
 10
-70.000592674040931
 20
-15.74327186203818
 30
0.0
  0
VERTEX
  5
2427
  8
SAPA_PROFIL
 10
-70.82942376179237
 20
-15.743271862038149
 30
0.0
 42
0.4373282586283472
  0
VERTEX
  5
2428
  8
SAPA_PROFIL
 10
-71.327893042096264
 20
-16.282366319362069
 30
0.0
  0
VERTEX
  5
2429
  8
SAPA_PROFIL
 10
-70.741094279089424
 20
-30.75542514082575
 30
0.0
 42
0.402394130432476
  0
VERTEX
  5
242A
  8
SAPA_PROFIL
 10
-70.441340550476383
 20
-31.043271862149378
 30
0.0
  0
VERTEX
  5
242B
  8
SAPA_PROFIL
 10
-69.640807332111464
 20
-31.04327186214935
 30
0.0
 42
-0.2596812337302367
  0
VERTEX
  5
242C
  8
SAPA_PROFIL
 10
-69.470776520571377
 20
-31.137965057397579
 30
0.0
  0
VERTEX
  5
242D
  8
SAPA_PROFIL
 10
-68.574377543329234
 20
-32.58531165502167
 30
0.0
 42
-0.5877032589250683
  0
VERTEX
  5
242E
  8
SAPA_PROFIL
 10
-68.829423760639358
 20
-33.043271862149403
 30
0.0
  0
VERTEX
  5
242F
  8
SAPA_PROFIL
 10
-70.229423760639335
 20
-33.043271862149403
 30
0.0
 42
0.4142135623730898
  0
VERTEX
  5
2430
  8
SAPA_PROFIL
 10
-70.529423760639375
 20
-33.343271862149372
 30
0.0
  0
VERTEX
  5
2431
  8
SAPA_PROFIL
 10
-70.529423760639219
 20
-35.743271862149598
 30
0.0
 42
0.4142135623730049
  0
VERTEX
  5
2432
  8
SAPA_PROFIL
 10
-70.229423760639335
 20
-36.043271862149311
 30
0.0
  0
VERTEX
  5
2433
  8
SAPA_PROFIL
 10
-60.629423760639163
 20
-36.043271862149382
 30
0.0
 42
0.4142135623730258
  0
VERTEX
  5
2434
  8
SAPA_PROFIL
 10
-60.32942376063918
 20
-35.743271862149463
 30
0.0
  0
VERTEX
  5
2435
  8
SAPA_PROFIL
 10
-60.329423760638917
 20
-31.343271862149312
 30
0.0
 42
-0.4142135623730983
  0
VERTEX
  5
2436
  8
SAPA_PROFIL
 10
-60.029423760639048
 20
-31.0432718621493
 30
0.0
  0
VERTEX
  5
2437
  8
SAPA_PROFIL
 10
-58.545335695285743
 20
-31.043271862149268
 30
0.0
 42
-0.2596812337301949
  0
VERTEX
  5
2438
  8
SAPA_PROFIL
 10
-58.37530488374572
 20
-31.137965057397519
 30
0.0
  0
VERTEX
  5
2439
  8
SAPA_PROFIL
 10
-57.974377539193888
 20
-31.785311655021712
 30
0.0
 42
-0.5877032589249359
  0
VERTEX
  5
243A
  8
SAPA_PROFIL
 10
-58.229423756504033
 20
-32.243271862149371
 30
0.0
  0
VERTEX
  5
243B
  8
SAPA_PROFIL
 10
-58.629423760639092
 20
-32.243271862149278
 30
0.0
 42
0.4142135623731295
  0
VERTEX
  5
243C
  8
SAPA_PROFIL
 10
-58.929423760639096
 20
-32.543271862149332
 30
0.0
  0
VERTEX
  5
243D
  8
SAPA_PROFIL
 10
-58.929423760639132
 20
-35.743271862149491
 30
0.0
 42
0.4142135623730636
  0
VERTEX
  5
243E
  8
SAPA_PROFIL
 10
-58.629423760639163
 20
-36.043271862149538
 30
0.0
  0
VERTEX
  5
243F
  8
SAPA_PROFIL
 10
-52.829423760639017
 20
-36.043271862149382
 30
0.0
 42
0.4142135623730984
  0
VERTEX
  5
2440
  8
SAPA_PROFIL
 10
-52.529423760639098
 20
-35.74327186214947
 30
0.0
  0
VERTEX
  5
2441
  8
SAPA_PROFIL
 10
-52.529423760639027
 20
-33.343271862149443
 30
0.0
 42
0.414213562373088
  0
VERTEX
  5
2442
  8
SAPA_PROFIL
 10
-52.829423760639031
 20
-33.043271862149467
 30
0.0
  0
VERTEX
  5
2443
  8
SAPA_PROFIL
 10
-54.229423760639072
 20
-33.043271862149439
 30
0.0
 42
-0.592005618117907
  0
VERTEX
  5
2444
  8
SAPA_PROFIL
 10
-54.482432516956088
 20
-32.582068359622539
 30
0.0
  0
VERTEX
  5
2445
  8
SAPA_PROFIL
 10
-53.688379510779527
 20
-31.33580286046497
 30
0.0
 42
-0.2562769736732238
  0
VERTEX
  5
2446
  8
SAPA_PROFIL
 10
-53.519707006568183
 20
-31.243271862149509
 30
0.0
  0
VERTEX
  5
2447
  8
SAPA_PROFIL
 10
-50.52344009695301
 20
-31.24327186214941
 30
0.0
  0
VERTEX
  5
2448
  8
SAPA_PROFIL
 10
-49.206142420717129
 20
-31.752418261460608
 30
0.0
 42
0.4142135623730951
  0
VERTEX
  5
2449
  8
SAPA_PROFIL
 10
-48.831957465241317
 20
-31.552454216953208
 30
0.0
  0
VERTEX
  5
244A
  8
SAPA_PROFIL
 10
-48.817439055994207
 20
-31.504608466954721
 30
0.0
  0
VERTEX
  5
244B
  8
SAPA_PROFIL
 10
-47.314337975232199
 20
-31.504524859071079
 30
0.0
 42
-0.4769755326981641
  0
VERTEX
  5
244C
  8
SAPA_PROFIL
 10
-47.012085150725738
 20
-31.876181734016939
 30
0.0
  0
VERTEX
  5
244D
  8
SAPA_PROFIL
 10
-47.393531746853448
 20
-33.689412204675193
 30
0.0
 42
-0.2216946626430177
  0
VERTEX
  5
244E
  8
SAPA_PROFIL
 10
-47.799340652008247
 20
-34.23029203615198
 30
0.0
  0
VERTEX
  5
244F
  8
SAPA_PROFIL
 10
-48.084022935239901
 20
-34.382425947260757
 30
0.0
 42
-0.5773502691897449
  0
VERTEX
  5
2450
  8
SAPA_PROFIL
 10
-48.378179235494713
 20
-34.199472207150563
 30
0.0
  0
VERTEX
  5
2451
  8
SAPA_PROFIL
 10
-48.367617869267747
 20
-33.877714478932319
 30
0.0
  0
VERTEX
  5
2452
  8
SAPA_PROFIL
 10
-50.253461561128802
 20
-32.793150031960579
 30
0.0
  0
VERTEX
  5
2453
  8
SAPA_PROFIL
 10
-50.444844561122522
 20
-32.7350763949715
 30
0.0
 42
0.7625858545243262
  0
VERTEX
  5
2454
  8
SAPA_PROFIL
 10
-50.629423763319998
 20
-33.065402475988492
 30
0.0
 42
-0.2134217652834387
  0
VERTEX
  5
2455
  8
SAPA_PROFIL
 10
-50.529423763319883
 20
-33.289009273738628
 30
0.0
  0
VERTEX
  5
2456
  8
SAPA_PROFIL
 10
-50.529423763319997
 20
-37.14179567823858
 30
0.0
 42
0.4142135623731644
  0
VERTEX
  5
2457
  8
SAPA_PROFIL
 10
-50.229423763319957
 20
-37.441795678238627
 30
0.0
  0
VERTEX
  5
2458
  8
SAPA_PROFIL
 10
-49.929423763319882
 20
-37.44179567823862
 30
0.0
  0
VERTEX
  5
2459
  8
SAPA_PROFIL
 10
-48.329423763319951
 20
-36.518035247535281
 30
0.0
 42
-0.5773502691898534
  0
VERTEX
  5
245A
  8
SAPA_PROFIL
 10
-48.029423763319834
 20
-36.691240328292132
 30
0.0
  0
VERTEX
  5
245B
  8
SAPA_PROFIL
 10
-48.029423763319798
 20
-38.076880974347247
 30
0.0
 42
-0.2679491924311248
  0
VERTEX
  5
245C
  8
SAPA_PROFIL
 10
-48.529423763319862
 20
-38.942906378131752
 30
0.0
  0
VERTEX
  5
245D
  8
SAPA_PROFIL
 10
-50.279423760707061
 20
-39.953269347704961
 30
0.0
 42
0.267949192431141
  0
VERTEX
  5
245E
  8
SAPA_PROFIL
 10
-50.529423760707097
 20
-40.386282049597199
 30
0.0
  0
VERTEX
  5
245F
  8
SAPA_PROFIL
 10
-50.52942376070709
 20
-66.70026167467212
 30
0.0
 42
0.2679491924311169
  0
VERTEX
  5
2460
  8
SAPA_PROFIL
 10
-50.279423760707097
 20
-67.13327437656433
 30
0.0
  0
VERTEX
  5
2461
  8
SAPA_PROFIL
 10
-48.529423763319912
 20
-68.143637346137737
 30
0.0
 42
-0.2679491924311169
  0
VERTEX
  5
2462
  8
SAPA_PROFIL
 10
-48.02942376331994
 20
-69.009662749922157
 30
0.0
  0
VERTEX
  5
2463
  8
SAPA_PROFIL
 10
-48.029423763319883
 20
-70.395303395977223
 30
0.0
 42
-0.5773502691897872
  0
VERTEX
  5
2464
  8
SAPA_PROFIL
 10
-48.329423763319959
 20
-70.568508476734067
 30
0.0
  0
VERTEX
  5
2465
  8
SAPA_PROFIL
 10
-49.929423763319953
 20
-69.644748046030671
 30
0.0
  0
VERTEX
  5
2466
  8
SAPA_PROFIL
 10
-50.229423763320071
 20
-69.644748046030756
 30
0.0
 42
0.4142135623730259
  0
VERTEX
  5
2467
  8
SAPA_PROFIL
 10
-50.52942376332004
 20
-69.944748046030739
 30
0.0
  0
VERTEX
  5
2468
  8
SAPA_PROFIL
 10
-50.529423763319947
 20
-73.797534450530733
 30
0.0
 42
-0.2134217652834384
  0
VERTEX
  5
2469
  8
SAPA_PROFIL
 10
-50.629423763320069
 20
-74.021141248280813
 30
0.0
 42
0.7625858545243262
  0
VERTEX
  5
246A
  8
SAPA_PROFIL
 10
-50.444844561122608
 20
-74.351467329297833
 30
0.0
  0
VERTEX
  5
246B
  8
SAPA_PROFIL
 10
-50.25346156112888
 20
-74.293393692308754
 30
0.0
  0
VERTEX
  5
246C
  8
SAPA_PROFIL
 10
-48.367617869267832
 20
-73.208829245337014
 30
0.0
  0
SEQEND
  5
246D
  8
SAPA_PROFIL
  0
POLYLINE
  5
1AAC
  8
SAPA_PROFIL
 66
     1
 10
0.0
 20
0.0
 30
0.0
 70
     1
  0
VERTEX
  5
246E
  8
SAPA_PROFIL
 10
-70.629423758833497
 20
-65.343271862119664
 30
0.0
  0
VERTEX
  5
246F
  8
SAPA_PROFIL
 10
-70.529423760205518
 20
-65.343271862119664
 30
0.0
 42
-0.4142135622516611
  0
VERTEX
  5
2470
  8
SAPA_PROFIL
 10
-70.229423760205535
 20
-65.643271861995331
 30
0.0
  0
VERTEX
  5
2471
  8
SAPA_PROFIL
 10
-70.229423759625135
 20
-67.043271861995336
 30
0.0
 42
-0.4142135624945125
  0
VERTEX
  5
2472
  8
SAPA_PROFIL
 10
-70.529423759625132
 20
-67.343271862119721
 30
0.0
  0
VERTEX
  5
2473
  8
SAPA_PROFIL
 10
-70.629423758671564
 20
-67.343271862119721
 30
0.0
 42
0.4142135623731471
  0
VERTEX
  5
2474
  8
SAPA_PROFIL
 10
-70.829423758671595
 20
-67.543271862119767
 30
0.0
  0
VERTEX
  5
2475
  8
SAPA_PROFIL
 10
-70.829423758671638
 20
-69.04327186211971
 30
0.0
 42
0.4142135623731054
  0
VERTEX
  5
2476
  8
SAPA_PROFIL
 10
-70.529423758671655
 20
-69.343271862119721
 30
0.0
  0
VERTEX
  5
2477
  8
SAPA_PROFIL
 10
-52.529423754904442
 20
-69.343271862119806
 30
0.0
 42
0.4142135623731054
  0
VERTEX
  5
2478
  8
SAPA_PROFIL
 10
-52.229423754904438
 20
-69.043271862119795
 30
0.0
  0
VERTEX
  5
2479
  8
SAPA_PROFIL
 10
-52.229423754904502
 20
-67.543271862119795
 30
0.0
 42
0.4142135623730992
  0
VERTEX
  5
247A
  8
SAPA_PROFIL
 10
-52.429423754904491
 20
-67.343271862119806
 30
0.0
  0
VERTEX
  5
247B
  8
SAPA_PROFIL
 10
-52.529423754904599
 20
-67.343271862119806
 30
0.0
 42
-0.4142135623730847
  0
VERTEX
  5
247C
  8
SAPA_PROFIL
 10
-52.829423754904582
 20
-67.043271862119795
 30
0.0
  0
VERTEX
  5
247D
  8
SAPA_PROFIL
 10
-52.829423754904553
 20
-65.643271862119732
 30
0.0
 42
-0.4142135623730514
  0
VERTEX
  5
247E
  8
SAPA_PROFIL
 10
-52.529423754904599
 20
-65.343271862119735
 30
0.0
  0
VERTEX
  5
247F
  8
SAPA_PROFIL
 10
-52.429423754904491
 20
-65.343271862119735
 30
0.0
 42
0.4142135623730784
  0
VERTEX
  5
2480
  8
SAPA_PROFIL
 10
-52.229423754904502
 20
-65.143271862119732
 30
0.0
  0
VERTEX
  5
2481
  8
SAPA_PROFIL
 10
-52.229423754904538
 20
-41.943271862149622
 30
0.0
 42
0.4142135623731138
  0
VERTEX
  5
2482
  8
SAPA_PROFIL
 10
-52.429423754904548
 20
-41.743271862149598
 30
0.0
  0
VERTEX
  5
2483
  8
SAPA_PROFIL
 10
-52.529423754904528
 20
-41.743271862149598
 30
0.0
 42
-0.4142135623731054
  0
VERTEX
  5
2484
  8
SAPA_PROFIL
 10
-52.829423754904539
 20
-41.443271862149587
 30
0.0
  0
VERTEX
  5
2485
  8
SAPA_PROFIL
 10
-52.829423754904539
 20
-40.043271862149552
 30
0.0
 42
-0.4142135623730826
  0
VERTEX
  5
2486
  8
SAPA_PROFIL
 10
-52.529423754904549
 20
-39.743271862149541
 30
0.0
  0
VERTEX
  5
2487
  8
SAPA_PROFIL
 10
-52.429423754904548
 20
-39.743271862149541
 30
0.0
 42
0.4142135623731179
  0
VERTEX
  5
2488
  8
SAPA_PROFIL
 10
-52.229423754904587
 20
-39.543271862149552
 30
0.0
  0
VERTEX
  5
2489
  8
SAPA_PROFIL
 10
-52.229423754904488
 20
-38.043271862149687
 30
0.0
 42
0.4142135623731138
  0
VERTEX
  5
248A
  8
SAPA_PROFIL
 10
-52.529423754904478
 20
-37.743271862149669
 30
0.0
  0
VERTEX
  5
248B
  8
SAPA_PROFIL
 10
-70.529423765346621
 20
-37.743271862149427
 30
0.0
 42
0.4142135624877945
  0
VERTEX
  5
248C
  8
SAPA_PROFIL
 10
-70.829423765346618
 20
-38.043271862266913
 30
0.0
  0
VERTEX
  5
248D
  8
SAPA_PROFIL
 10
-70.829423764720033
 20
-39.543271862227833
 30
0.0
 42
0.4142135622583851
  0
VERTEX
  5
248E
  8
SAPA_PROFIL
 10
-70.629423764720016
 20
-39.743271862149477
 30
0.0
  0
VERTEX
  5
248F
  8
SAPA_PROFIL
 10
-70.529423764517261
 20
-39.743271862149513
 30
0.0
 42
-0.4142135622515569
  0
VERTEX
  5
2490
  8
SAPA_PROFIL
 10
-70.229423764517364
 20
-40.043271862025122
 30
0.0
  0
VERTEX
  5
2491
  8
SAPA_PROFIL
 10
-70.229423763936879
 20
-41.443271862025213
 30
0.0
 42
-0.4142135624945311
  0
VERTEX
  5
2492
  8
SAPA_PROFIL
 10
-70.529423763936862
 20
-41.743271862149591
 30
0.0
  0
VERTEX
  5
2493
  8
SAPA_PROFIL
 10
-70.629423765309056
 20
-41.743271862149591
 30
0.0
 42
0.4142135626101151
  0
VERTEX
  5
2494
  8
SAPA_PROFIL
 10
-70.829423765309031
 20
-41.943271862311413
 30
0.0
  0
VERTEX
  5
2495
  8
SAPA_PROFIL
 10
-70.829423758833585
 20
-65.143271862281622
 30
0.0
 42
0.414213562136048
  0
SEQEND
  5
2496
  8
SAPA_PROFIL
  0
POLYLINE
  5
1AAD
  8
SAPA_PROFIL
 66
     1
 10
0.0
 20
0.0
 30
0.0
 70
     1
  0
VERTEX
  5
2497
  8
SAPA_PROFIL
 10
13.17057623936056
 20
-31.043271862120019
 30
0.0
 42
-0.4142879064819451
  0
VERTEX
  5
2498
  8
SAPA_PROFIL
 10
13.470576229697111
 20
-31.343348008117061
 30
0.0
  0
VERTEX
  5
2499
  8
SAPA_PROFIL
 10
13.47057622970053
 20
-75.743195730537906
 30
0.0
 42
-0.4142878924076678
  0
VERTEX
  5
249A
  8
SAPA_PROFIL
 10
13.17057623936056
 20
-76.043271862119937
 30
0.0
  0
VERTEX
  5
249B
  8
SAPA_PROFIL
 10
10.58195980600116
 20
-76.043271862119923
 30
0.0
 42
-0.2596812337300058
  0
VERTEX
  5
249C
  8
SAPA_PROFIL
 10
10.411928994461141
 20
-75.948578666871796
 30
0.0
  0
VERTEX
  5
249D
  8
SAPA_PROFIL
 10
9.515530017218861
 20
-74.501232069247735
 30
0.0
 42
-0.5877032589249577
  0
VERTEX
  5
249E
  8
SAPA_PROFIL
 10
9.7705762345289564
 20
-74.043271862119994
 30
0.0
  0
VERTEX
  5
249F
  8
SAPA_PROFIL
 10
11.17057623452896
 20
-74.043271862120022
 30
0.0
 42
0.414213562373088
  0
VERTEX
  5
24A0
  8
SAPA_PROFIL
 10
11.470576234528959
 20
-73.743271862120039
 30
0.0
  0
VERTEX
  5
24A1
  8
SAPA_PROFIL
 10
11.470576234528959
 20
-71.343271862120034
 30
0.0
 42
0.4142135623730882
  0
VERTEX
  5
24A2
  8
SAPA_PROFIL
 10
11.17057623452896
 20
-71.043271862120022
 30
0.0
  0
VERTEX
  5
24A3
  8
SAPA_PROFIL
 10
-6.2294237654710427
 20
-71.043271862120022
 30
0.0
 42
0.4142135623730951
  0
VERTEX
  5
24A4
  8
SAPA_PROFIL
 10
-6.5294237654710541
 20
-71.343271862120034
 30
0.0
  0
VERTEX
  5
24A5
  8
SAPA_PROFIL
 10
-6.5294237654711331
 20
-73.743271862120039
 30
0.0
 42
0.4142135623729892
  0
VERTEX
  5
24A6
  8
SAPA_PROFIL
 10
-6.2294237654710427
 20
-74.043271862120022
 30
0.0
  0
VERTEX
  5
24A7
  8
SAPA_PROFIL
 10
-4.8294237654710521
 20
-74.043271862120022
 30
0.0
 42
-0.5920056181179401
  0
VERTEX
  5
24A8
  8
SAPA_PROFIL
 10
-4.5764150091541138
 20
-74.50447536464668
 30
0.0
  0
VERTEX
  5
24A9
  8
SAPA_PROFIL
 10
-5.3704680153305624
 20
-75.75074086380441
 30
0.0
 42
-0.2562769736732679
  0
VERTEX
  5
24AA
  8
SAPA_PROFIL
 10
-5.5391405195419203
 20
-75.843271862119877
 30
0.0
  0
VERTEX
  5
24AB
  8
SAPA_PROFIL
 10
-8.5354074339890751
 20
-75.843271862119892
 30
0.0
  0
VERTEX
  5
24AC
  8
SAPA_PROFIL
 10
-9.8527051102243082
 20
-75.334125462808942
 30
0.0
 42
0.4142135623730951
  0
VERTEX
  5
24AD
  8
SAPA_PROFIL
 10
-10.22689006570012
 20
-75.534089507316324
 30
0.0
  0
VERTEX
  5
24AE
  8
SAPA_PROFIL
 10
-10.241408474947219
 20
-75.581935257314825
 30
0.0
  0
VERTEX
  5
24AF
  8
SAPA_PROFIL
 10
-11.74450955570923
 20
-75.582018865198478
 30
0.0
 42
-0.476975532698163
  0
VERTEX
  5
24B0
  8
SAPA_PROFIL
 10
-12.0467623802157
 20
-75.210361990252594
 30
0.0
  0
VERTEX
  5
24B1
  8
SAPA_PROFIL
 10
-11.66531578408798
 20
-73.397131519594353
 30
0.0
 42
-0.221694662643018
  0
VERTEX
  5
24B2
  8
SAPA_PROFIL
 10
-11.2595068789332
 20
-72.856251688117553
 30
0.0
  0
VERTEX
  5
24B3
  8
SAPA_PROFIL
 10
-10.97482459570155
 20
-72.704117777008804
 30
0.0
 42
-0.5773502691897493
  0
VERTEX
  5
24B4
  8
SAPA_PROFIL
 10
-10.68066829544671
 20
-72.887071517118954
 30
0.0
  0
VERTEX
  5
24B5
  8
SAPA_PROFIL
 10
-10.69122966167369
 20
-73.208829245337228
 30
0.0
  0
VERTEX
  5
24B6
  8
SAPA_PROFIL
 10
-8.8053859698126367
 20
-74.293393692308968
 30
0.0
  0
VERTEX
  5
24B7
  8
SAPA_PROFIL
 10
-8.614002969818916
 20
-74.35146732929806
 30
0.0
 42
0.7625858545243216
  0
VERTEX
  5
24B8
  8
SAPA_PROFIL
 10
-8.4294237676214401
 20
-74.02114124828104
 30
0.0
 42
-0.2134217652834399
  0
VERTEX
  5
24B9
  8
SAPA_PROFIL
 10
-8.5294237676215623
 20
-73.797534450530932
 30
0.0
  0
VERTEX
  5
24BA
  8
SAPA_PROFIL
 10
-8.5294237676216333
 20
-69.944748046030909
 30
0.0
 42
0.4142135623730898
  0
VERTEX
  5
24BB
  8
SAPA_PROFIL
 10
-8.8294237676216518
 20
-69.644748046030912
 30
0.0
  0
VERTEX
  5
24BC
  8
SAPA_PROFIL
 10
-9.1294237676217485
 20
-69.644748046030912
 30
0.0
  0
VERTEX
  5
24BD
  8
SAPA_PROFIL
 10
-10.72942376762165
 20
-70.568508476734209
 30
0.0
 42
-0.5773502691898973
  0
VERTEX
  5
24BE
  8
SAPA_PROFIL
 10
-11.02942376762163
 20
-70.395303395977322
 30
0.0
  0
VERTEX
  5
24BF
  8
SAPA_PROFIL
 10
-11.02942376762163
 20
-69.009662749922299
 30
0.0
 42
-0.2679491924311269
  0
VERTEX
  5
24C0
  8
SAPA_PROFIL
 10
-10.52942376762163
 20
-68.143637346137837
 30
0.0
  0
VERTEX
  5
24C1
  8
SAPA_PROFIL
 10
-8.7794237702345619
 20
-67.1332743765646
 30
0.0
 42
0.2679491924311212
  0
VERTEX
  5
24C2
  8
SAPA_PROFIL
 10
-8.5294237702345619
 20
-66.70026167467239
 30
0.0
  0
VERTEX
  5
24C3
  8
SAPA_PROFIL
 10
-8.5294237702345619
 20
-40.38628204956774
 30
0.0
 42
0.2679491924311136
  0
VERTEX
  5
24C4
  8
SAPA_PROFIL
 10
-8.7794237702345477
 20
-39.95326934767553
 30
0.0
  0
VERTEX
  5
24C5
  8
SAPA_PROFIL
 10
-10.52942376762163
 20
-38.94290637810213
 30
0.0
 42
-0.2679491924311166
  0
VERTEX
  5
24C6
  8
SAPA_PROFIL
 10
-11.02942376762163
 20
-38.076880974317731
 30
0.0
  0
VERTEX
  5
24C7
  8
SAPA_PROFIL
 10
-11.02942376762163
 20
-36.691240328262637
 30
0.0
 42
-0.577350269189614
  0
VERTEX
  5
24C8
  8
SAPA_PROFIL
 10
-10.72942376762165
 20
-36.518035247505743
 30
0.0
  0
VERTEX
  5
24C9
  8
SAPA_PROFIL
 10
-9.1294237676217485
 20
-37.441795678209132
 30
0.0
  0
VERTEX
  5
24CA
  8
SAPA_PROFIL
 10
-8.8294237676216518
 20
-37.441795678209061
 30
0.0
 42
0.4142135623730083
  0
VERTEX
  5
24CB
  8
SAPA_PROFIL
 10
-8.5294237676216333
 20
-37.141795678209128
 30
0.0
  0
VERTEX
  5
24CC
  8
SAPA_PROFIL
 10
-8.5294237676216333
 20
-33.289009273709127
 30
0.0
 42
-0.2134217652834394
  0
VERTEX
  5
24CD
  8
SAPA_PROFIL
 10
-8.4294237676214898
 20
-33.065402475959011
 30
0.0
 42
0.7625858545243364
  0
VERTEX
  5
24CE
  8
SAPA_PROFIL
 10
-8.6140029698189782
 20
-32.735076394942013
 30
0.0
  0
VERTEX
  5
24CF
  8
SAPA_PROFIL
 10
-8.8053859698126935
 20
-32.793150031931091
 30
0.0
  0
VERTEX
  5
24D0
  8
SAPA_PROFIL
 10
-10.69122966167375
 20
-33.877714478902831
 30
0.0
  0
VERTEX
  5
24D1
  8
SAPA_PROFIL
 10
-10.680668295446781
 20
-34.199472207121083
 30
0.0
 42
-0.5773502691897365
  0
VERTEX
  5
24D2
  8
SAPA_PROFIL
 10
-10.974824595701589
 20
-34.382425947231262
 30
0.0
  0
VERTEX
  5
24D3
  8
SAPA_PROFIL
 10
-11.259506878933241
 20
-34.230292036122492
 30
0.0
 42
-0.2216946626430184
  0
VERTEX
  5
24D4
  8
SAPA_PROFIL
 10
-11.66531578408804
 20
-33.689412204645713
 30
0.0
  0
VERTEX
  5
24D5
  8
SAPA_PROFIL
 10
-12.04676238021576
 20
-31.876181733987451
 30
0.0
 42
-0.4769755326981641
  0
VERTEX
  5
24D6
  8
SAPA_PROFIL
 10
-11.744509555709289
 20
-31.504524859041599
 30
0.0
  0
VERTEX
  5
24D7
  8
SAPA_PROFIL
 10
-10.24140847494728
 20
-31.50460846692523
 30
0.0
  0
VERTEX
  5
24D8
  8
SAPA_PROFIL
 10
-10.22689006570018
 20
-31.552454216923721
 30
0.0
 42
0.4142135623730951
  0
VERTEX
  5
24D9
  8
SAPA_PROFIL
 10
-9.8527051102243668
 20
-31.752418261431121
 30
0.0
  0
VERTEX
  5
24DA
  8
SAPA_PROFIL
 10
-8.5354074339887962
 20
-31.243271862120011
 30
0.0
  0
VERTEX
  5
24DB
  8
SAPA_PROFIL
 10
-5.5391405198760166
 20
-31.243271862120029
 30
0.0
 42
-0.2562769743570819
  0
VERTEX
  5
24DC
  8
SAPA_PROFIL
 10
-5.3704680153888118
 20
-31.33580286086843
 30
0.0
  0
VERTEX
  5
24DD
  8
SAPA_PROFIL
 10
-4.5764150135718502
 20
-32.582068360242552
 30
0.0
 42
-0.5920056172513317
  0
VERTEX
  5
24DE
  8
SAPA_PROFIL
 10
-4.8294237703026566
 20
-33.043271862119923
 30
0.0
  0
VERTEX
  5
24DF
  8
SAPA_PROFIL
 10
-6.229423770302648
 20
-33.043271862120022
 30
0.0
 42
0.4142135623730916
  0
VERTEX
  5
24E0
  8
SAPA_PROFIL
 10
-6.5294237703026532
 20
-33.343271862120041
 30
0.0
  0
VERTEX
  5
24E1
  8
SAPA_PROFIL
 10
-6.5294237703025599
 20
-35.743271862120018
 30
0.0
 42
0.4142135623730118
  0
VERTEX
  5
24E2
  8
SAPA_PROFIL
 10
-6.229423770302648
 20
-36.043271862120022
 30
0.0
  0
VERTEX
  5
24E3
  8
SAPA_PROFIL
 10
11.17057622969735
 20
-36.043271862119923
 30
0.0
 42
0.4142135623730948
  0
VERTEX
  5
24E4
  8
SAPA_PROFIL
 10
11.47057622969745
 20
-35.743271862120018
 30
0.0
  0
VERTEX
  5
24E5
  8
SAPA_PROFIL
 10
11.47057622969727
 20
-33.343271862120041
 30
0.0
 42
0.4142135623732061
  0
VERTEX
  5
24E6
  8
SAPA_PROFIL
 10
11.17057622969735
 20
-33.043271862120022
 30
0.0
  0
VERTEX
  5
24E7
  8
SAPA_PROFIL
 10
9.7705762296973653
 20
-33.043271862119923
 30
0.0
 42
-0.5877032589248845
  0
VERTEX
  5
24E8
  8
SAPA_PROFIL
 10
9.5155300123872557
 20
-32.585311654992331
 30
0.0
  0
VERTEX
  5
24E9
  8
SAPA_PROFIL
 10
10.41192898962945
 20
-31.137965057368131
 30
0.0
 42
-0.2596812337301443
  0
VERTEX
  5
24EA
  8
SAPA_PROFIL
 10
10.58195980116956
 20
-31.043271862120019
 30
0.0
  0
SEQEND
  5
24EB
  8
SAPA_PROFIL
  0
POLYLINE
  5
1AAE
  8
SAPA_PROFIL
 66
     1
 10
0.0
 20
0.0
 30
0.0
 70
     1
  0
VERTEX
  5
24EC
  8
SAPA_PROFIL
 10
11.17057623936045
 20
-40.043271862120022
 30
0.0
  0
VERTEX
  5
24ED
  8
SAPA_PROFIL
 10
11.17057623936047
 20
-41.443271862120021
 30
0.0
 42
0.4142135623731021
  0
VERTEX
  5
24EE
  8
SAPA_PROFIL
 10
11.470576239360449
 20
-41.743271862120032
 30
0.0
  0
VERTEX
  5
24EF
  8
SAPA_PROFIL
 10
11.57057623936044
 20
-41.743271862120032
 30
0.0
 42
-0.4142135623730847
  0
VERTEX
  5
24F0
  8
SAPA_PROFIL
 10
11.77057623936046
 20
-41.943271862120021
 30
0.0
  0
VERTEX
  5
24F1
  8
SAPA_PROFIL
 10
11.77057623936046
 20
-65.143271862119931
 30
0.0
 42
-0.41421356237309
  0
VERTEX
  5
24F2
  8
SAPA_PROFIL
 10
11.57057623936044
 20
-65.343271862119934
 30
0.0
  0
VERTEX
  5
24F3
  8
SAPA_PROFIL
 10
11.470576239360449
 20
-65.343271862120048
 30
0.0
 42
0.4142135623731055
  0
VERTEX
  5
24F4
  8
SAPA_PROFIL
 10
11.17057623936045
 20
-65.643271862120045
 30
0.0
  0
VERTEX
  5
24F5
  8
SAPA_PROFIL
 10
11.17057623936045
 20
-67.043271862119923
 30
0.0
 42
0.4142135623731991
  0
VERTEX
  5
24F6
  8
SAPA_PROFIL
 10
11.470576239360449
 20
-67.343271862120048
 30
0.0
  0
VERTEX
  5
24F7
  8
SAPA_PROFIL
 10
11.57057623936044
 20
-67.343271862120048
 30
0.0
 42
-0.4142135623730898
  0
VERTEX
  5
24F8
  8
SAPA_PROFIL
 10
11.77057623936035
 20
-67.543271862119951
 30
0.0
  0
VERTEX
  5
24F9
  8
SAPA_PROFIL
 10
11.770576239360549
 20
-69.043271862119909
 30
0.0
 42
-0.4142135623731019
  0
VERTEX
  5
24FA
  8
SAPA_PROFIL
 10
11.470576239360559
 20
-69.34327186211992
 30
0.0
  0
VERTEX
  5
24FB
  8
SAPA_PROFIL
 10
-6.5294237644062489
 20
-69.34327186211992
 30
0.0
 42
-0.4142135623730951
  0
VERTEX
  5
24FC
  8
SAPA_PROFIL
 10
-6.8294237644062461
 20
-69.043271862119923
 30
0.0
  0
VERTEX
  5
24FD
  8
SAPA_PROFIL
 10
-6.8294237644062461
 20
-67.543271862120037
 30
0.0
 42
-0.4142135623730795
  0
VERTEX
  5
24FE
  8
SAPA_PROFIL
 10
-6.6294237644063427
 20
-67.343271862119963
 30
0.0
  0
VERTEX
  5
24FF
  8
SAPA_PROFIL
 10
-6.5294237653599039
 20
-67.343271862120048
 30
0.0
 42
0.4142135624945151
  0
VERTEX
  5
2500
  8
SAPA_PROFIL
 10
-6.2294237653599067
 20
-67.043271861995663
 30
0.0
  0
VERTEX
  5
2501
  8
SAPA_PROFIL
 10
-6.2294237659402931
 20
-65.643271861995657
 30
0.0
 42
0.414213562251668
  0
VERTEX
  5
2502
  8
SAPA_PROFIL
 10
-6.5294237659402974
 20
-65.343271862120048
 30
0.0
  0
VERTEX
  5
2503
  8
SAPA_PROFIL
 10
-6.6294237645682621
 20
-65.343271862120048
 30
0.0
 42
-0.4142135621360074
  0
VERTEX
  5
2504
  8
SAPA_PROFIL
 10
-6.829423764568392
 20
-65.143271862281821
 30
0.0
  0
VERTEX
  5
2505
  8
SAPA_PROFIL
 10
-6.8294237710437393
 20
-41.943271862281918
 30
0.0
 42
-0.4142135626101672
  0
VERTEX
  5
2506
  8
SAPA_PROFIL
 10
-6.6294237710437569
 20
-41.743271862120032
 30
0.0
  0
VERTEX
  5
2507
  8
SAPA_PROFIL
 10
-6.5294237696716273
 20
-41.743271862120032
 30
0.0
 42
0.4142135624945428
  0
VERTEX
  5
2508
  8
SAPA_PROFIL
 10
-6.229423769671623
 20
-41.443271861995633
 30
0.0
  0
VERTEX
  5
2509
  8
SAPA_PROFIL
 10
-6.2294237702520858
 20
-40.043271861995628
 30
0.0
 42
0.4142135622516402
  0
VERTEX
  5
250A
  8
SAPA_PROFIL
 10
-6.5294237702520981
 20
-39.743271862120032
 30
0.0
  0
VERTEX
  5
250B
  8
SAPA_PROFIL
 10
-6.6294237704547534
 20
-39.743271862120032
 30
0.0
 42
-0.414213562258404
  0
VERTEX
  5
250C
  8
SAPA_PROFIL
 10
-6.8294237704547562
 20
-39.543271862198338
 30
0.0
  0
VERTEX
  5
250D
  8
SAPA_PROFIL
 10
-6.8294237710787691
 20
-38.043271862244822
 30
0.0
 42
-0.4142135624949383
  0
VERTEX
  5
250E
  8
SAPA_PROFIL
 10
-6.5294237710787639
 20
-37.743271862120032
 30
0.0
  0
VERTEX
  5
250F
  8
SAPA_PROFIL
 10
11.470576239360479
 20
-37.743271862120032
 30
0.0
 42
-0.4142135623730882
  0
VERTEX
  5
2510
  8
SAPA_PROFIL
 10
11.77057623936046
 20
-38.043271862120008
 30
0.0
  0
VERTEX
  5
2511
  8
SAPA_PROFIL
 10
11.77057623936056
 20
-39.543271862120037
 30
0.0
 42
-0.4142135623730847
  0
VERTEX
  5
2512
  8
SAPA_PROFIL
 10
11.570576239360561
 20
-39.743271862120032
 30
0.0
  0
VERTEX
  5
2513
  8
SAPA_PROFIL
 10
11.470576239360449
 20
-39.743271862120032
 30
0.0
 42
0.4142135623730881
  0
SEQEND
  5
2514
  8
SAPA_PROFIL
  0
POLYLINE
  5
1AAF
  8
SAPA_PROFIL
 62
     4
 66
     1
 10
0.0
 20
0.0
 30
0.0
  0
VERTEX
  5
2515
  8
SAPA_PROFIL
 62
     4
 10
-20.480094643072949
 20
-73.110990776280275
 30
0.0
 42
0.5571646428658034
  0
VERTEX
  5
2516
  8
SAPA_PROFIL
 62
     4
 10
-21.017055147209771
 20
-72.243271862124715
 30
0.0
  0
VERTEX
  5
2517
  8
SAPA_PROFIL
 62
     4
 10
-38.041792383730971
 20
-72.243271862125184
 30
0.0
 42
0.5571645048035741
  0
VERTEX
  5
2518
  8
SAPA_PROFIL
 62
     4
 10
-38.578753000692032
 20
-73.110990549991342
 30
0.0
  0
VERTEX
  5
2519
  8
SAPA_PROFIL
 62
     4
 10
-37.748045913145333
 20
-74.77713120605938
 30
0.0
 42
0.284385813979063
  0
VERTEX
  5
251A
  8
SAPA_PROFIL
 62
     4
 10
-37.479565604664977
 20
-74.943271862126821
 30
0.0
  0
VERTEX
  5
251B
  8
SAPA_PROFIL
 62
     4
 10
-21.579281926275669
 20
-74.943271862126807
 30
0.0
 42
0.2843858139786238
  0
VERTEX
  5
251C
  8
SAPA_PROFIL
 62
     4
 10
-21.310801617795381
 20
-74.777131206059863
 30
0.0
  0
VERTEX
  5
251D
  8
SAPA_PROFIL
 62
     4
 10
-20.48009453024822
 20
-73.110990549990532
 30
0.0
  0
SEQEND
  5
251E
  8
SAPA_PROFIL
 62
     4
  0
POLYLINE
  5
1AB0
  8
SAPA_PROFIL
 62
     4
 66
     1
 10
0.0
 20
0.0
 30
0.0
 70
     1
  0
VERTEX
  5
251F
  8
SAPA_PROFIL
 62
     4
 10
-43.947034950137621
 20
-75.300103376624392
 30
0.0
  0
VERTEX
  5
2520
  8
SAPA_PROFIL
 62
     4
 10
-44.211058228513622
 20
-75.706663572628528
 30
0.0
 42
-0.2539676464751066
  0
VERTEX
  5
2521
  8
SAPA_PROFIL
 62
     4
 10
-44.462659398898332
 20
-75.843271862124638
 30
0.0
  0
VERTEX
  5
2522
  8
SAPA_PROFIL
 62
     4
 10
-45.844158984103693
 20
-75.843271862124638
 30
0.0
 42
-0.3152987888790479
  0
VERTEX
  5
2523
  8
SAPA_PROFIL
 62
     4
 10
-46.314005294495992
 20
-75.514281933786464
 30
0.0
  0
VERTEX
  5
2524
  8
SAPA_PROFIL
 62
     4
 10
-47.209674235404599
 20
-73.053451743335202
 30
0.0
 42
0.2694959974287434
  0
VERTEX
  5
2525
  8
SAPA_PROFIL
 62
     4
 10
-47.441193281805958
 20
-72.860319768991303
 30
0.0
 42
0.0612686379508233
  0
VERTEX
  5
2526
  8
SAPA_PROFIL
 62
     4
 10
-47.733868714659231
 20
-72.846736398360775
 30
0.0
  0
VERTEX
  5
2527
  8
SAPA_PROFIL
 62
     4
 10
-48.083286891967497
 20
-72.644999719631954
 30
0.0
 42
0.5773502691891679
  0
VERTEX
  5
2528
  8
SAPA_PROFIL
 62
     4
 10
-48.398286891967089
 20
-72.826865054426534
 30
0.0
  0
VERTEX
  5
2529
  8
SAPA_PROFIL
 62
     4
 10
-48.398286891967331
 20
-73.093979582552848
 30
0.0
  0
VERTEX
  5
252A
  8
SAPA_PROFIL
 62
     4
 10
-49.796814592601592
 20
-73.902663043861153
 30
0.0
 42
-0.1318219888653519
  0
VERTEX
  5
252B
  8
SAPA_PROFIL
 62
     4
 10
-49.946987695073929
 20
-73.942955440398563
 30
0.0
  0
VERTEX
  5
252C
  8
SAPA_PROFIL
 62
     4
 10
-50.129423765510701
 20
-73.942955440392197
 30
0.0
 42
-0.4142135623724291
  0
VERTEX
  5
252D
  8
SAPA_PROFIL
 62
     4
 10
-50.529423765511261
 20
-73.542955440392561
 30
0.0
  0
VERTEX
  5
252E
  8
SAPA_PROFIL
 62
     4
 10
-50.52942376550989
 20
-70.14295544039156
 30
0.0
 42
-0.4142135623744271
  0
VERTEX
  5
252F
  8
SAPA_PROFIL
 62
     4
 10
-50.129423765510701
 20
-69.74295544039056
 30
0.0
  0
VERTEX
  5
2530
  8
SAPA_PROFIL
 62
     4
 10
-49.949808523239412
 20
-69.74295544038992
 30
0.0
 42
-0.1316524975874005
  0
VERTEX
  5
2531
  8
SAPA_PROFIL
 62
     4
 10
-49.799808523242589
 20
-69.783147819255504
 30
0.0
  0
VERTEX
  5
2532
  8
SAPA_PROFIL
 62
     4
 10
-48.195670626240343
 20
-70.709297265908035
 30
0.0
 42
0.1316524975875904
  0
VERTEX
  5
2533
  8
SAPA_PROFIL
 62
     4
 10
-47.695670626238623
 20
-70.843271862122819
 30
0.0
  0
VERTEX
  5
2534
  8
SAPA_PROFIL
 62
     4
 10
-47.279423765511247
 20
-70.843271862122819
 30
0.0
 42
0.4142135623730951
  0
VERTEX
  5
2535
  8
SAPA_PROFIL
 62
     4
 10
-46.279423765511247
 20
-69.843271862122819
 30
0.0
  0
VERTEX
  5
2536
  8
SAPA_PROFIL
 62
     4
 10
-46.279423765511247
 20
-66.843271862125547
 30
0.0
 42
-0.9999996830128083
  0
VERTEX
  5
2537
  8
SAPA_PROFIL
 62
     4
 10
-45.279423765511247
 20
-66.843271862123729
 30
0.0
  0
VERTEX
  5
2538
  8
SAPA_PROFIL
 62
     4
 10
-45.279423765511247
 20
-69.843271862123729
 30
0.0
 42
0.4142135623730951
  0
VERTEX
  5
2539
  8
SAPA_PROFIL
 62
     4
 10
-44.279423765511247
 20
-70.843271862123729
 30
0.0
  0
VERTEX
  5
253A
  8
SAPA_PROFIL
 62
     4
 10
-14.779423765426669
 20
-70.843271862123714
 30
0.0
 42
0.4142135623730951
  0
VERTEX
  5
253B
  8
SAPA_PROFIL
 62
     4
 10
-13.779423765426669
 20
-69.843271862123714
 30
0.0
  0
VERTEX
  5
253C
  8
SAPA_PROFIL
 62
     4
 10
-13.779423765426669
 20
-66.843271862125533
 30
0.0
 42
-0.9999999999999998
  0
VERTEX
  5
253D
  8
SAPA_PROFIL
 62
     4
 10
-12.779423765426669
 20
-66.843271862125533
 30
0.0
  0
VERTEX
  5
253E
  8
SAPA_PROFIL
 62
     4
 10
-12.779423765426669
 20
-69.843271862123714
 30
0.0
 42
0.4142135623736278
  0
VERTEX
  5
253F
  8
SAPA_PROFIL
 62
     4
 10
-11.779423765426669
 20
-70.843271862123714
 30
0.0
  0
VERTEX
  5
2540
  8
SAPA_PROFIL
 62
     4
 10
-11.363176904700209
 20
-70.843271862123714
 30
0.0
 42
0.1316524975874375
  0
VERTEX
  5
2541
  8
SAPA_PROFIL
 62
     4
 10
-10.86317690470001
 20
-70.709297265907679
 30
0.0
  0
VERTEX
  5
2542
  8
SAPA_PROFIL
 62
     4
 10
-9.2590390076980622
 20
-69.783147819255504
 30
0.0
 42
-0.1316524975874
  0
VERTEX
  5
2543
  8
SAPA_PROFIL
 62
     4
 10
-9.1090390076985202
 20
-69.74295544038992
 30
0.0
  0
VERTEX
  5
2544
  8
SAPA_PROFIL
 62
     4
 10
-8.9294237654272166
 20
-69.742955440390546
 30
0.0
 42
-0.4142135623744271
  0
VERTEX
  5
2545
  8
SAPA_PROFIL
 62
     4
 10
-8.5294237654280352
 20
-70.142955440391546
 30
0.0
  0
VERTEX
  5
2546
  8
SAPA_PROFIL
 62
     4
 10
-8.5294237654266691
 20
-73.542955440392547
 30
0.0
 42
-0.4142135623724291
  0
VERTEX
  5
2547
  8
SAPA_PROFIL
 62
     4
 10
-8.9294237654272166
 20
-73.942955440392183
 30
0.0
  0
VERTEX
  5
2548
  8
SAPA_PROFIL
 62
     4
 10
-9.1118598358639957
 20
-73.942955440398549
 30
0.0
 42
-0.1318219888653524
  0
VERTEX
  5
2549
  8
SAPA_PROFIL
 62
     4
 10
-9.2620329383363398
 20
-73.902663043861153
 30
0.0
  0
VERTEX
  5
254A
  8
SAPA_PROFIL
 62
     4
 10
-10.660560638815991
 20
-73.09397958263682
 30
0.0
  0
VERTEX
  5
254B
  8
SAPA_PROFIL
 62
     4
 10
-10.660560638815991
 20
-72.826865054423791
 30
0.0
 42
0.577350269189159
  0
VERTEX
  5
254C
  8
SAPA_PROFIL
 62
     4
 10
-10.97556063881559
 20
-72.644999719629226
 30
0.0
  0
VERTEX
  5
254D
  8
SAPA_PROFIL
 62
     4
 10
-11.32497881603425
 20
-72.846736398306334
 30
0.0
 42
0.0612687673629489
  0
VERTEX
  5
254E
  8
SAPA_PROFIL
 62
     4
 10
-11.617654249134469
 20
-72.860319768992539
 30
0.0
 42
0.2694959974285039
  0
VERTEX
  5
254F
  8
SAPA_PROFIL
 62
     4
 10
-11.849173295534991
 20
-73.053451743336481
 30
0.0
  0
VERTEX
  5
2550
  8
SAPA_PROFIL
 62
     4
 10
-12.744842236444651
 20
-75.514281933789647
 30
0.0
 42
-0.3152987888784035
  0
VERTEX
  5
2551
  8
SAPA_PROFIL
 62
     4
 10
-13.214688546837881
 20
-75.84327186212623
 30
0.0
  0
VERTEX
  5
2552
  8
SAPA_PROFIL
 62
     4
 10
-14.596188132042309
 20
-75.843271862124624
 30
0.0
 42
-0.2539676464741841
  0
VERTEX
  5
2553
  8
SAPA_PROFIL
 62
     4
 10
-14.84778930242639
 20
-75.706663572629353
 30
0.0
  0
VERTEX
  5
2554
  8
SAPA_PROFIL
 62
     4
 10
-15.111812580803029
 20
-75.300103376624378
 30
0.0
 42
-0.5862177598324623
  0
VERTEX
  5
2555
  8
SAPA_PROFIL
 62
     4
 10
-14.85607076556469
 20
-74.843271862127864
 30
0.0
  0
VERTEX
  5
2556
  8
SAPA_PROFIL
 62
     4
 10
-13.91489608505487
 20
-74.843271862135538
 30
0.0
 42
0.3152987888813165
  0
VERTEX
  5
2557
  8
SAPA_PROFIL
 62
     4
 10
-13.44504977465712
 20
-74.514281933798785
 30
0.0
  0
VERTEX
  5
2558
  8
SAPA_PROFIL
 62
     4
 10
-13.00828549353316
 20
-73.314281933787555
 30
0.0
 42
0.5205670505515651
  0
VERTEX
  5
2559
  8
SAPA_PROFIL
 62
     4
 10
-13.47813180392639
 20
-72.643271862124806
 30
0.0
  0
VERTEX
  5
255A
  8
SAPA_PROFIL
 62
     4
 10
-18.494572744595239
 20
-72.643271862124777
 30
0.0
 42
0.3702522326300203
  0
VERTEX
  5
255B
  8
SAPA_PROFIL
 62
     4
 10
-18.791096106388569
 20
-72.897731814790475
 30
0.0
 42
0.0982365330332397
  0
VERTEX
  5
255C
  8
SAPA_PROFIL
 62
     4
 10
-18.881548864599509
 20
-74.58541858978549
 30
0.0
 42
0.3735060174783164
  0
VERTEX
  5
255D
  8
SAPA_PROFIL
 62
     4
 10
-18.58452419668853
 20
-74.843271862125533
 30
0.0
  0
VERTEX
  5
255E
  8
SAPA_PROFIL
 62
     4
 10
-18.156070765565872
 20
-74.843271862126443
 30
0.0
 42
-0.5920056181162531
  0
VERTEX
  5
255F
  8
SAPA_PROFIL
 62
     4
 10
-17.903062009248469
 20
-75.304475364654365
 30
0.0
  0
VERTEX
  5
2560
  8
SAPA_PROFIL
 62
     4
 10
-18.164246085404169
 20
-75.706663572632664
 30
0.0
 42
-0.2539676464746725
  0
VERTEX
  5
2561
  8
SAPA_PROFIL
 62
     4
 10
-18.415847255787941
 20
-75.843271862128034
 30
0.0
  0
VERTEX
  5
2562
  8
SAPA_PROFIL
 62
     4
 10
-40.643000275153618
 20
-75.843271862126457
 30
0.0
 42
-0.2539676464741819
  0
VERTEX
  5
2563
  8
SAPA_PROFIL
 62
     4
 10
-40.89460144553648
 20
-75.706663572632664
 30
0.0
  0
VERTEX
  5
2564
  8
SAPA_PROFIL
 62
     4
 10
-41.155785521690277
 20
-75.304475364654337
 30
0.0
 42
-0.5920055144124249
  0
VERTEX
  5
2565
  8
SAPA_PROFIL
 62
     4
 10
-40.902776765374767
 20
-74.843271862126457
 30
0.0
  0
VERTEX
  5
2566
  8
SAPA_PROFIL
 62
     4
 10
-40.474323288084562
 20
-74.843271887401457
 30
0.0
 42
0.3735060174775405
  0
VERTEX
  5
2567
  8
SAPA_PROFIL
 62
     4
 10
-40.177298620174867
 20
-74.585418615061371
 30
0.0
 42
0.0355900683670349
  0
VERTEX
  5
2568
  8
SAPA_PROFIL
 62
     4
 10
-40.133405056142607
 20
-73.969545028261578
 30
0.0
 42
0.0624282003873116
  0
VERTEX
  5
2569
  8
SAPA_PROFIL
 62
     4
 10
-40.267751378385562
 20
-72.897731840066456
 30
0.0
 42
0.3702522326309292
  0
VERTEX
  5
256A
  8
SAPA_PROFIL
 62
     4
 10
-40.564274740178931
 20
-72.643271887400729
 30
0.0
  0
VERTEX
  5
256B
  8
SAPA_PROFIL
 62
     4
 10
-45.580715727012439
 20
-72.643271862124593
 30
0.0
 42
0.5205670505515692
  0
VERTEX
  5
256C
  8
SAPA_PROFIL
 62
     4
 10
-46.050562037405662
 20
-73.314281933787569
 30
0.0
  0
VERTEX
  5
256D
  8
SAPA_PROFIL
 62
     4
 10
-45.613797756280711
 20
-74.514281933797008
 30
0.0
 42
0.3152987888807539
  0
VERTEX
  5
256E
  8
SAPA_PROFIL
 62
     4
 10
-45.143951445884859
 20
-74.843271862134642
 30
0.0
  0
VERTEX
  5
256F
  8
SAPA_PROFIL
 62
     4
 10
-44.202776765375781
 20
-74.843271862127821
 30
0.0
 42
-0.5862175119221242
  0
VERTEX
  5
2570
  8
SAPA_PROFIL
 62
     4
 10
-43.947034834393818
 20
-75.300103187882954
 30
0.0
 42
0.0000002084758573
  0
SEQEND
  5
2571
  8
SAPA_PROFIL
 62
     4
  0
POLYLINE
  5
1AB1
  8
SAPA_PROFIL
 62
     4
 66
     1
 10
0.0
 20
0.0
 30
0.0
  0
VERTEX
  5
2572
  8
SAPA_PROFIL
 62
     4
 10
-20.480094643072938
 20
-33.975552947974329
 30
0.0
 42
-0.5571646428658034
  0
VERTEX
  5
2573
  8
SAPA_PROFIL
 62
     4
 10
-21.017055147209771
 20
-34.843271862129882
 30
0.0
  0
VERTEX
  5
2574
  8
SAPA_PROFIL
 62
     4
 10
-38.041792383730971
 20
-34.843271862129413
 30
0.0
 42
-0.5571645048035741
  0
VERTEX
  5
2575
  8
SAPA_PROFIL
 62
     4
 10
-38.578753000692018
 20
-33.975553174263247
 30
0.0
  0
VERTEX
  5
2576
  8
SAPA_PROFIL
 62
     4
 10
-37.748045913145333
 20
-32.309412518195217
 30
0.0
 42
-0.284385813979063
  0
VERTEX
  5
2577
  8
SAPA_PROFIL
 62
     4
 10
-37.479565604664977
 20
-32.143271862127783
 30
0.0
  0
VERTEX
  5
2578
  8
SAPA_PROFIL
 62
     4
 10
-21.579281926275659
 20
-32.143271862127783
 30
0.0
 42
-0.2843858139786238
  0
VERTEX
  5
2579
  8
SAPA_PROFIL
 62
     4
 10
-21.310801617795381
 20
-32.309412518194719
 30
0.0
  0
VERTEX
  5
257A
  8
SAPA_PROFIL
 62
     4
 10
-20.48009453024822
 20
-33.975553174264057
 30
0.0
  0
SEQEND
  5
257B
  8
SAPA_PROFIL
 62
     4
  0
POLYLINE
  5
1AB2
  8
SAPA_PROFIL
 62
     4
 66
     1
 10
0.0
 20
0.0
 30
0.0
 70
     1
  0
VERTEX
  5
257C
  8
SAPA_PROFIL
 62
     4
 10
-43.947034950137613
 20
-31.786440347630212
 30
0.0
  0
VERTEX
  5
257D
  8
SAPA_PROFIL
 62
     4
 10
-44.211058228513608
 20
-31.379880151626061
 30
0.0
 42
0.2539676464751066
  0
VERTEX
  5
257E
  8
SAPA_PROFIL
 62
     4
 10
-44.462659398898317
 20
-31.243271862129959
 30
0.0
  0
VERTEX
  5
257F
  8
SAPA_PROFIL
 62
     4
 10
-45.844158984103679
 20
-31.243271862129959
 30
0.0
 42
0.3152987888790479
  0
VERTEX
  5
2580
  8
SAPA_PROFIL
 62
     4
 10
-46.314005294495992
 20
-31.572261790468119
 30
0.0
  0
VERTEX
  5
2581
  8
SAPA_PROFIL
 62
     4
 10
-47.209674235404599
 20
-34.033091980919387
 30
0.0
 42
-0.2694959974287434
  0
VERTEX
  5
2582
  8
SAPA_PROFIL
 62
     4
 10
-47.441193281805951
 20
-34.226223955263293
 30
0.0
 42
-0.0612686379508233
  0
VERTEX
  5
2583
  8
SAPA_PROFIL
 62
     4
 10
-47.733868714659224
 20
-34.239807325893807
 30
0.0
  0
VERTEX
  5
2584
  8
SAPA_PROFIL
 62
     4
 10
-48.083286891967489
 20
-34.441544004622628
 30
0.0
 42
-0.5773502691891679
  0
VERTEX
  5
2585
  8
SAPA_PROFIL
 62
     4
 10
-48.398286891967082
 20
-34.259678669828062
 30
0.0
  0
VERTEX
  5
2586
  8
SAPA_PROFIL
 62
     4
 10
-48.398286891967317
 20
-33.992564141701742
 30
0.0
  0
VERTEX
  5
2587
  8
SAPA_PROFIL
 62
     4
 10
-49.796814592601578
 20
-33.183880680393429
 30
0.0
 42
0.1318219888653519
  0
VERTEX
  5
2588
  8
SAPA_PROFIL
 62
     4
 10
-49.946987695073922
 20
-33.14358828385604
 30
0.0
  0
VERTEX
  5
2589
  8
SAPA_PROFIL
 62
     4
 10
-50.129423765510701
 20
-33.1435882838624
 30
0.0
 42
0.4142135623724291
  0
VERTEX
  5
258A
  8
SAPA_PROFIL
 62
     4
 10
-50.529423765511247
 20
-33.543588283862043
 30
0.0
  0
VERTEX
  5
258B
  8
SAPA_PROFIL
 62
     4
 10
-50.529423765509883
 20
-36.943588283863043
 30
0.0
 42
0.4142135623744271
  0
VERTEX
  5
258C
  8
SAPA_PROFIL
 62
     4
 10
-50.129423765510701
 20
-37.343588283864037
 30
0.0
  0
VERTEX
  5
258D
  8
SAPA_PROFIL
 62
     4
 10
-49.949808523239398
 20
-37.343588283864683
 30
0.0
 42
0.1316524975874005
  0
VERTEX
  5
258E
  8
SAPA_PROFIL
 62
     4
 10
-49.799808523242582
 20
-37.303395904999078
 30
0.0
  0
VERTEX
  5
258F
  8
SAPA_PROFIL
 62
     4
 10
-48.195670626240329
 20
-36.377246458346541
 30
0.0
 42
-0.1316524975875904
  0
VERTEX
  5
2590
  8
SAPA_PROFIL
 62
     4
 10
-47.695670626238609
 20
-36.243271862131778
 30
0.0
  0
VERTEX
  5
2591
  8
SAPA_PROFIL
 62
     4
 10
-47.279423765511247
 20
-36.243271862131778
 30
0.0
 42
-0.4142135623730951
  0
VERTEX
  5
2592
  8
SAPA_PROFIL
 62
     4
 10
-46.27942376551124
 20
-37.243271862131778
 30
0.0
  0
VERTEX
  5
2593
  8
SAPA_PROFIL
 62
     4
 10
-46.27942376551124
 20
-40.243271862129049
 30
0.0
 42
0.9999996830128083
  0
VERTEX
  5
2594
  8
SAPA_PROFIL
 62
     4
 10
-45.27942376551124
 20
-40.243271862130868
 30
0.0
  0
VERTEX
  5
2595
  8
SAPA_PROFIL
 62
     4
 10
-45.27942376551124
 20
-37.243271862130868
 30
0.0
 42
-0.4142135623730951
  0
VERTEX
  5
2596
  8
SAPA_PROFIL
 62
     4
 10
-44.279423765511247
 20
-36.243271862130868
 30
0.0
  0
VERTEX
  5
2597
  8
SAPA_PROFIL
 62
     4
 10
-14.77942376542666
 20
-36.243271862130882
 30
0.0
 42
-0.4142135623730951
  0
VERTEX
  5
2598
  8
SAPA_PROFIL
 62
     4
 10
-13.77942376542666
 20
-37.243271862130882
 30
0.0
  0
VERTEX
  5
2599
  8
SAPA_PROFIL
 62
     4
 10
-13.77942376542666
 20
-40.243271862129049
 30
0.0
 42
0.9999999999999998
  0
VERTEX
  5
259A
  8
SAPA_PROFIL
 62
     4
 10
-12.77942376542666
 20
-40.243271862129049
 30
0.0
  0
VERTEX
  5
259B
  8
SAPA_PROFIL
 62
     4
 10
-12.77942376542666
 20
-37.243271862130882
 30
0.0
 42
-0.4142135623736278
  0
VERTEX
  5
259C
  8
SAPA_PROFIL
 62
     4
 10
-11.77942376542666
 20
-36.243271862130882
 30
0.0
  0
VERTEX
  5
259D
  8
SAPA_PROFIL
 62
     4
 10
-11.3631769047002
 20
-36.243271862130882
 30
0.0
 42
-0.1316524975874375
  0
VERTEX
  5
259E
  8
SAPA_PROFIL
 62
     4
 10
-10.8631769047
 20
-36.37724645834691
 30
0.0
  0
VERTEX
  5
259F
  8
SAPA_PROFIL
 62
     4
 10
-9.2590390076980569
 20
-37.303395904999093
 30
0.0
 42
0.1316524975874
  0
VERTEX
  5
25A0
  8
SAPA_PROFIL
 62
     4
 10
-9.109039007698513
 20
-37.343588283864683
 30
0.0
  0
VERTEX
  5
25A1
  8
SAPA_PROFIL
 62
     4
 10
-8.9294237654272095
 20
-37.343588283864051
 30
0.0
 42
0.4142135623744271
  0
VERTEX
  5
25A2
  8
SAPA_PROFIL
 62
     4
 10
-8.529423765428028
 20
-36.94358828386305
 30
0.0
  0
VERTEX
  5
25A3
  8
SAPA_PROFIL
 62
     4
 10
-8.5294237654266638
 20
-33.543588283862043
 30
0.0
 42
0.4142135623724291
  0
VERTEX
  5
25A4
  8
SAPA_PROFIL
 62
     4
 10
-8.9294237654272095
 20
-33.143588283862407
 30
0.0
  0
VERTEX
  5
25A5
  8
SAPA_PROFIL
 62
     4
 10
-9.1118598358639886
 20
-33.14358828385604
 30
0.0
 42
0.1318219888653524
  0
VERTEX
  5
25A6
  8
SAPA_PROFIL
 62
     4
 10
-9.2620329383363327
 20
-33.183880680393443
 30
0.0
  0
VERTEX
  5
25A7
  8
SAPA_PROFIL
 62
     4
 10
-10.660560638815991
 20
-33.99256414161777
 30
0.0
  0
VERTEX
  5
25A8
  8
SAPA_PROFIL
 62
     4
 10
-10.660560638815991
 20
-34.259678669830812
 30
0.0
 42
-0.577350269189159
  0
VERTEX
  5
25A9
  8
SAPA_PROFIL
 62
     4
 10
-10.97556063881558
 20
-34.441544004625371
 30
0.0
  0
VERTEX
  5
25AA
  8
SAPA_PROFIL
 62
     4
 10
-11.324978816034241
 20
-34.239807325948263
 30
0.0
 42
-0.0612687673629489
  0
VERTEX
  5
25AB
  8
SAPA_PROFIL
 62
     4
 10
-11.617654249134461
 20
-34.226223955262057
 30
0.0
 42
-0.2694959974285039
  0
VERTEX
  5
25AC
  8
SAPA_PROFIL
 62
     4
 10
-11.84917329553498
 20
-34.033091980918108
 30
0.0
  0
VERTEX
  5
25AD
  8
SAPA_PROFIL
 62
     4
 10
-12.744842236444651
 20
-31.57226179046495
 30
0.0
 42
0.3152987888784035
  0
VERTEX
  5
25AE
  8
SAPA_PROFIL
 62
     4
 10
-13.21468854683787
 20
-31.24327186212837
 30
0.0
  0
VERTEX
  5
25AF
  8
SAPA_PROFIL
 62
     4
 10
-14.596188132042309
 20
-31.243271862129969
 30
0.0
 42
0.2539676464741841
  0
VERTEX
  5
25B0
  8
SAPA_PROFIL
 62
     4
 10
-14.84778930242638
 20
-31.37988015162524
 30
0.0
  0
VERTEX
  5
25B1
  8
SAPA_PROFIL
 62
     4
 10
-15.11181258080302
 20
-31.786440347630212
 30
0.0
 42
0.5862177598324623
  0
VERTEX
  5
25B2
  8
SAPA_PROFIL
 62
     4
 10
-14.856070765564681
 20
-32.243271862126718
 30
0.0
  0
VERTEX
  5
25B3
  8
SAPA_PROFIL
 62
     4
 10
-13.91489608505487
 20
-32.243271862119052
 30
0.0
 42
-0.3152987888813165
  0
VERTEX
  5
25B4
  8
SAPA_PROFIL
 62
     4
 10
-13.445049774657109
 20
-32.572261790455812
 30
0.0
  0
VERTEX
  5
25B5
  8
SAPA_PROFIL
 62
     4
 10
-13.00828549353316
 20
-33.772261790467027
 30
0.0
 42
-0.5205670505515651
  0
VERTEX
  5
25B6
  8
SAPA_PROFIL
 62
     4
 10
-13.478131803926381
 20
-34.443271862129791
 30
0.0
  0
VERTEX
  5
25B7
  8
SAPA_PROFIL
 62
     4
 10
-18.494572744595231
 20
-34.443271862129812
 30
0.0
 42
-0.3702522326300203
  0
VERTEX
  5
25B8
  8
SAPA_PROFIL
 62
     4
 10
-18.791096106388562
 20
-34.188811909464107
 30
0.0
 42
-0.0982365330332397
  0
VERTEX
  5
25B9
  8
SAPA_PROFIL
 62
     4
 10
-18.881548864599502
 20
-32.501125134469099
 30
0.0
 42
-0.3735060174783164
  0
VERTEX
  5
25BA
  8
SAPA_PROFIL
 62
     4
 10
-18.58452419668852
 20
-32.24327186212907
 30
0.0
  0
VERTEX
  5
25BB
  8
SAPA_PROFIL
 62
     4
 10
-18.156070765565861
 20
-32.243271862128147
 30
0.0
 42
0.5920056181162531
  0
VERTEX
  5
25BC
  8
SAPA_PROFIL
 62
     4
 10
-17.903062009248458
 20
-31.78206835960022
 30
0.0
  0
VERTEX
  5
25BD
  8
SAPA_PROFIL
 62
     4
 10
-18.164246085404159
 20
-31.379880151621929
 30
0.0
 42
0.2539676464746725
  0
VERTEX
  5
25BE
  8
SAPA_PROFIL
 62
     4
 10
-18.415847255787931
 20
-31.243271862126569
 30
0.0
  0
VERTEX
  5
25BF
  8
SAPA_PROFIL
 62
     4
 10
-40.643000275153611
 20
-31.24327186212815
 30
0.0
 42
0.2539676464741819
  0
VERTEX
  5
25C0
  8
SAPA_PROFIL
 62
     4
 10
-40.894601445536473
 20
-31.379880151621919
 30
0.0
  0
VERTEX
  5
25C1
  8
SAPA_PROFIL
 62
     4
 10
-41.155785521690277
 20
-31.78206835960026
 30
0.0
 42
0.5920055144124249
  0
VERTEX
  5
25C2
  8
SAPA_PROFIL
 62
     4
 10
-40.902776765374767
 20
-32.24327186212814
 30
0.0
  0
VERTEX
  5
25C3
  8
SAPA_PROFIL
 62
     4
 10
-40.474323288084548
 20
-32.243271836853133
 30
0.0
 42
-0.3735060174775405
  0
VERTEX
  5
25C4
  8
SAPA_PROFIL
 62
     4
 10
-40.177298620174859
 20
-32.501125109193218
 30
0.0
 42
-0.0355900683670349
  0
VERTEX
  5
25C5
  8
SAPA_PROFIL
 62
     4
 10
-40.133405056142607
 20
-33.116998695993011
 30
0.0
 42
-0.0624282003873116
  0
VERTEX
  5
25C6
  8
SAPA_PROFIL
 62
     4
 10
-40.267751378385547
 20
-34.188811884188141
 30
0.0
 42
-0.3702522326309292
  0
VERTEX
  5
25C7
  8
SAPA_PROFIL
 62
     4
 10
-40.564274740178931
 20
-34.44327183685386
 30
0.0
  0
VERTEX
  5
25C8
  8
SAPA_PROFIL
 62
     4
 10
-45.580715727012432
 20
-34.443271862129997
 30
0.0
 42
-0.5205670505515692
  0
VERTEX
  5
25C9
  8
SAPA_PROFIL
 62
     4
 10
-46.050562037405662
 20
-33.772261790467027
 30
0.0
  0
VERTEX
  5
25CA
  8
SAPA_PROFIL
 62
     4
 10
-45.613797756280711
 20
-32.572261790457581
 30
0.0
 42
-0.3152987888807539
  0
VERTEX
  5
25CB
  8
SAPA_PROFIL
 62
     4
 10
-45.143951445884859
 20
-32.243271862119961
 30
0.0
  0
VERTEX
  5
25CC
  8
SAPA_PROFIL
 62
     4
 10
-44.202776765375773
 20
-32.243271862126782
 30
0.0
 42
0.5862175119221242
  0
VERTEX
  5
25CD
  8
SAPA_PROFIL
 62
     4
 10
-43.947034834393811
 20
-31.786440536371639
 30
0.0
 42
-0.0000002084758573
  0
SEQEND
  5
25CE
  8
SAPA_PROFIL
 62
     4
  0
POLYLINE
  5
1AB3
  8
SAPA_PROFIL
 62
     4
 66
     1
 10
0.0
 20
0.0
 30
0.0
 70
     1
  0
VERTEX
  5
25CF
  8
SAPA_PROFIL
 62
     4
 10
-58.732367314841099
 20
-14.94327186305166
 30
0.0
  0
VERTEX
  5
25D0
  8
SAPA_PROFIL
 62
     4
 10
-62.926479864538003
 20
-14.943271863049841
 30
0.0
 42
-0.1989123673786592
  0
VERTEX
  5
25D1
  8
SAPA_PROFIL
 62
     4
 10
-63.138611898893828
 20
-14.85540389740639
 30
0.0
  0
VERTEX
  5
25D2
  8
SAPA_PROFIL
 62
     4
 10
-65.362875967604737
 20
-12.631139828695479
 30
0.0
 42
0.1989123673785438
  0
VERTEX
  5
25D3
  8
SAPA_PROFIL
 62
     4
 10
-65.575008001960555
 20
-12.543271863052031
 30
0.0
  0
VERTEX
  5
25D4
  8
SAPA_PROFIL
 62
     4
 10
-66.029423589688918
 20
-12.543271863053841
 30
0.0
 42
0.4142135623730951
  0
VERTEX
  5
25D5
  8
SAPA_PROFIL
 62
     4
 10
-66.3294235896891
 20
-12.84327186305312
 30
0.0
  0
VERTEX
  5
25D6
  8
SAPA_PROFIL
 62
     4
 10
-66.3294235896891
 20
-24.743271863049301
 30
0.0
 42
-0.4142135623730951
  0
VERTEX
  5
25D7
  8
SAPA_PROFIL
 62
     4
 10
-66.8294235896891
 20
-25.243271863049301
 30
0.0
  0
VERTEX
  5
25D8
  8
SAPA_PROFIL
 62
     4
 10
-68.529423589688918
 20
-25.243271863049301
 30
0.0
 42
0.4142135623739832
  0
VERTEX
  5
25D9
  8
SAPA_PROFIL
 62
     4
 10
-68.8294235896891
 20
-25.54327186304857
 30
0.0
  0
VERTEX
  5
25DA
  8
SAPA_PROFIL
 62
     4
 10
-68.8294235896891
 20
-29.243271863050939
 30
0.0
 42
0.414213562375759
  0
VERTEX
  5
25DB
  8
SAPA_PROFIL
 62
     4
 10
-68.529423589688918
 20
-29.543271863052031
 30
0.0
  0
VERTEX
  5
25DC
  8
SAPA_PROFIL
 62
     4
 10
-52.036000459285901
 20
-29.543271863050212
 30
0.0
 42
0.4142135623735391
  0
VERTEX
  5
25DD
  8
SAPA_PROFIL
 62
     4
 10
-51.736000459286167
 20
-29.243271863050939
 30
0.0
  0
VERTEX
  5
25DE
  8
SAPA_PROFIL
 62
     4
 10
-51.736000459286167
 20
-12.84327186305312
 30
0.0
 42
0.4142135623726511
  0
VERTEX
  5
25DF
  8
SAPA_PROFIL
 62
     4
 10
-52.036000459285901
 20
-12.543271863052031
 30
0.0
  0
VERTEX
  5
25E0
  8
SAPA_PROFIL
 62
     4
 10
-56.083839177416728
 20
-12.543271863052031
 30
0.0
 42
0.1989123673785438
  0
VERTEX
  5
25E1
  8
SAPA_PROFIL
 62
     4
 10
-56.295971211772553
 20
-12.631139828695479
 30
0.0
  0
VERTEX
  5
25E2
  8
SAPA_PROFIL
 62
     4
 10
-58.520235280485281
 20
-14.855403897408211
 30
0.0
 42
-0.1989123673798886
  0
SEQEND
  5
25E3
  8
SAPA_PROFIL
 62
     4
  0
POLYLINE
  5
1AB4
  8
SAPA_PROFIL
 62
     4
 66
     1
 10
0.0
 20
0.0
 30
0.0
 70
     1
  0
VERTEX
  5
25E4
  8
SAPA_PROFIL
 62
     4
 10
-45.329423589689327
 20
-29.543271863052031
 30
0.0
  0
VERTEX
  5
25E5
  8
SAPA_PROFIL
 62
     4
 10
-50.13600045928581
 20
-29.543271863050212
 30
0.0
 42
-0.4142135623732061
  0
VERTEX
  5
25E6
  8
SAPA_PROFIL
 62
     4
 10
-50.436000459285992
 20
-29.243271863050939
 30
0.0
  0
VERTEX
  5
25E7
  8
SAPA_PROFIL
 62
     4
 10
-50.436000459285992
 20
-12.84327186305312
 30
0.0
 42
-0.4142135623730951
  0
VERTEX
  5
25E8
  8
SAPA_PROFIL
 62
     4
 10
-50.13600045928581
 20
-12.543271863052031
 30
0.0
  0
VERTEX
  5
25E9
  8
SAPA_PROFIL
 62
     4
 10
-45.329423589689327
 20
-12.54327186305385
 30
0.0
 42
-0.4142135623731173
  0
VERTEX
  5
25EA
  8
SAPA_PROFIL
 62
     4
 10
-45.029423589689152
 20
-12.843271863054939
 30
0.0
  0
VERTEX
  5
25EB
  8
SAPA_PROFIL
 62
     4
 10
-45.029423589689152
 20
-29.243271863052762
 30
0.0
 42
-0.4142135623730951
  0
SEQEND
  5
25EC
  8
SAPA_PROFIL
 62
     4
  0
POLYLINE
  5
1AB5
  8
SAPA_PROFIL
 62
     4
 66
     1
 10
0.0
 20
0.0
 30
0.0
 70
     1
  0
VERTEX
  5
25ED
  8
SAPA_PROFIL
 62
     4
 10
-56.705159520976729
 20
-11.043271863052031
 30
0.0
 42
0.1989123673799838
  0
VERTEX
  5
25EE
  8
SAPA_PROFIL
 62
     4
 10
-56.917291555333463
 20
-11.1311398286973
 30
0.0
  0
VERTEX
  5
25EF
  8
SAPA_PROFIL
 62
     4
 10
-59.141555624044372
 20
-13.355403897408211
 30
0.0
 42
-0.1989123673811189
  0
VERTEX
  5
25F0
  8
SAPA_PROFIL
 62
     4
 10
-59.35368765840019
 20
-13.44327186305166
 30
0.0
  0
VERTEX
  5
25F1
  8
SAPA_PROFIL
 62
     4
 10
-62.305159520978009
 20
-13.443271863049841
 30
0.0
 42
-0.1989123673785447
  0
VERTEX
  5
25F2
  8
SAPA_PROFIL
 62
     4
 10
-62.51729155533382
 20
-13.35540389740639
 30
0.0
  0
VERTEX
  5
25F3
  8
SAPA_PROFIL
 62
     4
 10
-64.741555624045645
 20
-11.131139828695479
 30
0.0
 42
0.1989123673785445
  0
VERTEX
  5
25F4
  8
SAPA_PROFIL
 62
     4
 10
-64.953687658401464
 20
-11.04327186305202
 30
0.0
  0
VERTEX
  5
25F5
  8
SAPA_PROFIL
 62
     4
 10
-67.3294235896891
 20
-11.043271863053841
 30
0.0
 42
0.4142135623730951
  0
VERTEX
  5
25F6
  8
SAPA_PROFIL
 62
     4
 10
-67.829423589689085
 20
-11.543271863053841
 30
0.0
  0
VERTEX
  5
25F7
  8
SAPA_PROFIL
 62
     4
 10
-67.829423589689085
 20
-23.443271863050029
 30
0.0
 42
-0.4142135623737615
  0
VERTEX
  5
25F8
  8
SAPA_PROFIL
 62
     4
 10
-68.129423589689281
 20
-23.743271863049301
 30
0.0
  0
VERTEX
  5
25F9
  8
SAPA_PROFIL
 62
     4
 10
-69.8294235896891
 20
-23.743271863049301
 30
0.0
 42
0.4142135623730951
  0
VERTEX
  5
25FA
  8
SAPA_PROFIL
 62
     4
 10
-70.329423589689085
 20
-24.243271863049301
 30
0.0
  0
VERTEX
  5
25FB
  8
SAPA_PROFIL
 62
     4
 10
-70.329423589689085
 20
-30.543271863052031
 30
0.0
 42
0.4142135623730951
  0
VERTEX
  5
25FC
  8
SAPA_PROFIL
 62
     4
 10
-69.8294235896891
 20
-31.043271863052031
 30
0.0
  0
VERTEX
  5
25FD
  8
SAPA_PROFIL
 62
     4
 10
-68.82942358968873
 20
-31.043271863048389
 30
0.0
 42
-0.4142135623735387
  0
VERTEX
  5
25FE
  8
SAPA_PROFIL
 62
     4
 10
-68.529423589688776
 20
-31.343271863047661
 30
0.0
  0
VERTEX
  5
25FF
  8
SAPA_PROFIL
 62
     4
 10
-68.52942358968923
 20
-32.943271863049851
 30
0.0
 42
-0.4142135623735394
  0
VERTEX
  5
2600
  8
SAPA_PROFIL
 62
     4
 10
-68.829423589688957
 20
-33.243271863049117
 30
0.0
  0
VERTEX
  5
2601
  8
SAPA_PROFIL
 62
     4
 10
-69.129423589688599
 20
-33.243271863047298
 30
0.0
 42
0.5923377296036106
  0
VERTEX
  5
2602
  8
SAPA_PROFIL
 62
     4
 10
-69.382273672292854
 20
-33.704724133788872
 30
0.0
  0
VERTEX
  5
2603
  8
SAPA_PROFIL
 62
     4
 10
-68.105214403996001
 20
-35.4047241337896
 30
0.0
 42
0.2560149538738703
  0
VERTEX
  5
2604
  8
SAPA_PROFIL
 62
     4
 10
-67.852364321390823
 20
-35.543271863050208
 30
0.0
  0
VERTEX
  5
2605
  8
SAPA_PROFIL
 62
     4
 10
-67.62942358968823
 20
-35.543271863050208
 30
0.0
 42
0.4142135623733172
  0
VERTEX
  5
2606
  8
SAPA_PROFIL
 62
     4
 10
-67.329423589688943
 20
-35.243271863050943
 30
0.0
  0
VERTEX
  5
2607
  8
SAPA_PROFIL
 62
     4
 10
-67.329423589688943
 20
-31.343271863047661
 30
0.0
 42
-0.4142135623735389
  0
VERTEX
  5
2608
  8
SAPA_PROFIL
 62
     4
 10
-67.029423589689003
 20
-31.043271863048389
 30
0.0
  0
VERTEX
  5
2609
  8
SAPA_PROFIL
 62
     4
 10
-56.029423589688818
 20
-31.043271863050212
 30
0.0
 42
-0.4142135623735387
  0
VERTEX
  5
260A
  8
SAPA_PROFIL
 62
     4
 10
-55.729423589688871
 20
-31.343271863049491
 30
0.0
  0
VERTEX
  5
260B
  8
SAPA_PROFIL
 62
     4
 10
-55.729423589688871
 20
-35.243271863050943
 30
0.0
 42
0.4142135623730951
  0
VERTEX
  5
260C
  8
SAPA_PROFIL
 62
     4
 10
-55.429423589689598
 20
-35.543271863050208
 30
0.0
  0
VERTEX
  5
260D
  8
SAPA_PROFIL
 62
     4
 10
-55.206482857986991
 20
-35.543271863050208
 30
0.0
 42
0.2560149538738701
  0
VERTEX
  5
260E
  8
SAPA_PROFIL
 62
     4
 10
-54.953632775381827
 20
-35.4047241337896
 30
0.0
  0
VERTEX
  5
260F
  8
SAPA_PROFIL
 62
     4
 10
-53.676573507084981
 20
-33.704724133788872
 30
0.0
 42
0.5923377296036115
  0
VERTEX
  5
2610
  8
SAPA_PROFIL
 62
     4
 10
-53.929423589689229
 20
-33.243271863047298
 30
0.0
  0
VERTEX
  5
2611
  8
SAPA_PROFIL
 62
     4
 10
-54.229423589688871
 20
-33.243271863049117
 30
0.0
 42
-0.4142135623735394
  0
VERTEX
  5
2612
  8
SAPA_PROFIL
 62
     4
 10
-54.529423589688598
 20
-32.943271863049851
 30
0.0
  0
VERTEX
  5
2613
  8
SAPA_PROFIL
 62
     4
 10
-54.529423589689053
 20
-31.343271863049491
 30
0.0
 42
-0.4142135623735389
  0
VERTEX
  5
2614
  8
SAPA_PROFIL
 62
     4
 10
-54.229423589689098
 20
-31.043271863050212
 30
0.0
  0
VERTEX
  5
2615
  8
SAPA_PROFIL
 62
     4
 10
-44.029423589689138
 20
-31.043271863055669
 30
0.0
 42
0.4142135623731242
  0
VERTEX
  5
2616
  8
SAPA_PROFIL
 62
     4
 10
-43.529423589689138
 20
-30.543271863055669
 30
0.0
  0
VERTEX
  5
2617
  8
SAPA_PROFIL
 62
     4
 10
-43.529423589689131
 20
-11.54327186305385
 30
0.0
 42
0.4142135623730951
  0
VERTEX
  5
2618
  8
SAPA_PROFIL
 62
     4
 10
-44.029423589689131
 20
-11.04327186305385
 30
0.0
  0
SEQEND
  5
2619
  8
SAPA_PROFIL
 62
     4
  0
POLYLINE
  5
1AB6
  8
SAPA_PROFIL
 66
     1
 10
0.0
 20
0.0
 30
0.0
 70
     1
  0
VERTEX
  5
261A
  8
SAPA_PROFIL
 10
-19.329423760639379
 20
-86.243271862275762
 30
0.0
 42
-0.4142135623730951
  0
VERTEX
  5
261B
  8
SAPA_PROFIL
 10
-19.629423760639401
 20
-86.543271862275773
 30
0.0
  0
VERTEX
  5
261C
  8
SAPA_PROFIL
 10
-21.229423760639399
 20
-86.543271862275674
 30
0.0
 42
0.4142135623730951
  0
VERTEX
  5
261D
  8
SAPA_PROFIL
 10
-21.529423760639411
 20
-86.843271862275685
 30
0.0
  0
VERTEX
  5
261E
  8
SAPA_PROFIL
 10
-21.529423760639411
 20
-87.419007793563864
 30
0.0
 42
0.1989123673795745
  0
VERTEX
  5
261F
  8
SAPA_PROFIL
 10
-21.441555794995409
 20
-87.631139827919739
 30
0.0
  0
VERTEX
  5
2620
  8
SAPA_PROFIL
 10
-20.617291726283408
 20
-88.455403896631637
 30
0.0
 42
0.1989123673796451
  0
VERTEX
  5
2621
  8
SAPA_PROFIL
 10
-20.405159691927501
 20
-88.543271862275759
 30
0.0
  0
VERTEX
  5
2622
  8
SAPA_PROFIL
 10
-17.8294237606395
 20
-88.543271862275759
 30
0.0
 42
0.4142135623732032
  0
VERTEX
  5
2623
  8
SAPA_PROFIL
 10
-17.529423760639411
 20
-88.243271862275748
 30
0.0
  0
VERTEX
  5
2624
  8
SAPA_PROFIL
 10
-17.529423760639489
 20
-83.843271862276495
 30
0.0
 42
-0.41421356237312
  0
VERTEX
  5
2625
  8
SAPA_PROFIL
 10
-17.229423760639389
 20
-83.54327186227674
 30
0.0
  0
VERTEX
  5
2626
  8
SAPA_PROFIL
 10
8.9205762309084236
 20
-83.543271862278658
 30
0.0
 42
0.41421356237312
  0
VERTEX
  5
2627
  8
SAPA_PROFIL
 10
9.9205762309085088
 20
-82.543271862278658
 30
0.0
  0
VERTEX
  5
2628
  8
SAPA_PROFIL
 10
9.9205762309085106
 20
-75.86000162825367
 30
0.0
 42
0.1628603417903348
  0
VERTEX
  5
2629
  8
SAPA_PROFIL
 10
9.870235108420319
 20
-75.709547872465663
 30
0.0
  0
VERTEX
  5
262A
  8
SAPA_PROFIL
 10
9.2309855863464332
 20
-74.861235104474133
 30
0.0
 42
-0.1628603417903348
  0
VERTEX
  5
262B
  8
SAPA_PROFIL
 10
9.1705762393606154
 20
-74.680690597528525
 30
0.0
  0
VERTEX
  5
262C
  8
SAPA_PROFIL
 10
9.1705762393606278
 20
-74.145344456494627
 30
0.0
 42
-0.2679491924313054
  0
VERTEX
  5
262D
  8
SAPA_PROFIL
 10
9.3205762393605074
 20
-73.885536835359162
 30
0.0
  0
VERTEX
  5
262E
  8
SAPA_PROFIL
 10
9.9705762393603141
 20
-73.510259160385957
 30
0.0
 42
0.4244748162097881
  0
VERTEX
  5
262F
  8
SAPA_PROFIL
 10
10.144600287438591
 20
-72.812286826377047
 30
0.0
  0
VERTEX
  5
2630
  8
SAPA_PROFIL
 10
9.4360143164194881
 20
-71.67831223016104
 30
0.0
 42
0.2586175843565894
  0
VERTEX
  5
2631
  8
SAPA_PROFIL
 10
9.0119902683400017
 20
-71.44327186227757
 30
0.0
  0
VERTEX
  5
2632
  8
SAPA_PROFIL
 10
8.8357314500836157
 20
-71.443271862277911
 30
0.0
 42
0.3573618656727155
  0
VERTEX
  5
2633
  8
SAPA_PROFIL
 10
8.5415883604872125
 20
-71.684281669514561
 30
0.0
  0
VERTEX
  5
2634
  8
SAPA_PROFIL
 10
8.0110170780613661
 20
-74.329871876177975
 30
0.0
 42
0.290805460401057
  0
VERTEX
  5
2635
  8
SAPA_PROFIL
 10
8.5329000073903121
 20
-75.852932031288944
 30
0.0
 42
-0.2278537862654153
  0
VERTEX
  5
2636
  8
SAPA_PROFIL
 10
8.7205762309084935
 20
-76.24338543266245
 30
0.0
  0
VERTEX
  5
2637
  8
SAPA_PROFIL
 10
8.7205762309084918
 20
-81.243271860652101
 30
0.0
 42
-0.4142135623730951
  0
VERTEX
  5
2638
  8
SAPA_PROFIL
 10
8.2205762309084918
 20
-81.743271860652115
 30
0.0
  0
VERTEX
  5
2639
  8
SAPA_PROFIL
 10
-5.7794237693875203
 20
-81.743271860652115
 30
0.0
 42
-0.4142135623730951
  0
VERTEX
  5
263A
  8
SAPA_PROFIL
 10
-6.2794237693875203
 20
-81.243271860652101
 30
0.0
  0
VERTEX
  5
263B
  8
SAPA_PROFIL
 10
-6.2794237693875177
 20
-76.343271862277959
 30
0.0
 42
0.4142135623730951
  0
VERTEX
  5
263C
  8
SAPA_PROFIL
 10
-6.7794237693875177
 20
-75.843271862277945
 30
0.0
  0
VERTEX
  5
263D
  8
SAPA_PROFIL
 10
-7.3794237692518569
 20
-75.843271862277945
 30
0.0
 42
0.4142135623730951
  0
VERTEX
  5
263E
  8
SAPA_PROFIL
 10
-7.8794237692518569
 20
-76.343271862277959
 30
0.0
  0
VERTEX
  5
263F
  8
SAPA_PROFIL
 10
-7.8794237692518569
 20
-81.243271855988283
 30
0.0
 42
-0.414213562315631
  0
VERTEX
  5
2640
  8
SAPA_PROFIL
 10
-8.3794237691537461
 20
-81.743271855988297
 30
0.0
  0
VERTEX
  5
2641
  8
SAPA_PROFIL
 10
-40.434423760639483
 20
-81.743271862277155
 30
0.0
 42
0.4142135623735363
  0
VERTEX
  5
2642
  8
SAPA_PROFIL
 10
-40.929423760639608
 20
-82.238271862276164
 30
0.0
  0
VERTEX
  5
2643
  8
SAPA_PROFIL
 10
-40.929423760639608
 20
-82.248271862276326
 30
0.0
 42
0.4142135623729203
  0
VERTEX
  5
2644
  8
SAPA_PROFIL
 10
-40.43442376063949
 20
-82.743271862277126
 30
0.0
  0
VERTEX
  5
2645
  8
SAPA_PROFIL
 10
-40.274423760639401
 20
-82.743271862277112
 30
0.0
 42
-0.4142135623734113
  0
VERTEX
  5
2646
  8
SAPA_PROFIL
 10
-39.779423760639489
 20
-83.238271862276164
 30
0.0
  0
VERTEX
  5
2647
  8
SAPA_PROFIL
 10
-39.779423760639503
 20
-84.043271862276484
 30
0.0
 42
-0.3653737038880782
  0
VERTEX
  5
2648
  8
SAPA_PROFIL
 10
-42.065316158514932
 20
-86.753826073807659
 30
0.0
  0
VERTEX
  5
2649
  8
SAPA_PROFIL
 10
-42.352647065342637
 20
-86.466495166980152
 30
0.0
 42
0.4142135623721916
  0
VERTEX
  5
264A
  8
SAPA_PROFIL
 10
-42.706200455935381
 20
-86.466495166979755
 30
0.0
  0
VERTEX
  5
264B
  8
SAPA_PROFIL
 10
-42.99353136276514
 20
-86.753826073807943
 30
0.0
 42
-0.3653737038879154
  0
VERTEX
  5
264C
  8
SAPA_PROFIL
 10
-45.279423760639489
 20
-84.043271862276455
 30
0.0
  0
VERTEX
  5
264D
  8
SAPA_PROFIL
 10
-45.27942376063951
 20
-83.238271862276164
 30
0.0
 42
-0.4142135623729951
  0
VERTEX
  5
264E
  8
SAPA_PROFIL
 10
-44.784423760640301
 20
-82.743271862277112
 30
0.0
  0
VERTEX
  5
264F
  8
SAPA_PROFIL
 10
-44.624423760639502
 20
-82.743271862277112
 30
0.0
 42
0.4142135623729285
  0
VERTEX
  5
2650
  8
SAPA_PROFIL
 10
-44.129423760639398
 20
-82.248271862276312
 30
0.0
  0
VERTEX
  5
2651
  8
SAPA_PROFIL
 10
-44.129423760639867
 20
-82.23827186225364
 30
0.0
 42
0.4142135623601338
  0
VERTEX
  5
2652
  8
SAPA_PROFIL
 10
-44.624423760639488
 20
-81.74327186227714
 30
0.0
  0
VERTEX
  5
2653
  8
SAPA_PROFIL
 10
-50.829423759893409
 20
-81.743271855410484
 30
0.0
 42
-0.4142135623731365
  0
VERTEX
  5
2654
  8
SAPA_PROFIL
 10
-51.329423759979832
 20
-81.243271855497724
 30
0.0
  0
VERTEX
  5
2655
  8
SAPA_PROFIL
 10
-51.32942376079253
 20
-76.343271862119224
 30
0.0
 42
0.4142135623728037
  0
VERTEX
  5
2656
  8
SAPA_PROFIL
 10
-51.829423760878413
 20
-75.843271862206649
 30
0.0
  0
VERTEX
  5
2657
  8
SAPA_PROFIL
 10
-52.429423761131901
 20
-75.843271862344835
 30
0.0
 42
0.4142135623733948
  0
VERTEX
  5
2658
  8
SAPA_PROFIL
 10
-52.929423761045904
 20
-76.343271862432147
 30
0.0
  0
VERTEX
  5
2659
  8
SAPA_PROFIL
 10
-52.929423760233192
 20
-81.243271855808842
 30
0.0
 42
-0.4142135623730951
  0
VERTEX
  5
265A
  8
SAPA_PROFIL
 10
-53.429423760146861
 20
-81.743271855896083
 30
0.0
  0
VERTEX
  5
265B
  8
SAPA_PROFIL
 10
-70.829423760639216
 20
-81.743271862277126
 30
0.0
 42
-0.4142135623730951
  0
VERTEX
  5
265C
  8
SAPA_PROFIL
 10
-71.329423760639216
 20
-81.243271862277126
 30
0.0
  0
VERTEX
  5
265D
  8
SAPA_PROFIL
 10
-71.329423760639216
 20
-78.343271862119224
 30
0.0
 42
-0.4142135623730951
  0
VERTEX
  5
265E
  8
SAPA_PROFIL
 10
-70.829423760639216
 20
-77.843271862119224
 30
0.0
  0
VERTEX
  5
265F
  8
SAPA_PROFIL
 10
-69.286530541825854
 20
-77.843271862119224
 30
0.0
 42
0.1989123673798694
  0
VERTEX
  5
2660
  8
SAPA_PROFIL
 10
-68.932977151232549
 20
-77.696825252711633
 30
0.0
  0
VERTEX
  5
2661
  8
SAPA_PROFIL
 10
-67.475870370046366
 20
-76.239718471526828
 30
0.0
 42
0.1989123673796867
  0
VERTEX
  5
2662
  8
SAPA_PROFIL
 10
-67.329423760639216
 20
-75.886165080932514
 30
0.0
  0
VERTEX
  5
2663
  8
SAPA_PROFIL
 10
-67.329423760639216
 20
-74.581165315628766
 30
0.0
 42
0.0495213429255793
  0
VERTEX
  5
2664
  8
SAPA_PROFIL
 10
-67.33918527797745
 20
-74.482848327689453
 30
0.0
  0
VERTEX
  5
2665
  8
SAPA_PROFIL
 10
-67.900435881766995
 20
-71.68428166935557
 30
0.0
 42
0.3573618656739605
  0
VERTEX
  5
2666
  8
SAPA_PROFIL
 10
-68.194578971362276
 20
-71.443271862117768
 30
0.0
  0
VERTEX
  5
2667
  8
SAPA_PROFIL
 10
-68.370837789618705
 20
-71.443271862117768
 30
0.0
 42
0.2586175843560156
  0
VERTEX
  5
2668
  8
SAPA_PROFIL
 10
-68.79486183769815
 20
-71.678312230002476
 30
0.0
  0
VERTEX
  5
2669
  8
SAPA_PROFIL
 10
-69.50344780871886
 20
-72.812286826218426
 30
0.0
 42
0.4244748162094236
  0
VERTEX
  5
266A
  8
SAPA_PROFIL
 10
-69.329423760639216
 20
-73.510259160226624
 30
0.0
  0
VERTEX
  5
266B
  8
SAPA_PROFIL
 10
-68.679423760639949
 20
-73.885536835197954
 30
0.0
 42
-0.2679491924316278
  0
VERTEX
  5
266C
  8
SAPA_PROFIL
 10
-68.529423760639489
 20
-74.145344456333575
 30
0.0
  0
VERTEX
  5
266D
  8
SAPA_PROFIL
 10
-68.529423760639716
 20
-75.471951518559521
 30
0.0
 42
-0.1989123673795245
  0
VERTEX
  5
266E
  8
SAPA_PROFIL
 10
-68.617291726283682
 20
-75.684083552915382
 30
0.0
  0
VERTEX
  5
266F
  8
SAPA_PROFIL
 10
-69.430033426080357
 20
-76.496825252712725
 30
0.0
 42
-0.1989123673801597
  0
VERTEX
  5
2670
  8
SAPA_PROFIL
 10
-69.783586816673505
 20
-76.643271862118524
 30
0.0
  0
VERTEX
  5
2671
  8
SAPA_PROFIL
 10
-70.779423760639602
 20
-76.643271862118524
 30
0.0
 42
-0.4142135623724791
  0
VERTEX
  5
2672
  8
SAPA_PROFIL
 10
-71.029423760639602
 20
-76.39327186211905
 30
0.0
  0
VERTEX
  5
2673
  8
SAPA_PROFIL
 10
-71.02942376063983
 20
-76.293271862119383
 30
0.0
 42
0.4142135623724624
  0
VERTEX
  5
2674
  8
SAPA_PROFIL
 10
-71.27942376063983
 20
-76.043271862119923
 30
0.0
  0
VERTEX
  5
2675
  8
SAPA_PROFIL
 10
-72.279423760639489
 20
-76.043271862119923
 30
0.0
 42
0.4142135623730951
  0
VERTEX
  5
2676
  8
SAPA_PROFIL
 10
-72.529423760639474
 20
-76.293271862119923
 30
0.0
  0
VERTEX
  5
2677
  8
SAPA_PROFIL
 10
-72.529423760639517
 20
-83.243271862275748
 30
0.0
 42
0.4142135623730951
  0
VERTEX
  5
2678
  8
SAPA_PROFIL
 10
-72.229423760639534
 20
-83.543271862275759
 30
0.0
  0
VERTEX
  5
2679
  8
SAPA_PROFIL
 10
-67.8294237606395
 20
-83.543271862275716
 30
0.0
 42
-0.4142135623730951
  0
VERTEX
  5
267A
  8
SAPA_PROFIL
 10
-67.529423760639474
 20
-83.843271862275714
 30
0.0
  0
VERTEX
  5
267B
  8
SAPA_PROFIL
 10
-67.529423760639474
 20
-88.243271862275748
 30
0.0
 42
0.4142135623730117
  0
VERTEX
  5
267C
  8
SAPA_PROFIL
 10
-67.22942376063942
 20
-88.543271862275759
 30
0.0
  0
VERTEX
  5
267D
  8
SAPA_PROFIL
 10
-64.653687829351398
 20
-88.543271862275759
 30
0.0
 42
0.1989123673796266
  0
VERTEX
  5
267E
  8
SAPA_PROFIL
 10
-64.441555794995466
 20
-88.455403896631736
 30
0.0
  0
VERTEX
  5
267F
  8
SAPA_PROFIL
 10
-63.617291726283511
 20
-87.631139827919725
 30
0.0
 42
0.1989123673796215
  0
VERTEX
  5
2680
  8
SAPA_PROFIL
 10
-63.529423760639489
 20
-87.419007793563836
 30
0.0
  0
VERTEX
  5
2681
  8
SAPA_PROFIL
 10
-63.529423760639517
 20
-86.843271862275657
 30
0.0
 42
0.4142135623730951
  0
VERTEX
  5
2682
  8
SAPA_PROFIL
 10
-63.829423760639443
 20
-86.543271862275645
 30
0.0
  0
VERTEX
  5
2683
  8
SAPA_PROFIL
 10
-65.429423760639494
 20
-86.543271862275702
 30
0.0
 42
-0.4142135623730617
  0
VERTEX
  5
2684
  8
SAPA_PROFIL
 10
-65.72942376063942
 20
-86.243271862275733
 30
0.0
  0
VERTEX
  5
2685
  8
SAPA_PROFIL
 10
-65.729423760639364
 20
-83.843271862275714
 30
0.0
 42
-0.4142135623731534
  0
VERTEX
  5
2686
  8
SAPA_PROFIL
 10
-65.429423760639466
 20
-83.543271862275759
 30
0.0
  0
VERTEX
  5
2687
  8
SAPA_PROFIL
 10
-47.529423760639482
 20
-83.543271862275759
 30
0.0
 42
-0.4142135623730868
  0
VERTEX
  5
2688
  8
SAPA_PROFIL
 10
-47.029423760639489
 20
-84.043271862275745
 30
0.0
  0
VERTEX
  5
2689
  8
SAPA_PROFIL
 10
-47.029423760639361
 20
-88.043271862275716
 30
0.0
 42
0.4142135623730784
  0
VERTEX
  5
268A
  8
SAPA_PROFIL
 10
-46.729423760639357
 20
-88.343271862275714
 30
0.0
  0
VERTEX
  5
268B
  8
SAPA_PROFIL
 10
-43.209808518368739
 20
-88.343271862275657
 30
0.0
 42
0.1316524975872861
  0
VERTEX
  5
268C
  8
SAPA_PROFIL
 10
-43.059808518368882
 20
-88.303079483411054
 30
0.0
  0
VERTEX
  5
268D
  8
SAPA_PROFIL
 10
-42.679423760639096
 20
-88.083464241140405
 30
0.0
 42
-0.2679491924310436
  0
VERTEX
  5
268E
  8
SAPA_PROFIL
 10
-42.37942376063922
 20
-88.083464241140433
 30
0.0
  0
VERTEX
  5
268F
  8
SAPA_PROFIL
 10
-41.999039002910173
 20
-88.303079483411025
 30
0.0
 42
0.1316524975874466
  0
VERTEX
  5
2690
  8
SAPA_PROFIL
 10
-41.849039002910111
 20
-88.343271862275714
 30
0.0
  0
VERTEX
  5
2691
  8
SAPA_PROFIL
 10
-38.329423760639422
 20
-88.343271862275685
 30
0.0
 42
0.4142135623730951
  0
VERTEX
  5
2692
  8
SAPA_PROFIL
 10
-38.029423760639411
 20
-88.043271862275674
 30
0.0
  0
VERTEX
  5
2693
  8
SAPA_PROFIL
 10
-38.029423760639411
 20
-84.043271862275773
 30
0.0
 42
-0.4142135623730951
  0
VERTEX
  5
2694
  8
SAPA_PROFIL
 10
-37.529423760639403
 20
-83.543271862275759
 30
0.0
  0
VERTEX
  5
2695
  8
SAPA_PROFIL
 10
-19.629423760639401
 20
-83.543271862275759
 30
0.0
 42
-0.4142135623731534
  0
VERTEX
  5
2696
  8
SAPA_PROFIL
 10
-19.3294237606395
 20
-83.843271862275742
 30
0.0
  0
SEQEND
  5
2697
  8
SAPA_PROFIL
  0
POLYLINE
  5
1AB7
  8
SAPA_PROFIL
 66
     1
 10
0.0
 20
0.0
 30
0.0
  0
VERTEX
  5
2698
  8
SAPA_PROFIL
 10
-18.54025630956426
 20
-175.70238059575189
 30
0.0
  0
VERTEX
  5
2699
  8
SAPA_PROFIL
 10
-21.041367106844749
 20
-175.70238059575189
 30
0.0
  0
VERTEX
  5
269A
  8
SAPA_PROFIL
 10
-21.995990327042652
 20
-174.7309489493758
 30
0.0
  0
VERTEX
  5
269B
  8
SAPA_PROFIL
 10
-21.995990327042652
 20
-172.03186767334131
 30
0.0
 42
0.4883397947196166
  0
VERTEX
  5
269C
  8
SAPA_PROFIL
 10
-21.77536739284443
 20
-170.47014584733299
 30
0.0
  0
VERTEX
  5
269D
  8
SAPA_PROFIL
 10
-22.856823118114971
 20
-170.39750617120521
 30
0.0
 42
0.4293387945586757
  0
VERTEX
  5
269E
  8
SAPA_PROFIL
 10
-23.174934254104311
 20
-170.6942326922898
 30
0.0
  0
VERTEX
  5
269F
  8
SAPA_PROFIL
 10
-23.174934254104311
 20
-175.24330872657799
 30
0.0
  0
VERTEX
  5
26A0
  8
SAPA_PROFIL
 10
-21.548876297910741
 20
-176.89799732420181
 30
0.0
  0
VERTEX
  5
26A1
  8
SAPA_PROFIL
 10
-19.074228541791339
 20
-176.9108249257275
 30
0.0
 42
-0.4182129759575377
  0
VERTEX
  5
26A2
  8
SAPA_PROFIL
 10
-18.578716820934119
 20
-177.42198603778311
 30
0.0
  0
VERTEX
  5
26A3
  8
SAPA_PROFIL
 10
-18.73315542258905
 20
-192.11035276541639
 30
0.0
 42
-0.4076789000515417
  0
VERTEX
  5
26A4
  8
SAPA_PROFIL
 10
-21.732405354227531
 20
-195.04327186227599
 30
0.0
  0
VERTEX
  5
26A5
  8
SAPA_PROFIL
 10
-27.232042303857501
 20
-195.04327186227599
 30
0.0
 42
-0.4142135623730951
  0
VERTEX
  5
26A6
  8
SAPA_PROFIL
 10
-27.732042303857501
 20
-194.54327186227599
 30
0.0
  0
VERTEX
  5
26A7
  8
SAPA_PROFIL
 10
-27.732042303857501
 20
-186.79327186227599
 30
0.0
 42
0.4142135623730904
  0
VERTEX
  5
26A8
  8
SAPA_PROFIL
 10
-29.532042303857452
 20
-184.99327186227589
 30
0.0
  0
VERTEX
  5
26A9
  8
SAPA_PROFIL
 10
-30.232042303857501
 20
-184.99327186227589
 30
0.0
 42
-0.4142135623730951
  0
VERTEX
  5
26AA
  8
SAPA_PROFIL
 10
-30.732042303857501
 20
-184.49327186227589
 30
0.0
  0
VERTEX
  5
26AB
  8
SAPA_PROFIL
 10
-30.732042303857501
 20
-174.6416070182029
 30
0.0
  0
VERTEX
  5
26AC
  8
SAPA_PROFIL
 10
-32.35967694683314
 20
-173.34567007627939
 30
0.0
  0
VERTEX
  5
26AD
  8
SAPA_PROFIL
 10
-32.78838463678165
 20
-172.8558398055896
 30
0.0
  0
VERTEX
  5
26AE
  8
SAPA_PROFIL
 10
-32.596078282792689
 20
-170.74496065707049
 30
0.0
 42
0.668178637919305
  0
VERTEX
  5
26AF
  8
SAPA_PROFIL
 10
-33.078426134883557
 20
-170.47179446187619
 30
0.0
  0
VERTEX
  5
26B0
  8
SAPA_PROFIL
 10
-35.188533474421213
 20
-171.24270457938059
 30
0.0
 42
0.7332303362618641
  0
VERTEX
  5
26B1
  8
SAPA_PROFIL
 10
-34.988358885851092
 20
-171.7787806020329
 30
0.0
  0
VERTEX
  5
26B2
  8
SAPA_PROFIL
 10
-34.265702792292082
 20
-171.73923770811459
 30
0.0
 42
-0.4666505291506066
  0
VERTEX
  5
26B3
  8
SAPA_PROFIL
 10
-34.003871261247532
 20
-172.01903927403339
 30
0.0
  0
VERTEX
  5
26B4
  8
SAPA_PROFIL
 10
-33.982009283993882
 20
-173.60061093833701
 30
0.0
  0
VERTEX
  5
26B5
  8
SAPA_PROFIL
 10
-32.032042303857452
 20
-175.42235407810219
 30
0.0
  0
VERTEX
  5
26B6
  8
SAPA_PROFIL
 10
-32.032042303857509
 20
-186.55327186227601
 30
0.0
 42
0.4142135623730951
  0
VERTEX
  5
26B7
  8
SAPA_PROFIL
 10
-31.0420423038575
 20
-187.54327186227599
 30
0.0
  0
VERTEX
  5
26B8
  8
SAPA_PROFIL
 10
-31.032042303857452
 20
-187.54327186227599
 30
0.0
  0
VERTEX
  5
26B9
  8
SAPA_PROFIL
 10
-31.032042303857452
 20
-186.29327186227599
 30
0.0
  0
VERTEX
  5
26BA
  8
SAPA_PROFIL
 10
-29.532042303857452
 20
-186.29327186227599
 30
0.0
 42
-0.4142135623730951
  0
VERTEX
  5
26BB
  8
SAPA_PROFIL
 10
-29.032042303857452
 20
-186.79327186227599
 30
0.0
  0
VERTEX
  5
26BC
  8
SAPA_PROFIL
 10
-29.032042303857452
 20
-194.79327186227599
 30
0.0
 42
-0.4142135623730951
  0
VERTEX
  5
26BD
  8
SAPA_PROFIL
 10
-29.532042303857452
 20
-195.29327186227599
 30
0.0
  0
VERTEX
  5
26BE
  8
SAPA_PROFIL
 10
-31.032042303857452
 20
-195.29327186227599
 30
0.0
  0
VERTEX
  5
26BF
  8
SAPA_PROFIL
 10
-31.032042303857452
 20
-194.04327186227599
 30
0.0
  0
VERTEX
  5
26C0
  8
SAPA_PROFIL
 10
-31.0420423038575
 20
-194.04327186227599
 30
0.0
 42
0.4142135623730909
  0
VERTEX
  5
26C1
  8
SAPA_PROFIL
 10
-32.032042303857452
 20
-195.033271862276
 30
0.0
  0
VERTEX
  5
26C2
  8
SAPA_PROFIL
 10
-32.032042303857509
 20
-196.243271862276
 30
0.0
 42
0.4142135623730951
  0
VERTEX
  5
26C3
  8
SAPA_PROFIL
 10
-31.732042303857501
 20
-196.54327186227599
 30
0.0
  0
VERTEX
  5
26C4
  8
SAPA_PROFIL
 10
-17.32941282087074
 20
-196.54327186227599
 30
0.0
 42
0.4116598904954198
  0
VERTEX
  5
26C5
  8
SAPA_PROFIL
 10
-17.029424243951439
 20
-196.24588982292551
 30
0.0
  0
VERTEX
  5
26C6
  8
SAPA_PROFIL
 10
-17.029424243951439
 20
-175.22860492923701
 30
0.0
  0
VERTEX
  5
26C7
  8
SAPA_PROFIL
 10
-18.542240963959792
 20
-175.22860492923701
 30
0.0
  0
VERTEX
  5
26C8
  8
SAPA_PROFIL
 10
-18.542240963959792
 20
-175.70238059575189
 30
0.0
  0
SEQEND
  5
26C9
  8
SAPA_PROFIL
  0
POLYLINE
  5
1AB8
  8
SAPA_PROFIL
 66
     1
 10
0.0
 20
0.0
 30
0.0
 70
     1
  0
VERTEX
  5
26CA
  8
SAPA_PROFIL
 10
-69.229424243951371
 20
-131.7432718622758
 30
0.0
 42
0.4142135623730951
  0
VERTEX
  5
26CB
  8
SAPA_PROFIL
 10
-69.529424243951439
 20
-132.04327186227579
 30
0.0
  0
VERTEX
  5
26CC
  8
SAPA_PROFIL
 10
-69.529424243951212
 20
-166.91900779356371
 30
0.0
 42
0.198912367379658
  0
VERTEX
  5
26CD
  8
SAPA_PROFIL
 10
-69.441556278307303
 20
-167.13113982791981
 30
0.0
  0
VERTEX
  5
26CE
  8
SAPA_PROFIL
 10
-66.117292209595348
 20
-170.45540389663159
 30
0.0
 42
0.1989123673796998
  0
VERTEX
  5
26CF
  8
SAPA_PROFIL
 10
-65.905160175239303
 20
-170.5432718622757
 30
0.0
  0
VERTEX
  5
26D0
  8
SAPA_PROFIL
 10
-62.429424243951303
 20
-170.54327186227559
 30
0.0
 42
0.4142135623730951
  0
VERTEX
  5
26D1
  8
SAPA_PROFIL
 10
-62.129424243951341
 20
-170.24327186227569
 30
0.0
  0
VERTEX
  5
26D2
  8
SAPA_PROFIL
 10
-62.129424243951227
 20
-162.84327186227571
 30
0.0
 42
-0.4142135623730951
  0
VERTEX
  5
26D3
  8
SAPA_PROFIL
 10
-61.82942424395128
 20
-162.5432718622757
 30
0.0
  0
VERTEX
  5
26D4
  8
SAPA_PROFIL
 10
-60.22942424395125
 20
-162.5432718622757
 30
0.0
 42
-0.4142135623730951
  0
VERTEX
  5
26D5
  8
SAPA_PROFIL
 10
-59.929424243951303
 20
-162.84327186227571
 30
0.0
  0
VERTEX
  5
26D6
  8
SAPA_PROFIL
 10
-59.929424243951303
 20
-171.24327186227569
 30
0.0
 42
0.4142135623730951
  0
VERTEX
  5
26D7
  8
SAPA_PROFIL
 10
-59.629424243951341
 20
-171.5432718622757
 30
0.0
  0
VERTEX
  5
26D8
  8
SAPA_PROFIL
 10
-46.82942424395128
 20
-171.54327186227559
 30
0.0
 42
0.4142135623730951
  0
VERTEX
  5
26D9
  8
SAPA_PROFIL
 10
-46.529424243951318
 20
-171.24327186227569
 30
0.0
  0
VERTEX
  5
26DA
  8
SAPA_PROFIL
 10
-46.529424243951318
 20
-167.24327186227569
 30
0.0
 42
-0.6681786379192989
  0
VERTEX
  5
26DB
  8
SAPA_PROFIL
 10
-45.675870853358333
 20
-166.8897184716827
 30
0.0
  0
VERTEX
  5
26DC
  8
SAPA_PROFIL
 10
-44.529424243951318
 20
-168.03616508108971
 30
0.0
  0
VERTEX
  5
26DD
  8
SAPA_PROFIL
 10
-44.529424243951318
 20
-171.24327186227569
 30
0.0
 42
0.4142135623730951
  0
VERTEX
  5
26DE
  8
SAPA_PROFIL
 10
-44.229424243951371
 20
-171.5432718622757
 30
0.0
  0
VERTEX
  5
26DF
  8
SAPA_PROFIL
 10
-43.39544964773529
 20
-171.5432718622757
 30
0.0
  0
VERTEX
  5
26E0
  8
SAPA_PROFIL
 10
-42.529424243951318
 20
-172.0432718622757
 30
0.0
  0
VERTEX
  5
26E1
  8
SAPA_PROFIL
 10
-41.663398840167361
 20
-171.5432718622757
 30
0.0
  0
VERTEX
  5
26E2
  8
SAPA_PROFIL
 10
-40.82942424395128
 20
-171.54327186227559
 30
0.0
 42
0.4142135623730951
  0
VERTEX
  5
26E3
  8
SAPA_PROFIL
 10
-40.529424243951333
 20
-171.24327186227569
 30
0.0
  0
VERTEX
  5
26E4
  8
SAPA_PROFIL
 10
-40.529424243951333
 20
-167.5432718622757
 30
0.0
  0
VERTEX
  5
26E5
  8
SAPA_PROFIL
 10
-39.529424243951318
 20
-166.5432718622757
 30
0.0
  0
VERTEX
  5
26E6
  8
SAPA_PROFIL
 10
-25.42942424395131
 20
-166.5432718622757
 30
0.0
 42
0.4142135623730951
  0
VERTEX
  5
26E7
  8
SAPA_PROFIL
 10
-25.129424243951352
 20
-166.24327186227569
 30
0.0
  0
VERTEX
  5
26E8
  8
SAPA_PROFIL
 10
-25.129424243951352
 20
-162.84327186227571
 30
0.0
 42
-0.4142135623730951
  0
VERTEX
  5
26E9
  8
SAPA_PROFIL
 10
-24.82942424395128
 20
-162.5432718622757
 30
0.0
  0
VERTEX
  5
26EA
  8
SAPA_PROFIL
 10
-23.229424243951371
 20
-162.5432718622757
 30
0.0
 42
-0.4142135623730951
  0
VERTEX
  5
26EB
  8
SAPA_PROFIL
 10
-22.92942424395142
 20
-162.84327186227571
 30
0.0
  0
VERTEX
  5
26EC
  8
SAPA_PROFIL
 10
-22.929424243951299
 20
-166.24327186227569
 30
0.0
 42
0.4142135623730951
  0
VERTEX
  5
26ED
  8
SAPA_PROFIL
 10
-22.629424243951352
 20
-166.54327186227559
 30
0.0
  0
VERTEX
  5
26EE
  8
SAPA_PROFIL
 10
-15.82942424395128
 20
-166.5432718622757
 30
0.0
 42
0.4142135623730951
  0
VERTEX
  5
26EF
  8
SAPA_PROFIL
 10
-15.52942424395132
 20
-166.24327186227569
 30
0.0
  0
VERTEX
  5
26F0
  8
SAPA_PROFIL
 10
-15.529424243951439
 20
-132.0432718622757
 30
0.0
 42
0.4142135623730951
  0
VERTEX
  5
26F1
  8
SAPA_PROFIL
 10
-15.82942424395139
 20
-131.74327186227569
 30
0.0
  0
VERTEX
  5
26F2
  8
SAPA_PROFIL
 10
-22.629424243951458
 20
-131.74327186227561
 30
0.0
 42
0.4142135623730951
  0
VERTEX
  5
26F3
  8
SAPA_PROFIL
 10
-22.92942424395142
 20
-132.0432718622757
 30
0.0
  0
VERTEX
  5
26F4
  8
SAPA_PROFIL
 10
-22.92942424395142
 20
-135.44327186227571
 30
0.0
 42
-0.4142135623730951
  0
VERTEX
  5
26F5
  8
SAPA_PROFIL
 10
-23.229424243951492
 20
-135.74327186227561
 30
0.0
  0
VERTEX
  5
26F6
  8
SAPA_PROFIL
 10
-24.82942424395139
 20
-135.74327186227561
 30
0.0
 42
-0.4142135623730951
  0
VERTEX
  5
26F7
  8
SAPA_PROFIL
 10
-25.129424243951352
 20
-135.44327186227571
 30
0.0
  0
VERTEX
  5
26F8
  8
SAPA_PROFIL
 10
-25.129424243951458
 20
-130.84327186227571
 30
0.0
 42
0.4142135623730951
  0
VERTEX
  5
26F9
  8
SAPA_PROFIL
 10
-25.42942424395142
 20
-130.5432718622757
 30
0.0
  0
VERTEX
  5
26FA
  8
SAPA_PROFIL
 10
-59.629424243951462
 20
-130.5432718622757
 30
0.0
 42
0.4142135623730951
  0
VERTEX
  5
26FB
  8
SAPA_PROFIL
 10
-59.929424243951424
 20
-130.84327186227571
 30
0.0
  0
VERTEX
  5
26FC
  8
SAPA_PROFIL
 10
-59.929424243951424
 20
-135.44327186227571
 30
0.0
 42
-0.4142135623730951
  0
VERTEX
  5
26FD
  8
SAPA_PROFIL
 10
-60.229424243951371
 20
-135.74327186227561
 30
0.0
  0
VERTEX
  5
26FE
  8
SAPA_PROFIL
 10
-61.829424243951401
 20
-135.74327186227561
 30
0.0
 42
-0.4142135623730951
  0
VERTEX
  5
26FF
  8
SAPA_PROFIL
 10
-62.129424243951341
 20
-135.44327186227571
 30
0.0
  0
VERTEX
  5
2700
  8
SAPA_PROFIL
 10
-62.129424243951462
 20
-132.0432718622757
 30
0.0
 42
0.4142135623730951
  0
VERTEX
  5
2701
  8
SAPA_PROFIL
 10
-62.429424243951424
 20
-131.74327186227569
 30
0.0
  0
SEQEND
  5
2702
  8
SAPA_PROFIL
  0
POLYLINE
  5
1AB9
  8
SAPA_PROFIL
 66
     1
 10
0.0
 20
0.0
 30
0.0
 70
     1
  0
VERTEX
  5
2703
  8
SAPA_PROFIL
 10
-64.729424243951598
 20
-120.24327186227571
 30
0.0
 42
-0.4142135623730951
  0
VERTEX
  5
2704
  8
SAPA_PROFIL
 10
-65.029424243951553
 20
-120.5432718622758
 30
0.0
  0
VERTEX
  5
2705
  8
SAPA_PROFIL
 10
-65.479424243951584
 20
-120.5432718622759
 30
0.0
 42
0.4142135623730951
  0
VERTEX
  5
2706
  8
SAPA_PROFIL
 10
-65.779424243951553
 20
-120.8432718622758
 30
0.0
  0
VERTEX
  5
2707
  8
SAPA_PROFIL
 10
-65.779424243951553
 20
-121.5432718622756
 30
0.0
 42
0.4142135623731506
  0
VERTEX
  5
2708
  8
SAPA_PROFIL
 10
-65.479424243951584
 20
-121.8432718622757
 30
0.0
  0
VERTEX
  5
2709
  8
SAPA_PROFIL
 10
-65.029424243951553
 20
-121.8432718622757
 30
0.0
 42
-0.4142135623731506
  0
VERTEX
  5
270A
  8
SAPA_PROFIL
 10
-64.729424243951598
 20
-122.1432718622758
 30
0.0
  0
VERTEX
  5
270B
  8
SAPA_PROFIL
 10
-64.729424243951485
 20
-122.6432718622758
 30
0.0
 42
-0.4142135623730951
  0
VERTEX
  5
270C
  8
SAPA_PROFIL
 10
-65.229424243951485
 20
-123.1432718622758
 30
0.0
  0
VERTEX
  5
270D
  8
SAPA_PROFIL
 10
-66.629424243951462
 20
-123.1432718622758
 30
0.0
 42
0.4142135623730951
  0
VERTEX
  5
270E
  8
SAPA_PROFIL
 10
-67.629424243951462
 20
-124.1432718622758
 30
0.0
  0
VERTEX
  5
270F
  8
SAPA_PROFIL
 10
-67.629424243951576
 20
-124.5432718622758
 30
0.0
 42
0.9999999999999998
  0
VERTEX
  5
2710
  8
SAPA_PROFIL
 10
-60.42942424395153
 20
-124.5432718622757
 30
0.0
  0
VERTEX
  5
2711
  8
SAPA_PROFIL
 10
-60.429424243951424
 20
-123.44327186227559
 30
0.0
 42
0.4142135623732059
  0
VERTEX
  5
2712
  8
SAPA_PROFIL
 10
-60.729424243951478
 20
-123.1432718622755
 30
0.0
  0
VERTEX
  5
2713
  8
SAPA_PROFIL
 10
-61.029424243951318
 20
-123.1432718622757
 30
0.0
 42
-0.4142135623733948
  0
VERTEX
  5
2714
  8
SAPA_PROFIL
 10
-61.529424243951667
 20
-122.6432718622757
 30
0.0
  0
VERTEX
  5
2715
  8
SAPA_PROFIL
 10
-61.529424243951667
 20
-122.1432718622757
 30
0.0
 42
-0.4142135623730397
  0
VERTEX
  5
2716
  8
SAPA_PROFIL
 10
-61.229424243951712
 20
-121.8432718622758
 30
0.0
  0
VERTEX
  5
2717
  8
SAPA_PROFIL
 10
-60.779424243951553
 20
-121.8432718622757
 30
0.0
 42
0.4142135623731505
  0
VERTEX
  5
2718
  8
SAPA_PROFIL
 10
-60.479424243951591
 20
-121.5432718622756
 30
0.0
  0
VERTEX
  5
2719
  8
SAPA_PROFIL
 10
-60.479424243951591
 20
-120.8432718622758
 30
0.0
 42
0.4142135623730951
  0
VERTEX
  5
271A
  8
SAPA_PROFIL
 10
-60.779424243951553
 20
-120.5432718622757
 30
0.0
  0
VERTEX
  5
271B
  8
SAPA_PROFIL
 10
-61.229424243951598
 20
-120.5432718622757
 30
0.0
 42
-0.4142135623730951
  0
VERTEX
  5
271C
  8
SAPA_PROFIL
 10
-61.529424243951667
 20
-120.24327186227561
 30
0.0
  0
VERTEX
  5
271D
  8
SAPA_PROFIL
 10
-61.529424243951098
 20
-119.5432718622752
 30
0.0
 42
-0.2504916501726643
  0
VERTEX
  5
271E
  8
SAPA_PROFIL
 10
-60.529424243951659
 20
-118.5432718622757
 30
0.0
  0
VERTEX
  5
271F
  8
SAPA_PROFIL
 10
-58.229424243951598
 20
-118.5432718622757
 30
0.0
 42
-0.4142135623730951
  0
VERTEX
  5
2720
  8
SAPA_PROFIL
 10
-57.229424243951598
 20
-119.5432718622757
 30
0.0
  0
VERTEX
  5
2721
  8
SAPA_PROFIL
 10
-57.229424243951598
 20
-127.24327186227561
 30
0.0
 42
0.4142135623730951
  0
VERTEX
  5
2722
  8
SAPA_PROFIL
 10
-56.929424243951637
 20
-127.5432718622757
 30
0.0
  0
VERTEX
  5
2723
  8
SAPA_PROFIL
 10
-43.395449647735397
 20
-127.5432718622757
 30
0.0
  0
VERTEX
  5
2724
  8
SAPA_PROFIL
 10
-42.529424243951432
 20
-128.0432718622757
 30
0.0
  0
VERTEX
  5
2725
  8
SAPA_PROFIL
 10
-41.663398840167467
 20
-127.5432718622757
 30
0.0
  0
VERTEX
  5
2726
  8
SAPA_PROFIL
 10
-28.129424243951458
 20
-127.5432718622756
 30
0.0
 42
0.4142135623730951
  0
VERTEX
  5
2727
  8
SAPA_PROFIL
 10
-27.82942424395128
 20
-127.24327186227561
 30
0.0
  0
VERTEX
  5
2728
  8
SAPA_PROFIL
 10
-27.82942424395128
 20
-119.5432718622757
 30
0.0
 42
-0.4142135623730951
  0
VERTEX
  5
2729
  8
SAPA_PROFIL
 10
-26.82942424395128
 20
-118.5432718622757
 30
0.0
  0
VERTEX
  5
272A
  8
SAPA_PROFIL
 10
-24.529424243951208
 20
-118.5432718622757
 30
0.0
 42
-0.2504916501726643
  0
VERTEX
  5
272B
  8
SAPA_PROFIL
 10
-23.52942424395178
 20
-119.5432718622752
 30
0.0
  0
VERTEX
  5
272C
  8
SAPA_PROFIL
 10
-23.529424243951208
 20
-120.24327186227561
 30
0.0
 42
-0.4142135623730951
  0
VERTEX
  5
272D
  8
SAPA_PROFIL
 10
-23.82942424395128
 20
-120.5432718622757
 30
0.0
  0
VERTEX
  5
272E
  8
SAPA_PROFIL
 10
-24.279424243951329
 20
-120.5432718622757
 30
0.0
 42
0.4142135623730951
  0
VERTEX
  5
272F
  8
SAPA_PROFIL
 10
-24.57942424395128
 20
-120.8432718622758
 30
0.0
  0
VERTEX
  5
2730
  8
SAPA_PROFIL
 10
-24.57942424395128
 20
-121.5432718622756
 30
0.0
 42
0.4142135623731506
  0
VERTEX
  5
2731
  8
SAPA_PROFIL
 10
-24.279424243951329
 20
-121.8432718622757
 30
0.0
  0
VERTEX
  5
2732
  8
SAPA_PROFIL
 10
-23.82942424395117
 20
-121.8432718622758
 30
0.0
 42
-0.4142135623730397
  0
VERTEX
  5
2733
  8
SAPA_PROFIL
 10
-23.529424243951208
 20
-122.1432718622757
 30
0.0
  0
VERTEX
  5
2734
  8
SAPA_PROFIL
 10
-23.529424243951208
 20
-122.6432718622757
 30
0.0
 42
-0.4142135623733948
  0
VERTEX
  5
2735
  8
SAPA_PROFIL
 10
-24.029424243951549
 20
-123.1432718622757
 30
0.0
  0
VERTEX
  5
2736
  8
SAPA_PROFIL
 10
-24.329424243951401
 20
-123.1432718622755
 30
0.0
 42
0.4142135623732059
  0
VERTEX
  5
2737
  8
SAPA_PROFIL
 10
-24.629424243951458
 20
-123.44327186227559
 30
0.0
  0
VERTEX
  5
2738
  8
SAPA_PROFIL
 10
-24.629424243951352
 20
-124.5432718622757
 30
0.0
 42
0.9999999999999998
  0
VERTEX
  5
2739
  8
SAPA_PROFIL
 10
-17.429424243951299
 20
-124.5432718622757
 30
0.0
  0
VERTEX
  5
273A
  8
SAPA_PROFIL
 10
-17.429424243951409
 20
-124.1432718622757
 30
0.0
 42
0.4142135623730951
  0
VERTEX
  5
273B
  8
SAPA_PROFIL
 10
-18.429424243951409
 20
-123.1432718622757
 30
0.0
  0
VERTEX
  5
273C
  8
SAPA_PROFIL
 10
-19.82942424395139
 20
-123.1432718622757
 30
0.0
 42
-0.4142135623730951
  0
VERTEX
  5
273D
  8
SAPA_PROFIL
 10
-20.32942424395139
 20
-122.6432718622757
 30
0.0
  0
VERTEX
  5
273E
  8
SAPA_PROFIL
 10
-20.32942424395128
 20
-122.1432718622757
 30
0.0
 42
-0.4142135623731506
  0
VERTEX
  5
273F
  8
SAPA_PROFIL
 10
-20.029424243951329
 20
-121.8432718622757
 30
0.0
  0
VERTEX
  5
2740
  8
SAPA_PROFIL
 10
-19.57942424395128
 20
-121.8432718622757
 30
0.0
 42
0.4142135623731505
  0
VERTEX
  5
2741
  8
SAPA_PROFIL
 10
-19.279424243951318
 20
-121.5432718622756
 30
0.0
  0
VERTEX
  5
2742
  8
SAPA_PROFIL
 10
-19.279424243951318
 20
-120.8432718622758
 30
0.0
 42
0.4142135623730951
  0
VERTEX
  5
2743
  8
SAPA_PROFIL
 10
-19.57942424395128
 20
-120.5432718622758
 30
0.0
  0
VERTEX
  5
2744
  8
SAPA_PROFIL
 10
-20.029424243951329
 20
-120.5432718622757
 30
0.0
 42
-0.4142135623730951
  0
VERTEX
  5
2745
  8
SAPA_PROFIL
 10
-20.32942424395128
 20
-120.24327186227561
 30
0.0
  0
VERTEX
  5
2746
  8
SAPA_PROFIL
 10
-20.32942424395128
 20
-119.5432718622757
 30
0.0
 42
-0.2504916501726753
  0
VERTEX
  5
2747
  8
SAPA_PROFIL
 10
-19.329424243951049
 20
-118.5432718622752
 30
0.0
  0
VERTEX
  5
2748
  8
SAPA_PROFIL
 10
-16.943637806324318
 20
-118.5432718622757
 30
0.0
 42
-0.1989123673796728
  0
VERTEX
  5
2749
  8
SAPA_PROFIL
 10
-16.236531025137761
 20
-118.83616508108921
 30
0.0
  0
VERTEX
  5
274A
  8
SAPA_PROFIL
 10
-13.408103900392231
 20
-121.6645922058356
 30
0.0
 42
-0.1989123673796725
  0
VERTEX
  5
274B
  8
SAPA_PROFIL
 10
-12.529424243951439
 20
-123.78591254939469
 30
0.0
  0
VERTEX
  5
274C
  8
SAPA_PROFIL
 10
-12.52942424395132
 20
-169.30063117515681
 30
0.0
 42
-0.1989123673796575
  0
VERTEX
  5
274D
  8
SAPA_PROFIL
 10
-13.408103900391319
 20
-171.4219515187157
 30
0.0
  0
VERTEX
  5
274E
  8
SAPA_PROFIL
 10
-16.236531025137761
 20
-174.25037864346231
 30
0.0
 42
-0.198912367379658
  0
VERTEX
  5
274F
  8
SAPA_PROFIL
 10
-16.943637806324318
 20
-174.5432718622757
 30
0.0
  0
VERTEX
  5
2750
  8
SAPA_PROFIL
 10
-20.029424243951329
 20
-174.5432718622757
 30
0.0
  0
VERTEX
  5
2751
  8
SAPA_PROFIL
 10
-21.029424243951318
 20
-173.5432718622757
 30
0.0
  0
VERTEX
  5
2752
  8
SAPA_PROFIL
 10
-21.029424243951318
 20
-172.5432718622757
 30
0.0
  0
VERTEX
  5
2753
  8
SAPA_PROFIL
 10
-18.979424243951371
 20
-172.54327186227559
 30
0.0
 42
0.4142135623730951
  0
VERTEX
  5
2754
  8
SAPA_PROFIL
 10
-18.679424243951299
 20
-172.24327186227569
 30
0.0
  0
VERTEX
  5
2755
  8
SAPA_PROFIL
 10
-18.679424243951409
 20
-169.7932718622757
 30
0.0
 42
0.4142135623730951
  0
VERTEX
  5
2756
  8
SAPA_PROFIL
 10
-18.979424243951371
 20
-169.49327186227569
 30
0.0
  0
VERTEX
  5
2757
  8
SAPA_PROFIL
 10
-37.07942424395128
 20
-169.4932718622758
 30
0.0
 42
0.414213562373095
  0
VERTEX
  5
2758
  8
SAPA_PROFIL
 10
-37.379424243951348
 20
-169.7932718622757
 30
0.0
  0
VERTEX
  5
2759
  8
SAPA_PROFIL
 10
-37.379424243951242
 20
-172.24327186227569
 30
0.0
 42
0.4142135623730951
  0
VERTEX
  5
275A
  8
SAPA_PROFIL
 10
-37.07942424395128
 20
-172.5432718622757
 30
0.0
  0
VERTEX
  5
275B
  8
SAPA_PROFIL
 10
-35.32942424395128
 20
-172.5432718622757
 30
0.0
 42
-0.4142135623730951
  0
VERTEX
  5
275C
  8
SAPA_PROFIL
 10
-35.029424243951333
 20
-172.84327186227571
 30
0.0
  0
VERTEX
  5
275D
  8
SAPA_PROFIL
 10
-35.029424243951333
 20
-173.5432718622757
 30
0.0
  0
VERTEX
  5
275E
  8
SAPA_PROFIL
 10
-36.029424243951333
 20
-174.5432718622757
 30
0.0
  0
VERTEX
  5
275F
  8
SAPA_PROFIL
 10
-41.663398840167361
 20
-174.5432718622757
 30
0.0
  0
VERTEX
  5
2760
  8
SAPA_PROFIL
 10
-42.529424243951318
 20
-174.0432718622757
 30
0.0
  0
VERTEX
  5
2761
  8
SAPA_PROFIL
 10
-43.39544964773529
 20
-174.5432718622757
 30
0.0
  0
VERTEX
  5
2762
  8
SAPA_PROFIL
 10
-62.529424243951333
 20
-174.5432718622757
 30
0.0
 42
0.4142135623730951
  0
VERTEX
  5
2763
  8
SAPA_PROFIL
 10
-63.529424243951318
 20
-175.5432718622757
 30
0.0
  0
VERTEX
  5
2764
  8
SAPA_PROFIL
 10
-63.529424243951318
 20
-185.0432718622757
 30
0.0
 42
-0.4142135623730951
  0
VERTEX
  5
2765
  8
SAPA_PROFIL
 10
-62.529424243951333
 20
-186.0432718622757
 30
0.0
  0
VERTEX
  5
2766
  8
SAPA_PROFIL
 10
-62.529424243951333
 20
-186.6108163302406
 30
0.0
 42
-0.2896898633030159
  0
VERTEX
  5
2767
  8
SAPA_PROFIL
 10
-63.100852815380676
 20
-187.51432423314631
 30
0.0
 42
-0.5507604245859661
  0
VERTEX
  5
2768
  8
SAPA_PROFIL
 10
-63.529424243949279
 20
-187.24327186227569
 30
0.0
  0
VERTEX
  5
2769
  8
SAPA_PROFIL
 10
-63.529424243951318
 20
-186.59327186227571
 30
0.0
 42
0.4142135623730951
  0
VERTEX
  5
276A
  8
SAPA_PROFIL
 10
-63.82942424395128
 20
-186.2932718622757
 30
0.0
  0
VERTEX
  5
276B
  8
SAPA_PROFIL
 10
-65.029424243951325
 20
-186.2932718622757
 30
0.0
 42
0.4142135623730951
  0
VERTEX
  5
276C
  8
SAPA_PROFIL
 10
-65.529424243951325
 20
-186.7932718622757
 30
0.0
  0
VERTEX
  5
276D
  8
SAPA_PROFIL
 10
-65.529424243951325
 20
-194.7932718622757
 30
0.0
 42
0.4142135623730951
  0
VERTEX
  5
276E
  8
SAPA_PROFIL
 10
-65.029424243951325
 20
-195.2932718622757
 30
0.0
  0
VERTEX
  5
276F
  8
SAPA_PROFIL
 10
-63.82942424395128
 20
-195.2932718622757
 30
0.0
 42
0.4142135623730951
  0
VERTEX
  5
2770
  8
SAPA_PROFIL
 10
-63.529424243951318
 20
-194.99327186227569
 30
0.0
  0
VERTEX
  5
2771
  8
SAPA_PROFIL
 10
-63.529424243951318
 20
-194.34327186227571
 30
0.0
 42
-0.5507604245859089
  0
VERTEX
  5
2772
  8
SAPA_PROFIL
 10
-63.100852815380108
 20
-194.0722194914041
 30
0.0
 42
-0.2896898633030179
  0
VERTEX
  5
2773
  8
SAPA_PROFIL
 10
-62.529424243952349
 20
-194.9757273943107
 30
0.0
  0
VERTEX
  5
2774
  8
SAPA_PROFIL
 10
-62.529424243951333
 20
-196.24327186227569
 30
0.0
 42
-0.4142135623730951
  0
VERTEX
  5
2775
  8
SAPA_PROFIL
 10
-62.82942424395128
 20
-196.54327186227559
 30
0.0
  0
VERTEX
  5
2776
  8
SAPA_PROFIL
 10
-67.029424243951325
 20
-196.5432718622757
 30
0.0
 42
-0.4142135623730951
  0
VERTEX
  5
2777
  8
SAPA_PROFIL
 10
-68.029424243951325
 20
-195.5432718622757
 30
0.0
  0
VERTEX
  5
2778
  8
SAPA_PROFIL
 10
-68.029424243951325
 20
-176.28591254939471
 30
0.0
 42
0.1989123673796595
  0
VERTEX
  5
2779
  8
SAPA_PROFIL
 10
-68.908103900391666
 20
-174.16459220583511
 30
0.0
  0
VERTEX
  5
277A
  8
SAPA_PROFIL
 10
-71.650744587511326
 20
-171.4219515187157
 30
0.0
 42
-0.1989123673796574
  0
VERTEX
  5
277B
  8
SAPA_PROFIL
 10
-72.529424243951325
 20
-169.30063117515681
 30
0.0
  0
VERTEX
  5
277C
  8
SAPA_PROFIL
 10
-72.529424243951425
 20
-123.78591254939469
 30
0.0
 42
-0.1989123673796727
  0
VERTEX
  5
277D
  8
SAPA_PROFIL
 10
-71.650744587510644
 20
-121.6645922058356
 30
0.0
  0
VERTEX
  5
277E
  8
SAPA_PROFIL
 10
-68.822317462765113
 20
-118.83616508108921
 30
0.0
 42
-0.1989123673796728
  0
VERTEX
  5
277F
  8
SAPA_PROFIL
 10
-68.11521068157856
 20
-118.5432718622758
 30
0.0
  0
VERTEX
  5
2780
  8
SAPA_PROFIL
 10
-65.729424243951826
 20
-118.5432718622753
 30
0.0
 42
-0.2504916501726754
  0
VERTEX
  5
2781
  8
SAPA_PROFIL
 10
-64.729424243951598
 20
-119.5432718622758
 30
0.0
  0
SEQEND
  5
2782
  8
SAPA_PROFIL
  0
POLYLINE
  5
1ABA
  8
SAPA_PROFIL
 66
     1
 10
0.0
 20
0.0
 30
0.0
 70
     1
  0
VERTEX
  5
2783
  8
SAPA_PROFIL
 10
48.799999999999038
 20
45.000000000000682
 30
0.0
  0
VERTEX
  5
2784
  8
SAPA_PROFIL
 10
50.799999999999052
 20
45.000000000000682
 30
0.0
  0
VERTEX
  5
2785
  8
SAPA_PROFIL
 10
50.799999999999052
 20
30.656854249493112
 30
0.0
  0
VERTEX
  5
2786
  8
SAPA_PROFIL
 10
45.143145750506612
 20
25.000000000000679
 30
0.0
  0
VERTEX
  5
2787
  8
SAPA_PROFIL
 10
25.799999999999049
 20
25.000000000000679
 30
0.0
  0
VERTEX
  5
2788
  8
SAPA_PROFIL
 10
25.799999999999049
 20
27.000000000000689
 30
0.0
  0
VERTEX
  5
2789
  8
SAPA_PROFIL
 10
31.107179676971551
 20
27.000000000000689
 30
0.0
  0
VERTEX
  5
278A
  8
SAPA_PROFIL
 10
31.799999999999049
 20
26.600000000000819
 30
0.0
  0
VERTEX
  5
278B
  8
SAPA_PROFIL
 10
32.492820323026763
 20
27.000000000000689
 30
0.0
  0
VERTEX
  5
278C
  8
SAPA_PROFIL
 10
43.486291501014421
 20
27.000000000000689
 30
0.0
 42
0.1989123673796584
  0
VERTEX
  5
278D
  8
SAPA_PROFIL
 10
44.900505063387527
 20
27.585786437627579
 30
0.0
  0
VERTEX
  5
278E
  8
SAPA_PROFIL
 10
48.214213562372152
 20
30.899494936612431
 30
0.0
 42
0.1989123673796572
  0
VERTEX
  5
278F
  8
SAPA_PROFIL
 10
48.799999999999038
 20
32.313708498985527
 30
0.0
  0
VERTEX
  5
2790
  8
SAPA_PROFIL
 10
48.799999999999038
 20
38.307179676973192
 30
0.0
  0
VERTEX
  5
2791
  8
SAPA_PROFIL
 10
49.199999999999129
 20
39.000000000000682
 30
0.0
  0
VERTEX
  5
2792
  8
SAPA_PROFIL
 10
48.799999999999038
 20
39.6928203230284
 30
0.0
  0
SEQEND
  5
2793
  8
SAPA_PROFIL
  0
POLYLINE
  5
1ABB
  8
SAPA_PROFIL
 66
     1
 10
0.0
 20
0.0
 30
0.0
 70
     1
  0
VERTEX
  5
2794
  8
SAPA_PROFIL
 10
-49.600000000002062
 20
23.299999999998992
 30
0.0
  0
VERTEX
  5
2795
  8
SAPA_PROFIL
 10
-46.000000000001712
 20
23.299999999998992
 30
0.0
 42
-0.4142135623731054
  0
VERTEX
  5
2796
  8
SAPA_PROFIL
 10
-45.500000000001698
 20
22.799999999998992
 30
0.0
  0
VERTEX
  5
2797
  8
SAPA_PROFIL
 10
-45.500000000001933
 20
16.699999999999079
 30
0.0
 42
-0.4142135623730804
  0
VERTEX
  5
2798
  8
SAPA_PROFIL
 10
-46.000000000001933
 20
16.199999999999079
 30
0.0
  0
VERTEX
  5
2799
  8
SAPA_PROFIL
 10
-49.600000000002183
 20
16.199999999999079
 30
0.0
 42
-0.4142135623731039
  0
VERTEX
  5
279A
  8
SAPA_PROFIL
 10
-50.100000000002183
 20
16.699999999999079
 30
0.0
  0
VERTEX
  5
279B
  8
SAPA_PROFIL
 10
-50.100000000002069
 20
22.799999999998992
 30
0.0
 42
-0.4142135623730908
  0
SEQEND
  5
279C
  8
SAPA_PROFIL
  0
POLYLINE
  5
1ABC
  8
SAPA_PROFIL
 66
     1
 10
0.0
 20
0.0
 30
0.0
 70
     1
  0
VERTEX
  5
279D
  8
SAPA_PROFIL
 10
-57.400000000002251
 20
17.799999999999208
 30
0.0
  0
VERTEX
  5
279E
  8
SAPA_PROFIL
 10
-56.935076580436892
 20
18.386384015760029
 30
0.0
 42
-0.7105995015651491
  0
VERTEX
  5
279F
  8
SAPA_PROFIL
 10
-56.400000000002031
 20
18.19999999999931
 30
0.0
  0
VERTEX
  5
27A0
  8
SAPA_PROFIL
 10
-56.40000000000213
 20
16.699999999999299
 30
0.0
 42
0.4142135623731341
  0
VERTEX
  5
27A1
  8
SAPA_PROFIL
 10
-55.90000000000213
 20
16.19999999999931
 30
0.0
  0
VERTEX
  5
27A2
  8
SAPA_PROFIL
 10
-52.100000000002531
 20
16.19999999999931
 30
0.0
 42
0.4142135623730868
  0
VERTEX
  5
27A3
  8
SAPA_PROFIL
 10
-51.600000000002517
 20
16.699999999999299
 30
0.0
  0
VERTEX
  5
27A4
  8
SAPA_PROFIL
 10
-51.600000000002069
 20
22.799999999999098
 30
0.0
 42
0.4142135623731033
  0
VERTEX
  5
27A5
  8
SAPA_PROFIL
 10
-52.100000000002062
 20
23.299999999999098
 30
0.0
  0
VERTEX
  5
27A6
  8
SAPA_PROFIL
 10
-55.900000000002017
 20
23.299999999999098
 30
0.0
 42
0.4142135623730435
  0
VERTEX
  5
27A7
  8
SAPA_PROFIL
 10
-56.400000000002031
 20
22.799999999999219
 30
0.0
  0
VERTEX
  5
27A8
  8
SAPA_PROFIL
 10
-56.400000000002251
 20
21.799999999999219
 30
0.0
 42
-0.7105995015650766
  0
VERTEX
  5
27A9
  8
SAPA_PROFIL
 10
-56.935076580436892
 20
21.613615984238489
 30
0.0
  0
VERTEX
  5
27AA
  8
SAPA_PROFIL
 10
-57.400000000002251
 20
22.19999999999931
 30
0.0
  0
VERTEX
  5
27AB
  8
SAPA_PROFIL
 10
-57.400000000002358
 20
24.299999999999219
 30
0.0
 42
-0.4142135623731
  0
VERTEX
  5
27AC
  8
SAPA_PROFIL
 10
-56.900000000002358
 20
24.799999999999219
 30
0.0
  0
VERTEX
  5
27AD
  8
SAPA_PROFIL
 10
-44.000000000001698
 20
24.799999999999098
 30
0.0
 42
-0.4142135623730902
  0
VERTEX
  5
27AE
  8
SAPA_PROFIL
 10
-43.500000000001712
 20
24.299999999999098
 30
0.0
  0
VERTEX
  5
27AF
  8
SAPA_PROFIL
 10
-43.500000000001471
 20
22.699999999999079
 30
0.0
  0
VERTEX
  5
27B0
  8
SAPA_PROFIL
 10
-43.500000000001471
 20
22.699999999999079
 30
0.0
 42
0.4142135623730951
  0
VERTEX
  5
27B1
  8
SAPA_PROFIL
 10
-44.000000000001471
 20
22.199999999999079
 30
0.0
  0
VERTEX
  5
27B2
  8
SAPA_PROFIL
 10
-44.000000000001471
 20
15.199999999999079
 30
0.0
 42
-0.4142135623730946
  0
VERTEX
  5
27B3
  8
SAPA_PROFIL
 10
-44.500000000001471
 20
14.699999999999079
 30
0.0
  0
VERTEX
  5
27B4
  8
SAPA_PROFIL
 10
-49.600000000001963
 20
14.699999999999079
 30
0.0
 42
0.4142135623730951
  0
VERTEX
  5
27B5
  8
SAPA_PROFIL
 10
-50.100000000001963
 20
14.199999999999079
 30
0.0
  0
VERTEX
  5
27B6
  8
SAPA_PROFIL
 10
-50.100000000002183
 20
11.199999999999079
 30
0.0
 42
0.4142135623730951
  0
VERTEX
  5
27B7
  8
SAPA_PROFIL
 10
-49.600000000002183
 20
10.699999999999189
 30
0.0
  0
VERTEX
  5
27B8
  8
SAPA_PROFIL
 10
-33.700000000001751
 20
10.700000000000211
 30
0.0
 42
0.4142135623730951
  0
VERTEX
  5
27B9
  8
SAPA_PROFIL
 10
-33.400000000001803
 20
11.000000000000171
 30
0.0
  0
VERTEX
  5
27BA
  8
SAPA_PROFIL
 10
-33.40000000000191
 20
12.28821087970795
 30
0.0
 42
-0.6681786379192946
  0
VERTEX
  5
27BB
  8
SAPA_PROFIL
 10
-32.88786796564591
 20
12.50034291406388
 30
0.0
  0
VERTEX
  5
27BC
  8
SAPA_PROFIL
 10
-30.687867965645861
 20
10.300342914064061
 30
0.0
 42
-0.1989123673796376
  0
VERTEX
  5
27BD
  8
SAPA_PROFIL
 10
-30.600000000001732
 20
10.08821087970813
 30
0.0
  0
VERTEX
  5
27BE
  8
SAPA_PROFIL
 10
-30.600000000001732
 20
9.5000000000000568
 30
0.0
 42
-0.4142135623730951
  0
VERTEX
  5
27BF
  8
SAPA_PROFIL
 10
-30.90000000000169
 20
9.1999999999999886
 30
0.0
  0
VERTEX
  5
27C0
  8
SAPA_PROFIL
 10
-49.60000000000241
 20
9.1999999999999886
 30
0.0
 42
0.4142135623730951
  0
VERTEX
  5
27C1
  8
SAPA_PROFIL
 10
-50.10000000000241
 20
8.6999999999999886
 30
0.0
  0
VERTEX
  5
27C2
  8
SAPA_PROFIL
 10
-50.10000000000241
 20
7.0000000000001696
 30
0.0
 42
0.4142135623730951
  0
VERTEX
  5
27C3
  8
SAPA_PROFIL
 10
-49.60000000000241
 20
6.5000000000001696
 30
0.0
  0
VERTEX
  5
27C4
  8
SAPA_PROFIL
 10
-38.100000000002638
 20
6.500000000000397
 30
0.0
 42
-0.4142135623731011
  0
VERTEX
  5
27C5
  8
SAPA_PROFIL
 10
-37.600000000002638
 20
6.000000000000397
 30
0.0
  0
VERTEX
  5
27C6
  8
SAPA_PROFIL
 10
-37.600000000002638
 20
5.5000000000002842
 30
0.0
 42
-0.4142135623731173
  0
VERTEX
  5
27C7
  8
SAPA_PROFIL
 10
-38.100000000002638
 20
5.0000000000002842
 30
0.0
  0
VERTEX
  5
27C8
  8
SAPA_PROFIL
 10
-51.100000000002751
 20
5.0000000000011928
 30
0.0
 42
-0.4142135623730951
  0
VERTEX
  5
27C9
  8
SAPA_PROFIL
 10
-51.600000000002751
 20
5.5000000000011928
 30
0.0
  0
VERTEX
  5
27CA
  8
SAPA_PROFIL
 10
-51.600000000002751
 20
14.19999999999953
 30
0.0
 42
0.4142135623730806
  0
VERTEX
  5
27CB
  8
SAPA_PROFIL
 10
-52.100000000002751
 20
14.69999999999953
 30
0.0
  0
VERTEX
  5
27CC
  8
SAPA_PROFIL
 10
-55.400000000002251
 20
14.69999999999999
 30
0.0
 42
0.4142135623730951
  0
VERTEX
  5
27CD
  8
SAPA_PROFIL
 10
-55.900000000002251
 20
14.19999999999999
 30
0.0
  0
VERTEX
  5
27CE
  8
SAPA_PROFIL
 10
-55.900000000002699
 20
10.50000000000108
 30
0.0
 42
-0.4142135623730586
  0
VERTEX
  5
27CF
  8
SAPA_PROFIL
 10
-56.400000000002699
 20
10.00000000000108
 30
0.0
  0
VERTEX
  5
27D0
  8
SAPA_PROFIL
 10
-56.900000000002478
 20
10.00000000000108
 30
0.0
 42
-0.4142135623730951
  0
VERTEX
  5
27D1
  8
SAPA_PROFIL
 10
-57.400000000002478
 20
10.50000000000108
 30
0.0
  0
SEQEND
  5
27D2
  8
SAPA_PROFIL
  0
POLYLINE
  5
1ABD
  8
SAPA_PROFIL
 66
     1
 10
0.0
 20
0.0
 30
0.0
 70
     1
  0
VERTEX
  5
27D3
  8
SAPA_PROFIL
 10
-81.098475071208114
 20
-22.800000000000189
 30
0.0
  0
VERTEX
  5
27D4
  8
SAPA_PROFIL
 10
-81.098475071208114
 20
-23.800000000000189
 30
0.0
  0
VERTEX
  5
27D5
  8
SAPA_PROFIL
 10
-78.498475071207949
 20
-23.800000000000189
 30
0.0
 42
-0.4142135623730951
  0
VERTEX
  5
27D6
  8
SAPA_PROFIL
 10
-77.998475071207935
 20
-24.300000000000189
 30
0.0
  0
VERTEX
  5
27D7
  8
SAPA_PROFIL
 10
-77.998475071207935
 20
-24.70000000000028
 30
0.0
 42
-0.4142135623730951
  0
VERTEX
  5
27D8
  8
SAPA_PROFIL
 10
-78.298475071207903
 20
-25.000000000000231
 30
0.0
  0
VERTEX
  5
27D9
  8
SAPA_PROFIL
 10
-95.999999999010598
 20
-25.000000000000231
 30
0.0
 42
-0.4142135623730951
  0
VERTEX
  5
27DA
  8
SAPA_PROFIL
 10
-96.499999999010598
 20
-24.500000000000231
 30
0.0
  0
VERTEX
  5
27DB
  8
SAPA_PROFIL
 10
-96.499999999010583
 20
24.499999999999769
 30
0.0
 42
-0.4142135623730951
  0
VERTEX
  5
27DC
  8
SAPA_PROFIL
 10
-95.999999999010583
 20
24.999999999999769
 30
0.0
  0
VERTEX
  5
27DD
  8
SAPA_PROFIL
 10
-78.298475071207875
 20
24.999999999999769
 30
0.0
 42
-0.4142135623730951
  0
VERTEX
  5
27DE
  8
SAPA_PROFIL
 10
-77.998475071207935
 20
24.699999999999811
 30
0.0
  0
VERTEX
  5
27DF
  8
SAPA_PROFIL
 10
-77.998475071207935
 20
24.29999999999972
 30
0.0
 42
-0.4142135623730951
  0
VERTEX
  5
27E0
  8
SAPA_PROFIL
 10
-78.498475071207935
 20
23.79999999999972
 30
0.0
  0
VERTEX
  5
27E1
  8
SAPA_PROFIL
 10
-81.098475071208085
 20
23.79999999999972
 30
0.0
  0
VERTEX
  5
27E2
  8
SAPA_PROFIL
 10
-81.098475071208085
 20
22.79999999999972
 30
0.0
  0
VERTEX
  5
27E3
  8
SAPA_PROFIL
 10
-82.102507830841091
 20
22.22033922157857
 30
0.0
 42
-0.4155392929676362
  0
VERTEX
  5
27E4
  8
SAPA_PROFIL
 10
-83.197126802633065
 20
22.51631264788443
 30
0.0
  0
VERTEX
  5
27E5
  8
SAPA_PROFIL
 10
-83.93826404093204
 20
23.79999999999972
 30
0.0
  0
VERTEX
  5
27E6
  8
SAPA_PROFIL
 10
-94.099999999010734
 20
23.799999999999731
 30
0.0
 42
0.4142135623730951
  0
VERTEX
  5
27E7
  8
SAPA_PROFIL
 10
-95.09999999901072
 20
22.799999999999731
 30
0.0
  0
VERTEX
  5
27E8
  8
SAPA_PROFIL
 10
-95.099999999010734
 20
-22.800000000000178
 30
0.0
 42
0.4142135623730951
  0
VERTEX
  5
27E9
  8
SAPA_PROFIL
 10
-94.099999999010734
 20
-23.800000000000178
 30
0.0
  0
VERTEX
  5
27EA
  8
SAPA_PROFIL
 10
-83.938264040932054
 20
-23.800000000000189
 30
0.0
  0
VERTEX
  5
27EB
  8
SAPA_PROFIL
 10
-83.197126802633093
 20
-22.516312647884892
 30
0.0
 42
-0.4155392929676362
  0
VERTEX
  5
27EC
  8
SAPA_PROFIL
 10
-82.102507830841105
 20
-22.220339221579032
 30
0.0
  0
SEQEND
  5
27ED
  8
SAPA_PROFIL
  0
LINE
  5
1ABE
  8
SAPA_PROFIL
 10
-76.49999999901047
 20
23.300000000000079
 30
0.0
 11
-76.49999999901047
 21
20.850000000000271
 31
0.0
  0
ARC
  5
1ABF
  8
SAPA_PROFIL
 10
-76.99999999901047
 20
23.300000000000079
 30
0.0
 40
0.5
 50
0.0
 51
90.0
  0
LINE
  5
1AC0
  8
SAPA_PROFIL
 10
-80.699999999010274
 20
23.800000000000541
 30
0.0
 11
-76.99999999901047
 21
23.800000000000079
 31
0.0
  0
ARC
  5
1AC1
  8
SAPA_PROFIL
 10
-80.699999999010274
 20
23.500000000000359
 30
0.0
 40
0.3000000000001819
 50
90.0
 51
180.0
  0
LINE
  5
1AC2
  8
SAPA_PROFIL
 10
-80.99999999901047
 20
22.473205080757349
 30
0.0
 11
-80.99999999901047
 21
23.500000000000359
 31
0.0
  0
ARC
  5
1AC3
  8
SAPA_PROFIL
 10
-81.299999999010396
 20
22.47320508075747
 30
0.0
 40
0.2999999999999225
 50
299.9999999999722
 51
359.99999999997829
  0
LINE
  5
1AC4
  8
SAPA_PROFIL
 10
-82.687083486550804
 20
21.325961894323779
 30
0.0
 11
-81.149999999010575
 21
22.213397459622129
 31
0.0
  0
ARC
  5
1AC5
  8
SAPA_PROFIL
 10
-82.837083486550924
 20
21.58576951545896
 30
0.0
 40
0.2999999999999183
 50
210.0000000000197
 51
300.00000000003178
  0
LINE
  5
1AC6
  8
SAPA_PROFIL
 10
-83.404123202713436
 20
21.967911113762408
 30
0.0
 11
-83.096891107686133
 21
21.435769515458919
 31
0.0
  0
ARC
  5
1AC7
  8
SAPA_PROFIL
 10
-84.270148606497614
 20
21.46791111376244
 30
0.0
 40
0.9999999999997509
 50
30.000000000006469
 51
130.0000000000266
  0
LINE
  5
1AC8
  8
SAPA_PROFIL
 10
-89.821393803853425
 20
18.115270605417109
 30
0.0
 11
-84.912936216184335
 21
22.233955556880929
 31
0.0
  0
ARC
  5
1AC9
  8
SAPA_PROFIL
 10
-89.499999999010456
 20
17.73224838385736
 30
0.0
 40
0.5000000000000142
 50
129.99999999995401
 51
179.99999999994299
  0
LINE
  5
1ACA
  8
SAPA_PROFIL
 10
-89.999999999010484
 20
9.7002075382096251
 30
0.0
 11
-89.999999999010484
 21
17.732248383857851
 31
0.0
  0
ARC
  5
1ACB
  8
SAPA_PROFIL
 10
-88.999999999010342
 20
9.7002075382096997
 30
0.0
 40
1.000000000000131
 50
180.00000000000409
 51
250.00000000000529
  0
LINE
  5
1ACC
  8
SAPA_PROFIL
 10
-85.657979855684516
 20
7.4196339112453566
 30
0.0
 11
-89.342020142335954
 21
8.7605149174236363
 31
0.0
  0
ARC
  5
1ACD
  8
SAPA_PROFIL
 10
-85.999999999010171
 20
6.4799412904592799
 30
0.0
 40
1.0000000000001561
 50
0.0000000000049362
 51
70.000000000004036
  0
LINE
  5
1ACE
  8
SAPA_PROFIL
 10
-84.999999999010015
 20
-6.4799412904591067
 30
0.0
 11
-84.999999999010015
 21
6.4799412904593661
 31
0.0
  0
ARC
  5
1ACF
  8
SAPA_PROFIL
 10
-85.999999999010171
 20
-6.4799412904590206
 30
0.0
 40
1.000000000000153
 50
289.99999999999591
 51
359.99999999999511
  0
LINE
  5
1AD0
  8
SAPA_PROFIL
 10
-89.342020142335954
 20
-8.7605149174238317
 30
0.0
 11
-85.657979855684516
 21
-7.4196339112450982
 31
0.0
  0
ARC
  5
1AD1
  8
SAPA_PROFIL
 10
-88.999999999010342
 20
-9.7002075382098951
 30
0.0
 40
1.000000000000127
 50
109.9999999999947
 51
179.99999999999579
  0
LINE
  5
1AD2
  8
SAPA_PROFIL
 10
-89.999999999010484
 20
-17.732248383857591
 30
0.0
 11
-89.999999999010484
 21
-9.7002075382098223
 31
0.0
  0
ARC
  5
1AD3
  8
SAPA_PROFIL
 10
-89.499999999009972
 20
-17.732248383857321
 30
0.0
 40
0.5000000000004964
 50
180.00000000003089
 51
230.00000000002029
  0
LINE
  5
1AD4
  8
SAPA_PROFIL
 10
-84.912936216184335
 20
-22.233955556881131
 30
0.0
 11
-89.821393803853425
 21
-18.115270605417301
 31
0.0
  0
ARC
  5
1AD5
  8
SAPA_PROFIL
 10
-84.270148606497798
 20
-21.467911113762408
 30
0.0
 40
0.9999999999998065
 50
229.99999999999051
 51
330.00000000001052
  0
LINE
  5
1AD6
  8
SAPA_PROFIL
 10
-83.096891107686133
 20
-21.435769515459111
 30
0.0
 11
-83.404123202713436
 21
-21.967911113762149
 31
0.0
  0
ARC
  5
1AD7
  8
SAPA_PROFIL
 10
-82.837083486550696
 20
-21.585769515458921
 30
0.0
 40
0.2999999999999962
 50
60.000000000026517
 51
150.00000000004141
  0
LINE
  5
1AD8
  8
SAPA_PROFIL
 10
-81.149999999010575
 20
-22.21339745962187
 30
0.0
 11
-82.687083486550804
 21
-21.32596189432353
 31
0.0
  0
ARC
  5
1AD9
  8
SAPA_PROFIL
 10
-81.299999999010396
 20
-22.473205080757221
 30
0.0
 40
0.2999999999999261
 50
0.0000000000230696
 51
60.000000000028493
  0
LINE
  5
1ADA
  8
SAPA_PROFIL
 10
-80.99999999901047
 20
-23.500000000000561
 30
0.0
 11
-80.99999999901047
 21
-22.473205080757101
 31
0.0
  0
ARC
  5
1ADB
  8
SAPA_PROFIL
 10
-80.699999999010515
 20
-23.50000000000033
 30
0.0
 40
0.2999999999999545
 50
180.0000000000434
 51
270.00000000004343
  0
LINE
  5
1ADC
  8
SAPA_PROFIL
 10
-76.99999999901047
 20
-23.800000000000281
 30
0.0
 11
-80.699999999010274
 21
-23.800000000000281
 31
0.0
  0
ARC
  5
1ADD
  8
SAPA_PROFIL
 10
-76.99999999901047
 20
-23.300000000000281
 30
0.0
 40
0.5
 50
270.0
 51
0.0
  0
LINE
  5
1ADE
  8
SAPA_PROFIL
 10
-76.49999999901047
 20
-20.850000000000009
 30
0.0
 11
-76.49999999901047
 21
-23.300000000000281
 31
0.0
  0
ARC
  5
1ADF
  8
SAPA_PROFIL
 10
-76.799999999010154
 20
-20.849999999999898
 30
0.0
 40
0.2999999999996829
 50
359.99999999997829
 51
44.999999999990401
  0
LINE
  5
1AE0
  8
SAPA_PROFIL
 10
-76.98786796465447
 20
-20.237867965644099
 30
0.0
 11
-76.587867964654379
 21
-20.63786796564419
 31
0.0
  0
ARC
  5
1AE1
  8
SAPA_PROFIL
 10
-77.199999999010373
 20
-20.450000000000269
 30
0.0
 40
0.3000000000000966
 50
45.000000000036458
 51
180.00000000001901
  0
LINE
  5
1AE2
  8
SAPA_PROFIL
 10
-77.49999999901047
 20
-21.300000000000281
 30
0.0
 11
-77.49999999901047
 21
-20.450000000000369
 31
0.0
  0
ARC
  5
1AE3
  8
SAPA_PROFIL
 10
-77.999999999010527
 20
-21.300000000000221
 30
0.0
 40
0.500000000000057
 50
270.00000000000648
 51
359.99999999999352
  0
LINE
  5
1AE4
  8
SAPA_PROFIL
 10
-78.390808928730621
 20
-21.79999999999983
 30
0.0
 11
-77.999999999010456
 21
-21.800000000000281
 31
0.0
  0
ARC
  5
1AE5
  8
SAPA_PROFIL
 10
-78.390808928730578
 20
-21.500000000000082
 30
0.0
 40
0.2999999999997442
 50
229.9999999999954
 51
269.99999999999193
  0
LINE
  5
1AE6
  8
SAPA_PROFIL
 10
-80.392836281916061
 20
-20.21172177313484
 30
0.0
 11
-78.583645211636394
 21
-21.72981333293556
 31
0.0
  0
ARC
  5
1AE7
  8
SAPA_PROFIL
 10
-80.199999999010288
 20
-19.981908440199351
 30
0.0
 40
0.2999999999997129
 50
180.00000000000401
 51
230.00000000000409
  0
LINE
  5
1AE8
  8
SAPA_PROFIL
 10
-80.499999999010456
 20
-16.450000000000369
 30
0.0
 11
-80.499999999010015
 21
-19.981908440199369
 31
0.0
  0
ARC
  5
1AE9
  8
SAPA_PROFIL
 10
-80.199999999010288
 20
-16.450000000000369
 30
0.0
 40
0.3000000000001819
 50
90.0
 51
180.0
  0
LINE
  5
1AEA
  8
SAPA_PROFIL
 10
-77.799999999010197
 20
-16.15000000000019
 30
0.0
 11
-80.199999999010288
 21
-16.15000000000019
 31
0.0
  0
ARC
  5
1AEB
  8
SAPA_PROFIL
 10
-77.799999999010424
 20
-16.450000000000141
 30
0.0
 40
0.2999999999999545
 50
359.99999999995657
 51
89.999999999956557
  0
LINE
  5
1AEC
  8
SAPA_PROFIL
 10
-77.49999999901047
 20
-16.850000000000009
 30
0.0
 11
-77.49999999901047
 21
-16.450000000000369
 31
0.0
  0
ARC
  5
1AED
  8
SAPA_PROFIL
 10
-77.199999999010373
 20
-16.850000000000161
 30
0.0
 40
0.3000000000000748
 50
179.9999999999701
 51
314.99999999997311
  0
LINE
  5
1AEE
  8
SAPA_PROFIL
 10
-76.587867964654379
 20
-16.662132034356191
 30
0.0
 11
-76.98786796465447
 21
-17.062132034356281
 31
0.0
  0
ARC
  5
1AEF
  8
SAPA_PROFIL
 10
-76.799999999010225
 20
-16.45000000000045
 30
0.0
 40
0.2999999999997556
 50
315.00000000001478
 51
0.0000000000156059
  0
LINE
  5
1AF0
  8
SAPA_PROFIL
 10
-76.499999999010015
 20
-14.65000000000019
 30
0.0
 11
-76.49999999901047
 21
-16.450000000000369
 31
0.0
  0
ARC
  5
1AF1
  8
SAPA_PROFIL
 10
-76.999999999009987
 20
-14.65000000000016
 30
0.0
 40
0.4999999999999716
 50
359.99999999999682
 51
90.000000000003226
  0
LINE
  5
1AF2
  8
SAPA_PROFIL
 10
-81.499999999010925
 20
-14.15000000000019
 30
0.0
 11
-76.999999999010015
 21
-14.15000000000019
 31
0.0
  0
ARC
  5
1AF3
  8
SAPA_PROFIL
 10
-81.499999999010925
 20
-14.65000000000019
 30
0.0
 40
0.5
 50
90.0
 51
180.0
  0
LINE
  5
1AF4
  8
SAPA_PROFIL
 10
-81.999999999010015
 20
-18.65000000000019
 30
0.0
 11
-81.999999999010925
 21
-14.65000000000019
 31
0.0
  0
ARC
  5
1AF5
  8
SAPA_PROFIL
 10
-82.499999999010114
 20
-18.65000000000008
 30
0.0
 40
0.5000000000001137
 50
270.00000000001302
 51
359.99999999998698
  0
LINE
  5
1AF6
  8
SAPA_PROFIL
 10
-84.516956646213657
 20
-19.15000000000019
 30
0.0
 11
-82.499999999010015
 21
-19.15000000000019
 31
0.0
  0
ARC
  5
1AF7
  8
SAPA_PROFIL
 10
-84.516956646213444
 20
-18.649999999999959
 30
0.0
 40
0.5000000000002222
 50
229.9999999999684
 51
269.9999999999755
  0
LINE
  5
1AF8
  8
SAPA_PROFIL
 10
-87.321393803853425
 20
-16.94950146002985
 30
0.0
 11
-84.838350451057053
 21
-19.033022221559449
 31
0.0
  0
ARC
  5
1AF9
  8
SAPA_PROFIL
 10
-86.9999999990102
 20
-16.56647923847056
 30
0.0
 40
0.4999999999998153
 50
180.00000000000281
 51
229.99999999998869
  0
LINE
  5
1AFA
  8
SAPA_PROFIL
 10
-87.499999999010484
 20
-10.56853372839133
 30
0.0
 11
-87.499999999010015
 21
-16.566479238470588
 31
0.0
  0
ARC
  5
1AFB
  8
SAPA_PROFIL
 10
-86.999999999010242
 20
-10.56853372839125
 30
0.0
 40
0.5000000000002258
 50
110.0000000000079
 51
180.00000000000909
  0
LINE
  5
1AFC
  8
SAPA_PROFIL
 10
-83.157979855684516
 20
-8.6380638705314663
 30
0.0
 11
-87.171010070673219
 21
-10.0986874179981
 31
0.0
  0
ARC
  5
1AFD
  8
SAPA_PROFIL
 10
-83.499999999010186
 20
-7.6983712497453762
 30
0.0
 40
1.0000000000001701
 50
289.99999999999648
 51
359.99999999999432
  0
LINE
  5
1AFE
  8
SAPA_PROFIL
 10
-82.499999999010015
 20
-6.6500000000001886
 30
0.0
 11
-82.499999999010015
 21
-7.6983712497454757
 31
0.0
  0
ARC
  5
1AFF
  8
SAPA_PROFIL
 10
-82.199999999010146
 20
-6.649999999999876
 30
0.0
 40
0.2999999999998692
 50
90.000000000027114
 51
180.00000000005971
  0
LINE
  5
1B00
  8
SAPA_PROFIL
 10
-81.799999999010197
 20
-6.3500000000000068
 30
0.0
 11
-82.199999999010288
 21
-6.3500000000000068
 31
0.0
  0
ARC
  5
1B01
  8
SAPA_PROFIL
 10
-81.799999999010168
 20
-6.0499999999998542
 30
0.0
 40
0.3000000000001535
 50
269.9999999999946
 51
0.0000000000054281
  0
LINE
  5
1B02
  8
SAPA_PROFIL
 10
-81.499999999010015
 20
-5.6500000000001886
 30
0.0
 11
-81.499999999010015
 21
-6.0499999999998249
 31
0.0
  0
ARC
  5
1B03
  8
SAPA_PROFIL
 10
-81.799999999010168
 20
-5.6500000000001611
 30
0.0
 40
0.3000000000001535
 50
359.99999999999449
 51
90.000000000005414
  0
LINE
  5
1B04
  8
SAPA_PROFIL
 10
-82.199999999010288
 20
-5.3500000000000068
 30
0.0
 11
-81.799999999010197
 21
-5.3500000000000068
 31
0.0
  0
ARC
  5
1B05
  8
SAPA_PROFIL
 10
-82.199999999010103
 20
-5.0500000000001091
 30
0.0
 40
0.2999999999998977
 50
179.99999999994569
 51
269.99999999996737
  0
LINE
  5
1B06
  8
SAPA_PROFIL
 10
-82.499999999010015
 20
-0.6242640687120078
 30
0.0
 11
-82.499999999010015
 21
-5.0499999999998249
 31
0.0
  0
ARC
  5
1B07
  8
SAPA_PROFIL
 10
-82.799999999010112
 20
-0.6242640687125234
 30
0.0
 40
0.3000000000000977
 50
0.00000000009847
 51
45.00000000008113
  0
LINE
  5
1B08
  8
SAPA_PROFIL
 10
-82.999999999010015
 20
-0.0000000000000984
 30
0.0
 11
-82.587867964654379
 21
-0.4121320343561896
 31
0.0
  0
LINE
  5
1B09
  8
SAPA_PROFIL
 10
-82.587867964654379
 20
0.4121320343559926
 30
0.0
 11
-82.999999999010015
 21
-0.0000000000000984
 31
0.0
  0
ARC
  5
1B0A
  8
SAPA_PROFIL
 10
-82.799999999010112
 20
0.6242640687123263
 30
0.0
 40
0.3000000000000966
 50
314.99999999991888
 51
359.99999999990149
  0
LINE
  5
1B0B
  8
SAPA_PROFIL
 10
-82.499999999010015
 20
5.0500000000000833
 30
0.0
 11
-82.499999999010015
 21
0.6242640687118107
 31
0.0
  0
ARC
  5
1B0C
  8
SAPA_PROFIL
 10
-82.199999999010345
 20
5.0500000000001402
 30
0.0
 40
0.2999999999996703
 50
89.999999999989143
 51
180.0000000000108
  0
LINE
  5
1B0D
  8
SAPA_PROFIL
 10
-81.799999999010197
 20
5.3499999999998096
 30
0.0
 11
-82.199999999010288
 21
5.3499999999998096
 31
0.0
  0
ARC
  5
1B0E
  8
SAPA_PROFIL
 10
-81.799999999010168
 20
5.6499999999999631
 30
0.0
 40
0.3000000000001535
 50
269.9999999999946
 51
0.0000000000054281
  0
LINE
  5
1B0F
  8
SAPA_PROFIL
 10
-81.499999999010015
 20
6.0500000000000833
 30
0.0
 11
-81.499999999010015
 21
5.6499999999999924
 31
0.0
  0
ARC
  5
1B10
  8
SAPA_PROFIL
 10
-81.799999999009941
 20
6.0499999999998844
 30
0.0
 40
0.2999999999999261
 50
0.000000000037997
 51
90.000000000048857
  0
LINE
  5
1B11
  8
SAPA_PROFIL
 10
-82.199999999010288
 20
6.3499999999998096
 30
0.0
 11
-81.799999999010197
 21
6.3499999999998096
 31
0.0
  0
ARC
  5
1B12
  8
SAPA_PROFIL
 10
-82.199999999010146
 20
6.6499999999996788
 30
0.0
 40
0.2999999999998692
 50
179.99999999994029
 51
269.99999999997289
  0
LINE
  5
1B13
  8
SAPA_PROFIL
 10
-82.499999999010015
 20
7.6983712497457342
 30
0.0
 11
-82.499999999010015
 21
6.6499999999999924
 31
0.0
  0
ARC
  5
1B14
  8
SAPA_PROFIL
 10
-83.499999999010186
 20
7.6983712497456347
 30
0.0
 40
1.0000000000001701
 50
0.0000000000056487
 51
70.000000000003539
  0
LINE
  5
1B15
  8
SAPA_PROFIL
 10
-87.171010070673219
 20
10.098687417998359
 30
0.0
 11
-83.157979855684516
 21
8.6380638705317256
 31
0.0
  0
ARC
  5
1B16
  8
SAPA_PROFIL
 10
-86.999999999010569
 20
10.56853372839128
 30
0.0
 40
0.4999999999999006
 50
180.00000000001691
 51
250.0000000000183
  0
LINE
  5
1B17
  8
SAPA_PROFIL
 10
-87.499999999010015
 20
16.566479238470851
 30
0.0
 11
-87.499999999010484
 21
10.568533728391129
 31
0.0
  0
ARC
  5
1B18
  8
SAPA_PROFIL
 10
-86.9999999990102
 20
16.566479238470819
 30
0.0
 40
0.4999999999998141
 50
130.0000000000112
 51
179.9999999999971
  0
LINE
  5
1B19
  8
SAPA_PROFIL
 10
-84.838350451057053
 20
19.03302222155925
 30
0.0
 11
-87.321393803853425
 21
16.94950146003011
 31
0.0
  0
ARC
  5
1B1A
  8
SAPA_PROFIL
 10
-84.516956646213444
 20
18.649999999999771
 30
0.0
 40
0.5000000000002239
 50
90.000000000024414
 51
130.00000000003149
  0
LINE
  5
1B1B
  8
SAPA_PROFIL
 10
-82.499999999010015
 20
19.149999999999991
 30
0.0
 11
-84.516956646213657
 21
19.149999999999991
 31
0.0
  0
ARC
  5
1B1C
  8
SAPA_PROFIL
 10
-82.499999999010114
 20
18.649999999999871
 30
0.0
 40
0.5000000000001137
 50
0.0000000000130276
 51
89.999999999986969
  0
LINE
  5
1B1D
  8
SAPA_PROFIL
 10
-81.999999999010925
 20
14.64999999999999
 30
0.0
 11
-81.999999999010015
 21
18.649999999999991
 31
0.0
  0
ARC
  5
1B1E
  8
SAPA_PROFIL
 10
-81.499999999010925
 20
14.64999999999999
 30
0.0
 40
0.5
 50
180.0
 51
270.0
  0
LINE
  5
1B1F
  8
SAPA_PROFIL
 10
-76.999999999010015
 20
14.150000000000439
 30
0.0
 11
-81.499999999010925
 21
14.14999999999999
 31
0.0
  0
ARC
  5
1B20
  8
SAPA_PROFIL
 10
-76.999999999009987
 20
14.65000000000042
 30
0.0
 40
0.4999999999999716
 50
269.99999999999682
 51
0.0000000000032569
  0
LINE
  5
1B21
  8
SAPA_PROFIL
 10
-76.49999999901047
 20
16.45000000000017
 30
0.0
 11
-76.499999999010015
 21
14.650000000000439
 31
0.0
  0
ARC
  5
1B22
  8
SAPA_PROFIL
 10
-76.799999999010225
 20
16.450000000000252
 30
0.0
 40
0.2999999999997557
 50
359.99999999998442
 51
44.999999999985128
  0
LINE
  5
1B23
  8
SAPA_PROFIL
 10
-76.98786796465447
 20
17.062132034356079
 30
0.0
 11
-76.587867964654379
 21
16.662132034355992
 31
0.0
  0
ARC
  5
1B24
  8
SAPA_PROFIL
 10
-77.199999999010487
 20
16.85000000000019
 30
0.0
 40
0.2999999999999829
 50
44.99999999998272
 51
179.99999999998639
  0
LINE
  5
1B25
  8
SAPA_PROFIL
 10
-77.49999999901047
 20
16.45000000000017
 30
0.0
 11
-77.49999999901047
 21
16.850000000000261
 31
0.0
  0
ARC
  5
1B26
  8
SAPA_PROFIL
 10
-77.799999999010197
 20
16.45000000000017
 30
0.0
 40
0.2999999999997271
 50
270.0
 51
0.0
  0
LINE
  5
1B27
  8
SAPA_PROFIL
 10
-80.199999999010288
 20
16.149999999999991
 30
0.0
 11
-77.799999999010197
 21
16.150000000000439
 31
0.0
  0
ARC
  5
1B28
  8
SAPA_PROFIL
 10
-80.199999999010288
 20
16.45000000000017
 30
0.0
 40
0.3000000000001819
 50
180.0
 51
270.0
  0
LINE
  5
1B29
  8
SAPA_PROFIL
 10
-80.499999999010015
 20
19.981908440199181
 30
0.0
 11
-80.499999999010456
 21
16.45000000000017
 31
0.0
  0
ARC
  5
1B2A
  8
SAPA_PROFIL
 10
-80.199999999009805
 20
19.98190844019938
 30
0.0
 40
0.3000000000001951
 50
130.0000000000386
 51
180.00000000003931
  0
LINE
  5
1B2B
  8
SAPA_PROFIL
 10
-78.583645211636394
 20
21.729813332935819
 30
0.0
 11
-80.392836281916061
 21
20.2117217731351
 31
0.0
  0
ARC
  5
1B2C
  8
SAPA_PROFIL
 10
-78.390808928730578
 20
21.500000000000341
 30
0.0
 40
0.2999999999997449
 50
90.000000000008114
 51
130.0000000000046
  0
LINE
  5
1B2D
  8
SAPA_PROFIL
 10
-77.999999999010456
 20
21.800000000000079
 30
0.0
 11
-78.390808928730621
 21
21.800000000000079
 31
0.0
  0
ARC
  5
1B2E
  8
SAPA_PROFIL
 10
-77.999999999010527
 20
21.300000000000029
 30
0.0
 40
0.500000000000057
 50
0.0000000000065138
 51
89.999999999993491
  0
LINE
  5
1B2F
  8
SAPA_PROFIL
 10
-77.49999999901047
 20
20.45000000000017
 30
0.0
 11
-77.49999999901047
 21
21.300000000000079
 31
0.0
  0
ARC
  5
1B30
  8
SAPA_PROFIL
 10
-77.199999999010458
 20
20.450000000000301
 30
0.0
 40
0.3000000000000044
 50
180.00000000002439
 51
315.0000000000058
  0
LINE
  5
1B31
  8
SAPA_PROFIL
 10
-76.587867964654379
 20
20.637867965643991
 30
0.0
 11
-76.98786796465447
 21
20.237867965644359
 31
0.0
  0
ARC
  5
1B32
  8
SAPA_PROFIL
 10
-76.799999999010694
 20
20.84999999999992
 30
0.0
 40
0.3000000000002245
 50
315.00000000005178
 51
0.0000000000651378
  0
POLYLINE
  5
1B33
  8
SAPA_PROFIL
 66
     1
 10
0.0
 20
0.0
 30
0.0
 70
     1
  0
VERTEX
  5
27EE
  8
SAPA_PROFIL
 10
-76.49999999901047
 20
20.85000000000025
 30
0.0
 42
-0.1989123673797145
  0
VERTEX
  5
27EF
  8
SAPA_PROFIL
 10
-76.587867964654379
 20
20.637867965643981
 30
0.0
  0
VERTEX
  5
27F0
  8
SAPA_PROFIL
 10
-76.98786796465447
 20
20.237867965644341
 30
0.0
 42
-0.668178637919182
  0
VERTEX
  5
27F1
  8
SAPA_PROFIL
 10
-77.49999999901047
 20
20.450000000000159
 30
0.0
  0
VERTEX
  5
27F2
  8
SAPA_PROFIL
 10
-77.49999999901047
 20
21.300000000000072
 30
0.0
 42
0.4142135623730284
  0
VERTEX
  5
27F3
  8
SAPA_PROFIL
 10
-77.999999999010456
 20
21.800000000000072
 30
0.0
  0
VERTEX
  5
27F4
  8
SAPA_PROFIL
 10
-78.390808928730621
 20
21.800000000000072
 30
0.0
 42
0.17632698070845
  0
VERTEX
  5
27F5
  8
SAPA_PROFIL
 10
-78.583645211636394
 20
21.729813332935809
 30
0.0
  0
VERTEX
  5
27F6
  8
SAPA_PROFIL
 10
-80.392836281916061
 20
20.211721773135078
 30
0.0
 42
0.2216946626429421
  0
VERTEX
  5
27F7
  8
SAPA_PROFIL
 10
-80.499999999010015
 20
19.98190844019916
 30
0.0
  0
VERTEX
  5
27F8
  8
SAPA_PROFIL
 10
-80.499999999010456
 20
16.450000000000159
 30
0.0
 42
0.4142135623730951
  0
VERTEX
  5
27F9
  8
SAPA_PROFIL
 10
-80.199999999010288
 20
16.14999999999997
 30
0.0
  0
VERTEX
  5
27FA
  8
SAPA_PROFIL
 10
-77.799999999010197
 20
16.150000000000428
 30
0.0
 42
0.4142135623730951
  0
VERTEX
  5
27FB
  8
SAPA_PROFIL
 10
-77.49999999901047
 20
16.450000000000159
 30
0.0
  0
VERTEX
  5
27FC
  8
SAPA_PROFIL
 10
-77.49999999901047
 20
16.85000000000025
 30
0.0
 42
-0.6681786379193188
  0
VERTEX
  5
27FD
  8
SAPA_PROFIL
 10
-76.98786796465447
 20
17.062132034356068
 30
0.0
  0
VERTEX
  5
27FE
  8
SAPA_PROFIL
 10
-76.587867964654379
 20
16.662132034355981
 30
0.0
 42
-0.198912367379658
  0
VERTEX
  5
27FF
  8
SAPA_PROFIL
 10
-76.49999999901047
 20
16.450000000000159
 30
0.0
  0
VERTEX
  5
2800
  8
SAPA_PROFIL
 10
-76.499999999010015
 20
14.65000000000043
 30
0.0
 42
-0.4142135623731284
  0
VERTEX
  5
2801
  8
SAPA_PROFIL
 10
-76.999999999010015
 20
14.15000000000043
 30
0.0
  0
VERTEX
  5
2802
  8
SAPA_PROFIL
 10
-81.499999999010925
 20
14.149999999999981
 30
0.0
 42
-0.4142135623730951
  0
VERTEX
  5
2803
  8
SAPA_PROFIL
 10
-81.999999999010925
 20
14.649999999999981
 30
0.0
  0
VERTEX
  5
2804
  8
SAPA_PROFIL
 10
-81.999999999010015
 20
18.649999999999981
 30
0.0
 42
0.4142135623729619
  0
VERTEX
  5
2805
  8
SAPA_PROFIL
 10
-82.499999999010015
 20
19.149999999999981
 30
0.0
  0
VERTEX
  5
2806
  8
SAPA_PROFIL
 10
-84.516956646213657
 20
19.149999999999981
 30
0.0
 42
0.1763269807084973
  0
VERTEX
  5
2807
  8
SAPA_PROFIL
 10
-84.838350451057053
 20
19.033022221559229
 30
0.0
  0
VERTEX
  5
2808
  8
SAPA_PROFIL
 10
-87.321393803853425
 20
16.949501460030088
 30
0.0
 42
0.2216946626428772
  0
VERTEX
  5
2809
  8
SAPA_PROFIL
 10
-87.499999999010015
 20
16.56647923847083
 30
0.0
  0
VERTEX
  5
280A
  8
SAPA_PROFIL
 10
-87.499999999010484
 20
10.56853372839111
 30
0.0
 42
0.315298788878991
  0
VERTEX
  5
280B
  8
SAPA_PROFIL
 10
-87.171010070673219
 20
10.098687417998351
 30
0.0
  0
VERTEX
  5
280C
  8
SAPA_PROFIL
 10
-83.157979855684516
 20
8.6380638705317097
 30
0.0
 42
-0.3152987888789731
  0
VERTEX
  5
280D
  8
SAPA_PROFIL
 10
-82.499999999010015
 20
7.6983712497457191
 30
0.0
  0
VERTEX
  5
280E
  8
SAPA_PROFIL
 10
-82.499999999010015
 20
6.6499999999999773
 30
0.0
 42
0.4142135623732616
  0
VERTEX
  5
280F
  8
SAPA_PROFIL
 10
-82.199999999010288
 20
6.3499999999997954
 30
0.0
  0
VERTEX
  5
2810
  8
SAPA_PROFIL
 10
-81.799999999010197
 20
6.3499999999997954
 30
0.0
 42
-0.4142135623731506
  0
VERTEX
  5
2811
  8
SAPA_PROFIL
 10
-81.499999999010015
 20
6.0500000000000682
 30
0.0
  0
VERTEX
  5
2812
  8
SAPA_PROFIL
 10
-81.499999999010015
 20
5.6499999999999773
 30
0.0
 42
-0.4142135623731505
  0
VERTEX
  5
2813
  8
SAPA_PROFIL
 10
-81.799999999010197
 20
5.3499999999997954
 30
0.0
  0
VERTEX
  5
2814
  8
SAPA_PROFIL
 10
-82.199999999010288
 20
5.3499999999997954
 30
0.0
 42
0.4142135623732061
  0
VERTEX
  5
2815
  8
SAPA_PROFIL
 10
-82.499999999010015
 20
5.0500000000000682
 30
0.0
  0
VERTEX
  5
2816
  8
SAPA_PROFIL
 10
-82.499999999010015
 20
0.6242640687117956
 30
0.0
 42
-0.198912367379577
  0
VERTEX
  5
2817
  8
SAPA_PROFIL
 10
-82.587867964654379
 20
0.4121320343559774
 30
0.0
  0
VERTEX
  5
2818
  8
SAPA_PROFIL
 10
-82.999999999010015
 20
-0.0000000000001137
 30
0.0
  0
VERTEX
  5
2819
  8
SAPA_PROFIL
 10
-82.587867964654379
 20
-0.4121320343562048
 30
0.0
 42
-0.1989123673795771
  0
VERTEX
  5
281A
  8
SAPA_PROFIL
 10
-82.499999999010015
 20
-0.6242640687120229
 30
0.0
  0
VERTEX
  5
281B
  8
SAPA_PROFIL
 10
-82.499999999010015
 20
-5.04999999999984
 30
0.0
 42
0.4142135623732059
  0
VERTEX
  5
281C
  8
SAPA_PROFIL
 10
-82.199999999010288
 20
-5.3500000000000218
 30
0.0
  0
VERTEX
  5
281D
  8
SAPA_PROFIL
 10
-81.799999999010197
 20
-5.3500000000000218
 30
0.0
 42
-0.4142135623731506
  0
VERTEX
  5
281E
  8
SAPA_PROFIL
 10
-81.499999999010015
 20
-5.6500000000002037
 30
0.0
  0
VERTEX
  5
281F
  8
SAPA_PROFIL
 10
-81.499999999010015
 20
-6.04999999999984
 30
0.0
 42
-0.4142135623731505
  0
VERTEX
  5
2820
  8
SAPA_PROFIL
 10
-81.799999999010197
 20
-6.3500000000000218
 30
0.0
  0
VERTEX
  5
2821
  8
SAPA_PROFIL
 10
-82.199999999010288
 20
-6.3500000000000218
 30
0.0
 42
0.4142135623732615
  0
VERTEX
  5
2822
  8
SAPA_PROFIL
 10
-82.499999999010015
 20
-6.6500000000002037
 30
0.0
  0
VERTEX
  5
2823
  8
SAPA_PROFIL
 10
-82.499999999010015
 20
-7.6983712497454908
 30
0.0
 42
-0.3152987888789731
  0
VERTEX
  5
2824
  8
SAPA_PROFIL
 10
-83.157979855684516
 20
-8.6380638705314823
 30
0.0
  0
VERTEX
  5
2825
  8
SAPA_PROFIL
 10
-87.171010070673219
 20
-10.09868741799812
 30
0.0
 42
0.315298788878991
  0
VERTEX
  5
2826
  8
SAPA_PROFIL
 10
-87.499999999010484
 20
-10.568533728391341
 30
0.0
  0
VERTEX
  5
2827
  8
SAPA_PROFIL
 10
-87.499999999010015
 20
-16.566479238470599
 30
0.0
 42
0.2216946626428772
  0
VERTEX
  5
2828
  8
SAPA_PROFIL
 10
-87.321393803853425
 20
-16.949501460029861
 30
0.0
  0
VERTEX
  5
2829
  8
SAPA_PROFIL
 10
-84.838350451057053
 20
-19.03302222155946
 30
0.0
 42
0.1763269807084973
  0
VERTEX
  5
282A
  8
SAPA_PROFIL
 10
-84.516956646213657
 20
-19.150000000000201
 30
0.0
  0
VERTEX
  5
282B
  8
SAPA_PROFIL
 10
-82.499999999010015
 20
-19.150000000000201
 30
0.0
 42
0.4142135623729619
  0
VERTEX
  5
282C
  8
SAPA_PROFIL
 10
-81.999999999010015
 20
-18.650000000000201
 30
0.0
  0
VERTEX
  5
282D
  8
SAPA_PROFIL
 10
-81.999999999010925
 20
-14.650000000000199
 30
0.0
 42
-0.4142135623730951
  0
VERTEX
  5
282E
  8
SAPA_PROFIL
 10
-81.499999999010925
 20
-14.150000000000199
 30
0.0
  0
VERTEX
  5
282F
  8
SAPA_PROFIL
 10
-76.999999999010015
 20
-14.150000000000199
 30
0.0
 42
-0.4142135623731285
  0
VERTEX
  5
2830
  8
SAPA_PROFIL
 10
-76.499999999010015
 20
-14.650000000000199
 30
0.0
  0
VERTEX
  5
2831
  8
SAPA_PROFIL
 10
-76.49999999901047
 20
-16.450000000000379
 30
0.0
 42
-0.198912367379658
  0
VERTEX
  5
2832
  8
SAPA_PROFIL
 10
-76.587867964654379
 20
-16.662132034356201
 30
0.0
  0
VERTEX
  5
2833
  8
SAPA_PROFIL
 10
-76.98786796465447
 20
-17.062132034356289
 30
0.0
 42
-0.6681786379193188
  0
VERTEX
  5
2834
  8
SAPA_PROFIL
 10
-77.49999999901047
 20
-16.850000000000019
 30
0.0
  0
VERTEX
  5
2835
  8
SAPA_PROFIL
 10
-77.49999999901047
 20
-16.450000000000379
 30
0.0
 42
0.4142135623730951
  0
VERTEX
  5
2836
  8
SAPA_PROFIL
 10
-77.799999999010197
 20
-16.150000000000201
 30
0.0
  0
VERTEX
  5
2837
  8
SAPA_PROFIL
 10
-80.199999999010288
 20
-16.150000000000201
 30
0.0
 42
0.4142135623730951
  0
VERTEX
  5
2838
  8
SAPA_PROFIL
 10
-80.499999999010456
 20
-16.450000000000379
 30
0.0
  0
VERTEX
  5
2839
  8
SAPA_PROFIL
 10
-80.499999999010015
 20
-19.98190844019939
 30
0.0
 42
0.221694662642942
  0
VERTEX
  5
283A
  8
SAPA_PROFIL
 10
-80.392836281916061
 20
-20.211721773134862
 30
0.0
  0
VERTEX
  5
283B
  8
SAPA_PROFIL
 10
-78.583645211636394
 20
-21.729813332935581
 30
0.0
 42
0.1763269807084499
  0
VERTEX
  5
283C
  8
SAPA_PROFIL
 10
-78.390808928730621
 20
-21.799999999999841
 30
0.0
  0
VERTEX
  5
283D
  8
SAPA_PROFIL
 10
-77.999999999010456
 20
-21.800000000000288
 30
0.0
 42
0.4142135623730284
  0
VERTEX
  5
283E
  8
SAPA_PROFIL
 10
-77.49999999901047
 20
-21.300000000000299
 30
0.0
  0
VERTEX
  5
283F
  8
SAPA_PROFIL
 10
-77.49999999901047
 20
-20.45000000000039
 30
0.0
 42
-0.668178637919182
  0
VERTEX
  5
2840
  8
SAPA_PROFIL
 10
-76.98786796465447
 20
-20.237867965644121
 30
0.0
  0
VERTEX
  5
2841
  8
SAPA_PROFIL
 10
-76.587867964654379
 20
-20.637867965644201
 30
0.0
 42
-0.1989123673797144
  0
VERTEX
  5
2842
  8
SAPA_PROFIL
 10
-76.49999999901047
 20
-20.850000000000019
 30
0.0
  0
VERTEX
  5
2843
  8
SAPA_PROFIL
 10
-76.49999999901047
 20
-23.300000000000299
 30
0.0
 42
-0.4142135623730951
  0
VERTEX
  5
2844
  8
SAPA_PROFIL
 10
-76.99999999901047
 20
-23.800000000000299
 30
0.0
  0
VERTEX
  5
2845
  8
SAPA_PROFIL
 10
-80.699999999010274
 20
-23.800000000000299
 30
0.0
 42
-0.4142135623730951
  0
VERTEX
  5
2846
  8
SAPA_PROFIL
 10
-80.99999999901047
 20
-23.500000000000568
 30
0.0
  0
VERTEX
  5
2847
  8
SAPA_PROFIL
 10
-80.99999999901047
 20
-22.473205080757111
 30
0.0
 42
0.2679491924311428
  0
VERTEX
  5
2848
  8
SAPA_PROFIL
 10
-81.149999999010575
 20
-22.213397459621891
 30
0.0
  0
VERTEX
  5
2849
  8
SAPA_PROFIL
 10
-82.687083486550804
 20
-21.325961894323541
 30
0.0
 42
0.4142135623731709
  0
VERTEX
  5
284A
  8
SAPA_PROFIL
 10
-83.096891107686133
 20
-21.435769515459128
 30
0.0
  0
VERTEX
  5
284B
  8
SAPA_PROFIL
 10
-83.404123202713436
 20
-21.96791111376217
 30
0.0
 42
-0.4663076581551056
  0
VERTEX
  5
284C
  8
SAPA_PROFIL
 10
-84.912936216184335
 20
-22.233955556881138
 30
0.0
  0
VERTEX
  5
284D
  8
SAPA_PROFIL
 10
-89.821393803853425
 20
-18.115270605417319
 30
0.0
 42
-0.2216946626428921
  0
VERTEX
  5
284E
  8
SAPA_PROFIL
 10
-89.999999999010484
 20
-17.732248383857609
 30
0.0
  0
VERTEX
  5
284F
  8
SAPA_PROFIL
 10
-89.999999999010484
 20
-9.7002075382098383
 30
0.0
 42
-0.3152987888789878
  0
VERTEX
  5
2850
  8
SAPA_PROFIL
 10
-89.342020142335954
 20
-8.7605149174238477
 30
0.0
  0
VERTEX
  5
2851
  8
SAPA_PROFIL
 10
-85.657979855684516
 20
-7.4196339112451142
 30
0.0
 42
0.3152987888789804
  0
VERTEX
  5
2852
  8
SAPA_PROFIL
 10
-84.999999999010015
 20
-6.4799412904591227
 30
0.0
  0
VERTEX
  5
2853
  8
SAPA_PROFIL
 10
-84.999999999010015
 20
6.4799412904593501
 30
0.0
 42
0.3152987888789804
  0
VERTEX
  5
2854
  8
SAPA_PROFIL
 10
-85.657979855684516
 20
7.4196339112453407
 30
0.0
  0
VERTEX
  5
2855
  8
SAPA_PROFIL
 10
-89.342020142335954
 20
8.7605149174236203
 30
0.0
 42
-0.3152987888789877
  0
VERTEX
  5
2856
  8
SAPA_PROFIL
 10
-89.999999999010484
 20
9.7002075382096091
 30
0.0
  0
VERTEX
  5
2857
  8
SAPA_PROFIL
 10
-89.999999999010484
 20
17.732248383857829
 30
0.0
 42
-0.2216946626428921
  0
VERTEX
  5
2858
  8
SAPA_PROFIL
 10
-89.821393803853425
 20
18.115270605417091
 30
0.0
  0
VERTEX
  5
2859
  8
SAPA_PROFIL
 10
-84.912936216184335
 20
22.233955556880911
 30
0.0
 42
-0.4663076581551056
  0
VERTEX
  5
285A
  8
SAPA_PROFIL
 10
-83.404123202713436
 20
21.967911113762401
 30
0.0
  0
VERTEX
  5
285B
  8
SAPA_PROFIL
 10
-83.096891107686133
 20
21.435769515458901
 30
0.0
 42
0.414213562373157
  0
VERTEX
  5
285C
  8
SAPA_PROFIL
 10
-82.687083486550804
 20
21.325961894323768
 30
0.0
  0
VERTEX
  5
285D
  8
SAPA_PROFIL
 10
-81.149999999010575
 20
22.213397459622112
 30
0.0
 42
0.2679491924311554
  0
VERTEX
  5
285E
  8
SAPA_PROFIL
 10
-80.99999999901047
 20
22.473205080757339
 30
0.0
  0
VERTEX
  5
285F
  8
SAPA_PROFIL
 10
-80.99999999901047
 20
23.500000000000341
 30
0.0
 42
-0.4142135623730951
  0
VERTEX
  5
2860
  8
SAPA_PROFIL
 10
-80.699999999010274
 20
23.800000000000519
 30
0.0
  0
VERTEX
  5
2861
  8
SAPA_PROFIL
 10
-76.99999999901047
 20
23.800000000000072
 30
0.0
 42
-0.4142135623730951
  0
VERTEX
  5
2862
  8
SAPA_PROFIL
 10
-76.49999999901047
 20
23.300000000000072
 30
0.0
  0
SEQEND
  5
2863
  8
SAPA_PROFIL
  0
POLYLINE
  5
1B34
  8
SAPA_PROFIL
 66
     1
 10
0.0
 20
0.0
 30
0.0
 70
     1
  0
VERTEX
  5
2864
  8
SAPA_PROFIL
 10
-33.050000000001091
 20
2.700000000000272
 30
0.0
  0
VERTEX
  5
2865
  8
SAPA_PROFIL
 10
-31.67376540642476
 20
2.0767196966983188
 30
0.0
 42
0.5450207798987328
  0
VERTEX
  5
2866
  8
SAPA_PROFIL
 10
-31.25000000000114
 20
2.350000000000136
 30
0.0
  0
VERTEX
  5
2867
  8
SAPA_PROFIL
 10
-31.25000000000114
 20
2.700000000000272
 30
0.0
  0
VERTEX
  5
2868
  8
SAPA_PROFIL
 10
-31.00000000000114
 20
2.700000000000272
 30
0.0
 42
-0.4142135623730951
  0
VERTEX
  5
2869
  8
SAPA_PROFIL
 10
-30.00000000000114
 20
1.700000000000272
 30
0.0
  0
VERTEX
  5
286A
  8
SAPA_PROFIL
 10
-30.00000000000114
 20
-1.6999999999998181
 30
0.0
 42
-0.4142135623730951
  0
VERTEX
  5
286B
  8
SAPA_PROFIL
 10
-31.00000000000114
 20
-2.6999999999998181
 30
0.0
  0
VERTEX
  5
286C
  8
SAPA_PROFIL
 10
-32.150000000001
 20
-2.6999999999998181
 30
0.0
  0
VERTEX
  5
286D
  8
SAPA_PROFIL
 10
-32.150000000001
 20
-2.3499999999996808
 30
0.0
 42
0.5450200690651551
  0
VERTEX
  5
286E
  8
SAPA_PROFIL
 10
-32.573765000001011
 20
-2.0767189999999109
 30
0.0
  0
VERTEX
  5
286F
  8
SAPA_PROFIL
 10
-33.950000000000948
 20
-2.6999999999998181
 30
0.0
  0
VERTEX
  5
2870
  8
SAPA_PROFIL
 10
-33.950000000000948
 20
-2.3499999999996808
 30
0.0
 42
0.5450200690651692
  0
VERTEX
  5
2871
  8
SAPA_PROFIL
 10
-34.373765000000958
 20
-2.0767189999999109
 30
0.0
  0
VERTEX
  5
2872
  8
SAPA_PROFIL
 10
-35.750000000001137
 20
-2.6999999999998181
 30
0.0
  0
VERTEX
  5
2873
  8
SAPA_PROFIL
 10
-35.750000000001137
 20
-2.3499999999996808
 30
0.0
 42
0.5450200690651619
  0
VERTEX
  5
2874
  8
SAPA_PROFIL
 10
-36.17376500000114
 20
-2.0767189999999109
 30
0.0
  0
VERTEX
  5
2875
  8
SAPA_PROFIL
 10
-37.550000000001091
 20
-2.6999999999998181
 30
0.0
  0
VERTEX
  5
2876
  8
SAPA_PROFIL
 10
-37.550000000001091
 20
-2.3499999999996808
 30
0.0
 42
0.5450200690651619
  0
VERTEX
  5
2877
  8
SAPA_PROFIL
 10
-37.973765000001102
 20
-2.0767189999999109
 30
0.0
  0
VERTEX
  5
2878
  8
SAPA_PROFIL
 10
-39.350000000001053
 20
-2.6999999999998181
 30
0.0
  0
VERTEX
  5
2879
  8
SAPA_PROFIL
 10
-39.350000000001053
 20
-2.3499999999996808
 30
0.0
 42
0.5450200690651692
  0
VERTEX
  5
287A
  8
SAPA_PROFIL
 10
-39.773765000001049
 20
-2.0767189999999109
 30
0.0
  0
VERTEX
  5
287B
  8
SAPA_PROFIL
 10
-41.150000000001
 20
-2.6999999999998181
 30
0.0
  0
VERTEX
  5
287C
  8
SAPA_PROFIL
 10
-41.450000000000948
 20
-2.6999999999998181
 30
0.0
  0
VERTEX
  5
287D
  8
SAPA_PROFIL
 10
-41.450000000000948
 20
2.42826763351104
 30
0.0
  0
VERTEX
  5
287E
  8
SAPA_PROFIL
 10
-40.673765406424756
 20
2.0767196966983188
 30
0.0
 42
0.5450207798987328
  0
VERTEX
  5
287F
  8
SAPA_PROFIL
 10
-40.250000000001137
 20
2.350000000000136
 30
0.0
  0
VERTEX
  5
2880
  8
SAPA_PROFIL
 10
-40.250000000001137
 20
2.700000000000272
 30
0.0
  0
VERTEX
  5
2881
  8
SAPA_PROFIL
 10
-38.873765000000958
 20
2.0767200000002499
 30
0.0
 42
0.5450205149791638
  0
VERTEX
  5
2882
  8
SAPA_PROFIL
 10
-38.450000000000962
 20
2.350000000000136
 30
0.0
  0
VERTEX
  5
2883
  8
SAPA_PROFIL
 10
-38.450000000000962
 20
2.700000000000272
 30
0.0
  0
VERTEX
  5
2884
  8
SAPA_PROFIL
 10
-37.073765406424627
 20
2.0767196966983188
 30
0.0
 42
0.545020779898768
  0
VERTEX
  5
2885
  8
SAPA_PROFIL
 10
-36.650000000001
 20
2.350000000000136
 30
0.0
  0
VERTEX
  5
2886
  8
SAPA_PROFIL
 10
-36.650000000001
 20
2.700000000000272
 30
0.0
  0
VERTEX
  5
2887
  8
SAPA_PROFIL
 10
-35.273765406424673
 20
2.0767196966983188
 30
0.0
 42
0.54502077989874
  0
VERTEX
  5
2888
  8
SAPA_PROFIL
 10
-34.850000000001053
 20
2.350000000000136
 30
0.0
  0
VERTEX
  5
2889
  8
SAPA_PROFIL
 10
-34.850000000001053
 20
2.700000000000272
 30
0.0
  0
VERTEX
  5
288A
  8
SAPA_PROFIL
 10
-33.473765406424718
 20
2.0767196966983188
 30
0.0
 42
0.545020779898761
  0
VERTEX
  5
288B
  8
SAPA_PROFIL
 10
-33.050000000001091
 20
2.350000000000136
 30
0.0
  0
SEQEND
  5
288C
  8
SAPA_PROFIL
  0
POLYLINE
  5
1B35
  8
SAPA_PROFIL
 66
     1
 10
0.0
 20
0.0
 30
0.0
 70
     1
  0
VERTEX
  5
288D
  8
SAPA_PROFIL
 10
58.024264068710863
 20
23.000000000000231
 30
0.0
 42
0.1989123673796753
  0
VERTEX
  5
288E
  8
SAPA_PROFIL
 10
57.812132034355052
 20
22.912132034356091
 30
0.0
  0
VERTEX
  5
288F
  8
SAPA_PROFIL
 10
56.087867965642999
 20
21.187867965644269
 30
0.0
 42
-0.1989123673796753
  0
VERTEX
  5
2890
  8
SAPA_PROFIL
 10
55.875735931286947
 20
21.10000000000014
 30
0.0
  0
VERTEX
  5
2891
  8
SAPA_PROFIL
 10
55.299999999999052
 20
21.10000000000014
 30
0.0
 42
-0.4142135623730951
  0
VERTEX
  5
2892
  8
SAPA_PROFIL
 10
54.999999999998863
 20
21.400000000000318
 30
0.0
  0
VERTEX
  5
2893
  8
SAPA_PROFIL
 10
54.999999999998863
 20
22.700000000000269
 30
0.0
 42
0.4142135623730951
  0
VERTEX
  5
2894
  8
SAPA_PROFIL
 10
54.699999999998909
 20
23.000000000000231
 30
0.0
  0
VERTEX
  5
2895
  8
SAPA_PROFIL
 10
29.99999999999886
 20
23.000000000000231
 30
0.0
 42
0.4142135623730951
  0
VERTEX
  5
2896
  8
SAPA_PROFIL
 10
28.99999999999887
 20
22.000000000000231
 30
0.0
  0
VERTEX
  5
2897
  8
SAPA_PROFIL
 10
28.99999999999887
 20
17.600000000000129
 30
0.0
 42
-0.4142135623730951
  0
VERTEX
  5
2898
  8
SAPA_PROFIL
 10
28.699999999998909
 20
17.300000000000178
 30
0.0
  0
VERTEX
  5
2899
  8
SAPA_PROFIL
 10
26.399999999998961
 20
17.300000000000178
 30
0.0
 42
-0.4142135623730951
  0
VERTEX
  5
289A
  8
SAPA_PROFIL
 10
26.099999999999
 20
17.600000000000129
 30
0.0
  0
VERTEX
  5
289B
  8
SAPA_PROFIL
 10
26.099999999999
 20
18.100000000000129
 30
0.0
 42
-0.4142135623730951
  0
VERTEX
  5
289C
  8
SAPA_PROFIL
 10
26.399999999998961
 20
18.400000000000318
 30
0.0
  0
VERTEX
  5
289D
  8
SAPA_PROFIL
 10
26.736626924633359
 20
18.400000000000318
 30
0.0
 42
0.5535245743249297
  0
VERTEX
  5
289E
  8
SAPA_PROFIL
 10
24.96410760212348
 20
22.71055421153164
 30
0.0
  0
VERTEX
  5
289F
  8
SAPA_PROFIL
 10
24.67677669529553
 20
22.42322330470347
 30
0.0
 42
-0.4142135623729421
  0
VERTEX
  5
28A0
  8
SAPA_PROFIL
 10
24.32322330470242
 20
22.42322330470347
 30
0.0
  0
VERTEX
  5
28A1
  8
SAPA_PROFIL
 10
24.035892397874481
 20
22.71055421153164
 30
0.0
 42
0.5535245743249292
  0
VERTEX
  5
28A2
  8
SAPA_PROFIL
 10
22.26337307536437
 20
18.400000000000318
 30
0.0
  0
VERTEX
  5
28A3
  8
SAPA_PROFIL
 10
22.599999999999
 20
18.400000000000318
 30
0.0
 42
-0.4142135623730951
  0
VERTEX
  5
28A4
  8
SAPA_PROFIL
 10
22.899999999998961
 20
18.100000000000129
 30
0.0
  0
VERTEX
  5
28A5
  8
SAPA_PROFIL
 10
22.899999999998961
 20
17.600000000000129
 30
0.0
 42
-0.4142135623730951
  0
VERTEX
  5
28A6
  8
SAPA_PROFIL
 10
22.599999999999
 20
17.300000000000178
 30
0.0
  0
VERTEX
  5
28A7
  8
SAPA_PROFIL
 10
21.49999999999886
 20
17.300000000000178
 30
0.0
 42
-0.4142135623730951
  0
VERTEX
  5
28A8
  8
SAPA_PROFIL
 10
19.99999999999886
 20
18.800000000000178
 30
0.0
  0
VERTEX
  5
28A9
  8
SAPA_PROFIL
 10
19.99999999999886
 20
21.63397459621569
 30
0.0
 42
-0.267949192431143
  0
VERTEX
  5
28AA
  8
SAPA_PROFIL
 10
20.24999999999886
 20
22.066987298107961
 30
0.0
 42
0.767326987978956
  0
VERTEX
  5
28AB
  8
SAPA_PROFIL
 10
19.99999999999886
 20
23.000000000000231
 30
0.0
  0
VERTEX
  5
28AC
  8
SAPA_PROFIL
 10
-15.00000000000113
 20
23.000000000000231
 30
0.0
 42
0.4142135623730951
  0
VERTEX
  5
28AD
  8
SAPA_PROFIL
 10
-16.00000000000114
 20
22.000000000000231
 30
0.0
  0
VERTEX
  5
28AE
  8
SAPA_PROFIL
 10
-16.00000000000114
 20
17.600000000000129
 30
0.0
 42
-0.4142135623730951
  0
VERTEX
  5
28AF
  8
SAPA_PROFIL
 10
-16.300000000001091
 20
17.300000000000178
 30
0.0
  0
VERTEX
  5
28B0
  8
SAPA_PROFIL
 10
-18.600000000001039
 20
17.300000000000178
 30
0.0
 42
-0.4142135623730951
  0
VERTEX
  5
28B1
  8
SAPA_PROFIL
 10
-18.900000000001
 20
17.600000000000129
 30
0.0
  0
VERTEX
  5
28B2
  8
SAPA_PROFIL
 10
-18.900000000001
 20
18.100000000000129
 30
0.0
 42
-0.4142135623730951
  0
VERTEX
  5
28B3
  8
SAPA_PROFIL
 10
-18.600000000001039
 20
18.400000000000318
 30
0.0
  0
VERTEX
  5
28B4
  8
SAPA_PROFIL
 10
-18.263373075366641
 20
18.400000000000318
 30
0.0
 42
0.5535245743249297
  0
VERTEX
  5
28B5
  8
SAPA_PROFIL
 10
-20.03589239787652
 20
22.71055421153164
 30
0.0
  0
VERTEX
  5
28B6
  8
SAPA_PROFIL
 10
-20.32322330470447
 20
22.42322330470347
 30
0.0
 42
-0.4142135623730243
  0
VERTEX
  5
28B7
  8
SAPA_PROFIL
 10
-20.67677669529758
 20
22.423223304703701
 30
0.0
  0
VERTEX
  5
28B8
  8
SAPA_PROFIL
 10
-20.96410760212553
 20
22.71055421153164
 30
0.0
 42
0.5535245743249292
  0
VERTEX
  5
28B9
  8
SAPA_PROFIL
 10
-22.73662692463563
 20
18.400000000000318
 30
0.0
  0
VERTEX
  5
28BA
  8
SAPA_PROFIL
 10
-22.400000000001
 20
18.400000000000318
 30
0.0
 42
-0.4142135623730951
  0
VERTEX
  5
28BB
  8
SAPA_PROFIL
 10
-22.100000000001049
 20
18.100000000000129
 30
0.0
  0
VERTEX
  5
28BC
  8
SAPA_PROFIL
 10
-22.100000000001049
 20
17.600000000000129
 30
0.0
 42
-0.4142135623730951
  0
VERTEX
  5
28BD
  8
SAPA_PROFIL
 10
-22.400000000001
 20
17.300000000000178
 30
0.0
  0
VERTEX
  5
28BE
  8
SAPA_PROFIL
 10
-23.50000000000114
 20
17.300000000000178
 30
0.0
 42
-0.4142135623730951
  0
VERTEX
  5
28BF
  8
SAPA_PROFIL
 10
-25.00000000000114
 20
18.800000000000178
 30
0.0
  0
VERTEX
  5
28C0
  8
SAPA_PROFIL
 10
-25.00000000000114
 20
21.780384757729511
 30
0.0
 42
-0.2679491924311188
  0
VERTEX
  5
28C1
  8
SAPA_PROFIL
 10
-24.850000000001049
 20
22.040192378864958
 30
0.0
 42
0.7673269879789557
  0
VERTEX
  5
28C2
  8
SAPA_PROFIL
 10
-25.00000000000114
 20
22.600000000000129
 30
0.0
  0
VERTEX
  5
28C3
  8
SAPA_PROFIL
 10
-27.00000000000114
 20
22.599999999999909
 30
0.0
 42
0.4142137811865366
  0
VERTEX
  5
28C4
  8
SAPA_PROFIL
 10
-28.00000000000114
 20
21.600000747075459
 30
0.0
  0
VERTEX
  5
28C5
  8
SAPA_PROFIL
 10
-28.00000000000114
 20
-21.599999999999682
 30
0.0
 42
0.4142140000000124
  0
VERTEX
  5
28C6
  8
SAPA_PROFIL
 10
-27.00000000000114
 20
-22.599999999999682
 30
0.0
  0
VERTEX
  5
28C7
  8
SAPA_PROFIL
 10
-25.00000000000114
 20
-22.599999999999682
 30
0.0
 42
0.7673269879789457
  0
VERTEX
  5
28C8
  8
SAPA_PROFIL
 10
-24.850000000001049
 20
-22.0401923788645
 30
0.0
 42
-0.2679491924311191
  0
VERTEX
  5
28C9
  8
SAPA_PROFIL
 10
-25.00000000000114
 20
-21.780384757729049
 30
0.0
  0
VERTEX
  5
28CA
  8
SAPA_PROFIL
 10
-25.00000000000114
 20
-18.799999999999731
 30
0.0
 42
-0.4142135623730951
  0
VERTEX
  5
28CB
  8
SAPA_PROFIL
 10
-23.50000000000114
 20
-17.299999999999731
 30
0.0
  0
VERTEX
  5
28CC
  8
SAPA_PROFIL
 10
-22.400000000001
 20
-17.299999999999731
 30
0.0
 42
-0.4142135623730951
  0
VERTEX
  5
28CD
  8
SAPA_PROFIL
 10
-22.100000000001049
 20
-17.599999999999682
 30
0.0
  0
VERTEX
  5
28CE
  8
SAPA_PROFIL
 10
-22.100000000001049
 20
-18.099999999999682
 30
0.0
 42
-0.4142135623730951
  0
VERTEX
  5
28CF
  8
SAPA_PROFIL
 10
-22.400000000001
 20
-18.39999999999986
 30
0.0
  0
VERTEX
  5
28D0
  8
SAPA_PROFIL
 10
-22.73662692463563
 20
-18.39999999999986
 30
0.0
 42
0.5535245743249307
  0
VERTEX
  5
28D1
  8
SAPA_PROFIL
 10
-20.96410760212553
 20
-22.710554211531189
 30
0.0
  0
VERTEX
  5
28D2
  8
SAPA_PROFIL
 10
-20.67677669529758
 20
-22.423223304703239
 30
0.0
 42
-0.4142135623730951
  0
VERTEX
  5
28D3
  8
SAPA_PROFIL
 10
-20.32322330470447
 20
-22.423223304703239
 30
0.0
  0
VERTEX
  5
28D4
  8
SAPA_PROFIL
 10
-20.03589239787652
 20
-22.710554211531189
 30
0.0
 42
0.553524574324932
  0
VERTEX
  5
28D5
  8
SAPA_PROFIL
 10
-18.263373075366641
 20
-18.39999999999986
 30
0.0
  0
VERTEX
  5
28D6
  8
SAPA_PROFIL
 10
-18.600000000001039
 20
-18.39999999999986
 30
0.0
 42
-0.4142135623730951
  0
VERTEX
  5
28D7
  8
SAPA_PROFIL
 10
-18.900000000001
 20
-18.099999999999682
 30
0.0
  0
VERTEX
  5
28D8
  8
SAPA_PROFIL
 10
-18.900000000001
 20
-17.599999999999682
 30
0.0
 42
-0.4142135623730951
  0
VERTEX
  5
28D9
  8
SAPA_PROFIL
 10
-18.600000000001039
 20
-17.299999999999731
 30
0.0
  0
VERTEX
  5
28DA
  8
SAPA_PROFIL
 10
-16.300000000001091
 20
-17.299999999999731
 30
0.0
 42
-0.4142135623730951
  0
VERTEX
  5
28DB
  8
SAPA_PROFIL
 10
-16.00000000000114
 20
-17.599999999999682
 30
0.0
  0
VERTEX
  5
28DC
  8
SAPA_PROFIL
 10
-16.00000000000114
 20
-21.999999999999769
 30
0.0
 42
0.4142135623730951
  0
VERTEX
  5
28DD
  8
SAPA_PROFIL
 10
-15.00000000000113
 20
-22.999999999999769
 30
0.0
  0
VERTEX
  5
28DE
  8
SAPA_PROFIL
 10
19.99999999999886
 20
-22.999999999999769
 30
0.0
 42
0.7673269879789569
  0
VERTEX
  5
28DF
  8
SAPA_PROFIL
 10
20.24999999999886
 20
-22.066987298107509
 30
0.0
 42
-0.2679491924311163
  0
VERTEX
  5
28E0
  8
SAPA_PROFIL
 10
19.99999999999886
 20
-21.633974596215239
 30
0.0
  0
VERTEX
  5
28E1
  8
SAPA_PROFIL
 10
19.99999999999886
 20
-18.799999999999731
 30
0.0
 42
-0.4142135623730951
  0
VERTEX
  5
28E2
  8
SAPA_PROFIL
 10
21.49999999999886
 20
-17.299999999999731
 30
0.0
  0
VERTEX
  5
28E3
  8
SAPA_PROFIL
 10
22.599999999999
 20
-17.299999999999731
 30
0.0
 42
-0.4142135623730951
  0
VERTEX
  5
28E4
  8
SAPA_PROFIL
 10
22.899999999998961
 20
-17.599999999999682
 30
0.0
  0
VERTEX
  5
28E5
  8
SAPA_PROFIL
 10
22.899999999998961
 20
-18.099999999999682
 30
0.0
 42
-0.4142135623730951
  0
VERTEX
  5
28E6
  8
SAPA_PROFIL
 10
22.599999999999
 20
-18.39999999999986
 30
0.0
  0
VERTEX
  5
28E7
  8
SAPA_PROFIL
 10
22.26337307536437
 20
-18.39999999999986
 30
0.0
 42
0.5535245743249307
  0
VERTEX
  5
28E8
  8
SAPA_PROFIL
 10
24.035892397874481
 20
-22.710554211531189
 30
0.0
  0
VERTEX
  5
28E9
  8
SAPA_PROFIL
 10
24.32322330470242
 20
-22.423223304703239
 30
0.0
 42
-0.4142135623731068
  0
VERTEX
  5
28EA
  8
SAPA_PROFIL
 10
24.67677669529553
 20
-22.423223304703011
 30
0.0
  0
VERTEX
  5
28EB
  8
SAPA_PROFIL
 10
24.96410760212348
 20
-22.710554211531189
 30
0.0
 42
0.553524574324932
  0
VERTEX
  5
28EC
  8
SAPA_PROFIL
 10
26.736626924633359
 20
-18.39999999999986
 30
0.0
  0
VERTEX
  5
28ED
  8
SAPA_PROFIL
 10
26.399999999998961
 20
-18.39999999999986
 30
0.0
 42
-0.4142135623730951
  0
VERTEX
  5
28EE
  8
SAPA_PROFIL
 10
26.099999999999
 20
-18.099999999999682
 30
0.0
  0
VERTEX
  5
28EF
  8
SAPA_PROFIL
 10
26.099999999999
 20
-17.599999999999682
 30
0.0
 42
-0.4142135623730951
  0
VERTEX
  5
28F0
  8
SAPA_PROFIL
 10
26.399999999998961
 20
-17.299999999999731
 30
0.0
  0
VERTEX
  5
28F1
  8
SAPA_PROFIL
 10
28.699999999998909
 20
-17.299999999999731
 30
0.0
 42
-0.4142135623730951
  0
VERTEX
  5
28F2
  8
SAPA_PROFIL
 10
28.99999999999887
 20
-17.599999999999682
 30
0.0
  0
VERTEX
  5
28F3
  8
SAPA_PROFIL
 10
28.99999999999887
 20
-21.999999999999769
 30
0.0
 42
0.4142135623730951
  0
VERTEX
  5
28F4
  8
SAPA_PROFIL
 10
29.99999999999886
 20
-22.999999999999769
 30
0.0
  0
VERTEX
  5
28F5
  8
SAPA_PROFIL
 10
54.699999999998909
 20
-22.999999999999769
 30
0.0
 42
0.4142135623730951
  0
VERTEX
  5
28F6
  8
SAPA_PROFIL
 10
54.999999999998863
 20
-22.699999999999822
 30
0.0
  0
VERTEX
  5
28F7
  8
SAPA_PROFIL
 10
54.999999999998863
 20
-21.39999999999986
 30
0.0
 42
-0.4142135623730951
  0
VERTEX
  5
28F8
  8
SAPA_PROFIL
 10
55.299999999999052
 20
-21.099999999999682
 30
0.0
  0
VERTEX
  5
28F9
  8
SAPA_PROFIL
 10
55.875735931286947
 20
-21.099999999999682
 30
0.0
 42
-0.1989123673796752
  0
VERTEX
  5
28FA
  8
SAPA_PROFIL
 10
56.087867965642999
 20
-21.187867965643822
 30
0.0
  0
VERTEX
  5
28FB
  8
SAPA_PROFIL
 10
57.812132034355052
 20
-22.91213203435586
 30
0.0
 42
0.1989123673796057
  0
VERTEX
  5
28FC
  8
SAPA_PROFIL
 10
58.024264068710863
 20
-22.999999999999769
 30
0.0
  0
VERTEX
  5
28FD
  8
SAPA_PROFIL
 10
61.499999999998863
 20
-22.999999999999769
 30
0.0
 42
0.4142135623730951
  0
VERTEX
  5
28FE
  8
SAPA_PROFIL
 10
62.499999999998863
 20
-21.999999999999769
 30
0.0
  0
VERTEX
  5
28FF
  8
SAPA_PROFIL
 10
62.499999999998863
 20
22.000000000000231
 30
0.0
 42
0.4142135623730951
  0
VERTEX
  5
2900
  8
SAPA_PROFIL
 10
61.499999999998863
 20
23.000000000000231
 30
0.0
  0
SEQEND
  5
2901
  8
SAPA_PROFIL
  0
POLYLINE
  5
1B36
  8
SAPA_PROFIL
 66
     1
 10
0.0
 20
0.0
 30
0.0
 70
     1
  0
VERTEX
  5
2902
  8
SAPA_PROFIL
 10
-30.00000000000114
 20
6.0000000000002274
 30
0.0
 42
-0.4142135623730951
  0
VERTEX
  5
2903
  8
SAPA_PROFIL
 10
-31.00000000000114
 20
5.0000000000002274
 30
0.0
  0
VERTEX
  5
2904
  8
SAPA_PROFIL
 10
-52.200000000000948
 20
5.0000000000002274
 30
0.0
 42
0.4142135623730951
  0
VERTEX
  5
2905
  8
SAPA_PROFIL
 10
-52.50000000000113
 20
4.700000000000272
 30
0.0
  0
VERTEX
  5
2906
  8
SAPA_PROFIL
 10
-52.50000000000113
 20
3.0757360000002332
 30
0.0
  0
VERTEX
  5
2907
  8
SAPA_PROFIL
 10
-51.562132034356871
 20
2.2378679656442269
 30
0.0
 42
0.668178637919305
  0
VERTEX
  5
2908
  8
SAPA_PROFIL
 10
-51.050000000001091
 20
2.450000000000272
 30
0.0
  0
VERTEX
  5
2909
  8
SAPA_PROFIL
 10
-51.050000000001091
 20
2.700000000000272
 30
0.0
  0
VERTEX
  5
290A
  8
SAPA_PROFIL
 10
-49.673765406424756
 20
2.1767196966982278
 30
0.0
 42
0.5450207798987201
  0
VERTEX
  5
290B
  8
SAPA_PROFIL
 10
-49.250000000001137
 20
2.450000000000272
 30
0.0
  0
VERTEX
  5
290C
  8
SAPA_PROFIL
 10
-49.250000000001137
 20
2.700000000000272
 30
0.0
  0
VERTEX
  5
290D
  8
SAPA_PROFIL
 10
-47.873765406424567
 20
2.1767196966982278
 30
0.0
 42
0.5450207798987201
  0
VERTEX
  5
290E
  8
SAPA_PROFIL
 10
-47.450000000000962
 20
2.450000000000272
 30
0.0
  0
VERTEX
  5
290F
  8
SAPA_PROFIL
 10
-47.450000000000962
 20
2.700000000000272
 30
0.0
  0
VERTEX
  5
2910
  8
SAPA_PROFIL
 10
-46.07376540642462
 20
2.1767196966982278
 30
0.0
 42
0.5450207798987342
  0
VERTEX
  5
2911
  8
SAPA_PROFIL
 10
-45.650000000000993
 20
2.450000000000272
 30
0.0
  0
VERTEX
  5
2912
  8
SAPA_PROFIL
 10
-45.650000000000993
 20
2.700000000000272
 30
0.0
  0
VERTEX
  5
2913
  8
SAPA_PROFIL
 10
-44.273765406424673
 20
2.1767196966982278
 30
0.0
 42
0.5450207798987201
  0
VERTEX
  5
2914
  8
SAPA_PROFIL
 10
-43.850000000001039
 20
2.450000000000272
 30
0.0
  0
VERTEX
  5
2915
  8
SAPA_PROFIL
 10
-43.850000000001039
 20
2.700000000000272
 30
0.0
  0
VERTEX
  5
2916
  8
SAPA_PROFIL
 10
-43.126282705194853
 20
2.4722372826161059
 30
0.0
 42
-0.2945484962563026
  0
VERTEX
  5
2917
  8
SAPA_PROFIL
 10
-42.950048040246656
 20
2.1988824689378812
 30
0.0
  0
VERTEX
  5
2918
  8
SAPA_PROFIL
 10
-42.950255222213173
 20
1.2642999377483191
 30
0.0
 42
0.3475954753796591
  0
VERTEX
  5
2919
  8
SAPA_PROFIL
 10
-42.719501178044077
 20
0.9723265106783856
 30
0.0
 42
-0.790522909611319
  0
VERTEX
  5
291A
  8
SAPA_PROFIL
 10
-42.71949097360357
 20
-0.973664089865224
 30
0.0
 42
0.3476065658631364
  0
VERTEX
  5
291B
  8
SAPA_PROFIL
 10
-42.950241952335773
 20
-1.2656518108867649
 30
0.0
  0
VERTEX
  5
291C
  8
SAPA_PROFIL
 10
-42.950095231626847
 20
-1.8499926620931999
 30
0.0
 42
-0.4102317530969976
  0
VERTEX
  5
291D
  8
SAPA_PROFIL
 10
-43.245946879780369
 20
-2.1500282985855388
 30
0.0
 42
0.0712587206050384
  0
VERTEX
  5
291E
  8
SAPA_PROFIL
 10
-43.329990804708579
 20
-2.1632556124550311
 30
0.0
  0
VERTEX
  5
291F
  8
SAPA_PROFIL
 10
-44.750000000001137
 20
-2.6999999999998181
 30
0.0
  0
VERTEX
  5
2920
  8
SAPA_PROFIL
 10
-44.750000000001137
 20
-2.4499999999998181
 30
0.0
 42
0.5450200690651619
  0
VERTEX
  5
2921
  8
SAPA_PROFIL
 10
-45.173765000001133
 20
-2.17671899999982
 30
0.0
  0
VERTEX
  5
2922
  8
SAPA_PROFIL
 10
-46.550000000001091
 20
-2.6999999999998181
 30
0.0
  0
VERTEX
  5
2923
  8
SAPA_PROFIL
 10
-46.550000000000857
 20
-2.4499999999998181
 30
0.0
 42
0.545020069065176
  0
VERTEX
  5
2924
  8
SAPA_PROFIL
 10
-46.973765000001087
 20
-2.17671899999982
 30
0.0
  0
VERTEX
  5
2925
  8
SAPA_PROFIL
 10
-48.350000000001039
 20
-2.6999999999998181
 30
0.0
  0
VERTEX
  5
2926
  8
SAPA_PROFIL
 10
-48.350000000001039
 20
-2.4499999999998181
 30
0.0
 42
0.5450200690651692
  0
VERTEX
  5
2927
  8
SAPA_PROFIL
 10
-48.773765000001049
 20
-2.17671899999982
 30
0.0
  0
VERTEX
  5
2928
  8
SAPA_PROFIL
 10
-50.150000000001
 20
-2.6999999999998181
 30
0.0
  0
VERTEX
  5
2929
  8
SAPA_PROFIL
 10
-50.150000000001
 20
-2.1499999999998631
 30
0.0
  0
VERTEX
  5
292A
  8
SAPA_PROFIL
 10
-51.350000000001039
 20
-2.1499999999998631
 30
0.0
 42
0.1989123673797004
  0
VERTEX
  5
292B
  8
SAPA_PROFIL
 10
-51.562132000001156
 20
-2.2378679999997071
 30
0.0
  0
VERTEX
  5
292C
  8
SAPA_PROFIL
 10
-52.50000000000113
 20
-3.075735999999778
 30
0.0
  0
VERTEX
  5
292D
  8
SAPA_PROFIL
 10
-52.50000000000113
 20
-4.6999999999998181
 30
0.0
 42
0.4142135623730951
  0
VERTEX
  5
292E
  8
SAPA_PROFIL
 10
-52.200000000000948
 20
-4.9999999999997717
 30
0.0
  0
VERTEX
  5
292F
  8
SAPA_PROFIL
 10
-31.00000000000114
 20
-4.9999999999997717
 30
0.0
 42
-0.4142135623730951
  0
VERTEX
  5
2930
  8
SAPA_PROFIL
 10
-30.00000000000114
 20
-5.9999999999997717
 30
0.0
  0
VERTEX
  5
2931
  8
SAPA_PROFIL
 10
-30.00000000000114
 20
-14.19999999999982
 30
0.0
 42
-0.4142135623730951
  0
VERTEX
  5
2932
  8
SAPA_PROFIL
 10
-30.50000000000114
 20
-14.69999999999982
 30
0.0
  0
VERTEX
  5
2933
  8
SAPA_PROFIL
 10
-33.700000000000962
 20
-14.69999999999982
 30
0.0
 42
-0.4142135623730951
  0
VERTEX
  5
2934
  8
SAPA_PROFIL
 10
-34.200000000000962
 20
-14.19999999999982
 30
0.0
  0
VERTEX
  5
2935
  8
SAPA_PROFIL
 10
-34.200000000000962
 20
-11.299999999999731
 30
0.0
 42
0.4142135623730951
  0
VERTEX
  5
2936
  8
SAPA_PROFIL
 10
-34.500000000001137
 20
-10.999999999999771
 30
0.0
  0
VERTEX
  5
2937
  8
SAPA_PROFIL
 10
-35.200000000000948
 20
-10.999999999999771
 30
0.0
 42
0.4142135623730951
  0
VERTEX
  5
2938
  8
SAPA_PROFIL
 10
-35.500000000001137
 20
-11.299999999999731
 30
0.0
  0
VERTEX
  5
2939
  8
SAPA_PROFIL
 10
-35.500000000001137
 20
-17.999999999999769
 30
0.0
  0
VERTEX
  5
293A
  8
SAPA_PROFIL
 10
-35.035076580641999
 20
-18.586384015500471
 30
0.0
 42
0.7105995019814511
  0
VERTEX
  5
293B
  8
SAPA_PROFIL
 10
-34.500000000001137
 20
-18.39999999999986
 30
0.0
  0
VERTEX
  5
293C
  8
SAPA_PROFIL
 10
-34.500000000001137
 20
-16.499999999999769
 30
0.0
 42
-0.4142135623730951
  0
VERTEX
  5
293D
  8
SAPA_PROFIL
 10
-34.200000000000962
 20
-16.199999999999822
 30
0.0
  0
VERTEX
  5
293E
  8
SAPA_PROFIL
 10
-30.300000000001091
 20
-16.199999999999822
 30
0.0
 42
-0.4142135623730951
  0
VERTEX
  5
293F
  8
SAPA_PROFIL
 10
-30.00000000000114
 20
-16.499999999999769
 30
0.0
  0
VERTEX
  5
2940
  8
SAPA_PROFIL
 10
-30.00000000000114
 20
-23.199999999999822
 30
0.0
 42
-0.4142135623730951
  0
VERTEX
  5
2941
  8
SAPA_PROFIL
 10
-30.300000000001091
 20
-23.499999999999769
 30
0.0
  0
VERTEX
  5
2942
  8
SAPA_PROFIL
 10
-34.200000000000962
 20
-23.499999999999769
 30
0.0
 42
-0.4142135623730951
  0
VERTEX
  5
2943
  8
SAPA_PROFIL
 10
-34.500000000001137
 20
-23.199999999999822
 30
0.0
  0
VERTEX
  5
2944
  8
SAPA_PROFIL
 10
-34.500000000001137
 20
-21.999999999999769
 30
0.0
 42
0.7105990647993611
  0
VERTEX
  5
2945
  8
SAPA_PROFIL
 10
-35.035076000001027
 20
-21.81361599999968
 30
0.0
  0
VERTEX
  5
2946
  8
SAPA_PROFIL
 10
-35.500000000001137
 20
-22.39999999999986
 30
0.0
  0
VERTEX
  5
2947
  8
SAPA_PROFIL
 10
-35.500000000001137
 20
-24.699999999999822
 30
0.0
 42
0.4142135623730951
  0
VERTEX
  5
2948
  8
SAPA_PROFIL
 10
-35.200000000000948
 20
-24.999999999999769
 30
0.0
  0
VERTEX
  5
2949
  8
SAPA_PROFIL
 10
63.999999999998863
 20
-24.999999999999769
 30
0.0
 42
0.4142135623730951
  0
VERTEX
  5
294A
  8
SAPA_PROFIL
 10
64.499999999998863
 20
-24.499999999999769
 30
0.0
  0
VERTEX
  5
294B
  8
SAPA_PROFIL
 10
64.499999999998863
 20
24.500000000000231
 30
0.0
 42
0.4142135623730951
  0
VERTEX
  5
294C
  8
SAPA_PROFIL
 10
63.999999999998863
 20
25.000000000000231
 30
0.0
  0
VERTEX
  5
294D
  8
SAPA_PROFIL
 10
-35.200000000000948
 20
25.000000000000231
 30
0.0
 42
0.4142135623730951
  0
VERTEX
  5
294E
  8
SAPA_PROFIL
 10
-35.500000000001137
 20
24.700000000000269
 30
0.0
  0
VERTEX
  5
294F
  8
SAPA_PROFIL
 10
-35.500000000001137
 20
22.400000000000318
 30
0.0
  0
VERTEX
  5
2950
  8
SAPA_PROFIL
 10
-35.035076580641999
 20
21.81361598449962
 30
0.0
 42
0.7105995019814511
  0
VERTEX
  5
2951
  8
SAPA_PROFIL
 10
-34.500000000001137
 20
22.000000000000231
 30
0.0
  0
VERTEX
  5
2952
  8
SAPA_PROFIL
 10
-34.500000000001137
 20
23.200000000000269
 30
0.0
 42
-0.4142135623730951
  0
VERTEX
  5
2953
  8
SAPA_PROFIL
 10
-34.200000000000962
 20
23.500000000000231
 30
0.0
  0
VERTEX
  5
2954
  8
SAPA_PROFIL
 10
-30.300000000001091
 20
23.500000000000231
 30
0.0
 42
-0.4142135623730951
  0
VERTEX
  5
2955
  8
SAPA_PROFIL
 10
-30.00000000000114
 20
23.200000000000269
 30
0.0
  0
VERTEX
  5
2956
  8
SAPA_PROFIL
 10
-30.00000000000114
 20
16.500000000000231
 30
0.0
 42
-0.4142135623730951
  0
VERTEX
  5
2957
  8
SAPA_PROFIL
 10
-30.300000000001091
 20
16.200000000000269
 30
0.0
  0
VERTEX
  5
2958
  8
SAPA_PROFIL
 10
-34.200000000000962
 20
16.200000000000269
 30
0.0
 42
-0.4142135623730951
  0
VERTEX
  5
2959
  8
SAPA_PROFIL
 10
-34.500000000001137
 20
16.500000000000231
 30
0.0
  0
VERTEX
  5
295A
  8
SAPA_PROFIL
 10
-34.500000000001137
 20
18.400000000000318
 30
0.0
 42
0.7105995019814511
  0
VERTEX
  5
295B
  8
SAPA_PROFIL
 10
-35.035076580641999
 20
18.586384015500919
 30
0.0
  0
VERTEX
  5
295C
  8
SAPA_PROFIL
 10
-35.500000000001137
 20
18.000000000000231
 30
0.0
  0
VERTEX
  5
295D
  8
SAPA_PROFIL
 10
-35.500000000001137
 20
11.30000000000018
 30
0.0
 42
0.4142135623730951
  0
VERTEX
  5
295E
  8
SAPA_PROFIL
 10
-35.200000000000948
 20
11.00000000000022
 30
0.0
  0
VERTEX
  5
295F
  8
SAPA_PROFIL
 10
-34.500000000001137
 20
11.00000000000022
 30
0.0
 42
0.4142135623730951
  0
VERTEX
  5
2960
  8
SAPA_PROFIL
 10
-34.200000000000962
 20
11.30000000000018
 30
0.0
  0
VERTEX
  5
2961
  8
SAPA_PROFIL
 10
-34.200000000000962
 20
14.200000000000269
 30
0.0
 42
-0.4142135623730951
  0
VERTEX
  5
2962
  8
SAPA_PROFIL
 10
-33.700000000000962
 20
14.700000000000269
 30
0.0
  0
VERTEX
  5
2963
  8
SAPA_PROFIL
 10
-30.50000000000114
 20
14.700000000000269
 30
0.0
 42
-0.4142135623730951
  0
VERTEX
  5
2964
  8
SAPA_PROFIL
 10
-30.00000000000114
 20
14.200000000000269
 30
0.0
  0
SEQEND
  5
2965
  8
SAPA_PROFIL
  0
POLYLINE
  5
1B6D
  8
SAPA_GLAS
 66
     1
 10
0.0
 20
0.0
 30
0.0
  0
VERTEX
  5
2970
  8
SAPA_GLAS
 10
-66.499999999009901
 20
75.522593981594582
 30
0.0
  0
VERTEX
  5
2971
  8
SAPA_GLAS
 10
-66.499999999010356
 20
11.000967646493329
 30
0.0
  0
VERTEX
  5
2972
  8
SAPA_GLAS
 10
-72.499999999009674
 20
11.000967646493329
 30
0.0
  0
VERTEX
  5
2973
  8
SAPA_GLAS
 10
-72.499999999009674
 20
75.522593981594582
 30
0.0
  0
SEQEND
  5
2974
  8
SAPA_GLAS
  0
POLYLINE
  5
1B6E
  8
SAPA_GLAS
 66
     1
 10
0.0
 20
0.0
 30
0.0
  0
VERTEX
  5
2975
  8
SAPA_GLAS
 10
-58.629424243951227
 20
-208.34327186227591
 30
0.0
  0
VERTEX
  5
2976
  8
SAPA_GLAS
 10
-58.629424243951227
 20
-179.5432718622761
 30
0.0
  0
VERTEX
  5
2977
  8
SAPA_GLAS
 10
-36.629424243951242
 20
-179.5432718622761
 30
0.0
  0
VERTEX
  5
2978
  8
SAPA_GLAS
 10
-36.629424243951462
 20
-208.34327186227591
 30
0.0
  0
SEQEND
  5
2979
  8
SAPA_GLAS
  0
LINE
  5
1B6F
  8
SAPA_GLAS
 10
-53.629424243951227
 20
-189.5432718622761
 30
0.0
 11
-41.629424243951227
 21
-189.5432718622761
 31
0.0
  0
LINE
  5
1B70
  8
SAPA_GLAS
 10
-41.629424243951462
 20
-208.34327186227591
 30
0.0
 11
-41.629424243951227
 21
-179.5432718622761
 31
0.0
  0
LINE
  5
1B71
  8
SAPA_GLAS
 10
-53.629424243951227
 20
-208.34327186227591
 30
0.0
 11
-53.629424243951227
 21
-179.5432718622761
 31
0.0
  0
POLYLINE
  5
1B79
  8
SAPA_FYLLNING
 66
     1
 10
0.0
 20
0.0
 30
0.0
  0
VERTEX
  5
2984
  8
SAPA_FYLLNING
 10
-35.500000000001918
 20
75.522593981593673
 30
0.0
  0
VERTEX
  5
2985
  8
SAPA_FYLLNING
 10
-35.500000000001933
 20
14.03511389911227
 30
0.0
  0
VERTEX
  5
2986
  8
SAPA_FYLLNING
 10
-43.500000000001933
 20
14.035113899112281
 30
0.0
  0
VERTEX
  5
2987
  8
SAPA_FYLLNING
 10
-43.500000000001918
 20
75.522593981593673
 30
0.0
  0
SEQEND
  5
2988
  8
SAPA_FYLLNING
  0
LINE
  5
1B7A
  8
SAPA_FYLLNING
 10
52.499999999998863
 20
26.000000000000298
 30
0.0
 11
52.499999999998799
 21
75.000000000000298
 31
0.0
  0
POLYLINE
  5
1B7B
  8
SAPA_FYLLNING
 66
     1
 10
0.0
 20
0.0
 30
0.0
  0
VERTEX
  5
2989
  8
SAPA_FYLLNING
 10
50.999999999998799
 20
75.000000000000298
 30
0.0
  0
VERTEX
  5
298A
  8
SAPA_FYLLNING
 10
50.999999999998799
 20
26.000000000000298
 30
0.0
  0
VERTEX
  5
298B
  8
SAPA_FYLLNING
 10
62.499999999998863
 20
26.000000000000309
 30
0.0
  0
VERTEX
  5
298C
  8
SAPA_FYLLNING
 10
62.499999999998863
 20
75.000000000000298
 30
0.0
  0
SEQEND
  5
298D
  8
SAPA_FYLLNING
  0
LINE
  5
1B89
  8
SAPA_ISOLATOR
 10
-7.3664070000655828
 20
-25.043289698275771
 30
0.0
 11
-7.3664070000655846
 21
-31.23791346545875
 31
0.0
  0
LINE
  5
1B8A
  8
SAPA_ISOLATOR
 10
-42.608104357024509
 20
-25.04328969827576
 30
0.0
 11
-7.3664070000655828
 21
-25.043289698275771
 31
0.0
  0
LINE
  5
1B8B
  8
SAPA_ISOLATOR
 10
-42.608104357024509
 20
-31.237913465460561
 30
0.0
 11
-42.608104357024509
 21
-25.04328969827576
 31
0.0
  0
LINE
  5
1B8C
  8
SAPA_ISOLATOR
 10
-7.3664070000655846
 20
-31.24328969827582
 30
0.0
 11
-42.608104357024509
 21
-31.237913465460561
 31
0.0
  0
POLYLINE
  5
1B8D
  8
SAPA_ISOLATOR
 66
     1
 10
0.0
 20
0.0
 30
0.0
 70
     1
  0
VERTEX
  5
29BF
  8
SAPA_ISOLATOR
 10
-78.358578641879717
 20
-1.055634910785954
 30
0.0
 42
0.1989123671061458
  0
VERTEX
  5
29C0
  8
SAPA_ISOLATOR
 10
-78.00710678019658
 20
-0.2071067742551236
 30
0.0
  0
VERTEX
  5
29C1
  8
SAPA_ISOLATOR
 10
-78.00710678019658
 20
0.2071067742560331
 30
0.0
 42
0.1989123671061505
  0
VERTEX
  5
29C2
  8
SAPA_ISOLATOR
 10
-78.358578641879717
 20
1.0556349107868639
 30
0.0
  0
VERTEX
  5
29C3
  8
SAPA_ISOLATOR
 10
-80.590811692262079
 20
3.2878679658677461
 30
0.0
 42
-0.6681786375387371
  0
VERTEX
  5
29C4
  8
SAPA_ISOLATOR
 10
-80.378679657682881
 20
3.8000000000004661
 30
0.0
  0
VERTEX
  5
29C5
  8
SAPA_ISOLATOR
 10
-67.999999999010015
 20
3.8000000000004088
 30
0.0
 42
-0.4142135623731103
  0
VERTEX
  5
29C6
  8
SAPA_ISOLATOR
 10
-67.699999999010004
 20
3.500000000000397
 30
0.0
  0
VERTEX
  5
29C7
  8
SAPA_ISOLATOR
 10
-67.69999999901006
 20
-3.499999999999488
 30
0.0
 42
-0.4142135623731173
  0
VERTEX
  5
29C8
  8
SAPA_ISOLATOR
 10
-67.999999999010072
 20
-3.7999999999995562
 30
0.0
  0
VERTEX
  5
29C9
  8
SAPA_ISOLATOR
 10
-80.378679657682937
 20
-3.7999999999995562
 30
0.0
 42
-0.6681786375387019
  0
VERTEX
  5
29CA
  8
SAPA_ISOLATOR
 10
-80.590811692262164
 20
-3.2878679658668371
 30
0.0
  0
SEQEND
  5
29CB
  8
SAPA_ISOLATOR
  0
POLYLINE
  5
1B8E
  8
SAPA_ISOLATOR
 66
     1
 10
0.0
 20
0.0
 30
0.0
 70
     1
  0
VERTEX
  5
29CC
  8
SAPA_ISOLATOR
 10
-52.147056273857743
 20
-1.0999999999995671
 30
0.0
  0
VERTEX
  5
29CD
  8
SAPA_ISOLATOR
 10
-53.69999999901011
 20
-2.652943725151828
 30
0.0
  0
VERTEX
  5
29CE
  8
SAPA_ISOLATOR
 10
-53.69999999901006
 20
-3.4999999999996021
 30
0.0
 42
-0.4142135623731173
  0
VERTEX
  5
29CF
  8
SAPA_ISOLATOR
 10
-53.999999999010072
 20
-3.7999999999995562
 30
0.0
  0
VERTEX
  5
29D0
  8
SAPA_ISOLATOR
 10
-65.999999999010072
 20
-3.7999999999995562
 30
0.0
 42
-0.4142135623731103
  0
VERTEX
  5
29D1
  8
SAPA_ISOLATOR
 10
-66.299999999010083
 20
-3.4999999999996021
 30
0.0
  0
VERTEX
  5
29D2
  8
SAPA_ISOLATOR
 10
-66.299999999010026
 20
3.5000000000005111
 30
0.0
 42
-0.4142135623731173
  0
VERTEX
  5
29D3
  8
SAPA_ISOLATOR
 10
-65.999999999010015
 20
3.8000000000004661
 30
0.0
  0
VERTEX
  5
29D4
  8
SAPA_ISOLATOR
 10
-53.999999999010022
 20
3.8000000000004661
 30
0.0
 42
-0.4142135623731103
  0
VERTEX
  5
29D5
  8
SAPA_ISOLATOR
 10
-53.699999999010011
 20
3.5000000000005111
 30
0.0
  0
VERTEX
  5
29D6
  8
SAPA_ISOLATOR
 10
-53.69999999901006
 20
2.6529437251526811
 30
0.0
  0
VERTEX
  5
29D7
  8
SAPA_ISOLATOR
 10
-52.147056273857629
 20
1.10000000000042
 30
0.0
  0
VERTEX
  5
29D8
  8
SAPA_ISOLATOR
 10
-46.615727369978629
 20
1.100000000000477
 30
0.0
 42
-0.0633388351918984
  0
VERTEX
  5
29D9
  8
SAPA_ISOLATOR
 10
-45.403112852077129
 20
0.3024121700678393
 30
0.0
 42
-0.305556580149261
  0
VERTEX
  5
29DA
  8
SAPA_ISOLATOR
 10
-45.342204651895429
 20
-0.1515893836760824
 30
0.0
 42
-0.0648283553387436
  0
VERTEX
  5
29DB
  8
SAPA_ISOLATOR
 10
-46.621347326266338
 20
-1.0999999999995109
 30
0.0
  0
SEQEND
  5
29DC
  8
SAPA_ISOLATOR
  0
POLYLINE
  5
1B8F
  8
SAPA_ISOLATOR
 66
     1
 10
0.0
 20
0.0
 30
0.0
 70
     1
  0
VERTEX
  5
29DD
  8
SAPA_ISOLATOR
 10
-52.499999999010072
 20
-3.1499999999995221
 30
0.0
  0
VERTEX
  5
29DE
  8
SAPA_ISOLATOR
 10
-52.499999999010072
 20
-4.4999999999995453
 30
0.0
 42
-0.4142135623730951
  0
VERTEX
  5
29DF
  8
SAPA_ISOLATOR
 10
-52.999999999010072
 20
-4.9999999999995453
 30
0.0
  0
VERTEX
  5
29E0
  8
SAPA_ISOLATOR
 10
-82.499999999010072
 20
-4.9999999999995453
 30
0.0
  0
VERTEX
  5
29E1
  8
SAPA_ISOLATOR
 10
-82.499999999010072
 20
-3.4999999999995448
 30
0.0
  0
VERTEX
  5
29E2
  8
SAPA_ISOLATOR
 10
-79.353553389603292
 20
-0.3535533839701088
 30
0.0
 42
0.4142135623730951
  0
VERTEX
  5
29E3
  8
SAPA_ISOLATOR
 10
-79.353553389603292
 20
0.3535533972164444
 30
0.0
  0
VERTEX
  5
29E4
  8
SAPA_ISOLATOR
 10
-82.499999999010015
 20
3.5000000000004539
 30
0.0
  0
VERTEX
  5
29E5
  8
SAPA_ISOLATOR
 10
-82.499999999010015
 20
5.0000000000004539
 30
0.0
  0
VERTEX
  5
29E6
  8
SAPA_ISOLATOR
 10
-52.999999999010008
 20
5.0000000000004539
 30
0.0
 42
-0.4142135623730951
  0
VERTEX
  5
29E7
  8
SAPA_ISOLATOR
 10
-52.499999999010008
 20
4.5000000000004539
 30
0.0
  0
VERTEX
  5
29E8
  8
SAPA_ISOLATOR
 10
-52.499999999010008
 20
3.150000000000432
 30
0.0
  0
VERTEX
  5
29E9
  8
SAPA_ISOLATOR
 10
-51.649999999010049
 20
2.3000000000004661
 30
0.0
  0
VERTEX
  5
29EA
  8
SAPA_ISOLATOR
 10
-47.094967040794693
 20
2.3000000000004661
 30
0.0
 42
-0.0912836897734203
  0
VERTEX
  5
29EB
  8
SAPA_ISOLATOR
 10
-44.975410007192693
 20
1.081358332190518
 30
0.0
 42
-0.4396415083054684
  0
VERTEX
  5
29EC
  8
SAPA_ISOLATOR
 10
-44.97541000719275
 20
-1.081358332189722
 30
0.0
 42
-0.0912836897734202
  0
VERTEX
  5
29ED
  8
SAPA_ISOLATOR
 10
-47.094967040794756
 20
-2.2999999999995562
 30
0.0
  0
VERTEX
  5
29EE
  8
SAPA_ISOLATOR
 10
-51.649999999010099
 20
-2.2999999999995562
 30
0.0
  0
SEQEND
  5
29EF
  8
SAPA_ISOLATOR
  0
LINE
  5
1B90
  8
SAPA_ISOLATOR
 10
-42.608104357024509
 20
-31.237913465460561
 30
0.0
 11
-7.3664070000655828
 21
-25.043289698275771
 31
0.0
  0
LINE
  5
1B91
  8
SAPA_ISOLATOR
 10
-7.3664070000655846
 20
-31.259877001161271
 30
0.0
 11
-42.608104357024509
 21
-25.054500768345971
 31
0.0
  0
POLYLINE
  5
1BB1
  8
SAPA_FOGBAND
 62
     2
 66
     1
 10
0.0
 20
0.0
 30
0.0
  0
VERTEX
  5
2BD3
  8
SAPA_FOGBAND
 62
     2
 10
-21.619968595879801
 20
-106.6528279281585
 30
0.0
 42
0.1803090304626144
  0
VERTEX
  5
2BD4
  8
SAPA_FOGBAND
 62
     2
 10
-19.779556919066049
 20
-108.0408255525175
 30
0.0
  0
VERTEX
  5
2BD5
  8
SAPA_FOGBAND
 62
     2
 10
-17.31419771314027
 20
-108.7748694413156
 30
0.0
 42
-0.3317810211360308
  0
VERTEX
  5
2BD6
  8
SAPA_FOGBAND
 62
     2
 10
-16.599560595981
 20
-109.7332889867636
 30
0.0
  0
VERTEX
  5
2BD7
  8
SAPA_FOGBAND
 62
     2
 10
-16.59956059598089
 20
-110.9670161453633
 30
0.0
 42
0.2679491924312111
  0
VERTEX
  5
2BD8
  8
SAPA_FOGBAND
 62
     2
 10
-16.449560595980799
 20
-111.226823766496
 30
0.0
  0
VERTEX
  5
2BD9
  8
SAPA_FOGBAND
 62
     2
 10
-15.546372453107249
 20
-111.7482796839122
 30
0.0
 42
0.5773502691894719
  0
VERTEX
  5
2BDA
  8
SAPA_FOGBAND
 62
     2
 10
-15.09637245310744
 20
-111.48847206277679
 30
0.0
  0
VERTEX
  5
2BDB
  8
SAPA_FOGBAND
 62
     2
 10
-15.096372453107319
 20
-105.4866312987233
 30
0.0
 42
0.4147066859862881
  0
VERTEX
  5
2BDC
  8
SAPA_FOGBAND
 62
     2
 10
-18.1014224579623
 20
-102.4866355491513
 30
0.0
  0
VERTEX
  5
2BDD
  8
SAPA_FOGBAND
 62
     2
 10
-20.283413655576211
 20
-102.4903085764023
 30
0.0
 42
-0.4565417232955612
  0
VERTEX
  5
2BDE
  8
SAPA_FOGBAND
 62
     2
 10
-20.633215761617109
 20
-102.1072519501804
 30
0.0
  0
VERTEX
  5
2BDF
  8
SAPA_FOGBAND
 62
     2
 10
-20.455086428106181
 20
-101.0970302994991
 30
0.0
  0
VERTEX
  5
2BE0
  8
SAPA_FOGBAND
 62
     2
 10
-20.06116332690128
 20
-101.1664895705659
 30
0.0
 42
0.6720594905598717
  0
VERTEX
  5
2BE1
  8
SAPA_FOGBAND
 62
     2
 10
-19.86384157602269
 20
-100.8530642744133
 30
0.0
  0
VERTEX
  5
2BE2
  8
SAPA_FOGBAND
 62
     2
 10
-21.184049445088458
 20
-99.009955166830025
 30
0.0
 42
0.4079520108343612
  0
VERTEX
  5
2BE3
  8
SAPA_FOGBAND
 62
     2
 10
-22.010686783251671
 20
-98.864196700850755
 30
0.0
  0
VERTEX
  5
2BE4
  8
SAPA_FOGBAND
 62
     2
 10
-23.881656816856822
 20
-100.1446150439526
 30
0.0
 42
0.6720594905598635
  0
VERTEX
  5
2BE5
  8
SAPA_FOGBAND
 62
     2
 10
-23.803432788347649
 20
-100.5066264954317
 30
0.0
  0
VERTEX
  5
2BE6
  8
SAPA_FOGBAND
 62
     2
 10
-23.409509687142801
 20
-100.57608576649839
 30
0.0
  0
VERTEX
  5
2BE7
  8
SAPA_FOGBAND
 62
     2
 10
-23.565793047043019
 20
-101.4624127442094
 30
0.0
 42
-0.4142135623730951
  0
VERTEX
  5
2BE8
  8
SAPA_FOGBAND
 62
     2
 10
-23.913329826246741
 20
-101.705760616813
 30
0.0
  0
VERTEX
  5
2BE9
  8
SAPA_FOGBAND
 62
     2
 10
-25.311675886870312
 20
-101.49768384955691
 30
0.0
 42
0.4313344489874135
  0
VERTEX
  5
2BEA
  8
SAPA_FOGBAND
 62
     2
 10
-25.661739092778632
 20
-101.7582747412132
 30
0.0
  0
VERTEX
  5
2BEB
  8
SAPA_FOGBAND
 62
     2
 10
-25.744547944840001
 20
-102.4662642655037
 30
0.0
 42
0.3972974670000809
  0
VERTEX
  5
2BEC
  8
SAPA_FOGBAND
 62
     2
 10
-25.33475744599313
 20
-103.0167538657555
 30
0.0
  0
VERTEX
  5
2BED
  8
SAPA_FOGBAND
 62
     2
 10
-19.834297140457512
 20
-103.98663342393731
 30
0.0
  0
VERTEX
  5
2BEE
  8
SAPA_FOGBAND
 62
     2
 10
-18.098897455534871
 20
-103.98663342393731
 30
0.0
 42
-0.4147066859863004
  0
VERTEX
  5
2BEF
  8
SAPA_FOGBAND
 62
     2
 10
-16.596372453107321
 20
-105.4866312987233
 30
0.0
  0
VERTEX
  5
2BF0
  8
SAPA_FOGBAND
 62
     2
 10
-16.596372453107431
 20
-107.6891578883094
 30
0.0
 42
-0.601131774324047
  0
VERTEX
  5
2BF1
  8
SAPA_FOGBAND
 62
     2
 10
-17.515951405684561
 20
-107.6212552107454
 30
0.0
 42
0.2227389711612139
  0
VERTEX
  5
2BF2
  8
SAPA_FOGBAND
 62
     2
 10
-17.643820574903359
 20
-107.5095823716178
 30
0.0
  0
VERTEX
  5
2BF3
  8
SAPA_FOGBAND
 62
     2
 10
-19.465657747941279
 20
-106.9865640525246
 30
0.0
 42
-0.1796843201953831
  0
VERTEX
  5
2BF4
  8
SAPA_FOGBAND
 62
     2
 10
-20.689729613282999
 20
-106.0657180853371
 30
0.0
 42
1.0
  0
VERTEX
  5
2BF5
  8
SAPA_FOGBAND
 62
     2
 10
-21.615664717078619
 20
-106.659556601736
 30
0.0
  0
SEQEND
  5
2BF6
  8
SAPA_FOGBAND
 62
     2
  0
INSERT
  5
1BB2
  8
SAPA_FOGBAND
  6
CONTINUOUS
 62
     2
  2
*U171
 10
0.0
 20
0.0
 30
0.0
1001
ACAD
1002
{
1000
R14_HATCH_DATA
1000
1BB2
1011
1.0
1021
0.0
1031
0.0
1021
0.0
1031
0.0
1011
0.0
1021
0.0
1031
0.0
1021
1.0
1031
0.0
1011
0.0
1021
0.0
1031
0.0
1021
0.0
1031
1.0
1040
0.0
1010
0.0
1020
0.0
1030
1.0
1000
SOLID
1070
     1
1070
     0
1071
        1
1071
        1
1071
        1
1070
     2
1040
-19.418479258133502
1040
-103.27862601494461
1040
0.2549509756796394
1040
-1.5707963267948959
1040
4.7123889803846888
1070
     1
1071
        0
1070
     0
1070
     1
1071
        1
1040
-28.39919843865475
1040
-96.168777874959275
1040
0.0
1002
}
  0
POLYLINE
  5
1BB3
  8
SAPA_FOGBAND
 62
     2
 66
     1
 10
0.0
 20
0.0
 30
0.0
 70
     1
  0
VERTEX
  5
2C08
  8
SAPA_FOGBAND
 62
     2
 10
-22.58098529403081
 20
-101.63606092187629
 30
0.0
 42
1.0
  0
VERTEX
  5
2C09
  8
SAPA_FOGBAND
 62
     2
 10
-21.596177541018601
 20
-101.8097090995433
 30
0.0
  0
VERTEX
  5
2C0A
  8
SAPA_FOGBAND
 62
     2
 10
-21.33570527451819
 20
-100.332497470025
 30
0.0
 42
0.9999999999999998
  0
VERTEX
  5
2C0B
  8
SAPA_FOGBAND
 62
     2
 10
-22.320513027530399
 20
-100.158849292358
 30
0.0
  0
SEQEND
  5
2C0C
  8
SAPA_FOGBAND
 62
     2
  0
POLYLINE
  5
1BB4
  8
SAPA_FOGBAND
 62
     2
 66
     1
 10
0.0
 20
0.0
 30
0.0
  0
VERTEX
  5
2C0D
  8
SAPA_FOGBAND
 62
     2
 10
-63.439971093173291
 20
-100.4823754526855
 30
0.0
 42
0.1803090304626144
  0
VERTEX
  5
2C0E
  8
SAPA_FOGBAND
 62
     2
 10
-65.280382769987028
 20
-99.094377828326472
 30
0.0
  0
VERTEX
  5
2C0F
  8
SAPA_FOGBAND
 62
     2
 10
-67.745741975912807
 20
-98.360333939528402
 30
0.0
 42
-0.3317810211360308
  0
VERTEX
  5
2C10
  8
SAPA_FOGBAND
 62
     2
 10
-68.460379093072078
 20
-97.401914394080393
 30
0.0
  0
VERTEX
  5
2C11
  8
SAPA_FOGBAND
 62
     2
 10
-68.460379093072191
 20
-96.16818723548073
 30
0.0
 42
0.2679491924312111
  0
VERTEX
  5
2C12
  8
SAPA_FOGBAND
 62
     2
 10
-68.610379093072282
 20
-95.908379614347993
 30
0.0
  0
VERTEX
  5
2C13
  8
SAPA_FOGBAND
 62
     2
 10
-69.513567235945828
 20
-95.386923696931774
 30
0.0
 42
0.5773502691894719
  0
VERTEX
  5
2C14
  8
SAPA_FOGBAND
 62
     2
 10
-69.963567235945646
 20
-95.646731318067225
 30
0.0
  0
VERTEX
  5
2C15
  8
SAPA_FOGBAND
 62
     2
 10
-69.96356723594576
 20
-101.64857208212059
 30
0.0
 42
0.4147066859862881
  0
VERTEX
  5
2C16
  8
SAPA_FOGBAND
 62
     2
 10
-66.958517231090781
 20
-104.6485678316926
 30
0.0
  0
VERTEX
  5
2C17
  8
SAPA_FOGBAND
 62
     2
 10
-64.77652603347687
 20
-104.64489480444161
 30
0.0
 42
-0.4565417232955612
  0
VERTEX
  5
2C18
  8
SAPA_FOGBAND
 62
     2
 10
-64.426723927435972
 20
-105.02795143066351
 30
0.0
  0
VERTEX
  5
2C19
  8
SAPA_FOGBAND
 62
     2
 10
-64.604853260946896
 20
-106.03817308134479
 30
0.0
  0
VERTEX
  5
2C1A
  8
SAPA_FOGBAND
 62
     2
 10
-64.998776362151801
 20
-105.9687138102781
 30
0.0
 42
0.6720594905598717
  0
VERTEX
  5
2C1B
  8
SAPA_FOGBAND
 62
     2
 10
-65.196098113030374
 20
-106.28213910643061
 30
0.0
  0
VERTEX
  5
2C1C
  8
SAPA_FOGBAND
 62
     2
 10
-63.875890243964619
 20
-108.12524821401399
 30
0.0
 42
0.4079520108343612
  0
VERTEX
  5
2C1D
  8
SAPA_FOGBAND
 62
     2
 10
-63.049252905801417
 20
-108.27100667999321
 30
0.0
  0
VERTEX
  5
2C1E
  8
SAPA_FOGBAND
 62
     2
 10
-61.17828287219627
 20
-106.99058833689131
 30
0.0
 42
0.6720594905598635
  0
VERTEX
  5
2C1F
  8
SAPA_FOGBAND
 62
     2
 10
-61.256506900705439
 20
-106.6285768854123
 30
0.0
  0
VERTEX
  5
2C20
  8
SAPA_FOGBAND
 62
     2
 10
-61.650430001910287
 20
-106.5591176143455
 30
0.0
  0
VERTEX
  5
2C21
  8
SAPA_FOGBAND
 62
     2
 10
-61.494146642010072
 20
-105.6727906366346
 30
0.0
 42
-0.4142135623730951
  0
VERTEX
  5
2C22
  8
SAPA_FOGBAND
 62
     2
 10
-61.146609862806351
 20
-105.4294427640309
 30
0.0
  0
VERTEX
  5
2C23
  8
SAPA_FOGBAND
 62
     2
 10
-59.748263802182777
 20
-105.637519531287
 30
0.0
 42
0.4313344489874135
  0
VERTEX
  5
2C24
  8
SAPA_FOGBAND
 62
     2
 10
-59.398200596274457
 20
-105.37692863963071
 30
0.0
  0
VERTEX
  5
2C25
  8
SAPA_FOGBAND
 62
     2
 10
-59.315391744213102
 20
-104.66893911534019
 30
0.0
 42
0.3972974670000809
  0
VERTEX
  5
2C26
  8
SAPA_FOGBAND
 62
     2
 10
-59.725182243059947
 20
-104.1184495150884
 30
0.0
  0
VERTEX
  5
2C27
  8
SAPA_FOGBAND
 62
     2
 10
-65.225642548595573
 20
-103.1485699569066
 30
0.0
  0
VERTEX
  5
2C28
  8
SAPA_FOGBAND
 62
     2
 10
-66.961042233518214
 20
-103.1485699569066
 30
0.0
 42
-0.4147066859863004
  0
VERTEX
  5
2C29
  8
SAPA_FOGBAND
 62
     2
 10
-68.46356723594576
 20
-101.64857208212059
 30
0.0
  0
VERTEX
  5
2C2A
  8
SAPA_FOGBAND
 62
     2
 10
-68.463567235945646
 20
-99.446045492534552
 30
0.0
 42
-0.601131774324047
  0
VERTEX
  5
2C2B
  8
SAPA_FOGBAND
 62
     2
 10
-67.54398828336852
 20
-99.513948170098544
 30
0.0
 42
0.2227389711612139
  0
VERTEX
  5
2C2C
  8
SAPA_FOGBAND
 62
     2
 10
-67.416119114149723
 20
-99.625621009226236
 30
0.0
  0
VERTEX
  5
2C2D
  8
SAPA_FOGBAND
 62
     2
 10
-65.594281941111802
 20
-100.14863932831931
 30
0.0
 42
-0.1796843201953831
  0
VERTEX
  5
2C2E
  8
SAPA_FOGBAND
 62
     2
 10
-64.370210075770075
 20
-101.06948529550689
 30
0.0
 42
1.0
  0
VERTEX
  5
2C2F
  8
SAPA_FOGBAND
 62
     2
 10
-63.444274971974473
 20
-100.475646779108
 30
0.0
  0
SEQEND
  5
2C30
  8
SAPA_FOGBAND
 62
     2
  0
INSERT
  5
1BB5
  8
SAPA_FOGBAND
  6
CONTINUOUS
 62
     2
  2
*U172
 10
0.0
 20
0.0
 30
0.0
1001
ACAD
1002
{
1000
R14_HATCH_DATA
1000
1BB5
1011
1.0
1021
0.0
1031
0.0
1021
0.0
1031
0.0
1011
0.0
1021
0.0
1031
0.0
1021
1.0
1031
0.0
1011
0.0
1021
0.0
1031
0.0
1021
0.0
1031
1.0
1040
0.0
1010
0.0
1020
0.0
1030
1.0
1000
SOLID
1070
     1
1070
     0
1071
        1
1071
        1
1071
        1
1070
     2
1040
-65.641460430919579
1040
-103.8565773658993
1040
0.2549509756796394
1040
1.5707963267948959
1040
7.8539816339744819
1070
     1
1071
        0
1070
     0
1070
     1
1071
        1
1040
-56.660741250398338
1040
-110.9664255058847
1040
0.0
1002
}
  0
POLYLINE
  5
1BB6
  8
SAPA_FOGBAND
 62
     2
 66
     1
 10
0.0
 20
0.0
 30
0.0
 70
     1
  0
VERTEX
  5
2C42
  8
SAPA_FOGBAND
 62
     2
 10
-62.478954395022278
 20
-105.4991424589676
 30
0.0
 42
1.0
  0
VERTEX
  5
2C43
  8
SAPA_FOGBAND
 62
     2
 10
-63.46376214803449
 20
-105.32549428130061
 30
0.0
  0
VERTEX
  5
2C44
  8
SAPA_FOGBAND
 62
     2
 10
-63.724234414534898
 20
-106.802705910819
 30
0.0
 42
0.9999999999999998
  0
VERTEX
  5
2C45
  8
SAPA_FOGBAND
 62
     2
 10
-62.739426661522693
 20
-106.97635408848591
 30
0.0
  0
SEQEND
  5
2C46
  8
SAPA_FOGBAND
 62
     2
  0
CIRCLE
  5
1BB7
  8
SAPA_FOGBAND
 10
-74.666991939389959
 20
-18.660117064213861
 30
0.0
 40
0.2549509756796394
  0
INSERT
  5
1BB8
  8
SAPA_FOGBAND
  6
CONTINUOUS
  2
*U173
 10
0.0
 20
0.0
 30
0.0
1001
ACAD
1002
{
1000
R14_HATCH_DATA
1000
1BB8
1011
1.0
1021
0.0
1031
0.0
1021
0.0
1031
0.0
1011
0.0
1021
0.0
1031
0.0
1021
1.0
1031
0.0
1011
0.0
1021
0.0
1031
0.0
1021
0.0
1031
1.0
1040
0.0
1010
0.0
1020
0.0
1030
1.0
1000
SOLID
1070
     1
1070
     1
1071
        1
1071
        1
1071
        1
1070
     2
1040
-74.666991939389959
1040
-18.660117064213861
1040
0.2549509756796394
1040
-1.5707963267948959
1040
4.7123889803846888
1070
     0
1071
        1
1005
1BB7
1070
     0
1070
     1
1071
        1
1040
-74.585140442061061
1040
-18.896855965783971
1040
0.0
1002
}
  0
POLYLINE
  5
1BB9
  8
SAPA_FOGBAND
 66
     1
 10
0.0
 20
0.0
 30
0.0
 70
     1
  0
VERTEX
  5
2C58
  8
SAPA_FOGBAND
 10
-77.629423718634484
 20
-17.76011706421388
 30
0.0
 42
-0.9999999999999998
  0
VERTEX
  5
2C59
  8
SAPA_FOGBAND
 10
-77.629423718634484
 20
-19.560117064213841
 30
0.0
  0
VERTEX
  5
2C5A
  8
SAPA_FOGBAND
 10
-78.229423718634507
 20
-19.560117064213841
 30
0.0
 42
-0.9999999999999998
  0
VERTEX
  5
2C5B
  8
SAPA_FOGBAND
 10
-78.229423718634507
 20
-17.76011706421388
 30
0.0
  0
SEQEND
  5
2C5C
  8
SAPA_FOGBAND
  0
POLYLINE
  5
1BBA
  8
SAPA_FOGBAND
 66
     1
 10
0.0
 20
0.0
 30
0.0
 70
     1
  0
VERTEX
  5
2C5D
  8
SAPA_FOGBAND
 10
-72.529423718634462
 20
-27.287993372387071
 30
0.0
 42
-0.0775891054856093
  0
VERTEX
  5
2C5E
  8
SAPA_FOGBAND
 10
-72.846059702695811
 20
-23.82121164196451
 30
0.0
  0
VERTEX
  5
2C5F
  8
SAPA_FOGBAND
 10
-72.629423718634413
 20
-23.583322149135711
 30
0.0
 42
0.5773502691896298
  0
VERTEX
  5
2C60
  8
SAPA_FOGBAND
 10
-72.629423718634413
 20
-23.236911987621848
 30
0.0
  0
VERTEX
  5
2C61
  8
SAPA_FOGBAND
 10
-72.846333572857475
 20
-22.998864370891059
 30
0.0
  0
VERTEX
  5
2C62
  8
SAPA_FOGBAND
 10
-72.846333572857475
 20
-22.221369760974429
 30
0.0
  0
VERTEX
  5
2C63
  8
SAPA_FOGBAND
 10
-72.629423718634413
 20
-21.983322149135692
 30
0.0
 42
0.577350269189699
  0
VERTEX
  5
2C64
  8
SAPA_FOGBAND
 10
-72.629423718634413
 20
-21.636911987621939
 30
0.0
  0
VERTEX
  5
2C65
  8
SAPA_FOGBAND
 10
-72.846333572857475
 20
-21.39886437089115
 30
0.0
  0
VERTEX
  5
2C66
  8
SAPA_FOGBAND
 10
-72.846333572857475
 20
-20.6213697609744
 30
0.0
  0
VERTEX
  5
2C67
  8
SAPA_FOGBAND
 10
-72.629423718634413
 20
-20.383322149135662
 30
0.0
 42
0.577350269189699
  0
VERTEX
  5
2C68
  8
SAPA_FOGBAND
 10
-72.629423718634413
 20
-20.03691198762192
 30
0.0
  0
VERTEX
  5
2C69
  8
SAPA_FOGBAND
 10
-72.846333572857475
 20
-19.798864370891121
 30
0.0
  0
VERTEX
  5
2C6A
  8
SAPA_FOGBAND
 10
-72.846333572857475
 20
-19.02136976097438
 30
0.0
  0
VERTEX
  5
2C6B
  8
SAPA_FOGBAND
 10
-72.629423718634413
 20
-18.783322149135749
 30
0.0
 42
0.5773502691896298
  0
VERTEX
  5
2C6C
  8
SAPA_FOGBAND
 10
-72.629423718634413
 20
-18.436911987621901
 30
0.0
  0
VERTEX
  5
2C6D
  8
SAPA_FOGBAND
 10
-72.846333572857475
 20
-18.198864370891101
 30
0.0
  0
VERTEX
  5
2C6E
  8
SAPA_FOGBAND
 10
-72.846333572857475
 20
-17.421369760974361
 30
0.0
  0
VERTEX
  5
2C6F
  8
SAPA_FOGBAND
 10
-72.629423718634413
 20
-17.18332214913573
 30
0.0
 42
0.5773502691896298
  0
VERTEX
  5
2C70
  8
SAPA_FOGBAND
 10
-72.629423718634413
 20
-16.836911987621871
 30
0.0
  0
VERTEX
  5
2C71
  8
SAPA_FOGBAND
 10
-72.846333572857475
 20
-16.598864370891079
 30
0.0
  0
VERTEX
  5
2C72
  8
SAPA_FOGBAND
 10
-72.846333572857475
 20
-15.821369756809419
 30
0.0
  0
VERTEX
  5
2C73
  8
SAPA_FOGBAND
 10
-72.629423718634413
 20
-15.58332214497068
 30
0.0
 42
0.577350269189699
  0
VERTEX
  5
2C74
  8
SAPA_FOGBAND
 10
-72.629423718634413
 20
-15.236911983456929
 30
0.0
  0
VERTEX
  5
2C75
  8
SAPA_FOGBAND
 10
-73.702753787118922
 20
-14.43691198390183
 30
0.0
 42
0.1316524987190269
  0
VERTEX
  5
2C76
  8
SAPA_FOGBAND
 10
-73.802753787889628
 20
-14.410117064213861
 30
0.0
  0
VERTEX
  5
2C77
  8
SAPA_FOGBAND
 10
-76.329423718634416
 20
-14.41011706421375
 30
0.0
 42
0.4142135623730951
  0
VERTEX
  5
2C78
  8
SAPA_FOGBAND
 10
-76.529423718634462
 20
-14.610117064213791
 30
0.0
  0
VERTEX
  5
2C79
  8
SAPA_FOGBAND
 10
-76.529423718634462
 20
-16.660117064213861
 30
0.0
 42
-0.4142135623730951
  0
VERTEX
  5
2C7A
  8
SAPA_FOGBAND
 10
-77.029423718634462
 20
-17.160117064213861
 30
0.0
  0
VERTEX
  5
2C7B
  8
SAPA_FOGBAND
 10
-77.756218637877623
 20
-17.160117064213861
 30
0.0
  0
VERTEX
  5
2C7C
  8
SAPA_FOGBAND
 10
-77.823678547188024
 20
-16.90835325519333
 30
0.0
 42
0.4740571810232869
  0
VERTEX
  5
2C7D
  8
SAPA_FOGBAND
 10
-78.105961132826678
 20
-16.781059392829771
 30
0.0
  0
VERTEX
  5
2C7E
  8
SAPA_FOGBAND
 10
-79.552167269586448
 20
-17.4011598955883
 30
0.0
 42
0.2846003776495916
  0
VERTEX
  5
2C7F
  8
SAPA_FOGBAND
 10
-79.829423718634416
 20
-17.84880407404853
 30
0.0
  0
VERTEX
  5
2C80
  8
SAPA_FOGBAND
 10
-79.829423718634416
 20
-19.471430054379081
 30
0.0
 42
0.2846003776495917
  0
VERTEX
  5
2C81
  8
SAPA_FOGBAND
 10
-79.552167269586448
 20
-19.919074232839311
 30
0.0
  0
VERTEX
  5
2C82
  8
SAPA_FOGBAND
 10
-78.105961132826678
 20
-20.53917473559784
 30
0.0
 42
0.4740571810232869
  0
VERTEX
  5
2C83
  8
SAPA_FOGBAND
 10
-77.823678547188024
 20
-20.411880873234281
 30
0.0
  0
VERTEX
  5
2C84
  8
SAPA_FOGBAND
 10
-77.756218637877623
 20
-20.160117064213861
 30
0.0
  0
VERTEX
  5
2C85
  8
SAPA_FOGBAND
 10
-77.029423718634462
 20
-20.160117064213861
 30
0.0
 42
-0.4142135623730951
  0
VERTEX
  5
2C86
  8
SAPA_FOGBAND
 10
-76.529423718634462
 20
-20.660117064213861
 30
0.0
  0
VERTEX
  5
2C87
  8
SAPA_FOGBAND
 10
-76.529423718634462
 20
-23.710117064213819
 30
0.0
 42
-0.4142135623730951
  0
VERTEX
  5
2C88
  8
SAPA_FOGBAND
 10
-76.729423718634507
 20
-23.910117064213861
 30
0.0
  0
VERTEX
  5
2C89
  8
SAPA_FOGBAND
 10
-77.629423718634484
 20
-23.91011706421375
 30
0.0
 42
0.4142135623731784
  0
VERTEX
  5
2C8A
  8
SAPA_FOGBAND
 10
-77.829423718634416
 20
-24.110117064213799
 30
0.0
  0
VERTEX
  5
2C8B
  8
SAPA_FOGBAND
 10
-77.82942371863453
 20
-24.810117064213841
 30
0.0
 42
0.4142135623730398
  0
VERTEX
  5
2C8C
  8
SAPA_FOGBAND
 10
-77.529423718634462
 20
-25.110117064213799
 30
0.0
  0
VERTEX
  5
2C8D
  8
SAPA_FOGBAND
 10
-76.718911941982924
 20
-25.110117064213799
 30
0.0
 42
-0.1316524975873973
  0
VERTEX
  5
2C8E
  8
SAPA_FOGBAND
 10
-75.718911941982924
 20
-25.37806625664496
 30
0.0
  0
VERTEX
  5
2C8F
  8
SAPA_FOGBAND
 10
-73.129343949890995
 20
-30.540911406685382
 30
0.0
 42
0.7057658529986604
  0
VERTEX
  5
2C90
  8
SAPA_FOGBAND
 10
-72.529423718634462
 20
-30.273318231327039
 30
0.0
  0
SEQEND
  5
2C91
  8
SAPA_FOGBAND
  0
POLYLINE
  5
1BBB
  8
SAPA_FOGBAND
 66
     1
 10
0.0
 20
0.0
 30
0.0
 70
     1
  0
VERTEX
  5
2C92
  8
SAPA_FOGBAND
 10
-36.329423761630331
 20
-16.046665416876511
 30
0.0
  0
VERTEX
  5
2C93
  8
SAPA_FOGBAND
 10
-36.329423761630331
 20
-23.346665416876469
 30
0.0
 42
0.4142135623730951
  0
VERTEX
  5
2C94
  8
SAPA_FOGBAND
 10
-35.829423761630331
 20
-23.846665416876469
 30
0.0
  0
VERTEX
  5
2C95
  8
SAPA_FOGBAND
 10
-35.529423761630383
 20
-23.846665416876469
 30
0.0
  0
VERTEX
  5
2C96
  8
SAPA_FOGBAND
 10
-35.529423761630383
 20
-22.246665416876439
 30
0.0
 42
-0.4142135623730951
  0
VERTEX
  5
2C97
  8
SAPA_FOGBAND
 10
-35.029423761630383
 20
-21.74666541687645
 30
0.0
  0
VERTEX
  5
2C98
  8
SAPA_FOGBAND
 10
-34.087998344748492
 20
-21.74666541687645
 30
0.0
  0
VERTEX
  5
2C99
  8
SAPA_FOGBAND
 10
-34.020538435438091
 20
-21.998429225896981
 30
0.0
 42
0.4740571810232243
  0
VERTEX
  5
2C9A
  8
SAPA_FOGBAND
 10
-33.738255849799437
 20
-22.125723088260539
 30
0.0
  0
VERTEX
  5
2C9B
  8
SAPA_FOGBAND
 10
-32.29204971303956
 20
-21.505622585501889
 30
0.0
 42
0.2846003776496037
  0
VERTEX
  5
2C9C
  8
SAPA_FOGBAND
 10
-32.014793263991592
 20
-21.05797840704178
 30
0.0
  0
VERTEX
  5
2C9D
  8
SAPA_FOGBAND
 10
-32.014793263991592
 20
-19.435352426711219
 30
0.0
 42
0.2846003776496048
  0
VERTEX
  5
2C9E
  8
SAPA_FOGBAND
 10
-32.29204971303956
 20
-18.987708248251
 30
0.0
  0
VERTEX
  5
2C9F
  8
SAPA_FOGBAND
 10
-33.738255849799437
 20
-18.367607745492361
 30
0.0
 42
0.4740571810232242
  0
VERTEX
  5
2CA0
  8
SAPA_FOGBAND
 10
-34.020538435438091
 20
-18.494901607856029
 30
0.0
  0
VERTEX
  5
2CA1
  8
SAPA_FOGBAND
 10
-34.087998344748492
 20
-18.746665416876439
 30
0.0
  0
VERTEX
  5
2CA2
  8
SAPA_FOGBAND
 10
-35.029423761630383
 20
-18.746665416876439
 30
0.0
 42
-0.4142135623730951
  0
VERTEX
  5
2CA3
  8
SAPA_FOGBAND
 10
-35.529423761630383
 20
-18.246665416876439
 30
0.0
  0
VERTEX
  5
2CA4
  8
SAPA_FOGBAND
 10
-35.529423761630383
 20
-15.54666541687663
 30
0.0
  0
VERTEX
  5
2CA5
  8
SAPA_FOGBAND
 10
-35.829423761630331
 20
-15.546665416876509
 30
0.0
 42
0.4142135623730951
  0
SEQEND
  5
2CA6
  8
SAPA_FOGBAND
  0
POLYLINE
  5
1BBC
  8
SAPA_FOGBAND
 66
     1
 10
0.0
 20
0.0
 30
0.0
 70
     1
  0
VERTEX
  5
2CA7
  8
SAPA_FOGBAND
 10
-34.214793263991631
 20
-19.346665416876469
 30
0.0
  0
VERTEX
  5
2CA8
  8
SAPA_FOGBAND
 10
-33.614793263991608
 20
-19.346665416876469
 30
0.0
 42
-0.9999999999999998
  0
VERTEX
  5
2CA9
  8
SAPA_FOGBAND
 10
-33.614793263991608
 20
-21.14666541687642
 30
0.0
  0
VERTEX
  5
2CAA
  8
SAPA_FOGBAND
 10
-34.214793263991631
 20
-21.14666541687642
 30
0.0
 42
-0.9999999999999998
  0
SEQEND
  5
2CAB
  8
SAPA_FOGBAND
  0
POLYLINE
  5
1BBD
  8
SAPA_FOGBAND
 66
     1
 10
0.0
 20
0.0
 30
0.0
  0
VERTEX
  5
2CAC
  8
SAPA_FOGBAND
 10
-35.829423761630331
 20
-23.846665416876469
 30
0.0
  0
VERTEX
  5
2CAD
  8
SAPA_FOGBAND
 10
-35.529423761630383
 20
-23.846665416876469
 30
0.0
  0
VERTEX
  5
2CAE
  8
SAPA_FOGBAND
 10
-35.529423761630383
 20
-24.758825580257842
 30
0.0
 42
-0.4027293761437522
  0
VERTEX
  5
2CAF
  8
SAPA_FOGBAND
 10
-35.817616399099506
 20
-25.058593133855869
 30
0.0
  0
VERTEX
  5
2CB0
  8
SAPA_FOGBAND
 10
-42.45341927318362
 20
-25.678744472337019
 30
0.0
 42
-0.4366759199119207
  0
VERTEX
  5
2CB1
  8
SAPA_FOGBAND
 10
-43.529423761630937
 20
-24.681636996818039
 30
0.0
  0
VERTEX
  5
2CB2
  8
SAPA_FOGBAND
 10
-43.529423761630937
 20
-12.806437380829029
 30
0.0
 42
-0.1134871727417796
  0
VERTEX
  5
2CB3
  8
SAPA_FOGBAND
 10
-43.428992685483543
 20
-12.3696585452169
 30
0.0
  0
VERTEX
  5
2CB4
  8
SAPA_FOGBAND
 10
-40.47031342280674
 20
-5.2645967784393122
 30
0.0
 42
-0.2866770623134215
  0
VERTEX
  5
2CB5
  8
SAPA_FOGBAND
 10
-40.120355334455063
 20
-5.0453382323579197
 30
0.0
  0
VERTEX
  5
2CB6
  8
SAPA_FOGBAND
 10
-39.12751215179118
 20
-5.0453382323579197
 30
0.0
 42
-0.3386584782462731
  0
VERTEX
  5
2CB7
  8
SAPA_FOGBAND
 10
-38.355365765790239
 20
-5.6360777282352208
 30
0.0
  0
VERTEX
  5
2CB8
  8
SAPA_FOGBAND
 10
-35.575567821400917
 20
-15.093482549397541
 30
0.0
 42
-0.0644539213931785
  0
VERTEX
  5
2CB9
  8
SAPA_FOGBAND
 10
-35.529423761630383
 20
-15.44995708299756
 30
0.0
  0
VERTEX
  5
2CBA
  8
SAPA_FOGBAND
 10
-35.529423761630383
 20
-15.54666541687663
 30
0.0
  0
SEQEND
  5
2CBB
  8
SAPA_FOGBAND
  0
POLYLINE
  5
1BBE
  8
SAPA_FOGBAND
 66
     1
 10
0.0
 20
0.0
 30
0.0
 70
     1
  0
VERTEX
  5
2CBC
  8
SAPA_FOGBAND
 10
-37.634587915056677
 20
-11.92356907528278
 30
0.0
  0
VERTEX
  5
2CBD
  8
SAPA_FOGBAND
 10
-39.050126505762321
 20
-7.6474898634032513
 30
0.0
 42
0.444186966527488
  0
VERTEX
  5
2CBE
  8
SAPA_FOGBAND
 10
-39.52494629092709
 20
-7.613120025443691
 30
0.0
  0
VERTEX
  5
2CBF
  8
SAPA_FOGBAND
 10
-41.919847861946607
 20
-11.80553317392968
 30
0.0
 42
0.5537304554466119
  0
VERTEX
  5
2CC0
  8
SAPA_FOGBAND
 10
-41.336927199290137
 20
-12.73656585940625
 30
0.0
  0
VERTEX
  5
2CC1
  8
SAPA_FOGBAND
 10
-38.261229807391501
 20
-12.73656585940625
 30
0.0
 42
0.4917973357877383
  0
SEQEND
  5
2CC2
  8
SAPA_FOGBAND
  0
POLYLINE
  5
1BBF
  8
SAPA_FOGBAND
 10
-40.049546350893813
 20
-21.969273203883589
 30
0.0
 66
     1
 70
     8
  0
VERTEX
  8
SAPA_FOGBAND
  5
2DD2
 10
-40.0495
 20
-21.9693
 30
0.000000
  70
    32
  0
VERTEX
  8
SAPA_FOGBAND
  5
2DD3
 10
-40.1644
 20
-21.9646
 30
0.000000
  70
    32
  0
VERTEX
  8
SAPA_FOGBAND
  5
2DD4
 10
-40.2790
 20
-21.9527
 30
0.000000
  70
    32
  0
VERTEX
  8
SAPA_FOGBAND
  5
2DD5
 10
-40.3929
 20
-21.9337
 30
0.000000
  70
    32
  0
VERTEX
  8
SAPA_FOGBAND
  5
2DD6
 10
-40.5059
 20
-21.9077
 30
0.000000
  70
    32
  0
VERTEX
  8
SAPA_FOGBAND
  5
2DD7
 10
-40.6177
 20
-21.8746
 30
0.000000
  70
    32
  0
VERTEX
  8
SAPA_FOGBAND
  5
2DD8
 10
-40.7281
 20
-21.8347
 30
0.000000
  70
    32
  0
VERTEX
  8
SAPA_FOGBAND
  5
2DD9
 10
-40.8368
 20
-21.7879
 30
0.000000
  70
    32
  0
VERTEX
  8
SAPA_FOGBAND
  5
2DDA
 10
-40.9435
 20
-21.7344
 30
0.000000
  70
    32
  0
VERTEX
  8
SAPA_FOGBAND
  5
2DDB
 10
-41.0480
 20
-21.6743
 30
0.000000
  70
    32
  0
VERTEX
  8
SAPA_FOGBAND
  5
2DDC
 10
-41.1501
 20
-21.6078
 30
0.000000
  70
    32
  0
VERTEX
  8
SAPA_FOGBAND
  5
2DDD
 10
-41.2494
 20
-21.5350
 30
0.000000
  70
    32
  0
VERTEX
  8
SAPA_FOGBAND
  5
2DDE
 10
-41.3457
 20
-21.4560
 30
0.000000
  70
    32
  0
VERTEX
  8
SAPA_FOGBAND
  5
2DDF
 10
-41.4388
 20
-21.3712
 30
0.000000
  70
    32
  0
VERTEX
  8
SAPA_FOGBAND
  5
2DE0
 10
-41.5286
 20
-21.2807
 30
0.000000
  70
    32
  0
VERTEX
  8
SAPA_FOGBAND
  5
2DE1
 10
-41.6147
 20
-21.1846
 30
0.000000
  70
    32
  0
VERTEX
  8
SAPA_FOGBAND
  5
2DE2
 10
-41.6969
 20
-21.0834
 30
0.000000
  70
    32
  0
VERTEX
  8
SAPA_FOGBAND
  5
2DE3
 10
-41.7751
 20
-20.9770
 30
0.000000
  70
    32
  0
VERTEX
  8
SAPA_FOGBAND
  5
2DE4
 10
-41.8491
 20
-20.8660
 30
0.000000
  70
    32
  0
VERTEX
  8
SAPA_FOGBAND
  5
2DE5
 10
-41.9187
 20
-20.7504
 30
0.000000
  70
    32
  0
VERTEX
  8
SAPA_FOGBAND
  5
2DE6
 10
-41.9837
 20
-20.6306
 30
0.000000
  70
    32
  0
VERTEX
  8
SAPA_FOGBAND
  5
2DE7
 10
-42.0440
 20
-20.5069
 30
0.000000
  70
    32
  0
VERTEX
  8
SAPA_FOGBAND
  5
2DE8
 10
-42.0994
 20
-20.3796
 30
0.000000
  70
    32
  0
VERTEX
  8
SAPA_FOGBAND
  5
2DE9
 10
-42.1498
 20
-20.2489
 30
0.000000
  70
    32
  0
VERTEX
  8
SAPA_FOGBAND
  5
2DEA
 10
-42.1950
 20
-20.1153
 30
0.000000
  70
    32
  0
VERTEX
  8
SAPA_FOGBAND
  5
2DEB
 10
-42.2350
 20
-19.9789
 30
0.000000
  70
    32
  0
VERTEX
  8
SAPA_FOGBAND
  5
2DEC
 10
-42.2697
 20
-19.8402
 30
0.000000
  70
    32
  0
VERTEX
  8
SAPA_FOGBAND
  5
2DED
 10
-42.2990
 20
-19.6995
 30
0.000000
  70
    32
  0
VERTEX
  8
SAPA_FOGBAND
  5
2DEE
 10
-42.3227
 20
-19.5571
 30
0.000000
  70
    32
  0
VERTEX
  8
SAPA_FOGBAND
  5
2DEF
 10
-42.3410
 20
-19.4133
 30
0.000000
  70
    32
  0
VERTEX
  8
SAPA_FOGBAND
  5
2DF0
 10
-42.3536
 20
-19.2686
 30
0.000000
  70
    32
  0
VERTEX
  8
SAPA_FOGBAND
  5
2DF1
 10
-42.3606
 20
-19.1232
 30
0.000000
  70
    32
  0
VERTEX
  8
SAPA_FOGBAND
  5
2DF2
 10
-42.3620
 20
-18.9775
 30
0.000000
  70
    32
  0
VERTEX
  8
SAPA_FOGBAND
  5
2DF3
 10
-42.3577
 20
-18.8319
 30
0.000000
  70
    32
  0
VERTEX
  8
SAPA_FOGBAND
  5
2DF4
 10
-42.3478
 20
-18.6867
 30
0.000000
  70
    32
  0
VERTEX
  8
SAPA_FOGBAND
  5
2DF5
 10
-42.3323
 20
-18.5422
 30
0.000000
  70
    32
  0
VERTEX
  8
SAPA_FOGBAND
  5
2DF6
 10
-42.3112
 20
-18.3989
 30
0.000000
  70
    32
  0
VERTEX
  8
SAPA_FOGBAND
  5
2DF7
 10
-42.2846
 20
-18.2569
 30
0.000000
  70
    32
  0
VERTEX
  8
SAPA_FOGBAND
  5
2DF8
 10
-42.2526
 20
-18.1168
 30
0.000000
  70
    32
  0
VERTEX
  8
SAPA_FOGBAND
  5
2DF9
 10
-42.2151
 20
-17.9788
 30
0.000000
  70
    32
  0
VERTEX
  8
SAPA_FOGBAND
  5
2DFA
 10
-42.1724
 20
-17.8433
 30
0.000000
  70
    32
  0
VERTEX
  8
SAPA_FOGBAND
  5
2DFB
 10
-42.1245
 20
-17.7106
 30
0.000000
  70
    32
  0
VERTEX
  8
SAPA_FOGBAND
  5
2DFC
 10
-42.0715
 20
-17.5810
 30
0.000000
  70
    32
  0
VERTEX
  8
SAPA_FOGBAND
  5
2DFD
 10
-42.0136
 20
-17.4548
 30
0.000000
  70
    32
  0
VERTEX
  8
SAPA_FOGBAND
  5
2DFE
 10
-41.9509
 20
-17.3323
 30
0.000000
  70
    32
  0
VERTEX
  8
SAPA_FOGBAND
  5
2DFF
 10
-41.8835
 20
-17.2138
 30
0.000000
  70
    32
  0
VERTEX
  8
SAPA_FOGBAND
  5
2E00
 10
-41.8116
 20
-17.0997
 30
0.000000
  70
    32
  0
VERTEX
  8
SAPA_FOGBAND
  5
2E01
 10
-41.7355
 20
-16.9901
 30
0.000000
  70
    32
  0
VERTEX
  8
SAPA_FOGBAND
  5
2E02
 10
-41.6551
 20
-16.8853
 30
0.000000
  70
    32
  0
VERTEX
  8
SAPA_FOGBAND
  5
2E03
 10
-41.5709
 20
-16.7857
 30
0.000000
  70
    32
  0
VERTEX
  8
SAPA_FOGBAND
  5
2E04
 10
-41.4829
 20
-16.6914
 30
0.000000
  70
    32
  0
VERTEX
  8
SAPA_FOGBAND
  5
2E05
 10
-41.3914
 20
-16.6027
 30
0.000000
  70
    32
  0
VERTEX
  8
SAPA_FOGBAND
  5
2E06
 10
-41.2966
 20
-16.5197
 30
0.000000
  70
    32
  0
VERTEX
  8
SAPA_FOGBAND
  5
2E07
 10
-41.1987
 20
-16.4427
 30
0.000000
  70
    32
  0
VERTEX
  8
SAPA_FOGBAND
  5
2E08
 10
-41.0979
 20
-16.3719
 30
0.000000
  70
    32
  0
VERTEX
  8
SAPA_FOGBAND
  5
2E09
 10
-40.9946
 20
-16.3074
 30
0.000000
  70
    32
  0
VERTEX
  8
SAPA_FOGBAND
  5
2E0A
 10
-40.8889
 20
-16.2494
 30
0.000000
  70
    32
  0
VERTEX
  8
SAPA_FOGBAND
  5
2E0B
 10
-40.7812
 20
-16.1981
 30
0.000000
  70
    32
  0
VERTEX
  8
SAPA_FOGBAND
  5
2E0C
 10
-40.6716
 20
-16.1534
 30
0.000000
  70
    32
  0
VERTEX
  8
SAPA_FOGBAND
  5
2E0D
 10
-40.5604
 20
-16.1157
 30
0.000000
  70
    32
  0
VERTEX
  8
SAPA_FOGBAND
  5
2E0E
 10
-40.4479
 20
-16.0849
 30
0.000000
  70
    32
  0
VERTEX
  8
SAPA_FOGBAND
  5
2E0F
 10
-40.3344
 20
-16.0611
 30
0.000000
  70
    32
  0
VERTEX
  8
SAPA_FOGBAND
  5
2E10
 10
-40.2202
 20
-16.0444
 30
0.000000
  70
    32
  0
VERTEX
  8
SAPA_FOGBAND
  5
2E11
 10
-40.1054
 20
-16.0348
 30
0.000000
  70
    32
  0
VERTEX
  8
SAPA_FOGBAND
  5
2E12
 10
-39.9905
 20
-16.0324
 30
0.000000
  70
    32
  0
VERTEX
  8
SAPA_FOGBAND
  5
2E13
 10
-39.8756
 20
-16.0371
 30
0.000000
  70
    32
  0
VERTEX
  8
SAPA_FOGBAND
  5
2E14
 10
-39.7610
 20
-16.0490
 30
0.000000
  70
    32
  0
VERTEX
  8
SAPA_FOGBAND
  5
2E15
 10
-39.6471
 20
-16.0679
 30
0.000000
  70
    32
  0
VERTEX
  8
SAPA_FOGBAND
  5
2E16
 10
-39.5341
 20
-16.0940
 30
0.000000
  70
    32
  0
VERTEX
  8
SAPA_FOGBAND
  5
2E17
 10
-39.4223
 20
-16.1270
 30
0.000000
  70
    32
  0
VERTEX
  8
SAPA_FOGBAND
  5
2E18
 10
-39.3119
 20
-16.1670
 30
0.000000
  70
    32
  0
VERTEX
  8
SAPA_FOGBAND
  5
2E19
 10
-39.2032
 20
-16.2138
 30
0.000000
  70
    32
  0
VERTEX
  8
SAPA_FOGBAND
  5
2E1A
 10
-39.0965
 20
-16.2673
 30
0.000000
  70
    32
  0
VERTEX
  8
SAPA_FOGBAND
  5
2E1B
 10
-38.9920
 20
-16.3274
 30
0.000000
  70
    32
  0
VERTEX
  8
SAPA_FOGBAND
  5
2E1C
 10
-38.8899
 20
-16.3939
 30
0.000000
  70
    32
  0
VERTEX
  8
SAPA_FOGBAND
  5
2E1D
 10
-38.7906
 20
-16.4667
 30
0.000000
  70
    32
  0
VERTEX
  8
SAPA_FOGBAND
  5
2E1E
 10
-38.6943
 20
-16.5456
 30
0.000000
  70
    32
  0
VERTEX
  8
SAPA_FOGBAND
  5
2E1F
 10
-38.6012
 20
-16.6304
 30
0.000000
  70
    32
  0
VERTEX
  8
SAPA_FOGBAND
  5
2E20
 10
-38.5114
 20
-16.7210
 30
0.000000
  70
    32
  0
VERTEX
  8
SAPA_FOGBAND
  5
2E21
 10
-38.4253
 20
-16.8170
 30
0.000000
  70
    32
  0
VERTEX
  8
SAPA_FOGBAND
  5
2E22
 10
-38.3431
 20
-16.9183
 30
0.000000
  70
    32
  0
VERTEX
  8
SAPA_FOGBAND
  5
2E23
 10
-38.2649
 20
-17.0246
 30
0.000000
  70
    32
  0
VERTEX
  8
SAPA_FOGBAND
  5
2E24
 10
-38.1909
 20
-17.1357
 30
0.000000
  70
    32
  0
VERTEX
  8
SAPA_FOGBAND
  5
2E25
 10
-38.1213
 20
-17.2513
 30
0.000000
  70
    32
  0
VERTEX
  8
SAPA_FOGBAND
  5
2E26
 10
-38.0563
 20
-17.3710
 30
0.000000
  70
    32
  0
VERTEX
  8
SAPA_FOGBAND
  5
2E27
 10
-37.9960
 20
-17.4947
 30
0.000000
  70
    32
  0
VERTEX
  8
SAPA_FOGBAND
  5
2E28
 10
-37.9406
 20
-17.6221
 30
0.000000
  70
    32
  0
VERTEX
  8
SAPA_FOGBAND
  5
2E29
 10
-37.8902
 20
-17.7527
 30
0.000000
  70
    32
  0
VERTEX
  8
SAPA_FOGBAND
  5
2E2A
 10
-37.8450
 20
-17.8864
 30
0.000000
  70
    32
  0
VERTEX
  8
SAPA_FOGBAND
  5
2E2B
 10
-37.8050
 20
-18.0227
 30
0.000000
  70
    32
  0
VERTEX
  8
SAPA_FOGBAND
  5
2E2C
 10
-37.7703
 20
-18.1614
 30
0.000000
  70
    32
  0
VERTEX
  8
SAPA_FOGBAND
  5
2E2D
 10
-37.7410
 20
-18.3022
 30
0.000000
  70
    32
  0
VERTEX
  8
SAPA_FOGBAND
  5
2E2E
 10
-37.7173
 20
-18.4446
 30
0.000000
  70
    32
  0
VERTEX
  8
SAPA_FOGBAND
  5
2E2F
 10
-37.6990
 20
-18.5883
 30
0.000000
  70
    32
  0
VERTEX
  8
SAPA_FOGBAND
  5
2E30
 10
-37.6864
 20
-18.7331
 30
0.000000
  70
    32
  0
VERTEX
  8
SAPA_FOGBAND
  5
2E31
 10
-37.6794
 20
-18.8785
 30
0.000000
  70
    32
  0
VERTEX
  8
SAPA_FOGBAND
  5
2E32
 10
-37.6780
 20
-19.0241
 30
0.000000
  70
    32
  0
VERTEX
  8
SAPA_FOGBAND
  5
2E33
 10
-37.6823
 20
-19.1698
 30
0.000000
  70
    32
  0
VERTEX
  8
SAPA_FOGBAND
  5
2E34
 10
-37.6922
 20
-19.3150
 30
0.000000
  70
    32
  0
VERTEX
  8
SAPA_FOGBAND
  5
2E35
 10
-37.7077
 20
-19.4595
 30
0.000000
  70
    32
  0
VERTEX
  8
SAPA_FOGBAND
  5
2E36
 10
-37.7288
 20
-19.6028
 30
0.000000
  70
    32
  0
VERTEX
  8
SAPA_FOGBAND
  5
2E37
 10
-37.7554
 20
-19.7447
 30
0.000000
  70
    32
  0
VERTEX
  8
SAPA_FOGBAND
  5
2E38
 10
-37.7874
 20
-19.8848
 30
0.000000
  70
    32
  0
VERTEX
  8
SAPA_FOGBAND
  5
2E39
 10
-37.8249
 20
-20.0228
 30
0.000000
  70
    32
  0
VERTEX
  8
SAPA_FOGBAND
  5
2E3A
 10
-37.8676
 20
-20.1583
 30
0.000000
  70
    32
  0
VERTEX
  8
SAPA_FOGBAND
  5
2E3B
 10
-37.9155
 20
-20.2911
 30
0.000000
  70
    32
  0
VERTEX
  8
SAPA_FOGBAND
  5
2E3C
 10
-37.9685
 20
-20.4207
 30
0.000000
  70
    32
  0
VERTEX
  8
SAPA_FOGBAND
  5
2E3D
 10
-38.0264
 20
-20.5469
 30
0.000000
  70
    32
  0
VERTEX
  8
SAPA_FOGBAND
  5
2E3E
 10
-38.0891
 20
-20.6694
 30
0.000000
  70
    32
  0
VERTEX
  8
SAPA_FOGBAND
  5
2E3F
 10
-38.1565
 20
-20.7879
 30
0.000000
  70
    32
  0
VERTEX
  8
SAPA_FOGBAND
  5
2E40
 10
-38.2284
 20
-20.9020
 30
0.000000
  70
    32
  0
VERTEX
  8
SAPA_FOGBAND
  5
2E41
 10
-38.3045
 20
-21.0116
 30
0.000000
  70
    32
  0
VERTEX
  8
SAPA_FOGBAND
  5
2E42
 10
-38.3849
 20
-21.1163
 30
0.000000
  70
    32
  0
VERTEX
  8
SAPA_FOGBAND
  5
2E43
 10
-38.4691
 20
-21.2160
 30
0.000000
  70
    32
  0
VERTEX
  8
SAPA_FOGBAND
  5
2E44
 10
-38.5571
 20
-21.3103
 30
0.000000
  70
    32
  0
VERTEX
  8
SAPA_FOGBAND
  5
2E45
 10
-38.6486
 20
-21.3990
 30
0.000000
  70
    32
  0
VERTEX
  8
SAPA_FOGBAND
  5
2E46
 10
-38.7434
 20
-21.4820
 30
0.000000
  70
    32
  0
VERTEX
  8
SAPA_FOGBAND
  5
2E47
 10
-38.8413
 20
-21.5589
 30
0.000000
  70
    32
  0
VERTEX
  8
SAPA_FOGBAND
  5
2E48
 10
-38.9421
 20
-21.6298
 30
0.000000
  70
    32
  0
VERTEX
  8
SAPA_FOGBAND
  5
2E49
 10
-39.0454
 20
-21.6942
 30
0.000000
  70
    32
  0
VERTEX
  8
SAPA_FOGBAND
  5
2E4A
 10
-39.1511
 20
-21.7522
 30
0.000000
  70
    32
  0
VERTEX
  8
SAPA_FOGBAND
  5
2E4B
 10
-39.2588
 20
-21.8036
 30
0.000000
  70
    32
  0
VERTEX
  8
SAPA_FOGBAND
  5
2E4C
 10
-39.3684
 20
-21.8482
 30
0.000000
  70
    32
  0
VERTEX
  8
SAPA_FOGBAND
  5
2E4D
 10
-39.4796
 20
-21.8860
 30
0.000000
  70
    32
  0
VERTEX
  8
SAPA_FOGBAND
  5
2E4E
 10
-39.5921
 20
-21.9168
 30
0.000000
  70
    32
  0
VERTEX
  8
SAPA_FOGBAND
  5
2E4F
 10
-39.7056
 20
-21.9406
 30
0.000000
  70
    32
  0
VERTEX
  8
SAPA_FOGBAND
  5
2E50
 10
-39.8198
 20
-21.9573
 30
0.000000
  70
    32
  0
VERTEX
  8
SAPA_FOGBAND
  5
2E51
 10
-39.9346
 20
-21.9668
 30
0.000000
  70
    32
  0
VERTEX
  8
SAPA_FOGBAND
  5
2E52
 10
-40.0495
 20
-21.9693
 30
0.000000
  70
    32
  0
SEQEND
  8
SAPA_FOGBAND
  5
2E53
  0
CIRCLE
  5
1BC0
  8
SAPA_FOGBAND
 10
-74.637568219765171
 20
18.629356795602689
 30
0.0
 40
0.2549509756796394
  0
INSERT
  5
1BC1
  8
SAPA_FOGBAND
  6
CONTINUOUS
  2
*U174
 10
0.0
 20
0.0
 30
0.0
1001
ACAD
1002
{
1000
R14_HATCH_DATA
1000
1BC1
1011
1.0
1021
0.0
1031
0.0
1021
0.0
1031
0.0
1011
0.0
1021
0.0
1031
0.0
1021
1.0
1031
0.0
1011
0.0
1021
0.0
1031
0.0
1021
0.0
1031
1.0
1040
0.0
1010
0.0
1020
0.0
1030
1.0
1000
SOLID
1070
     1
1070
     1
1071
        1
1071
        1
1071
        1
1070
     2
1040
-74.637568219765171
1040
18.629356795602689
1040
0.2549509756796394
1040
-1.5707963267948959
1040
4.7123889803846888
1070
     1
1071
        1
1005
1BC0
1070
     0
1070
     1
1071
        1
1040
-74.555716722436273
1040
18.866095697172788
1040
0.0
1002
}
  0
POLYLINE
  5
1BC2
  8
SAPA_FOGBAND
 66
     1
 10
0.0
 20
0.0
 30
0.0
 70
     1
  0
VERTEX
  5
2CD4
  8
SAPA_FOGBAND
 10
-77.599999999009697
 20
17.729356795602708
 30
0.0
 42
0.9999999999999998
  0
VERTEX
  5
2CD5
  8
SAPA_FOGBAND
 10
-77.599999999009697
 20
19.529356795602659
 30
0.0
  0
VERTEX
  5
2CD6
  8
SAPA_FOGBAND
 10
-78.199999999009705
 20
19.529356795602659
 30
0.0
 42
0.9999999999999998
  0
VERTEX
  5
2CD7
  8
SAPA_FOGBAND
 10
-78.199999999009705
 20
17.729356795602708
 30
0.0
  0
SEQEND
  5
2CD8
  8
SAPA_FOGBAND
  0
POLYLINE
  5
1BC3
  8
SAPA_FOGBAND
 66
     1
 10
0.0
 20
0.0
 30
0.0
 70
     1
  0
VERTEX
  5
2CD9
  8
SAPA_FOGBAND
 10
-72.499999999009674
 20
27.257233103775889
 30
0.0
 42
0.0775891054856093
  0
VERTEX
  5
2CDA
  8
SAPA_FOGBAND
 10
-72.816635983071023
 20
23.790451373353331
 30
0.0
  0
VERTEX
  5
2CDB
  8
SAPA_FOGBAND
 10
-72.59999999900964
 20
23.552561880524539
 30
0.0
 42
-0.5773502691896298
  0
VERTEX
  5
2CDC
  8
SAPA_FOGBAND
 10
-72.59999999900964
 20
23.206151719010681
 30
0.0
  0
VERTEX
  5
2CDD
  8
SAPA_FOGBAND
 10
-72.816909853232687
 20
22.968104102279881
 30
0.0
  0
VERTEX
  5
2CDE
  8
SAPA_FOGBAND
 10
-72.816909853232687
 20
22.190609492363251
 30
0.0
  0
VERTEX
  5
2CDF
  8
SAPA_FOGBAND
 10
-72.59999999900964
 20
21.95256188052451
 30
0.0
 42
-0.577350269189699
  0
VERTEX
  5
2CE0
  8
SAPA_FOGBAND
 10
-72.59999999900964
 20
21.606151719010771
 30
0.0
  0
VERTEX
  5
2CE1
  8
SAPA_FOGBAND
 10
-72.816909853232687
 20
21.368104102279968
 30
0.0
  0
VERTEX
  5
2CE2
  8
SAPA_FOGBAND
 10
-72.816909853232687
 20
20.590609492363232
 30
0.0
  0
VERTEX
  5
2CE3
  8
SAPA_FOGBAND
 10
-72.59999999900964
 20
20.35256188052449
 30
0.0
 42
-0.577350269189699
  0
VERTEX
  5
2CE4
  8
SAPA_FOGBAND
 10
-72.59999999900964
 20
20.006151719010742
 30
0.0
  0
VERTEX
  5
2CE5
  8
SAPA_FOGBAND
 10
-72.816909853232687
 20
19.768104102279949
 30
0.0
  0
VERTEX
  5
2CE6
  8
SAPA_FOGBAND
 10
-72.816909853232687
 20
18.990609492363198
 30
0.0
  0
VERTEX
  5
2CE7
  8
SAPA_FOGBAND
 10
-72.59999999900964
 20
18.752561880524581
 30
0.0
 42
-0.5773502691896298
  0
VERTEX
  5
2CE8
  8
SAPA_FOGBAND
 10
-72.59999999900964
 20
18.406151719010719
 30
0.0
  0
VERTEX
  5
2CE9
  8
SAPA_FOGBAND
 10
-72.816909853232687
 20
18.168104102279919
 30
0.0
  0
VERTEX
  5
2CEA
  8
SAPA_FOGBAND
 10
-72.816909853232687
 20
17.390609492363179
 30
0.0
  0
VERTEX
  5
2CEB
  8
SAPA_FOGBAND
 10
-72.59999999900964
 20
17.152561880524559
 30
0.0
 42
-0.5773502691896298
  0
VERTEX
  5
2CEC
  8
SAPA_FOGBAND
 10
-72.59999999900964
 20
16.8061517190107
 30
0.0
  0
VERTEX
  5
2CED
  8
SAPA_FOGBAND
 10
-72.816909853232687
 20
16.5681041022799
 30
0.0
  0
VERTEX
  5
2CEE
  8
SAPA_FOGBAND
 10
-72.816909853232687
 20
15.790609488198241
 30
0.0
  0
VERTEX
  5
2CEF
  8
SAPA_FOGBAND
 10
-72.59999999900964
 20
15.552561876359499
 30
0.0
 42
-0.577350269189699
  0
VERTEX
  5
2CF0
  8
SAPA_FOGBAND
 10
-72.59999999900964
 20
15.20615171484576
 30
0.0
  0
VERTEX
  5
2CF1
  8
SAPA_FOGBAND
 10
-73.673330067494135
 20
14.40615171529066
 30
0.0
 42
-0.1316524987190269
  0
VERTEX
  5
2CF2
  8
SAPA_FOGBAND
 10
-73.773330068264841
 20
14.379356795602691
 30
0.0
  0
VERTEX
  5
2CF3
  8
SAPA_FOGBAND
 10
-76.299999999009628
 20
14.37935679560257
 30
0.0
 42
-0.4142135623730951
  0
VERTEX
  5
2CF4
  8
SAPA_FOGBAND
 10
-76.499999999009674
 20
14.579356795602621
 30
0.0
  0
VERTEX
  5
2CF5
  8
SAPA_FOGBAND
 10
-76.499999999009674
 20
16.629356795602689
 30
0.0
 42
0.4142135623730951
  0
VERTEX
  5
2CF6
  8
SAPA_FOGBAND
 10
-76.999999999009674
 20
17.129356795602689
 30
0.0
  0
VERTEX
  5
2CF7
  8
SAPA_FOGBAND
 10
-77.726794918252835
 20
17.129356795602689
 30
0.0
  0
VERTEX
  5
2CF8
  8
SAPA_FOGBAND
 10
-77.794254827563236
 20
16.877592986582162
 30
0.0
 42
-0.4740571810232869
  0
VERTEX
  5
2CF9
  8
SAPA_FOGBAND
 10
-78.076537413201891
 20
16.7502991242186
 30
0.0
  0
VERTEX
  5
2CFA
  8
SAPA_FOGBAND
 10
-79.52274354996166
 20
17.370399626977129
 30
0.0
 42
-0.2846003776495916
  0
VERTEX
  5
2CFB
  8
SAPA_FOGBAND
 10
-79.799999999009628
 20
17.818043805437348
 30
0.0
  0
VERTEX
  5
2CFC
  8
SAPA_FOGBAND
 10
-79.799999999009628
 20
19.440669785767909
 30
0.0
 42
-0.2846003776495917
  0
VERTEX
  5
2CFD
  8
SAPA_FOGBAND
 10
-79.52274354996166
 20
19.888313964228129
 30
0.0
  0
VERTEX
  5
2CFE
  8
SAPA_FOGBAND
 10
-78.076537413201891
 20
20.508414466986672
 30
0.0
 42
-0.4740571810232869
  0
VERTEX
  5
2CFF
  8
SAPA_FOGBAND
 10
-77.794254827563236
 20
20.38112060462311
 30
0.0
  0
VERTEX
  5
2D00
  8
SAPA_FOGBAND
 10
-77.726794918252835
 20
20.129356795602689
 30
0.0
  0
VERTEX
  5
2D01
  8
SAPA_FOGBAND
 10
-76.999999999009674
 20
20.129356795602689
 30
0.0
 42
0.4142135623730951
  0
VERTEX
  5
2D02
  8
SAPA_FOGBAND
 10
-76.499999999009674
 20
20.629356795602689
 30
0.0
  0
VERTEX
  5
2D03
  8
SAPA_FOGBAND
 10
-76.499999999009674
 20
23.679356795602651
 30
0.0
 42
0.4142135623730951
  0
VERTEX
  5
2D04
  8
SAPA_FOGBAND
 10
-76.699999999009719
 20
23.879356795602689
 30
0.0
  0
VERTEX
  5
2D05
  8
SAPA_FOGBAND
 10
-77.599999999009697
 20
23.879356795602568
 30
0.0
 42
-0.4142135623731784
  0
VERTEX
  5
2D06
  8
SAPA_FOGBAND
 10
-77.799999999009628
 20
24.079356795602621
 30
0.0
  0
VERTEX
  5
2D07
  8
SAPA_FOGBAND
 10
-77.799999999009742
 20
24.77935679560267
 30
0.0
 42
-0.4142135623730398
  0
VERTEX
  5
2D08
  8
SAPA_FOGBAND
 10
-77.499999999009674
 20
25.079356795602621
 30
0.0
  0
VERTEX
  5
2D09
  8
SAPA_FOGBAND
 10
-76.689488222358136
 20
25.079356795602621
 30
0.0
 42
0.1316524975873973
  0
VERTEX
  5
2D0A
  8
SAPA_FOGBAND
 10
-75.689488222358136
 20
25.347305988033781
 30
0.0
  0
VERTEX
  5
2D0B
  8
SAPA_FOGBAND
 10
-73.099920230266207
 20
30.51015113807421
 30
0.0
 42
-0.7057658529986604
  0
VERTEX
  5
2D0C
  8
SAPA_FOGBAND
 10
-72.499999999009674
 20
30.242557962715871
 30
0.0
  0
SEQEND
  5
2D0D
  8
SAPA_FOGBAND
  0
POLYLINE
  5
1BC4
  8
SAPA_FOGBAND
 66
     1
 10
0.0
 20
0.0
 30
0.0
 70
     1
  0
VERTEX
  5
2D0E
  8
SAPA_FOGBAND
 10
-56.085369502363697
 20
18.849999999998921
 30
0.0
 42
-0.9999999999999998
  0
VERTEX
  5
2D0F
  8
SAPA_FOGBAND
 10
-56.085369502363697
 20
20.649999999998929
 30
0.0
  0
VERTEX
  5
2D10
  8
SAPA_FOGBAND
 10
-55.485369502363682
 20
20.649999999998929
 30
0.0
 42
-0.9999999999999998
  0
VERTEX
  5
2D11
  8
SAPA_FOGBAND
 10
-55.485369502363682
 20
18.849999999998921
 30
0.0
  0
SEQEND
  5
2D12
  8
SAPA_FOGBAND
  0
POLYLINE
  5
1BC5
  8
SAPA_FOGBAND
 66
     1
 10
0.0
 20
0.0
 30
0.0
  0
VERTEX
  5
2D13
  8
SAPA_FOGBAND
 10
-57.700000000002511
 20
23.349999999998921
 30
0.0
  0
VERTEX
  5
2D14
  8
SAPA_FOGBAND
 10
-57.40000000000245
 20
23.349999999998921
 30
0.0
  0
VERTEX
  5
2D15
  8
SAPA_FOGBAND
 10
-57.700000000002511
 20
23.349999999998921
 30
0.0
 42
0.4142135623730951
  0
VERTEX
  5
2D16
  8
SAPA_FOGBAND
 10
-58.200000000002518
 20
22.849999999998921
 30
0.0
  0
VERTEX
  5
2D17
  8
SAPA_FOGBAND
 10
-58.200000000002518
 20
15.54999999999896
 30
0.0
 42
0.4142135623730951
  0
VERTEX
  5
2D18
  8
SAPA_FOGBAND
 10
-57.700000000002511
 20
15.04999999999897
 30
0.0
  0
VERTEX
  5
2D19
  8
SAPA_FOGBAND
 10
-57.40000000000245
 20
15.04999999999897
 30
0.0
  0
SEQEND
  5
2D1A
  8
SAPA_FOGBAND
  0
POLYLINE
  5
1BC6
  8
SAPA_FOGBAND
 66
     1
 10
0.0
 20
0.0
 30
0.0
 70
     1
  0
VERTEX
  5
2D1B
  8
SAPA_FOGBAND
 10
-62.000000000002451
 20
16.69828489029527
 30
0.0
  0
VERTEX
  5
2D1C
  8
SAPA_FOGBAND
 10
-62.000000000002451
 20
19.792928999621111
 30
0.0
 42
1.131447007421658
  0
VERTEX
  5
2D1D
  8
SAPA_FOGBAND
 10
-64.881531792787939
 20
19.792928999621111
 30
0.0
  0
VERTEX
  5
2D1E
  8
SAPA_FOGBAND
 10
-64.881531792787939
 20
16.69828489029527
 30
0.0
 42
1.055323794898902
  0
SEQEND
  5
2D1F
  8
SAPA_FOGBAND
  0
POLYLINE
  5
1BC7
  8
SAPA_FOGBAND
 66
     1
 10
0.0
 20
0.0
 30
0.0
 70
     1
  0
VERTEX
  5
2D20
  8
SAPA_FOGBAND
 10
-63.836054126748103
 20
7.4669545511759781
 30
0.0
 42
-0.6437791070978962
  0
VERTEX
  5
2D21
  8
SAPA_FOGBAND
 10
-64.894698620709832
 20
7.4778793736091203
 30
0.0
  0
VERTEX
  5
2D22
  8
SAPA_FOGBAND
 10
-65.458441624632584
 20
11.453739366973769
 30
0.0
 42
-0.4459602482749359
  0
VERTEX
  5
2D23
  8
SAPA_FOGBAND
 10
-64.563604270400219
 20
12.449999999998971
 30
0.0
  0
VERTEX
  5
2D24
  8
SAPA_FOGBAND
 10
-62.340292945535509
 20
12.449999999998971
 30
0.0
 42
-0.6245270939358744
  0
VERTEX
  5
2D25
  8
SAPA_FOGBAND
 10
-61.630537971724813
 20
10.99660332748376
 30
0.0
  0
SEQEND
  5
2D26
  8
SAPA_FOGBAND
  0
POLYLINE
  5
1BC8
  8
SAPA_FOGBAND
 66
     1
 10
0.0
 20
0.0
 30
0.0
 70
     1
  0
VERTEX
  5
2D27
  8
SAPA_FOGBAND
 10
-55.958574583120573
 20
18.249999999998948
 30
0.0
  0
VERTEX
  5
2D28
  8
SAPA_FOGBAND
 10
-55.891114673810158
 20
17.998236190978481
 30
0.0
 42
0.4740571810232144
  0
VERTEX
  5
2D29
  8
SAPA_FOGBAND
 10
-55.608832088171511
 20
17.870942328614859
 30
0.0
  0
VERTEX
  5
2D2A
  8
SAPA_FOGBAND
 10
-54.16262595141162
 20
18.491042831373449
 30
0.0
 42
0.2846003776496053
  0
VERTEX
  5
2D2B
  8
SAPA_FOGBAND
 10
-53.885369502363659
 20
18.938687009833622
 30
0.0
  0
VERTEX
  5
2D2C
  8
SAPA_FOGBAND
 10
-53.885369502363659
 20
20.561312990164229
 30
0.0
 42
0.2846003776496027
  0
VERTEX
  5
2D2D
  8
SAPA_FOGBAND
 10
-54.16262595141162
 20
21.008957168624399
 30
0.0
  0
VERTEX
  5
2D2E
  8
SAPA_FOGBAND
 10
-55.60883208817156
 20
21.629057671382991
 30
0.0
 42
0.4740571810232332
  0
VERTEX
  5
2D2F
  8
SAPA_FOGBAND
 10
-55.891114673810158
 20
21.50176380901943
 30
0.0
  0
VERTEX
  5
2D30
  8
SAPA_FOGBAND
 10
-55.958574583120573
 20
21.249999999998959
 30
0.0
  0
VERTEX
  5
2D31
  8
SAPA_FOGBAND
 10
-56.90000000000245
 20
21.249999999998959
 30
0.0
 42
-0.4142135623730951
  0
VERTEX
  5
2D32
  8
SAPA_FOGBAND
 10
-57.40000000000245
 20
21.749999999998948
 30
0.0
  0
VERTEX
  5
2D33
  8
SAPA_FOGBAND
 10
-57.4000000000025
 20
24.262160163380411
 30
0.0
 42
0.4027293761437467
  0
VERTEX
  5
2D34
  8
SAPA_FOGBAND
 10
-57.688192637471822
 20
24.561927716978271
 30
0.0
  0
VERTEX
  5
2D35
  8
SAPA_FOGBAND
 10
-66.188192637471843
 20
25.049767531647699
 30
0.0
 42
0.4257917699693538
  0
VERTEX
  5
2D36
  8
SAPA_FOGBAND
 10
-66.500000000002501
 20
24.749999978049839
 30
0.0
  0
VERTEX
  5
2D37
  8
SAPA_FOGBAND
 10
-66.500000000002501
 20
11.044466318825959
 30
0.0
  0
VERTEX
  5
2D38
  8
SAPA_FOGBAND
 10
-65.72346508231989
 20
5.4413247210990887
 30
0.0
 42
0.322530093016903
  0
VERTEX
  5
2D39
  8
SAPA_FOGBAND
 10
-64.729387777213915
 20
4.7499999780498214
 30
0.0
  0
VERTEX
  5
2D3A
  8
SAPA_FOGBAND
 10
-64.398644220776333
 20
4.7499999780498214
 30
0.0
 42
0.2325311832130604
  0
VERTEX
  5
2D3B
  8
SAPA_FOGBAND
 10
-64.002703356694525
 20
4.9446627347430399
 30
0.0
  0
VERTEX
  5
2D3C
  8
SAPA_FOGBAND
 10
-57.608118271838997
 20
14.11122596265054
 30
0.0
 42
0.1657205760184606
  0
VERTEX
  5
2D3D
  8
SAPA_FOGBAND
 10
-57.40000000000245
 20
14.72190044926416
 30
0.0
  0
VERTEX
  5
2D3E
  8
SAPA_FOGBAND
 10
-57.40000000000245
 20
17.749999999998948
 30
0.0
 42
-0.4142135623730951
  0
VERTEX
  5
2D3F
  8
SAPA_FOGBAND
 10
-56.90000000000245
 20
18.249999999998948
 30
0.0
  0
SEQEND
  5
2D40
  8
SAPA_FOGBAND
  0
POLYLINE
  5
1BC9
  8
SAPA_FOGBAND
 66
     1
 10
0.0
 20
0.0
 30
0.0
 70
     1
  0
VERTEX
  5
2D41
  8
SAPA_FOGBAND
 10
-33.116472319729162
 20
-185.0386588254168
 30
0.0
 42
-0.4142135623730951
  0
VERTEX
  5
2D42
  8
SAPA_FOGBAND
 10
-32.116472319729162
 20
-186.0386588254168
 30
0.0
  0
VERTEX
  5
2D43
  8
SAPA_FOGBAND
 10
-32.116472319729162
 20
-187.23865882541691
 30
0.0
 42
0.4142135623730951
  0
VERTEX
  5
2D44
  8
SAPA_FOGBAND
 10
-31.81647231972898
 20
-187.5386588254168
 30
0.0
  0
VERTEX
  5
2D45
  8
SAPA_FOGBAND
 10
-30.91647231972911
 20
-187.5386588254168
 30
0.0
  0
VERTEX
  5
2D46
  8
SAPA_FOGBAND
 10
-30.91647231972911
 20
-187.1886588254167
 30
0.0
 42
-0.6681786379193472
  0
VERTEX
  5
2D47
  8
SAPA_FOGBAND
 10
-30.40434028537311
 20
-186.97652679106091
 30
0.0
  0
VERTEX
  5
2D48
  8
SAPA_FOGBAND
 10
-29.55078689477978
 20
-187.8300801816541
 30
0.0
 42
-0.1989123673796526
  0
VERTEX
  5
2D49
  8
SAPA_FOGBAND
 10
-29.31647231972898
 20
-188.39576560660339
 30
0.0
  0
VERTEX
  5
2D4A
  8
SAPA_FOGBAND
 10
-29.31647231972898
 20
-188.55846072902321
 30
0.0
 42
-0.3394542588633746
  0
VERTEX
  5
2D4B
  8
SAPA_FOGBAND
 10
-29.53882660619843
 20
-188.8482384769099
 30
0.0
  0
VERTEX
  5
2D4C
  8
SAPA_FOGBAND
 10
-30.894118033259929
 20
-189.2113877202998
 30
0.0
 42
0.3394542588633744
  0
VERTEX
  5
2D4D
  8
SAPA_FOGBAND
 10
-31.116472319729159
 20
-189.5011654681866
 30
0.0
  0
VERTEX
  5
2D4E
  8
SAPA_FOGBAND
 10
-31.116472319729159
 20
-192.07615218264701
 30
0.0
 42
0.3394542588633746
  0
VERTEX
  5
2D4F
  8
SAPA_FOGBAND
 10
-30.894118033259929
 20
-192.36592993053381
 30
0.0
  0
VERTEX
  5
2D50
  8
SAPA_FOGBAND
 10
-29.53882660619843
 20
-192.72907917392371
 30
0.0
 42
-0.3394542588633747
  0
VERTEX
  5
2D51
  8
SAPA_FOGBAND
 10
-29.31647231972898
 20
-193.01885692181051
 30
0.0
  0
VERTEX
  5
2D52
  8
SAPA_FOGBAND
 10
-29.31647231972898
 20
-193.1815520442303
 30
0.0
 42
-0.1989123673796526
  0
VERTEX
  5
2D53
  8
SAPA_FOGBAND
 10
-29.55078689477978
 20
-193.74723746917971
 30
0.0
  0
VERTEX
  5
2D54
  8
SAPA_FOGBAND
 10
-30.40434028537311
 20
-194.60079085977279
 30
0.0
 42
-0.6681786379193474
  0
VERTEX
  5
2D55
  8
SAPA_FOGBAND
 10
-30.91647231972911
 20
-194.388658825417
 30
0.0
  0
VERTEX
  5
2D56
  8
SAPA_FOGBAND
 10
-30.91647231972911
 20
-194.0386588254168
 30
0.0
  0
VERTEX
  5
2D57
  8
SAPA_FOGBAND
 10
-31.81647231972898
 20
-194.0386588254168
 30
0.0
 42
0.4142135623730951
  0
VERTEX
  5
2D58
  8
SAPA_FOGBAND
 10
-32.116472319729162
 20
-194.33865882541679
 30
0.0
  0
VERTEX
  5
2D59
  8
SAPA_FOGBAND
 10
-32.116472319729162
 20
-196.43865882541689
 30
0.0
 42
0.4142135623730951
  0
VERTEX
  5
2D5A
  8
SAPA_FOGBAND
 10
-31.81647231972898
 20
-196.73865882541691
 30
0.0
  0
VERTEX
  5
2D5B
  8
SAPA_FOGBAND
 10
-30.41647231972911
 20
-196.73865882541691
 30
0.0
 42
-0.7754026414785753
  0
VERTEX
  5
2D5C
  8
SAPA_FOGBAND
 10
-30.27176445142322
 20
-197.30145082082461
 30
0.0
  0
VERTEX
  5
2D5D
  8
SAPA_FOGBAND
 10
-36.099363462661358
 20
-200.82115333137
 30
0.0
 42
-0.8680589103334742
  0
VERTEX
  5
2D5E
  8
SAPA_FOGBAND
 10
-36.456203365323063
 20
-200.3462293016064
 30
0.0
  0
VERTEX
  5
2D5F
  8
SAPA_FOGBAND
 10
-33.909365538542488
 20
-197.00653955249999
 30
0.0
 42
0.198912367379658
  0
VERTEX
  5
2D60
  8
SAPA_FOGBAND
 10
-33.616472319729162
 20
-196.29943277131341
 30
0.0
  0
VERTEX
  5
2D61
  8
SAPA_FOGBAND
 10
-33.616472319729162
 20
-193.46611380689359
 30
0.0
 42
0.5773502691896282
  0
VERTEX
  5
2D62
  8
SAPA_FOGBAND
 10
-34.066472319728973
 20
-193.20630618575839
 30
0.0
  0
VERTEX
  5
2D63
  8
SAPA_FOGBAND
 10
-36.090263928720098
 20
-194.71408923412471
 30
0.0
 42
-0.8769764629927299
  0
VERTEX
  5
2D64
  8
SAPA_FOGBAND
 10
-36.452395963076242
 20
-194.24214957863339
 30
0.0
  0
VERTEX
  5
2D65
  8
SAPA_FOGBAND
 10
-33.909365538542488
 20
-190.90626723177411
 30
0.0
 42
0.198912367379658
  0
VERTEX
  5
2D66
  8
SAPA_FOGBAND
 10
-33.616472319729162
 20
-190.19916045058741
 30
0.0
  0
VERTEX
  5
2D67
  8
SAPA_FOGBAND
 10
-33.616472319729162
 20
-187.96688608836581
 30
0.0
 42
0.5773502691896282
  0
VERTEX
  5
2D68
  8
SAPA_FOGBAND
 10
-34.066472319728973
 20
-187.7070784672305
 30
0.0
  0
VERTEX
  5
2D69
  8
SAPA_FOGBAND
 10
-36.089395175539721
 20
-189.2143599407143
 30
0.0
 42
-0.8769764629927299
  0
VERTEX
  5
2D6A
  8
SAPA_FOGBAND
 10
-36.451527209895858
 20
-188.74242028522301
 30
0.0
  0
VERTEX
  5
2D6B
  8
SAPA_FOGBAND
 10
-33.833510891228798
 20
-185.33155204423039
 30
0.0
 42
-0.198912367379658
  0
VERTEX
  5
2D6C
  8
SAPA_FOGBAND
 10
-33.126404110042358
 20
-185.0386588254168
 30
0.0
  0
SEQEND
  5
2D6D
  8
SAPA_FOGBAND
  0
POLYLINE
  5
1BCA
  8
SAPA_FOGBAND
 66
     1
 10
0.0
 20
0.0
 30
0.0
 70
     1
  0
VERTEX
  5
2D6E
  8
SAPA_FOGBAND
 10
-61.606811231186391
 20
-184.98044437175301
 30
0.0
 42
0.4142135623730951
  0
VERTEX
  5
2D6F
  8
SAPA_FOGBAND
 10
-62.606811231186377
 20
-185.98044437175301
 30
0.0
  0
VERTEX
  5
2D70
  8
SAPA_FOGBAND
 10
-62.606811231186377
 20
-187.180444371753
 30
0.0
 42
-0.4142135623730951
  0
VERTEX
  5
2D71
  8
SAPA_FOGBAND
 10
-62.906811231186559
 20
-187.4804443717529
 30
0.0
  0
VERTEX
  5
2D72
  8
SAPA_FOGBAND
 10
-63.80681123118643
 20
-187.4804443717529
 30
0.0
  0
VERTEX
  5
2D73
  8
SAPA_FOGBAND
 10
-63.80681123118643
 20
-187.13044437175279
 30
0.0
 42
0.6681786379193472
  0
VERTEX
  5
2D74
  8
SAPA_FOGBAND
 10
-64.318943265542416
 20
-186.918312337397
 30
0.0
  0
VERTEX
  5
2D75
  8
SAPA_FOGBAND
 10
-65.172496656135763
 20
-187.77186572799019
 30
0.0
 42
0.1989123673796526
  0
VERTEX
  5
2D76
  8
SAPA_FOGBAND
 10
-65.406811231186566
 20
-188.33755115293951
 30
0.0
  0
VERTEX
  5
2D77
  8
SAPA_FOGBAND
 10
-65.406811231186566
 20
-188.5002462753593
 30
0.0
 42
0.3394542588633746
  0
VERTEX
  5
2D78
  8
SAPA_FOGBAND
 10
-65.184456944717112
 20
-188.79002402324599
 30
0.0
  0
VERTEX
  5
2D79
  8
SAPA_FOGBAND
 10
-63.829165517655838
 20
-189.153173266636
 30
0.0
 42
-0.3394542588633744
  0
VERTEX
  5
2D7A
  8
SAPA_FOGBAND
 10
-63.606811231186377
 20
-189.44295101452269
 30
0.0
  0
VERTEX
  5
2D7B
  8
SAPA_FOGBAND
 10
-63.606811231186377
 20
-192.01793772898321
 30
0.0
 42
-0.3394542588633746
  0
VERTEX
  5
2D7C
  8
SAPA_FOGBAND
 10
-63.829165517655838
 20
-192.30771547686999
 30
0.0
  0
VERTEX
  5
2D7D
  8
SAPA_FOGBAND
 10
-65.184456944717112
 20
-192.67086472025991
 30
0.0
 42
0.3394542588633747
  0
VERTEX
  5
2D7E
  8
SAPA_FOGBAND
 10
-65.406811231186566
 20
-192.9606424681466
 30
0.0
  0
VERTEX
  5
2D7F
  8
SAPA_FOGBAND
 10
-65.406811231186566
 20
-193.12333759056639
 30
0.0
 42
0.1989123673796526
  0
VERTEX
  5
2D80
  8
SAPA_FOGBAND
 10
-65.172496656135763
 20
-193.6890230155158
 30
0.0
  0
VERTEX
  5
2D81
  8
SAPA_FOGBAND
 10
-64.318943265542416
 20
-194.54257640610891
 30
0.0
 42
0.6681786379193474
  0
VERTEX
  5
2D82
  8
SAPA_FOGBAND
 10
-63.80681123118643
 20
-194.33044437175309
 30
0.0
  0
VERTEX
  5
2D83
  8
SAPA_FOGBAND
 10
-63.80681123118643
 20
-193.98044437175301
 30
0.0
  0
VERTEX
  5
2D84
  8
SAPA_FOGBAND
 10
-62.906811231186559
 20
-193.98044437175301
 30
0.0
 42
-0.4142135623730951
  0
VERTEX
  5
2D85
  8
SAPA_FOGBAND
 10
-62.606811231186377
 20
-194.28044437175291
 30
0.0
  0
VERTEX
  5
2D86
  8
SAPA_FOGBAND
 10
-62.606811231186377
 20
-196.3804443717531
 30
0.0
 42
-0.4142135623730951
  0
VERTEX
  5
2D87
  8
SAPA_FOGBAND
 10
-62.906811231186559
 20
-196.680444371753
 30
0.0
  0
VERTEX
  5
2D88
  8
SAPA_FOGBAND
 10
-64.306811231186657
 20
-196.680444371753
 30
0.0
 42
0.7754026414785753
  0
VERTEX
  5
2D89
  8
SAPA_FOGBAND
 10
-64.451519099492543
 20
-197.2432363671607
 30
0.0
  0
VERTEX
  5
2D8A
  8
SAPA_FOGBAND
 10
-59.068413326906459
 20
-200.76293887770609
 30
0.0
 42
0.8680589103334742
  0
VERTEX
  5
2D8B
  8
SAPA_FOGBAND
 10
-58.711573424244762
 20
-200.28801484794249
 30
0.0
  0
VERTEX
  5
2D8C
  8
SAPA_FOGBAND
 10
-60.813918012373051
 20
-196.94832509883611
 30
0.0
 42
-0.198912367379658
  0
VERTEX
  5
2D8D
  8
SAPA_FOGBAND
 10
-61.106811231186377
 20
-196.2412183176495
 30
0.0
  0
VERTEX
  5
2D8E
  8
SAPA_FOGBAND
 10
-61.106811231186377
 20
-193.40789935322971
 30
0.0
 42
-0.5773502691896282
  0
VERTEX
  5
2D8F
  8
SAPA_FOGBAND
 10
-60.656811231186573
 20
-193.14809173209451
 30
0.0
  0
VERTEX
  5
2D90
  8
SAPA_FOGBAND
 10
-59.077512860847719
 20
-194.65587478046081
 30
0.0
 42
0.8769764629927299
  0
VERTEX
  5
2D91
  8
SAPA_FOGBAND
 10
-58.715380826491582
 20
-194.18393512496951
 30
0.0
  0
VERTEX
  5
2D92
  8
SAPA_FOGBAND
 10
-60.813918012373051
 20
-190.8480527781102
 30
0.0
 42
-0.198912367379658
  0
VERTEX
  5
2D93
  8
SAPA_FOGBAND
 10
-61.106811231186377
 20
-190.14094599692351
 30
0.0
  0
VERTEX
  5
2D94
  8
SAPA_FOGBAND
 10
-61.106811231186377
 20
-187.90867163470199
 30
0.0
 42
-0.5773502691896282
  0
VERTEX
  5
2D95
  8
SAPA_FOGBAND
 10
-60.656811231186573
 20
-187.64886401356659
 30
0.0
  0
VERTEX
  5
2D96
  8
SAPA_FOGBAND
 10
-59.07838161402811
 20
-189.1561454870504
 30
0.0
 42
0.8769764629927299
  0
VERTEX
  5
2D97
  8
SAPA_FOGBAND
 10
-58.71624957967196
 20
-188.6842058315591
 30
0.0
  0
VERTEX
  5
2D98
  8
SAPA_FOGBAND
 10
-60.889772659686741
 20
-185.27333759056651
 30
0.0
 42
0.198912367379658
  0
VERTEX
  5
2D99
  8
SAPA_FOGBAND
 10
-61.596879440873181
 20
-184.98044437175301
 30
0.0
  0
SEQEND
  5
2D9A
  8
SAPA_FOGBAND
  0
POLYLINE
  5
1BCB
  8
SAPA_FOGBAND
 66
     1
 10
0.0
 20
0.0
 30
0.0
 70
     1
  0
VERTEX
  5
2D9B
  8
SAPA_FOGBAND
 10
13.03135018525716
 20
-28.54327186283502
 30
0.0
  0
VERTEX
  5
2D9C
  8
SAPA_FOGBAND
 10
10.19803122083743
 20
-28.54327186283502
 30
0.0
 42
-0.577350269189628
  0
VERTEX
  5
2D9D
  8
SAPA_FOGBAND
 10
9.9382235997019777
 20
-28.093271862834971
 30
0.0
  0
VERTEX
  5
2D9E
  8
SAPA_FOGBAND
 10
12.079937810186941
 20
-25.436922365991109
 30
0.0
 42
0.8769764629927237
  0
VERTEX
  5
2D9F
  8
SAPA_FOGBAND
 10
11.60799815469567
 20
-25.074790331635199
 30
0.0
  0
VERTEX
  5
2DA0
  8
SAPA_FOGBAND
 10
7.638184645717665
 20
-28.250378644021449
 30
0.0
 42
-0.1989123673796493
  0
VERTEX
  5
2DA1
  8
SAPA_FOGBAND
 10
6.9310778645312263
 20
-28.54327186283502
 30
0.0
  0
VERTEX
  5
2DA2
  8
SAPA_FOGBAND
 10
5.1801217350966837
 20
-28.54327186283502
 30
0.0
 42
-0.577350269189628
  0
VERTEX
  5
2DA3
  8
SAPA_FOGBAND
 10
4.920314113961461
 20
-28.093271862834971
 30
0.0
  0
VERTEX
  5
2DA4
  8
SAPA_FOGBAND
 10
7.0013621654414857
 20
-25.4377911191715
 30
0.0
 42
0.8769764629928424
  0
VERTEX
  5
2DA5
  8
SAPA_FOGBAND
 10
6.5294225099502166
 20
-25.07565908481558
 30
0.0
  0
VERTEX
  5
2DA6
  8
SAPA_FOGBAND
 10
2.0634694581739761
 20
-29.32623329133537
 30
0.0
 42
0.1989123673796579
  0
VERTEX
  5
2DA7
  8
SAPA_FOGBAND
 10
1.770576239360643
 20
-30.03334007252181
 30
0.0
  0
VERTEX
  5
2DA8
  8
SAPA_FOGBAND
 10
1.770576239360643
 20
-30.04327186283501
 30
0.0
 42
0.4142135623730951
  0
VERTEX
  5
2DA9
  8
SAPA_FOGBAND
 10
2.770576239360643
 20
-31.04327186283502
 30
0.0
  0
VERTEX
  5
2DAA
  8
SAPA_FOGBAND
 10
10.00556874012789
 20
-32.207356461958511
 30
0.0
 42
0.6261632875160376
  0
VERTEX
  5
2DAB
  8
SAPA_FOGBAND
 10
10.31542566864657
 20
-31.765389658532179
 30
0.0
  0
VERTEX
  5
2DAC
  8
SAPA_FOGBAND
 10
10.16178767385775
 20
-31.489048012546061
 30
0.0
 42
-0.5719685712689121
  0
VERTEX
  5
2DAD
  8
SAPA_FOGBAND
 10
10.42398857808114
 20
-31.043271862835251
 30
0.0
  0
VERTEX
  5
2DAE
  8
SAPA_FOGBAND
 10
13.1705762393605
 20
-31.04327186283502
 30
0.0
 42
-0.4142135623730118
  0
VERTEX
  5
2DAF
  8
SAPA_FOGBAND
 10
13.470576239360691
 20
-31.343271862834971
 30
0.0
  0
VERTEX
  5
2DB0
  8
SAPA_FOGBAND
 10
13.47057623936046
 20
-32.743271862835059
 30
0.0
 42
0.7754026414785753
  0
VERTEX
  5
2DB1
  8
SAPA_FOGBAND
 10
14.033368234768369
 20
-32.887979731140952
 30
0.0
  0
VERTEX
  5
2DB2
  8
SAPA_FOGBAND
 10
18.187001907432201
 20
-25.42782283205009
 30
0.0
 42
0.8680589103333867
  0
VERTEX
  5
2DB3
  8
SAPA_FOGBAND
 10
17.712077877668431
 20
-25.070982929388151
 30
0.0
  0
VERTEX
  5
2DB4
  8
SAPA_FOGBAND
 10
13.7384569664436
 20
-28.25037864402146
 30
0.0
 42
-0.1989123673796493
  0
SEQEND
  5
2DB5
  8
SAPA_FOGBAND
  0
DIMENSION
  5
1BD4
  8
SAPA_MATT
  2
*D159
 10
-115.35507693445371
 20
-25.043271862835461
 30
0.0
 11
-117.85507693445371
 21
-56.793271862555692
 31
0.0
 70
     0
 13
-67.229423760639293
 23
-88.543271862275915
 33
0.0
 14
-81.829425158612935
 24
-25.043271862835471
 34
0.0
 50
270.0
1001
ACAD
1000
DSTYLE
1002
{
1070
    40
1040
1.0
1002
}
  0
DIMENSION
  5
1BD5
  8
SAPA_MATT
  2
*D158
 10
-115.35507693445381
 20
-196.5432718622757
 30
0.0
 11
-117.85507693445371
 21
-157.5432718622757
 31
0.0
 70
     0
 13
-68.11521068157856
 23
-118.5432718622756
 33
0.0
 14
-67.029424243951453
 24
-196.5432718622757
 34
0.0
 50
270.0
1001
ACAD
1000
DSTYLE
1002
{
1070
   287
1070
     4
1070
    40
1040
1.0
1070
   279
1070
     1
1002
}
  0
DIMENSION
  5
1BD6
  8
SAPA_MATT
  2
*D157
 10
-115.35507693445371
 20
-118.5432718622756
 30
0.0
 11
-117.85507693445371
 21
-103.5432718622758
 31
0.0
 70
     0
 13
-67.229423760639293
 23
-88.543271862275915
 33
0.0
 14
-68.115210681578532
 24
-118.5432718622756
 34
0.0
 50
270.0
1001
ACAD
1000
DSTYLE
1002
{
1070
   287
1070
     4
1070
    40
1040
1.0
1070
   279
1070
     1
1002
}
  0
DIMENSION
  5
1BD7
  8
SAPA_MATT
  2
*D156
 10
-115.3256531728245
 20
-25.00000000000032
 30
0.0
 11
-117.8256531728245
 21
-0.0000000000003408
 31
0.0
 70
     0
 13
-95.999999999010555
 23
24.99999999999968
 33
0.0
 14
-95.999999999010555
 24
-25.00000000000033
 34
0.0
 50
270.0
1001
ACAD
1000
DSTYLE
1002
{
1070
    40
1040
1.0
1002
}
  0
VIEWPORT
  5
C4
 67
     1
  8
0
 10
226.5332655834282
 20
143.07606935501099
 30
0.0
 40
590.17641730619732
 41
211.5905804811608
 68
     1
 69
     1
1001
ACAD
1000
MVIEW
1002
{
1070
    16
1010
0.0
1020
0.0
1030
0.0
1010
0.0
1020
0.0
1030
1.0
1040
0.0
1040
211.5905804811608
1040
226.5332655834282
1040
143.07606935501099
1040
50.0
1040
0.0
1040
0.0
1070
     0
1070
     0
1070
     1
1070
     1
1070
     0
1070
     0
1070
     0
1070
     0
1040
0.0
1040
0.0
1040
0.0
1040
10.0
1040
10.0
1040
10.0
1040
10.0
1070
     0
1002
{
1002
}
1002
}
  0
ENDSEC
  0
EOF
