  0
SECTION
  2
HEADER
  9
$ACADVER
  1
AC1009
  9
$INSBASE
 10
0.0
 20
0.0
 30
0.0
  9
$EXTMIN
 10
-131.35639635960209
 20
-89.800000000000026
 30
0.0
  9
$EXTMAX
 10
167.85273728745329
 20
75.551914392872604
 30
0.0
  9
$LIMMIN
 10
0.0
 20
0.0
  9
$LIMMAX
 10
790.0
 20
790.0
  9
$ORTHOMODE
 70
     1
  9
$REGENMODE
 70
     1
  9
$FILLMODE
 70
     1
  9
$QTEXTMODE
 70
     0
  9
$MIRRTEXT
 70
     1
  9
$DRAGMODE
 70
     2
  9
$LTSCALE
 40
4.0
  9
$OSMODE
 70
   167
  9
$ATTMODE
 70
     1
  9
$TEXTSIZE
 40
3.5
  9
$TRACEWID
 40
0.05
  9
$TEXTSTYLE
  7
ISO
  9
$CLAYER
  8
0
  9
$CELTYPE
  6
BYLAYER
  9
$CECOLOR
 62
   256
  9
$DIMSCALE
 40
0.0
  9
$DIMASZ
 40
3.0
  9
$DIMEXO
 40
1.5
  9
$DIMDLI
 40
10.0
  9
$DIMRND
 40
0.0
  9
$DIMDLE
 40
0.0
  9
$DIMEXE
 40
1.5
  9
$DIMTP
 40
0.0
  9
$DIMTM
 40
0.0
  9
$DIMTXT
 40
3.0
  9
$DIMCEN
 40
-5.0
  9
$DIMTSZ
 40
0.0
  9
$DIMTOL
 70
     0
  9
$DIMLIM
 70
     0
  9
$DIMTIH
 70
     0
  9
$DIMTOH
 70
     0
  9
$DIMSE1
 70
     0
  9
$DIMSE2
 70
     0
  9
$DIMTAD
 70
     1
  9
$DIMZIN
 70
     8
  9
$DIMBLK
  1

  9
$DIMASO
 70
     1
  9
$DIMSHO
 70
     1
  9
$DIMPOST
  1

  9
$DIMAPOST
  1

  9
$DIMALT
 70
     0
  9
$DIMALTD
 70
     0
  9
$DIMALTF
 40
25.399999999999999
  9
$DIMLFAC
 40
-1.0
  9
$DIMTOFL
 70
     1
  9
$DIMTVP
 40
0.0
  9
$DIMTIX
 70
     0
  9
$DIMSOXD
 70
     0
  9
$DIMSAH
 70
     0
  9
$DIMBLK1
  1

  9
$DIMBLK2
  1

  9
$DIMSTYLE
  2
MASKIN
  9
$DIMCLRD
 70
   256
  9
$DIMCLRE
 70
   256
  9
$DIMCLRT
 70
     2
  9
$DIMTFAC
 40
1.0
  9
$DIMGAP
 40
1.0
  9
$LUNITS
 70
     2
  9
$LUPREC
 70
     8
  9
$SKETCHINC
 40
0.1
  9
$FILLETRAD
 40
0.0
  9
$AUNITS
 70
     0
  9
$AUPREC
 70
     8
  9
$MENU
  1
ACAD
  9
$ELEVATION
 40
0.0
  9
$PELEVATION
 40
0.0
  9
$THICKNESS
 40
0.0
  9
$LIMCHECK
 70
     0
  9
$BLIPMODE
 70
     0
  9
$CHAMFERA
 40
0.0
  9
$CHAMFERB
 40
0.0
  9
$SKPOLY
 70
     0
  9
$TDCREATE
 40
2454895.6957025002
  9
$TDUPDATE
 40
2456518.4348617131
  9
$TDINDWG
 40
0.0953931713
  9
$TDUSRTIMER
 40
0.0953931713
  9
$USRTIMER
 70
     1
  9
$ANGBASE
 50
0.0
  9
$ANGDIR
 70
     0
  9
$PDMODE
 70
     0
  9
$PDSIZE
 40
0.0
  9
$PLINEWID
 40
0.0
  9
$COORDS
 70
     1
  9
$SPLFRAME
 70
     0
  9
$SPLINETYPE
 70
     6
  9
$SPLINESEGS
 70
     8
  9
$ATTDIA
 70
     0
  9
$ATTREQ
 70
     1
  9
$HANDLING
 70
     1
  9
$HANDSEED
  5
2B2C
  9
$SURFTAB1
 70
     6
  9
$SURFTAB2
 70
     6
  9
$SURFTYPE
 70
     6
  9
$SURFU
 70
     6
  9
$SURFV
 70
     6
  9
$UCSNAME
  2

  9
$UCSORG
 10
0.0
 20
0.0
 30
0.0
  9
$UCSXDIR
 10
1.0
 20
0.0
 30
0.0
  9
$UCSYDIR
 10
0.0
 20
1.0
 30
0.0
  9
$PUCSNAME
  2

  9
$PUCSORG
 10
0.0
 20
0.0
 30
0.0
  9
$PUCSXDIR
 10
1.0
 20
0.0
 30
0.0
  9
$PUCSYDIR
 10
0.0
 20
1.0
 30
0.0
  9
$USERI1
 70
     0
  9
$USERI2
 70
     0
  9
$USERI3
 70
     0
  9
$USERI4
 70
     0
  9
$USERI5
 70
     0
  9
$USERR1
 40
0.0
  9
$USERR2
 40
0.0
  9
$USERR3
 40
0.0
  9
$USERR4
 40
0.0
  9
$USERR5
 40
0.0
  9
$WORLDVIEW
 70
     1
  9
$SHADEDGE
 70
     3
  9
$SHADEDIF
 70
    70
  9
$TILEMODE
 70
     1
  9
$MAXACTVP
 70
    16
  9
$PLIMCHECK
 70
     0
  9
$PEXTMIN
 10
1.0000000000000000E+020
 20
1.0000000000000000E+020
 30
1.0000000000000000E+020
  9
$PEXTMAX
 10
-1.0000000000000000E+020
 20
-1.0000000000000000E+020
 30
-1.0000000000000000E+020
  9
$PLIMMIN
 10
-5.069427490234375
 20
-5.8737497329711914
  9
$PLIMMAX
 10
291.89889526367187
 20
204.0995779037475
  9
$UNITMODE
 70
     0
  9
$VISRETAIN
 70
     1
  9
$PLINEGEN
 70
     0
  9
$PSLTSCALE
 70
     1
  0
ENDSEC
  0
SECTION
  2
TABLES
  0
TABLE
  2
VPORT
 70
     1
  0
VPORT
  2
*ACTIVE
 70
     0
 10
0.0
 20
0.0
 11
1.0
 21
1.0
 12
18.82182293888448
 22
39.196401390503439
 13
0.0
 23
0.0
 14
1.0
 24
1.0
 15
0.0
 25
0.0
 16
0.0
 26
0.0
 36
1.0
 17
0.0
 27
0.0
 37
0.0
 40
187.7874820775146
 41
2.112307692307692
 42
50.0
 43
0.0
 44
0.0
 50
0.0
 51
0.0
 71
     0
 72
   100
 73
     1
 74
     1
 75
     0
 76
     0
 77
     0
 78
     0
  0
ENDTAB
  0
TABLE
  2
LTYPE
 70
    35
  0
LTYPE
  2
CONTINUOUS
 70
     0
  3
Solid line
 72
    65
 73
     0
 40
0.0
  0
LTYPE
  2
BYGG-01482201$0$NEWDOT
 70
     0
  3
____ . ____ . ____ . ____ . ____ . ____ . ____
 72
    65
 73
     4
 40
2.0
 49
1.0
 49
-0.5
 49
0.0
 49
-0.5
  0
LTYPE
  2
BYGG-014357$0$NEWDOT
 70
     0
  3
____ . ____ . ____ . ____ . ____ . ____ . ____
 72
    65
 73
     4
 40
2.0
 49
1.0
 49
-0.5
 49
0.0
 49
-0.5
  0
LTYPE
  2
BYGG-014357$0$DASHDOT
 70
     0
  3
__ . __ . __ . __ . __ . __ . __ . __ . __ . __
 72
    65
 73
     4
 40
1.0
 49
0.5
 49
-0.25
 49
0.0
 49
-0.25
  0
LTYPE
  2
BYGG-014357$0$DASHED
 70
     0
  3
__ __ __ __ __ __ __ __ __ __ __ __ __ __ __
 72
    65
 73
     2
 40
0.75
 49
0.5
 49
-0.25
  0
LTYPE
  2
BYGG-014279$0$NEWDOT
 70
     0
  3
____ . ____ . ____ . ____ . ____ . ____ . ____
 72
    65
 73
     4
 40
2.0
 49
1.0
 49
-0.5
 49
0.0
 49
-0.5
  0
LTYPE
  2
BYGG-01482201$0$ZIGZAG
 70
     0
  3
Zig zag /\/\/\/\/\/\/\/\/\/\/\/\/\/\/\/\/\/\/\/\/\/\/\/
 72
    65
 73
     4
 40
20.32254
 49
0.00254
 49
-5.0800000000000001
 49
-10.16
 49
-5.0800000000000001
  0
LTYPE
  2
BYGG-014279$0$ZIGZAG
 70
     0
  3
Zig zag /\/\/\/\/\/\/\/\/\/\/\/\/\/\/\/\/\/\/\/\/\/\/\/
 72
    65
 73
     4
 40
20.32254
 49
0.00254
 49
-5.0800000000000001
 49
-10.16
 49
-5.0800000000000001
  0
LTYPE
  2
BYGG-020805$0$NEWDOT
 70
     0
  3
____ . ____ . ____ . ____ . ____ . ____ . ____
 72
    65
 73
     4
 40
2.0
 49
1.0
 49
-0.5
 49
0.0
 49
-0.5
  0
LTYPE
  2
BYGG-020805$0$DASHDOT
 70
     0
  3
__ . __ . __ . __ . __ . __ . __ . __ . __ . __
 72
    65
 73
     4
 40
1.0
 49
0.5
 49
-0.25
 49
0.0
 49
-0.25
  0
LTYPE
  2
BYGG-020805$0$DASHED
 70
     0
  3
__ __ __ __ __ __ __ __ __ __ __ __ __ __ __
 72
    65
 73
     2
 40
0.75
 49
0.5
 49
-0.25
  0
LTYPE
  2
BYGG-020805$0$PHANTOM
 70
     0
  3
Phantom ______  __  __  ______  __  __  ______
 72
    65
 73
     6
 40
63.5
 49
31.75
 49
-6.3499999999999988
 49
6.3499999999999988
 49
-6.3499999999999988
 49
6.3499999999999988
 49
-6.3499999999999988
  0
LTYPE
  2
BYGG-028025$0$NEWDOT
 70
     0
  3
____ . ____ . ____ . ____ . ____ . ____ . ____
 72
    65
 73
     4
 40
2.0
 49
1.0
 49
-0.5
 49
0.0
 49
-0.5
  0
LTYPE
  2
BYGG-028025$0$DASHDOT
 70
     0
  3
__ . __ . __ . __ . __ . __ . __ . __ . __ . __
 72
    65
 73
     4
 40
1.0
 49
0.5
 49
-0.25
 49
0.0
 49
-0.25
  0
LTYPE
  2
BYGG-028025$0$DASHED
 70
     0
  3
__ __ __ __ __ __ __ __ __ __ __ __ __ __ __
 72
    65
 73
     2
 40
0.75
 49
0.5
 49
-0.25
  0
LTYPE
  2
BYGG-028025$0$PHANTOM
 70
     0
  3
Phantom ______  __  __  ______  __  __  ______
 72
    65
 73
     6
 40
63.5
 49
31.75
 49
-6.3499999999999988
 49
6.3499999999999988
 49
-6.3499999999999988
 49
6.3499999999999988
 49
-6.3499999999999988
  0
LTYPE
  2
BYGG-028946$0$NEWDOT
 70
     0
  3
____ . ____ . ____ . ____ . ____ . ____ . ____
 72
    65
 73
     4
 40
2.0
 49
1.0
 49
-0.5
 49
0.0
 49
-0.5
  0
LTYPE
  2
BYGG-028946$0$DASHDOT
 70
     0
  3
__ . __ . __ . __ . __ . __ . __ . __ . __ . __
 72
    65
 73
     4
 40
1.0
 49
0.5
 49
-0.25
 49
0.0
 49
-0.25
  0
LTYPE
  2
BYGG-028946$0$DASHED
 70
     0
  3
__ __ __ __ __ __ __ __ __ __ __ __ __ __ __
 72
    65
 73
     2
 40
0.75
 49
0.5
 49
-0.25
  0
LTYPE
  2
BYGG-028946$0$PHANTOM
 70
     0
  3
Phantom ______  __  __  ______  __  __  ______
 72
    65
 73
     6
 40
63.5
 49
31.75
 49
-6.3499999999999988
 49
6.3499999999999988
 49
-6.3499999999999988
 49
6.3499999999999988
 49
-6.3499999999999988
  0
LTYPE
  2
BYGG-028946$0$ZIGZAG
 70
     0
  3
Zig zag /\/\/\/\/\/\/\/\/\/\/\/\/\/\/\/\/\/\/\/\/\/\/\/
 72
    65
 73
     4
 40
20.32254
 49
0.00254
 49
-5.0800000000000001
 49
-10.16
 49
-5.0800000000000001
  0
LTYPE
  2
BYGG-028947$0$NEWDOT
 70
     0
  3
____ . ____ . ____ . ____ . ____ . ____ . ____
 72
    65
 73
     4
 40
2.0
 49
1.0
 49
-0.5
 49
0.0
 49
-0.5
  0
LTYPE
  2
BYGG-028947$0$DASHDOT
 70
     0
  3
__ . __ . __ . __ . __ . __ . __ . __ . __ . __
 72
    65
 73
     4
 40
1.0
 49
0.5
 49
-0.25
 49
0.0
 49
-0.25
  0
LTYPE
  2
BYGG-028947$0$DASHED
 70
     0
  3
__ __ __ __ __ __ __ __ __ __ __ __ __ __ __
 72
    65
 73
     2
 40
0.75
 49
0.5
 49
-0.25
  0
LTYPE
  2
BYGG-028947$0$PHANTOM
 70
     0
  3
Phantom ______  __  __  ______  __  __  ______
 72
    65
 73
     6
 40
63.5
 49
31.75
 49
-6.3499999999999988
 49
6.3499999999999988
 49
-6.3499999999999988
 49
6.3499999999999988
 49
-6.3499999999999988
  0
LTYPE
  2
BYGG-028947$0$ZIGZAG
 70
     0
  3
Zig zag /\/\/\/\/\/\/\/\/\/\/\/\/\/\/\/\/\/\/\/\/\/\/\/
 72
    65
 73
     4
 40
20.32254
 49
0.00254
 49
-5.0800000000000001
 49
-10.16
 49
-5.0800000000000001
  0
LTYPE
  2
BYGG-014413$0$NEWDOT
 70
     0
  3
____ . ____ . ____ . ____ . ____ . ____ . ____
 72
    65
 73
     4
 40
2.0
 49
1.0
 49
-0.5
 49
0.0
 49
-0.5
  0
LTYPE
  2
BYGG-014413$0$ZIGZAG
 70
     0
  3
Zig zag /\/\/\/\/\/\/\/\/\/\/\/\/\/\/\/\/\/\/\/\/\/\/\/
 72
    65
 73
     4
 40
20.32254
 49
0.00254
 49
-5.0800000000000001
 49
-10.16
 49
-5.0800000000000001
  0
LTYPE
  2
BYGG-014495$0$DASHDOT
 70
     0
  3
__ . __ . __ . __ . __ . __ . __ . __ . __ . __
 72
    65
 73
     4
 40
1.0
 49
0.5
 49
-0.25
 49
0.0
 49
-0.25
  0
LTYPE
  2
BYGG-028946$0$PHANTOM2
 70
     0
  3
Phantom (.5x) ___ _ _ ___ _ _ ___ _ _ ___ _ _
 72
    65
 73
     6
 40
1.25
 49
0.625
 49
-0.125
 49
0.125
 49
-0.125
 49
0.125
 49
-0.125
  0
ENDTAB
  0
TABLE
  2
LAYER
 70
   231
  0
LAYER
  2
0
 70
     0
 62
     7
  6
CONTINUOUS
  0
LAYER
  2
DEFPOINTS
 70
     0
 62
     7
  6
CONTINUOUS
  0
LAYER
  2
SAPA_ANSLUTNING
 70
     0
 62
     6
  6
CONTINUOUS
  0
LAYER
  2
SAPA_PROFIL
 70
     0
 62
     7
  6
CONTINUOUS
  0
LAYER
  2
SAPA_ARTIKELNR
 70
     0
 62
     4
  6
CONTINUOUS
  0
LAYER
  2
SAPA_LIGHT
 70
     1
 62
     1
  6
CONTINUOUS
  0
LAYER
  2
SAPA_FYLLNING
 70
     0
 62
     4
  6
CONTINUOUS
  0
LAYER
  2
BYGG-023125$0$LIST
 70
     0
 62
     2
  6
CONTINUOUS
  0
LAYER
  2
SAPA_ISOLATOR
 70
     0
 62
     4
  6
CONTINUOUS
  0
LAYER
  2
SAPA_MATT
 70
     0
 62
     1
  6
CONTINUOUS
  0
LAYER
  2
SAPA_GLAS
 70
     0
 62
     4
  6
CONTINUOUS
  0
LAYER
  2
SAPA_FOGBAND
 70
     0
 62
     2
  6
CONTINUOUS
  0
ENDTAB
  0
TABLE
  2
STYLE
 70
    50
  0
STYLE
  2
STANDARD
 70
     0
 40
0.0
 41
1.0
 50
0.0
 71
     0
 42
0.2
  3
txt
  4

  0
STYLE
  2
ISO
 70
     0
 40
0.0
 41
1.0
 50
0.0
 71
     0
 42
3.5
  3
txt
  4

  0
STYLE
  2

 70
     1
 40
0.0
 41
1.0
 50
0.0
 71
     0
 42
0.2
  3
ltypeshp.shx
  4

  0
STYLE
  2
BYGG-021589$0$STANDARD
 70
     0
 40
0.0
 41
1.0
 50
0.0
 71
     0
 42
0.2
  3
txt
  4

  0
STYLE
  2
BYGG-021589$0$ISO
 70
     0
 40
0.0
 41
1.0
 50
0.0
 71
     0
 42
3.5
  3
isocp3.shx
  4

  0
STYLE
  2
BYGG-01482201$0$STANDARD
 70
     0
 40
0.0
 41
1.0
 50
0.0
 71
     0
 42
0.2
  3
txt
  4

  0
STYLE
  2
BYGG-01482201$0$ISO
 70
     0
 40
0.0
 41
1.0
 50
0.0
 71
     0
 42
3.5
  3
isocp3.shx
  4

  0
STYLE
  2
BYGG-021582$0$STANDARD
 70
     0
 40
0.0
 41
1.0
 50
0.0
 71
     0
 42
0.2
  3
txt
  4

  0
STYLE
  2
BYGG-021582$0$ISO
 70
     0
 40
0.0
 41
1.0
 50
0.0
 71
     0
 42
3.5
  3
isocp3.shx
  4

  0
STYLE
  2
BYGG-014279$0$STANDARD
 70
     0
 40
0.0
 41
1.0
 50
0.0
 71
     0
 42
0.2
  3
TXT.shx
  4

  0
STYLE
  2
BYGG-014279$0$ISO
 70
     0
 40
0.0
 41
1.0
 50
0.0
 71
     0
 42
3.5
  3
iso
  4

  0
STYLE
  2
BYGG-021802$0$STANDARD
 70
     0
 40
0.0
 41
1.0
 50
0.0
 71
     0
 42
0.2
  3
txt
  4

  0
STYLE
  2
BYGG-021802$0$ISO
 70
     0
 40
0.0
 41
1.0
 50
0.0
 71
     0
 42
3.5
  3
isocp3.shx
  4

  0
STYLE
  2
BYGG-014357$0$STANDARD
 70
     0
 40
0.0
 41
1.0
 50
0.0
 71
     0
 42
0.2
  3
txt
  4

  0
STYLE
  2
BYGG-014357$0$ISO
 70
     0
 40
0.0
 41
1.0
 50
0.0
 71
     0
 42
3.5
  3
isocp3.shx
  4

  0
STYLE
  2
BYGG-014063$0$STANDARD
 70
     0
 40
0.0
 41
1.0
 50
0.0
 71
     0
 42
0.2
  3
txt
  4

  0
STYLE
  2
BYGG-014063$0$ISO
 70
     0
 40
0.0
 41
1.0
 50
0.0
 71
     0
 42
3.5
  3
isocp3.shx
  4

  0
STYLE
  2
BYGG-022681$0$STANDARD
 70
     0
 40
0.0
 41
1.0
 50
0.0
 71
     0
 42
0.2
  3
txt
  4

  0
STYLE
  2
BYGG-022681$0$ISO
 70
     0
 40
0.0
 41
1.0
 50
0.0
 71
     0
 42
3.5
  3
txt
  4

  0
STYLE
  2
BYGG-014306$0$STANDARD
 70
     0
 40
0.0
 41
1.0
 50
0.0
 71
     0
 42
0.2
  3
txt
  4

  0
STYLE
  2
BYGG-022676$0$STANDARD
 70
     0
 40
0.0
 41
1.0
 50
0.0
 71
     0
 42
0.2
  3
txt
  4

  0
STYLE
  2
BYGG-022676$0$ISO
 70
     0
 40
0.0
 41
1.0
 50
0.0
 71
     0
 42
3.5
  3
txt
  4

  0
STYLE
  2
BYGG-022676$0$ANNOTATIVE
 70
     0
 40
0.0
 41
1.0
 50
0.0
 71
     0
 42
0.2
  3
txt
  4

  0
STYLE
  2
BYGG-025109$0$STANDARD
 70
     0
 40
0.0
 41
1.0
 50
0.0
 71
     0
 42
0.2
  3
txt
  4

  0
STYLE
  2
BYGG-025109$0$ISO
 70
     0
 40
0.0
 41
1.0
 50
0.0
 71
     0
 42
3.5
  3
txt
  4

  0
STYLE
  2
BYGG-020805$0$STANDARD
 70
     0
 40
0.0
 41
1.0
 50
0.0
 71
     0
 42
0.2
  3
txt
  4

  0
STYLE
  2
BYGG-020805$0$ISO
 70
     0
 40
0.0
 41
1.0
 50
0.0
 71
     0
 42
3.5
  3
txt
  4

  0
STYLE
  2
BYGG-026395$0$STANDARD
 70
     0
 40
0.0
 41
1.0
 50
0.0
 71
     0
 42
0.2
  3
txt
  4

  0
STYLE
  2
BYGG-026395$0$ISO
 70
     0
 40
0.0
 41
1.0
 50
0.0
 71
     0
 42
3.5
  3
isocp3.shx
  4

  0
STYLE
  2
BYGG-029016$0$STANDARD
 70
     0
 40
0.0
 41
1.0
 50
0.0
 71
     0
 42
0.2
  3
txt
  4

  0
STYLE
  2
BYGG-029016$0$ISO
 70
     0
 40
0.0
 41
1.0
 50
0.0
 71
     0
 42
3.5
  3
txt
  4

  0
STYLE
  2
BYGG-028946$0$STANDARD
 70
     0
 40
0.0
 41
1.0
 50
0.0
 71
     0
 42
0.2
  3
txt
  4

  0
STYLE
  2
BYGG-028946$0$ISO
 70
     0
 40
0.0
 41
1.0
 50
0.0
 71
     0
 42
3.5
  3
txt
  4

  0
STYLE
  2
BYGG-028946$0$ANNOTATIVE
 70
     0
 40
0.0
 41
1.0
 50
0.0
 71
     0
 42
0.2
  3
txt
  4

  0
STYLE
  2
BYGG-028947$0$STANDARD
 70
     0
 40
0.0
 41
1.0
 50
0.0
 71
     0
 42
0.2
  3
txt
  4

  0
STYLE
  2
BYGG-028947$0$ISO
 70
     0
 40
0.0
 41
1.0
 50
0.0
 71
     0
 42
3.5
  3
txt
  4

  0
STYLE
  2
BYGG-024973$0$STANDARD
 70
     0
 40
0.0
 41
1.0
 50
0.0
 71
     0
 42
0.2
  3
txt
  4

  0
STYLE
  2
BYGG-024973$0$ISO
 70
     0
 40
0.0
 41
1.0
 50
0.0
 71
     0
 42
3.5
  3
txt
  4

  0
STYLE
  2
BYGG-025081$0$STANDARD
 70
     0
 40
0.0
 41
1.0
 50
0.0
 71
     0
 42
0.2
  3
txt
  4

  0
STYLE
  2
BYGG-025081$0$ISO
 70
     0
 40
0.0
 41
1.0
 50
0.0
 71
     0
 42
3.5
  3
txt
  4

  0
STYLE
  2
BYGG-028025$0$STANDARD
 70
     0
 40
0.0
 41
1.0
 50
0.0
 71
     0
 42
0.2
  3
txt
  4

  0
STYLE
  2
BYGG-028025$0$ISO
 70
     0
 40
0.0
 41
1.0
 50
0.0
 71
     0
 42
3.5
  3
txt
  4

  0
STYLE
  2
BYGG-021409$0$STANDARD
 70
     0
 40
0.0
 41
1.0
 50
0.0
 71
     0
 42
0.2
  3
txt
  4

  0
STYLE
  2
BYGG-021409$0$ISO
 70
     0
 40
0.0
 41
1.0
 50
0.0
 71
     0
 42
3.5
  3
txt
  4

  0
STYLE
  2
BYGG-014413$0$STANDARD
 70
     0
 40
0.0
 41
1.0
 50
0.0
 71
     0
 42
0.2
  3
txt
  4

  0
STYLE
  2
BYGG-014413$0$ISO
 70
     0
 40
0.0
 41
1.0
 50
0.0
 71
     0
 42
3.5
  3
isocp3.shx
  4

  0
STYLE
  2
BYGG-023125$0$STANDARD
 70
     0
 40
0.0
 41
1.0
 50
0.0
 71
     0
 42
0.2
  3
txt
  4

  0
STYLE
  2
BYGG-023125$0$ISO
 70
     0
 40
0.0
 41
1.0
 50
0.0
 71
     0
 42
3.5
  3
txt
  4

  0
STYLE
  2
BYGG-014495$0$STANDARD
 70
     0
 40
0.0
 41
1.0
 50
0.0
 71
     0
 42
0.2
  3
txt
  4

  0
STYLE
  2
BYGG-014495$0$ISO
 70
     0
 40
0.0
 41
1.0
 50
0.0
 71
     0
 42
3.5
  3
isocp3.shx
  4

  0
ENDTAB
  0
TABLE
  2
VIEW
 70
     0
  0
ENDTAB
  0
TABLE
  2
UCS
 70
     0
  0
ENDTAB
  0
TABLE
  2
APPID
 70
    24
  0
APPID
  2
ACAD
 70
     0
  0
APPID
  2
ACAD_DSTYLE_DIMTEXT_FILL
 70
     0
  0
APPID
  2
ACAD_DSTYLE_DIMEXT_LENGTH
 70
     0
  0
APPID
  2
ACAD_DSTYLE_DIMEXT_ENABLED
 70
     0
  0
APPID
  2
ACAD_DSTYLE_DIM_LINETYPE
 70
     0
  0
APPID
  2
ACAD_DSTYLE_DIM_EXT1_LINETYPE
 70
     0
  0
APPID
  2
ACAD_DSTYLE_DIM_EXT2_LINETYPE
 70
     0
  0
APPID
  2
ACAD_DSTYLE_DIMJOGGED_JOGA
 70
     0
  0
APPID
  2
ACAD_DSTYLE_DIMARC_LENGTH_
 70
     0
  0
APPID
  2
ACAD_PSEXT
 70
     0
  0
APPID
  2
ACAD_MLEADERVER
 70
     0
  0
APPID
  2
AMG_ARCHIVE11
 70
     0
  0
APPID
  2
ACAD_EXEMPT_FROM_CAD_STANDARDS
 70
     0
  0
APPID
  2
ACADANNOTATIVE
 70
     0
  0
APPID
  2
ACAECLAYERSTANDARD
 70
     0
  0
APPID
  2
ACAD_DSTYLE_DIMJAG
 70
     0
  0
APPID
  2
ACAD_DSTYLE_DIMTALN
 70
     0
  0
APPID
  2
ACAD_NAV_VCDISPLAY
 70
     0
  0
APPID
  2
AME_SOL
 70
     0
  0
APPID
  2
ACDBDYNAMICBLOCKGUID
 70
     0
  0
APPID
  2
ACDBBLOCKREPETAG
 70
     0
  0
APPID
  2
AEC_XDATA_BOUND_SPACE
 70
     0
  0
APPID
  2
ACCMTRANSPARENCY
 70
     0
  0
APPID
  2
CONTENTBLOCKICON
 70
     0
  0
ENDTAB
  0
TABLE
  2
DIMSTYLE
 70
    47
  0
DIMSTYLE
  2
MASKIN
 70
     0
  3

  4

  5

  6

  7

 40
0.0
 41
3.0
 42
1.5
 43
10.0
 44
1.5
 45
0.0
 46
0.0
 47
0.0
 48
0.0
140
3.0
141
-5.0
142
0.0
143
25.399999999999999
144
-1.0
145
0.0
146
1.0
147
1.0
 71
     0
 72
     0
 73
     0
 74
     0
 75
     0
 76
     0
 77
     1
 78
     8
170
     0
171
     0
172
     1
173
     0
174
     0
175
     0
176
   256
177
   256
178
     2
  0
DIMSTYLE
  2
BYGG-021589$0$MASKIN
 70
     0
  3

  4

  5

  6

  7

 40
0.0
 41
3.0
 42
1.5
 43
10.0
 44
1.5
 45
0.0
 46
0.0
 47
0.0
 48
0.0
140
3.0
141
-5.0
142
0.0
143
25.399999999999999
144
-1.0
145
0.0
146
1.0
147
1.0
 71
     0
 72
     0
 73
     0
 74
     0
 75
     0
 76
     0
 77
     1
 78
     8
170
     0
171
     0
172
     1
173
     0
174
     0
175
     0
176
   256
177
   256
178
   256
  0
DIMSTYLE
  2
BYGG-01482201$0$STANDARD
 70
     0
  3

  4

  5

  6

  7

 40
1.0
 41
0.18
 42
0.0625
 43
0.38
 44
0.18
 45
0.0
 46
0.0
 47
0.0
 48
0.0
140
0.18
141
0.09
142
0.0
143
25.399999999999999
144
1.0
145
0.0
146
1.0
147
0.09
 71
     0
 72
     0
 73
     1
 74
     1
 75
     0
 76
     0
 77
     0
 78
     0
170
     0
171
     2
172
     0
173
     0
174
     0
175
     0
176
     0
177
     0
178
     0
  0
DIMSTYLE
  2
BYGG-01482201$0$MASKIN
 70
     0
  3

  4

  5

  6

  7

 40
0.0
 41
3.0
 42
1.5
 43
10.0
 44
1.5
 45
0.0
 46
0.0
 47
0.0
 48
0.0
140
3.0
141
-5.0
142
0.0
143
25.399999999999999
144
-1.0
145
0.0
146
1.0
147
1.0
 71
     0
 72
     0
 73
     0
 74
     1
 75
     0
 76
     0
 77
     1
 78
     8
170
     0
171
     0
172
     1
173
     0
174
     0
175
     0
176
   256
177
   256
178
     2
  0
DIMSTYLE
  2
BYGG-021582$0$MASKIN
 70
     0
  3

  4

  5

  6

  7

 40
0.0
 41
3.0
 42
1.5
 43
10.0
 44
1.5
 45
0.0
 46
0.0
 47
0.0
 48
0.0
140
3.0
141
-5.0
142
0.0
143
25.399999999999999
144
-1.0
145
0.0
146
1.0
147
1.0
 71
     0
 72
     0
 73
     0
 74
     0
 75
     0
 76
     0
 77
     1
 78
     8
170
     0
171
     0
172
     1
173
     0
174
     0
175
     0
176
   256
177
   256
178
   256
  0
DIMSTYLE
  2
BYGG-014279$0$STANDARD
 70
     0
  3

  4

  5

  6

  7

 40
1.0
 41
0.18
 42
0.0625
 43
0.38
 44
0.18
 45
0.0
 46
0.0
 47
0.0
 48
0.0
140
0.18
141
0.09
142
0.0
143
25.399999999999999
144
1.0
145
0.0
146
1.0
147
0.09
 71
     0
 72
     0
 73
     1
 74
     1
 75
     0
 76
     0
 77
     0
 78
     0
170
     0
171
     2
172
     0
173
     0
174
     0
175
     0
176
     0
177
     0
178
     0
  0
DIMSTYLE
  2
BYGG-014279$0$MASKIN
 70
     0
  3

  4

  5

  6

  7

 40
0.0
 41
3.0
 42
1.5
 43
10.0
 44
1.5
 45
0.0
 46
0.0
 47
0.0
 48
0.0
140
3.0
141
-5.0
142
0.0
143
25.399999999999999
144
-1.0
145
0.0
146
1.0
147
1.0
 71
     0
 72
     0
 73
     0
 74
     1
 75
     0
 76
     0
 77
     1
 78
     8
170
     0
171
     0
172
     1
173
     0
174
     0
175
     0
176
   256
177
   256
178
     2
  0
DIMSTYLE
  2
BYGG-021802$0$MASKIN
 70
     0
  3

  4

  5

  6

  7

 40
0.0
 41
3.0
 42
1.5
 43
10.0
 44
1.5
 45
0.0
 46
0.0
 47
0.0
 48
0.0
140
3.0
141
-5.0
142
0.0
143
25.399999999999999
144
-1.0
145
0.0
146
1.0
147
1.0
 71
     0
 72
     0
 73
     0
 74
     0
 75
     0
 76
     0
 77
     1
 78
     8
170
     0
171
     0
172
     1
173
     0
174
     0
175
     0
176
   256
177
   256
178
   256
  0
DIMSTYLE
  2
BYGG-014357$0$MASKIN
 70
     0
  3

  4

  5

  6

  7

 40
0.0
 41
3.0
 42
1.5
 43
10.0
 44
1.5
 45
0.0
 46
0.0
 47
0.0
 48
0.0
140
3.0
141
-5.0
142
0.0
143
25.399999999999999
144
-1.0
145
0.0
146
1.0
147
1.0
 71
     0
 72
     0
 73
     0
 74
     0
 75
     0
 76
     0
 77
     1
 78
     8
170
     0
171
     0
172
     1
173
     0
174
     0
175
     0
176
   256
177
   256
178
   256
  0
DIMSTYLE
  2
BYGG-014357$0$MASKIN1
 70
     0
  3

  4

  5

  6

  7

 40
1.0
 41
3.0
 42
1.5
 43
10.0
 44
1.5
 45
0.0
 46
0.0
 47
0.0
 48
0.0
140
3.0
141
-5.0
142
0.0
143
25.399999999999999
144
1.0
145
0.0
146
1.0
147
0.9
 71
     0
 72
     0
 73
     0
 74
     0
 75
     0
 76
     0
 77
     1
 78
     8
170
     0
171
     0
172
     1
173
     0
174
     0
175
     0
176
   256
177
   256
178
   256
  0
DIMSTYLE
  2
BYGG-014357$0$MASKIN2
 70
     0
  3

  4

  5

  6

  7

 40
1.0
 41
3.0
 42
1.5
 43
10.0
 44
1.5
 45
0.0
 46
0.0
 47
0.0
 48
0.0
140
3.0
141
-5.0
142
0.0
143
25.399999999999999
144
1.0
145
0.0
146
1.0
147
0.9
 71
     0
 72
     0
 73
     0
 74
     0
 75
     0
 76
     0
 77
     1
 78
     8
170
     0
171
     0
172
     1
173
     0
174
     0
175
     0
176
   256
177
   256
178
   256
  0
DIMSTYLE
  2
BYGG-014357$0$MASKIN3
 70
     0
  3

  4

  5

  6

  7

 40
1.0
 41
3.0
 42
1.5
 43
10.0
 44
1.5
 45
0.0
 46
0.0
 47
0.0
 48
0.0
140
3.0
141
-5.0
142
0.0
143
25.399999999999999
144
1.0
145
0.0
146
1.0
147
0.9
 71
     0
 72
     0
 73
     0
 74
     0
 75
     0
 76
     0
 77
     1
 78
     8
170
     0
171
     0
172
     1
173
     0
174
     0
175
     0
176
   256
177
   256
178
   256
  0
DIMSTYLE
  2
BYGG-014357$0$DMST_1
 70
     0
  3

  4

  5

  6

  7

 40
1.0
 41
0.7000000000000002
 42
0.0
 43
7.0
 44
0.4
 45
0.0
 46
0.0
 47
0.15
 48
0.15
140
0.7000000000000002
141
0.0
142
0.0
143
25.399999999999999
144
1.0
145
0.0
146
0.7
147
0.09
 71
     1
 72
     0
 73
     0
 74
     0
 75
     0
 76
     0
 77
     1
 78
     9
170
     0
171
     2
172
     0
173
     0
174
     0
175
     0
176
     1
177
     1
178
     2
  0
DIMSTYLE
  2
BYGG-014063$0$MASKIN
 70
     0
  3

  4

  5

  6

  7

 40
0.0
 41
3.0
 42
1.5
 43
10.0
 44
1.5
 45
0.0
 46
0.0
 47
0.0
 48
0.0
140
3.0
141
-5.0
142
0.0
143
25.399999999999999
144
-1.0
145
0.0
146
1.0
147
1.0
 71
     0
 72
     0
 73
     0
 74
     0
 75
     0
 76
     0
 77
     1
 78
     8
170
     0
171
     0
172
     1
173
     0
174
     0
175
     0
176
   256
177
   256
178
   256
  0
DIMSTYLE
  2
BYGG-014063$0$STANDARD
 70
     0
  3

  4

  5

  6

  7

 40
1.0
 41
0.18
 42
0.0625
 43
0.38
 44
0.18
 45
0.0
 46
0.0
 47
0.0
 48
0.0
140
0.18
141
0.09
142
0.0
143
25.399999999999999
144
1.0
145
0.0
146
1.0
147
0.09
 71
     0
 72
     0
 73
     1
 74
     1
 75
     0
 76
     0
 77
     0
 78
     0
170
     0
171
     2
172
     0
173
     0
174
     0
175
     0
176
     0
177
     0
178
     0
  0
DIMSTYLE
  2
BYGG-022681$0$STANDARD
 70
     0
  3

  4

  5

  6

  7

 40
1.0
 41
0.18
 42
0.0625
 43
0.38
 44
0.18
 45
0.0
 46
0.0
 47
0.0
 48
0.0
140
0.18
141
0.09
142
0.0
143
25.399999999999999
144
1.0
145
0.0
146
1.0
147
0.09
 71
     0
 72
     0
 73
     1
 74
     1
 75
     0
 76
     0
 77
     0
 78
     0
170
     0
171
     2
172
     0
173
     0
174
     0
175
     0
176
     0
177
     0
178
     0
  0
DIMSTYLE
  2
BYGG-022681$0$MASKIN
 70
     0
  3

  4

  5

  6

  7

 40
0.0
 41
3.0
 42
1.5
 43
10.0
 44
1.5
 45
0.0
 46
0.0
 47
0.0
 48
0.0
140
3.0
141
-5.0
142
0.0
143
25.399999999999999
144
-1.0
145
0.0
146
1.0
147
1.0
 71
     0
 72
     0
 73
     0
 74
     0
 75
     0
 76
     0
 77
     1
 78
     8
170
     0
171
     0
172
     1
173
     0
174
     0
175
     0
176
   256
177
   256
178
     2
  0
DIMSTYLE
  2
BYGG-014306$0$STANDARD
 70
     0
  3

  4

  5

  6

  7

 40
1.0
 41
0.18
 42
0.0625
 43
0.38
 44
0.18
 45
0.0
 46
0.0
 47
0.0
 48
0.0
140
0.18
141
0.09
142
0.0
143
25.399999999999999
144
1.0
145
0.0
146
1.0
147
0.09
 71
     0
 72
     0
 73
     1
 74
     1
 75
     0
 76
     0
 77
     0
 78
     0
170
     0
171
     2
172
     0
173
     0
174
     0
175
     0
176
     0
177
     0
178
     0
  0
DIMSTYLE
  2
BYGG-022676$0$STANDARD
 70
     0
  3

  4

  5

  6

  7

 40
1.0
 41
0.18
 42
0.0625
 43
0.38
 44
0.18
 45
0.0
 46
0.0
 47
0.0
 48
0.0
140
0.18
141
0.09
142
0.0
143
25.399999999999999
144
1.0
145
0.0
146
1.0
147
0.09
 71
     0
 72
     0
 73
     1
 74
     1
 75
     0
 76
     0
 77
     0
 78
     0
170
     0
171
     2
172
     0
173
     0
174
     0
175
     0
176
     0
177
     0
178
     0
  0
DIMSTYLE
  2
BYGG-022676$0$MASKIN
 70
     0
  3

  4

  5

  6

  7

 40
0.0
 41
3.0
 42
1.5
 43
10.0
 44
1.5
 45
0.0
 46
0.0
 47
0.0
 48
0.0
140
3.0
141
-5.0
142
0.0
143
25.399999999999999
144
-1.0
145
0.0
146
1.0
147
1.0
 71
     0
 72
     0
 73
     0
 74
     0
 75
     0
 76
     0
 77
     1
 78
     8
170
     0
171
     0
172
     1
173
     0
174
     0
175
     0
176
   256
177
   256
178
     2
  0
DIMSTYLE
  2
BYGG-022676$0$ANNOTATIVE
 70
     0
  3

  4

  5

  6

  7

 40
1.0
 41
0.18
 42
0.0625
 43
0.38
 44
0.18
 45
0.0
 46
0.0
 47
0.0
 48
0.0
140
0.18
141
0.09
142
0.0
143
25.399999999999999
144
1.0
145
0.0
146
1.0
147
0.09
 71
     0
 72
     0
 73
     1
 74
     1
 75
     0
 76
     0
 77
     0
 78
     0
170
     0
171
     2
172
     0
173
     0
174
     0
175
     0
176
     0
177
     0
178
     0
  0
DIMSTYLE
  2
BYGG-025109$0$STANDARD
 70
     0
  3

  4

  5

  6

  7

 40
1.0
 41
0.18
 42
0.0625
 43
0.38
 44
0.18
 45
0.0
 46
0.0
 47
0.0
 48
0.0
140
0.18
141
0.09
142
0.0
143
25.399999999999999
144
1.0
145
0.0
146
1.0
147
0.09
 71
     0
 72
     0
 73
     1
 74
     1
 75
     0
 76
     0
 77
     0
 78
     0
170
     0
171
     2
172
     0
173
     0
174
     0
175
     0
176
     0
177
     0
178
     0
  0
DIMSTYLE
  2
BYGG-025109$0$MASKIN
 70
     0
  3

  4

  5

  6

  7

 40
0.0
 41
3.0
 42
1.5
 43
10.0
 44
1.5
 45
0.0
 46
0.0
 47
0.0
 48
0.0
140
3.0
141
-5.0
142
0.0
143
25.399999999999999
144
-1.0
145
0.0
146
1.0
147
1.0
 71
     0
 72
     0
 73
     0
 74
     0
 75
     0
 76
     0
 77
     1
 78
     8
170
     0
171
     0
172
     1
173
     0
174
     0
175
     0
176
   256
177
   256
178
     2
  0
DIMSTYLE
  2
BYGG-020805$0$STANDARD
 70
     0
  3

  4

  5

  6

  7

 40
1.0
 41
0.18
 42
0.0625
 43
0.38
 44
0.18
 45
0.0
 46
0.0
 47
0.0
 48
0.0
140
0.18
141
0.09
142
0.0
143
25.399999999999999
144
1.0
145
0.0
146
1.0
147
0.09
 71
     0
 72
     0
 73
     1
 74
     1
 75
     0
 76
     0
 77
     0
 78
     0
170
     0
171
     2
172
     0
173
     0
174
     0
175
     0
176
     0
177
     0
178
     0
  0
DIMSTYLE
  2
BYGG-020805$0$MASKIN
 70
     0
  3

  4

  5

  6

  7

 40
0.0
 41
3.0
 42
1.5
 43
10.0
 44
1.5
 45
0.0
 46
0.0
 47
0.0
 48
0.0
140
3.0
141
-5.0
142
0.0
143
25.399999999999999
144
-1.0
145
0.0
146
1.0
147
1.0
 71
     0
 72
     0
 73
     0
 74
     0
 75
     0
 76
     0
 77
     1
 78
     8
170
     0
171
     0
172
     1
173
     0
174
     0
175
     0
176
   256
177
   256
178
     2
  0
DIMSTYLE
  2
BYGG-026395$0$MASKIN
 70
     0
  3

  4

  5

  6

  7

 40
0.0
 41
3.0
 42
1.5
 43
10.0
 44
1.5
 45
0.0
 46
0.0
 47
0.0
 48
0.0
140
3.0
141
-5.0
142
0.0
143
25.399999999999999
144
-1.0
145
0.0
146
1.0
147
1.0
 71
     0
 72
     0
 73
     0
 74
     0
 75
     0
 76
     0
 77
     1
 78
     8
170
     0
171
     0
172
     1
173
     0
174
     0
175
     0
176
   256
177
   256
178
   256
  0
DIMSTYLE
  2
BYGG-029016$0$STANDARD
 70
     0
  3

  4

  5

  6

  7

 40
1.0
 41
0.18
 42
0.0625
 43
0.38
 44
0.18
 45
0.0
 46
0.0
 47
0.0
 48
0.0
140
0.18
141
0.09
142
0.0
143
25.399999999999999
144
1.0
145
0.0
146
1.0
147
0.09
 71
     0
 72
     0
 73
     1
 74
     1
 75
     0
 76
     0
 77
     0
 78
     0
170
     0
171
     2
172
     0
173
     0
174
     0
175
     0
176
     0
177
     0
178
     0
  0
DIMSTYLE
  2
BYGG-029016$0$MASKIN
 70
     0
  3

  4

  5

  6

  7

 40
0.0
 41
3.0
 42
1.5
 43
10.0
 44
1.5
 45
0.0
 46
0.0
 47
0.0
 48
0.0
140
3.0
141
-5.0
142
0.0
143
25.399999999999999
144
-1.0
145
0.0
146
1.0
147
1.0
 71
     0
 72
     0
 73
     0
 74
     0
 75
     0
 76
     0
 77
     1
 78
     8
170
     0
171
     0
172
     1
173
     0
174
     0
175
     0
176
   256
177
   256
178
     2
  0
DIMSTYLE
  2
BYGG-028946$0$STANDARD
 70
     0
  3

  4

  5

  6

  7

 40
1.0
 41
0.18
 42
0.0625
 43
0.38
 44
0.18
 45
0.0
 46
0.0
 47
0.0
 48
0.0
140
0.18
141
0.09
142
0.0
143
25.399999999999999
144
1.0
145
0.0
146
1.0
147
0.09
 71
     0
 72
     0
 73
     1
 74
     1
 75
     0
 76
     0
 77
     0
 78
     0
170
     0
171
     2
172
     0
173
     0
174
     0
175
     0
176
     0
177
     0
178
     0
  0
DIMSTYLE
  2
BYGG-028946$0$MASKIN
 70
     0
  3

  4

  5

  6

  7

 40
0.0
 41
3.0
 42
1.5
 43
10.0
 44
1.5
 45
0.0
 46
0.0
 47
0.0
 48
0.0
140
3.0
141
-5.0
142
0.0
143
25.399999999999999
144
-1.0
145
0.0
146
1.0
147
1.0
 71
     0
 72
     0
 73
     0
 74
     0
 75
     0
 76
     0
 77
     1
 78
     8
170
     0
171
     0
172
     1
173
     0
174
     0
175
     0
176
   256
177
   256
178
     2
  0
DIMSTYLE
  2
BYGG-028946$0$ANNOTATIVE
 70
     0
  3

  4

  5

  6

  7

 40
1.0
 41
0.18
 42
0.0625
 43
0.38
 44
0.18
 45
0.0
 46
0.0
 47
0.0
 48
0.0
140
0.18
141
0.09
142
0.0
143
25.399999999999999
144
1.0
145
0.0
146
1.0
147
0.09
 71
     0
 72
     0
 73
     1
 74
     1
 75
     0
 76
     0
 77
     0
 78
     0
170
     0
171
     2
172
     0
173
     0
174
     0
175
     0
176
     0
177
     0
178
     0
  0
DIMSTYLE
  2
BYGG-028947$0$STANDARD
 70
     0
  3

  4

  5

  6

  7

 40
1.0
 41
0.18
 42
0.0625
 43
0.38
 44
0.18
 45
0.0
 46
0.0
 47
0.0
 48
0.0
140
0.18
141
0.09
142
0.0
143
25.399999999999999
144
1.0
145
0.0
146
1.0
147
0.09
 71
     0
 72
     0
 73
     1
 74
     1
 75
     0
 76
     0
 77
     0
 78
     0
170
     0
171
     2
172
     0
173
     0
174
     0
175
     0
176
     0
177
     0
178
     0
  0
DIMSTYLE
  2
BYGG-028947$0$MASKIN
 70
     0
  3

  4

  5

  6

  7

 40
0.0
 41
3.0
 42
1.5
 43
10.0
 44
1.5
 45
0.0
 46
0.0
 47
0.0
 48
0.0
140
3.0
141
-5.0
142
0.0
143
25.399999999999999
144
-1.0
145
0.0
146
1.0
147
1.0
 71
     0
 72
     0
 73
     0
 74
     0
 75
     0
 76
     0
 77
     1
 78
     8
170
     0
171
     0
172
     1
173
     0
174
     0
175
     0
176
   256
177
   256
178
     2
  0
DIMSTYLE
  2
BYGG-024973$0$STANDARD
 70
     0
  3

  4

  5

  6

  7

 40
1.0
 41
0.18
 42
0.0625
 43
0.38
 44
0.18
 45
0.0
 46
0.0
 47
0.0
 48
0.0
140
0.18
141
0.09
142
0.0
143
25.399999999999999
144
1.0
145
0.0
146
1.0
147
0.09
 71
     0
 72
     0
 73
     1
 74
     1
 75
     0
 76
     0
 77
     0
 78
     0
170
     0
171
     2
172
     0
173
     0
174
     0
175
     0
176
     0
177
     0
178
     0
  0
DIMSTYLE
  2
BYGG-024973$0$MASKIN
 70
     0
  3

  4

  5

  6

  7

 40
0.0
 41
3.0
 42
1.5
 43
10.0
 44
1.5
 45
0.0
 46
0.0
 47
0.0
 48
0.0
140
3.0
141
-5.0
142
0.0
143
25.399999999999999
144
-1.0
145
0.0
146
1.0
147
1.0
 71
     0
 72
     0
 73
     0
 74
     0
 75
     0
 76
     0
 77
     1
 78
     8
170
     0
171
     0
172
     1
173
     0
174
     0
175
     0
176
   256
177
   256
178
     2
  0
DIMSTYLE
  2
BYGG-025081$0$STANDARD
 70
     0
  3

  4

  5

  6

  7

 40
1.0
 41
0.18
 42
0.0625
 43
0.38
 44
0.18
 45
0.0
 46
0.0
 47
0.0
 48
0.0
140
0.18
141
0.09
142
0.0
143
25.399999999999999
144
1.0
145
0.0
146
1.0
147
0.09
 71
     0
 72
     0
 73
     1
 74
     1
 75
     0
 76
     0
 77
     0
 78
     0
170
     0
171
     2
172
     0
173
     0
174
     0
175
     0
176
     0
177
     0
178
     0
  0
DIMSTYLE
  2
BYGG-025081$0$MASKIN
 70
     0
  3

  4

  5

  6

  7

 40
0.0
 41
3.0
 42
1.5
 43
10.0
 44
1.5
 45
0.0
 46
0.0
 47
0.0
 48
0.0
140
3.0
141
-5.0
142
0.0
143
25.399999999999999
144
-1.0
145
0.0
146
1.0
147
1.0
 71
     0
 72
     0
 73
     0
 74
     0
 75
     0
 76
     0
 77
     1
 78
     8
170
     0
171
     0
172
     1
173
     0
174
     0
175
     0
176
   256
177
   256
178
     2
  0
DIMSTYLE
  2
BYGG-028025$0$STANDARD
 70
     0
  3

  4

  5

  6

  7

 40
1.0
 41
0.18
 42
0.0625
 43
0.38
 44
0.18
 45
0.0
 46
0.0
 47
0.0
 48
0.0
140
0.18
141
0.09
142
0.0
143
25.399999999999999
144
1.0
145
0.0
146
1.0
147
0.09
 71
     0
 72
     0
 73
     1
 74
     1
 75
     0
 76
     0
 77
     0
 78
     0
170
     0
171
     2
172
     0
173
     0
174
     0
175
     0
176
     0
177
     0
178
     0
  0
DIMSTYLE
  2
BYGG-028025$0$MASKIN
 70
     0
  3

  4

  5

  6

  7

 40
0.0
 41
3.0
 42
1.5
 43
10.0
 44
1.5
 45
0.0
 46
0.0
 47
0.0
 48
0.0
140
3.0
141
-5.0
142
0.0
143
25.399999999999999
144
-1.0
145
0.0
146
1.0
147
1.0
 71
     0
 72
     0
 73
     0
 74
     0
 75
     0
 76
     0
 77
     1
 78
     8
170
     0
171
     0
172
     1
173
     0
174
     0
175
     0
176
   256
177
   256
178
     2
  0
DIMSTYLE
  2
BYGG-021409$0$STANDARD
 70
     0
  3

  4

  5

  6

  7

 40
1.0
 41
0.18
 42
0.0625
 43
0.38
 44
0.18
 45
0.0
 46
0.0
 47
0.0
 48
0.0
140
0.18
141
0.09
142
0.0
143
25.399999999999999
144
1.0
145
0.0
146
1.0
147
0.09
 71
     0
 72
     0
 73
     1
 74
     1
 75
     0
 76
     0
 77
     0
 78
     0
170
     0
171
     2
172
     0
173
     0
174
     0
175
     0
176
     0
177
     0
178
     0
  0
DIMSTYLE
  2
BYGG-021409$0$MASKIN
 70
     0
  3

  4

  5

  6

  7

 40
0.0
 41
3.0
 42
1.5
 43
10.0
 44
1.5
 45
0.0
 46
0.0
 47
0.0
 48
0.0
140
3.0
141
-5.0
142
0.0
143
25.399999999999999
144
-1.0
145
0.0
146
1.0
147
1.0
 71
     0
 72
     0
 73
     0
 74
     0
 75
     0
 76
     0
 77
     1
 78
     8
170
     0
171
     0
172
     1
173
     0
174
     0
175
     0
176
   256
177
   256
178
     2
  0
DIMSTYLE
  2
BYGG-021409$0$MASKINX
 70
     0
  3

  4

  5

  6

  7

 40
0.0
 41
3.0
 42
1.5
 43
10.0
 44
1.5
 45
0.0
 46
0.0
 47
0.0
 48
0.0
140
3.0
141
-5.0
142
0.0
143
25.399999999999999
144
-1.0
145
0.0
146
1.0
147
1.0
 71
     0
 72
     0
 73
     0
 74
     0
 75
     0
 76
     0
 77
     1
 78
     8
170
     0
171
     0
172
     1
173
     0
174
     0
175
     0
176
   256
177
   256
178
   256
  0
DIMSTYLE
  2
BYGG-014413$0$MASKIN
 70
     0
  3

  4

  5

  6

  7

 40
0.0
 41
3.0
 42
1.5
 43
10.0
 44
1.5
 45
0.0
 46
0.0
 47
0.0
 48
0.0
140
3.0
141
-5.0
142
0.0
143
25.399999999999999
144
-1.0
145
0.0
146
1.0
147
1.0
 71
     0
 72
     0
 73
     0
 74
     0
 75
     0
 76
     0
 77
     1
 78
     8
170
     0
171
     0
172
     1
173
     0
174
     0
175
     0
176
   256
177
   256
178
   256
  0
DIMSTYLE
  2
BYGG-014413$0$STANDARD
 70
     0
  3

  4

  5

  6

  7

 40
1.0
 41
0.18
 42
0.0625
 43
0.38
 44
0.18
 45
0.0
 46
0.0
 47
0.0
 48
0.0
140
0.18
141
0.09
142
0.0
143
25.399999999999999
144
1.0
145
0.0
146
1.0
147
0.09
 71
     0
 72
     0
 73
     1
 74
     1
 75
     0
 76
     0
 77
     0
 78
     0
170
     0
171
     2
172
     0
173
     0
174
     0
175
     0
176
     0
177
     0
178
     0
  0
DIMSTYLE
  2
BYGG-023125$0$STANDARD
 70
     0
  3

  4

  5

  6

  7

 40
1.0
 41
0.18
 42
0.0625
 43
0.38
 44
0.18
 45
0.0
 46
0.0
 47
0.0
 48
0.0
140
0.18
141
0.09
142
0.0
143
25.399999999999999
144
1.0
145
0.0
146
1.0
147
0.09
 71
     0
 72
     0
 73
     1
 74
     1
 75
     0
 76
     0
 77
     0
 78
     0
170
     0
171
     2
172
     0
173
     0
174
     0
175
     0
176
     0
177
     0
178
     0
  0
DIMSTYLE
  2
BYGG-023125$0$MASKIN
 70
     0
  3

  4

  5

  6

  7

 40
0.0
 41
3.0
 42
1.5
 43
10.0
 44
1.5
 45
0.0
 46
0.0
 47
0.0
 48
0.0
140
3.0
141
-5.0
142
0.0
143
25.399999999999999
144
-1.0
145
0.0
146
1.0
147
1.0
 71
     0
 72
     0
 73
     0
 74
     0
 75
     0
 76
     0
 77
     1
 78
     8
170
     0
171
     0
172
     1
173
     0
174
     0
175
     0
176
   256
177
   256
178
     2
  0
DIMSTYLE
  2
BYGG-014495$0$MASKIN
 70
     0
  3

  4

  5

  6

  7

 40
0.0
 41
3.0
 42
1.5
 43
10.0
 44
1.5
 45
0.0
 46
0.0
 47
0.0
 48
0.0
140
3.0
141
-5.0
142
0.0
143
25.399999999999999
144
-1.0
145
0.0
146
1.0
147
1.0
 71
     0
 72
     0
 73
     0
 74
     0
 75
     0
 76
     0
 77
     1
 78
     8
170
     0
171
     0
172
     1
173
     0
174
     0
175
     0
176
   256
177
   256
178
     2
  0
ENDTAB
  0
ENDSEC
  0
SECTION
  2
BLOCKS
  0
BLOCK
  8
0
  2
$MODEL_SPACE
 70
     0
 10
0.0
 20
0.0
 30
0.0
  3
$MODEL_SPACE
  1

  0
ENDBLK
  5
37
  8
0
  0
BLOCK
 67
     1
  8
0
  2
$PAPER_SPACE
 70
     0
 10
0.0
 20
0.0
 30
0.0
  3
$PAPER_SPACE
  1

  0
ENDBLK
  5
35
 67
     1
  8
0
  0
BLOCK
  8
0
  2
BYGG-023125$0$BORST_9
 70
     0
 10
0.0
 20
0.0
 30
0.0
  3
BYGG-023125$0$BORST_9
  1

  0
POLYLINE
  5
1BC5
  8
BYGG-023125$0$LIST
 66
     1
 10
0.0
 20
0.0
 30
0.0
 70
     1
  0
VERTEX
  5
1F4F
  8
BYGG-023125$0$LIST
 10
32.117949192431162
 20
1.9000000000000901
 30
0.0
  0
VERTEX
  5
1F50
  8
BYGG-023125$0$LIST
 10
32.117949192431162
 20
2.7000000000000912
 30
0.0
  0
VERTEX
  5
1F51
  8
BYGG-023125$0$LIST
 10
25.417949192431159
 20
2.7000000000000912
 30
0.0
  0
VERTEX
  5
1F52
  8
BYGG-023125$0$LIST
 10
25.417949192431159
 20
1.9000000000000901
 30
0.0
  0
SEQEND
  5
1F53
  8
BYGG-023125$0$LIST
  0
POLYLINE
  5
1BC6
  8
BYGG-023125$0$LIST
 66
     1
 10
0.0
 20
0.0
 30
0.0
  0
VERTEX
  5
1F54
  8
BYGG-023125$0$LIST
 10
28.263363943662679
 20
2.7000000000000912
 30
0.0
  0
VERTEX
  5
1F55
  8
BYGG-023125$0$LIST
 10
26.769574652555221
 20
10.03407417371101
 30
0.0
  0
SEQEND
  5
1F56
  8
BYGG-023125$0$LIST
  0
POLYLINE
  5
1BC7
  8
BYGG-023125$0$LIST
 66
     1
 10
0.0
 20
0.0
 30
0.0
  0
VERTEX
  5
1F57
  8
BYGG-023125$0$LIST
 10
28.553855340273739
 20
2.7000000000000339
 30
0.0
  0
VERTEX
  5
1F58
  8
BYGG-023125$0$LIST
 10
27.93644453893258
 20
10.03407417371101
 30
0.0
  0
SEQEND
  5
1F59
  8
BYGG-023125$0$LIST
  0
POLYLINE
  5
1BC8
  8
BYGG-023125$0$LIST
 66
     1
 10
0.0
 20
0.0
 30
0.0
  0
VERTEX
  5
1F5A
  8
BYGG-023125$0$LIST
 10
29.012314217007489
 20
2.7000000000000339
 30
0.0
  0
VERTEX
  5
1F5B
  8
BYGG-023125$0$LIST
 10
30.000741956894529
 20
10.03407417371101
 30
0.0
  0
SEQEND
  5
1F5C
  8
BYGG-023125$0$LIST
  0
POLYLINE
  5
1BC9
  8
BYGG-023125$0$LIST
 66
     1
 10
0.0
 20
0.0
 30
0.0
  0
VERTEX
  5
1F5D
  8
BYGG-023125$0$LIST
 10
29.18507150798786
 20
2.7000000000000339
 30
0.0
  0
VERTEX
  5
1F5E
  8
BYGG-023125$0$LIST
 10
30.980798090752462
 20
10.03407417371101
 30
0.0
  0
SEQEND
  5
1F5F
  8
BYGG-023125$0$LIST
  0
LINE
  5
1BCA
  8
0
 10
28.667949192431159
 20
10.03407417371101
 30
0.0
 11
28.867949192431169
 21
10.03407417371101
 31
0.0
  0
LINE
  5
1BCB
  8
0
 10
28.867949192431158
 20
2.7000000000000912
 30
0.0
 11
28.867949192431169
 21
10.03407417371101
 31
0.0
  0
LINE
  5
1BCC
  8
0
 10
28.667949192431159
 20
2.7000000000000912
 30
0.0
 11
28.667949192431159
 21
10.03407417371101
 31
0.0
  0
ENDBLK
  5
1BCD
  8
0
  0
BLOCK
  8
0
  2
*D74
 70
     1
 10
0.0
 20
0.0
 30
0.0
  3
*D74
  1

  0
LINE
  5
1EB1
  8
SAPA_MATT
 10
-107.4999999990105
 20
24.99999999999968
 30
0.0
 11
-127.3563963596021
 21
24.99999999999968
 31
0.0
  0
LINE
  5
1EB2
  8
SAPA_MATT
 10
-107.4999999990105
 20
-25.00000000000032
 30
0.0
 11
-127.3563963596021
 21
-25.00000000000032
 31
0.0
  0
LINE
  5
1EB3
  8
SAPA_MATT
 10
-125.8563963596021
 20
21.999999999999691
 30
0.0
 11
-125.8563963596021
 21
-22.00000000000032
 31
0.0
  0
SOLID
  5
1EB4
  8
SAPA_MATT
 10
-126.3563963596021
 20
21.999999999999691
 30
0.0
 11
-125.3563963596021
 21
21.999999999999691
 31
0.0
 12
-125.8563963596021
 22
24.99999999999968
 32
0.0
 13
-125.8563963596021
 23
24.99999999999968
 33
0.0
  0
SOLID
  5
1EB5
  8
SAPA_MATT
 10
-126.3563963596021
 20
-22.00000000000032
 30
0.0
 11
-125.3563963596021
 21
-22.00000000000032
 31
0.0
 12
-125.8563963596021
 22
-25.00000000000032
 32
0.0
 13
-125.8563963596021
 23
-25.00000000000032
 33
0.0
  0
INSERT
  5
1EB6
  8
0
  2
*U91
 10
0.0
 20
0.0
 30
0.0
  0
POINT
  5
1EB7
  8
DEFPOINTS
 62
     0
 10
-105.9999999990105
 20
24.99999999999968
 30
0.0
  0
POINT
  5
1EB8
  8
DEFPOINTS
 62
     0
 10
-105.9999999990105
 20
-25.00000000000032
 30
0.0
  0
POINT
  5
1EB9
  8
DEFPOINTS
 62
     0
 10
-125.8563963596021
 20
-25.00000000000032
 30
0.0
  0
ENDBLK
  5
1E68
  8
0
  0
BLOCK
  8
0
  2
*D75
 70
     1
 10
0.0
 20
0.0
 30
0.0
  3
*D75
  1

  0
LINE
  5
2A97
  8
SAPA_MATT
 10
-107.4999999990106
 20
-25.00000000000032
 30
0.0
 11
-127.3563963596021
 21
-25.00000000000032
 31
0.0
  0
LINE
  5
2A98
  8
SAPA_MATT
 10
-87.007832962818824
 20
-37.000000000000327
 30
0.0
 11
-127.3563963596021
 21
-37.00000000000032
 31
0.0
  0
LINE
  5
2A99
  8
SAPA_MATT
 10
-125.8563963596021
 20
-28.00000000000032
 30
0.0
 11
-125.8563963596021
 21
-34.00000000000032
 31
0.0
  0
SOLID
  5
2A9A
  8
SAPA_MATT
 10
-126.3563963596021
 20
-28.00000000000032
 30
0.0
 11
-125.3563963596021
 21
-28.00000000000032
 31
0.0
 12
-125.8563963596021
 22
-25.00000000000032
 32
0.0
 13
-125.8563963596021
 23
-25.00000000000032
 33
0.0
  0
SOLID
  5
2A9B
  8
SAPA_MATT
 10
-126.3563963596021
 20
-34.00000000000032
 30
0.0
 11
-125.3563963596021
 21
-34.00000000000032
 31
0.0
 12
-125.8563963596021
 22
-37.00000000000032
 32
0.0
 13
-125.8563963596021
 23
-37.00000000000032
 33
0.0
  0
TEXT
  8
SAPA_MATT
  40
3
  5
2AA8
  62
2
  72
0
  71
0
 10
-134.356
 20
-36.3100
 30
0.000000
  1
12
  7
ISO
  0
POINT
  5
2A9D
  8
DEFPOINTS
 62
     0
 10
-105.9999999990105
 20
-25.00000000000032
 30
0.0
  0
POINT
  5
2A9E
  8
DEFPOINTS
 62
     0
 10
-85.507832962818824
 20
-37.000000000000327
 30
0.0
  0
POINT
  5
2A9F
  8
DEFPOINTS
 62
     0
 10
-125.8563963596021
 20
-37.00000000000032
 30
0.0
  0
ENDBLK
  5
1E74
  8
0
  0
BLOCK
  8
0
  2
*D76
 70
     1
 10
0.0
 20
0.0
 30
0.0
  3
*D76
  1

  0
LINE
  5
1E9F
  8
SAPA_MATT
 10
64.499999999998863
 20
26.000000000000188
 30
0.0
 11
64.499999999998863
 21
44.049455477510449
 31
0.0
  0
LINE
  5
1EA0
  8
SAPA_MATT
 10
74.49999999999892
 20
3.8999999999990811
 30
0.0
 11
74.49999999999892
 21
44.049455477510449
 31
0.0
  0
LINE
  5
1EA1
  8
SAPA_MATT
 10
67.499999999998863
 20
42.549455477510442
 30
0.0
 11
71.499999999998906
 21
42.549455477510442
 31
0.0
  0
SOLID
  5
1EA2
  8
SAPA_MATT
 10
67.499999999998863
 20
43.049455477510449
 30
0.0
 11
67.499999999998863
 21
42.049455477510442
 31
0.0
 12
64.499999999998863
 22
42.549455477510442
 32
0.0
 13
64.499999999998863
 23
42.549455477510442
 33
0.0
  0
SOLID
  5
1EA3
  8
SAPA_MATT
 10
71.499999999998906
 20
43.049455477510449
 30
0.0
 11
71.499999999998906
 21
42.049455477510442
 31
0.0
 12
74.49999999999892
 22
42.549455477510442
 32
0.0
 13
74.49999999999892
 23
42.549455477510442
 33
0.0
  0
INSERT
  5
1EA4
  8
0
  2
*U90
 10
0.0
 20
0.0
 30
0.0
  0
POINT
  5
1EA5
  8
DEFPOINTS
 62
     0
 10
64.499999999998863
 20
24.500000000000188
 30
0.0
  0
POINT
  5
1EA6
  8
DEFPOINTS
 62
     0
 10
74.49999999999892
 20
2.3999999999990811
 30
0.0
  0
POINT
  5
1EA7
  8
DEFPOINTS
 62
     0
 10
74.49999999999892
 20
42.549455477510442
 30
0.0
  0
ENDBLK
  5
1E80
  8
0
  0
BLOCK
  8
0
  2
*D77
 70
     1
 10
0.0
 20
0.0
 30
0.0
  3
*D77
  1

  0
LINE
  5
2A8E
  8
SAPA_MATT
 10
74.49999999999892
 20
3.8999999999990811
 30
0.0
 11
74.49999999999892
 21
44.049455477510449
 31
0.0
  0
LINE
  5
2A8F
  8
SAPA_MATT
 10
148.49999999999881
 20
-1.1000000000015431
 30
0.0
 11
148.49999999999881
 21
44.049455477510449
 31
0.0
  0
LINE
  5
2A90
  8
SAPA_MATT
 10
77.49999999999892
 20
42.549455477510442
 30
0.0
 11
145.49999999999881
 21
42.549455477510442
 31
0.0
  0
SOLID
  5
2A91
  8
SAPA_MATT
 10
77.49999999999892
 20
43.049455477510449
 30
0.0
 11
77.49999999999892
 21
42.049455477510442
 31
0.0
 12
74.49999999999892
 22
42.549455477510442
 32
0.0
 13
74.49999999999892
 23
42.549455477510442
 33
0.0
  0
SOLID
  5
2A92
  8
SAPA_MATT
 10
145.49999999999881
 20
43.049455477510449
 30
0.0
 11
145.49999999999881
 21
42.049455477510442
 31
0.0
 12
148.49999999999881
 22
42.549455477510442
 32
0.0
 13
148.49999999999881
 23
42.549455477510442
 33
0.0
  0
TEXT
  8
SAPA_MATT
  40
3
  5
2AA9
  62
2
  72
0
  71
0
 10
105.500
 20
39.7395
 30
0.000000
  1
74
  7
ISO
  0
POINT
  5
2A94
  8
DEFPOINTS
 62
     0
 10
74.49999999999892
 20
2.3999999999990811
 30
0.0
  0
POINT
  5
2A95
  8
DEFPOINTS
 62
     0
 10
148.49999999999881
 20
-2.6000000000015429
 30
0.0
  0
POINT
  5
2A96
  8
DEFPOINTS
 62
     0
 10
148.49999999999881
 20
42.549455477510442
 30
0.0
  0
ENDBLK
  5
1E8C
  8
0
  0
BLOCK
  8
0
  2
*U78
 70
     1
 10
0.0
 20
0.0
 30
0.0
  3
*U78
  1

  0
TEXT
  5
1EF1
  8
SAPA_ARTIKELNR
 10
-98.028998908852827
 20
-6.5899804267031579
 30
0.0
 40
3.5
  1
42657
 50
89.999999999999986
  7
ISO
  0
ENDBLK
  5
1EF3
  8
0
  0
BLOCK
  8
0
  2
*U79
 70
     1
 10
0.0
 20
0.0
 30
0.0
  3
*U79
  1

  0
TEXT
  5
1EF5
  8
SAPA_ARTIKELNR
 10
-109.9377023321578
 20
-6.8040925660449121
 30
0.0
 40
3.5
  1
42227
 50
89.999999999999986
  7
ISO
  0
ENDBLK
  5
1EF7
  8
0
  0
BLOCK
  8
0
  2
*U80
 70
     1
 10
0.0
 20
0.0
 30
0.0
  3
*U80
  1

  0
TEXT
  5
1F2A
  8
SAPA_ARTIKELNR
 10
72.95841153026231
 20
5.8541321007338567
 30
0.0
 40
3.5
  1
52070
 50
89.999999999999986
  7
ISO
  0
ENDBLK
  5
1F2C
  8
0
  0
BLOCK
  8
0
  2
*U81
 70
     1
 10
0.0
 20
0.0
 30
0.0
  3
*U81
  1

  0
TEXT
  5
1F2E
  8
SAPA_ARTIKELNR
 10
154.97955526092321
 20
-32.47686695444775
 30
0.0
 40
3.5
  1
74457
 50
89.999999999999986
  7
ISO
  0
ENDBLK
  5
1F30
  8
0
  0
BLOCK
  8
0
  2
*U82
 70
     1
 10
0.0
 20
0.0
 30
0.0
  3
*U82
  1

  0
TEXT
  5
1F32
  8
SAPA_ARTIKELNR
 10
155.1984141904197
 20
-71.458155128311233
 30
0.0
 40
3.5
  1
42730
 50
89.999999999999986
  7
ISO
  0
ENDBLK
  5
1F34
  8
0
  0
BLOCK
  8
0
  2
*U83
 70
     1
 10
0.0
 20
0.0
 30
0.0
  3
*U83
  1

  0
TEXT
  5
1F36
  8
SAPA_ARTIKELNR
 10
87.149602860753447
 20
9.0072994396109607
 30
0.0
 40
3.5
  1
42770
 50
360.0
  7
ISO
  0
ENDBLK
  5
1F38
  8
0
  0
BLOCK
  8
0
  2
*X84
 70
     1
 10
0.0
 20
0.0
 30
0.0
  3
*X84
  1

  0
LINE
  5
2865
  8
0
 62
     0
 10
100.6207872728112
 20
-52.228749999999991
 30
0.0
 11
122.3792127271897
 21
-52.228749999999991
 31
0.0
  0
LINE
  5
2866
  8
0
 62
     0
 10
100.2163253499829
 20
-51.117499999999993
 30
0.0
 11
122.783674650018
 21
-51.117499999999993
 31
0.0
  0
LINE
  5
2867
  8
0
 62
     0
 10
121.0597810278945
 20
-50.006249999999987
 30
0.0
 11
123.18887740688869
 21
-50.006249999999987
 31
0.0
  0
LINE
  5
2868
  8
0
 62
     0
 10
99.811115033432742
 20
-50.006249999999987
 30
0.0
 11
101.94021897210639
 21
-50.006249999999987
 31
0.0
  0
LINE
  5
2869
  8
0
 62
     0
 10
124.36886312653419
 20
-50.006249999999987
 30
0.0
 11
126.5000000000005
 21
-50.006249999999987
 31
0.0
  0
LINE
  5
286A
  8
0
 62
     0
 10
96.500000000000455
 20
-50.006249999999987
 30
0.0
 11
98.631136873466772
 21
-50.006249999999987
 31
0.0
  0
LINE
  5
286B
  8
0
 62
     0
 10
121.46424295072291
 20
-48.894999999999989
 30
0.0
 11
126.5000000000005
 21
-48.894999999999989
 31
0.0
  0
LINE
  5
286C
  8
0
 62
     0
 10
96.500000000000455
 20
-48.894999999999989
 30
0.0
 11
101.5357570492781
 21
-48.894999999999989
 31
0.0
  0
LINE
  5
286D
  8
0
 62
     0
 10
123.82231304825569
 20
-47.783749999999991
 30
0.0
 11
126.5000000000005
 21
-47.783749999999991
 31
0.0
  0
LINE
  5
286E
  8
0
 62
     0
 10
96.500000000000455
 20
-47.783749999999991
 30
0.0
 11
99.177686951742203
 21
-47.783749999999991
 31
0.0
  0
ENDBLK
  5
2870
  8
0
  0
BLOCK
  8
0
  2
*X85
 70
     1
 10
0.0
 20
0.0
 30
0.0
  3
*X85
  1

  0
LINE
  5
2872
  8
0
 62
     0
 10
101.11076696680929
 20
-20.873606797754451
 30
0.0
 11
101.11076696680929
 21
-25.073606797754419
 31
0.0
  0
LINE
  5
2873
  8
0
 62
     0
 10
102.22201696680931
 20
-21.42443808411738
 30
0.0
 11
102.22201696680931
 21
-24.522775511391369
 31
0.0
  0
LINE
  5
2874
  8
0
 62
     0
 10
103.3332669668093
 20
-21.977249339332008
 30
0.0
 11
103.3332669668093
 21
-23.984520959100472
 31
0.0
  0
LINE
  5
2875
  8
0
 62
     0
 10
104.4445169668093
 20
-20.545845794968571
 30
0.0
 11
104.4445169668093
 21
-23.973606797754421
 31
0.0
  0
LINE
  5
2876
  8
0
 62
     0
 10
105.5557669668093
 20
-19.073606797754319
 30
0.0
 11
105.5557669668093
 21
-22.955968401164132
 31
0.0
  0
LINE
  5
2877
  8
0
 62
     0
 10
106.6670169668093
 20
-19.073606797754309
 30
0.0
 11
106.6670169668093
 21
-20.895182693900839
 31
0.0
  0
LINE
  5
2878
  8
0
 62
     0
 10
107.7782669668093
 20
-19.073606797754309
 30
0.0
 11
107.7782669668093
 21
-20.873606797754221
 31
0.0
  0
LINE
  5
2879
  8
0
 62
     0
 10
108.8895169668093
 20
-19.073606797754302
 30
0.0
 11
108.8895169668093
 21
-20.873606797754221
 31
0.0
  0
LINE
  5
287A
  8
0
 62
     0
 10
110.00076696680929
 20
-19.073606797754291
 30
0.0
 11
110.00076696680929
 21
-20.873606797754221
 31
0.0
  0
LINE
  5
287B
  8
0
 62
     0
 10
111.11201696680931
 20
-19.07360679775428
 30
0.0
 11
111.11201696680931
 21
-20.873606797754221
 31
0.0
  0
LINE
  5
287C
  8
0
 62
     0
 10
112.22326696680931
 20
-19.07360679775427
 30
0.0
 11
112.22326696680931
 21
-20.873606797754221
 31
0.0
  0
LINE
  5
287D
  8
0
 62
     0
 10
113.3345169668093
 20
-19.07360679775427
 30
0.0
 11
113.3345169668093
 21
-20.873606797754221
 31
0.0
  0
LINE
  5
287E
  8
0
 62
     0
 10
114.4457669668093
 20
-19.073606797754309
 30
0.0
 11
114.4457669668093
 21
-20.873606797754221
 31
0.0
  0
LINE
  5
287F
  8
0
 62
     0
 10
115.5570169668093
 20
-19.073606797754358
 30
0.0
 11
115.5570169668093
 21
-20.873606797754221
 31
0.0
  0
LINE
  5
2880
  8
0
 62
     0
 10
116.6682669668093
 20
-19.073606797754401
 30
0.0
 11
116.6682669668093
 21
-21.224275780726391
 31
0.0
  0
LINE
  5
2881
  8
0
 62
     0
 10
117.7795169668093
 20
-19.08296324168084
 30
0.0
 11
117.7795169668093
 21
-23.72018414572748
 31
0.0
  0
LINE
  5
2882
  8
0
 62
     0
 10
118.8907669668093
 20
-21.29890583958024
 30
0.0
 11
118.8907669668093
 21
-23.973606797754421
 31
0.0
  0
LINE
  5
2883
  8
0
 62
     0
 10
120.00201696680929
 20
-22.084654160975511
 30
0.0
 11
120.00201696680929
 21
-24.081256839681391
 31
0.0
  0
LINE
  5
2884
  8
0
 62
     0
 10
121.11326696680931
 20
-21.230861814786611
 30
0.0
 11
121.11326696680931
 21
-24.716351780722231
 31
0.0
  0
LINE
  5
2885
  8
0
 62
     0
 10
122.2245169668093
 20
-20.89348112777628
 30
0.0
 11
122.2245169668093
 21
-25.053732467733379
 31
0.0
  0
ENDBLK
  5
2887
  8
0
  0
BLOCK
  8
0
  2
*X86
 70
     1
 10
0.0
 20
0.0
 30
0.0
  3
*X86
  1

  0
LINE
  5
2889
  8
0
 62
     0
 10
100.6207872728112
 20
-52.228749999999991
 30
0.0
 11
122.3792127271897
 21
-52.228749999999991
 31
0.0
  0
LINE
  5
288A
  8
0
 62
     0
 10
100.2163253499829
 20
-51.117499999999993
 30
0.0
 11
122.783674650018
 21
-51.117499999999993
 31
0.0
  0
LINE
  5
288B
  8
0
 62
     0
 10
121.0597810278945
 20
-50.006249999999987
 30
0.0
 11
123.18887740688869
 21
-50.006249999999987
 31
0.0
  0
LINE
  5
288C
  8
0
 62
     0
 10
99.811115033432742
 20
-50.006249999999987
 30
0.0
 11
101.94021897210639
 21
-50.006249999999987
 31
0.0
  0
LINE
  5
288D
  8
0
 62
     0
 10
124.36886312653419
 20
-50.006249999999987
 30
0.0
 11
126.5000000000005
 21
-50.006249999999987
 31
0.0
  0
LINE
  5
288E
  8
0
 62
     0
 10
96.500000000000455
 20
-50.006249999999987
 30
0.0
 11
98.631136873466772
 21
-50.006249999999987
 31
0.0
  0
LINE
  5
288F
  8
0
 62
     0
 10
121.46424295072291
 20
-48.894999999999989
 30
0.0
 11
126.5000000000005
 21
-48.894999999999989
 31
0.0
  0
LINE
  5
2890
  8
0
 62
     0
 10
96.500000000000455
 20
-48.894999999999989
 30
0.0
 11
101.5357570492781
 21
-48.894999999999989
 31
0.0
  0
LINE
  5
2891
  8
0
 62
     0
 10
123.82231304825569
 20
-47.783749999999991
 30
0.0
 11
126.5000000000005
 21
-47.783749999999991
 31
0.0
  0
LINE
  5
2892
  8
0
 62
     0
 10
96.500000000000455
 20
-47.783749999999991
 30
0.0
 11
99.177686951742203
 21
-47.783749999999991
 31
0.0
  0
ENDBLK
  5
2894
  8
0
  0
BLOCK
  8
0
  2
*X87
 70
     1
 10
0.0
 20
0.0
 30
0.0
  3
*X87
  1

  0
LINE
  5
2896
  8
0
 62
     0
 10
101.11076696680929
 20
-20.873606797754451
 30
0.0
 11
101.11076696680929
 21
-25.073606797754419
 31
0.0
  0
LINE
  5
2897
  8
0
 62
     0
 10
102.22201696680931
 20
-21.42443808411738
 30
0.0
 11
102.22201696680931
 21
-24.522775511391369
 31
0.0
  0
LINE
  5
2898
  8
0
 62
     0
 10
103.3332669668093
 20
-21.977249339332008
 30
0.0
 11
103.3332669668093
 21
-23.984520959100472
 31
0.0
  0
LINE
  5
2899
  8
0
 62
     0
 10
104.4445169668093
 20
-20.545845794968571
 30
0.0
 11
104.4445169668093
 21
-23.973606797754421
 31
0.0
  0
LINE
  5
289A
  8
0
 62
     0
 10
105.5557669668093
 20
-19.073606797754319
 30
0.0
 11
105.5557669668093
 21
-22.955968401164132
 31
0.0
  0
LINE
  5
289B
  8
0
 62
     0
 10
106.6670169668093
 20
-19.073606797754309
 30
0.0
 11
106.6670169668093
 21
-20.895182693900839
 31
0.0
  0
LINE
  5
289C
  8
0
 62
     0
 10
107.7782669668093
 20
-19.073606797754309
 30
0.0
 11
107.7782669668093
 21
-20.873606797754221
 31
0.0
  0
LINE
  5
289D
  8
0
 62
     0
 10
108.8895169668093
 20
-19.073606797754302
 30
0.0
 11
108.8895169668093
 21
-20.873606797754221
 31
0.0
  0
LINE
  5
289E
  8
0
 62
     0
 10
110.00076696680929
 20
-19.073606797754291
 30
0.0
 11
110.00076696680929
 21
-20.873606797754221
 31
0.0
  0
LINE
  5
289F
  8
0
 62
     0
 10
111.11201696680931
 20
-19.07360679775428
 30
0.0
 11
111.11201696680931
 21
-20.873606797754221
 31
0.0
  0
LINE
  5
28A0
  8
0
 62
     0
 10
112.22326696680931
 20
-19.07360679775427
 30
0.0
 11
112.22326696680931
 21
-20.873606797754221
 31
0.0
  0
LINE
  5
28A1
  8
0
 62
     0
 10
113.3345169668093
 20
-19.07360679775427
 30
0.0
 11
113.3345169668093
 21
-20.873606797754221
 31
0.0
  0
LINE
  5
28A2
  8
0
 62
     0
 10
114.4457669668093
 20
-19.073606797754309
 30
0.0
 11
114.4457669668093
 21
-20.873606797754221
 31
0.0
  0
LINE
  5
28A3
  8
0
 62
     0
 10
115.5570169668093
 20
-19.073606797754358
 30
0.0
 11
115.5570169668093
 21
-20.873606797754221
 31
0.0
  0
LINE
  5
28A4
  8
0
 62
     0
 10
116.6682669668093
 20
-19.073606797754401
 30
0.0
 11
116.6682669668093
 21
-21.224275780726391
 31
0.0
  0
LINE
  5
28A5
  8
0
 62
     0
 10
117.7795169668093
 20
-19.08296324168084
 30
0.0
 11
117.7795169668093
 21
-23.72018414572748
 31
0.0
  0
LINE
  5
28A6
  8
0
 62
     0
 10
118.8907669668093
 20
-21.29890583958024
 30
0.0
 11
118.8907669668093
 21
-23.973606797754421
 31
0.0
  0
LINE
  5
28A7
  8
0
 62
     0
 10
120.00201696680929
 20
-22.084654160975511
 30
0.0
 11
120.00201696680929
 21
-24.081256839681391
 31
0.0
  0
LINE
  5
28A8
  8
0
 62
     0
 10
121.11326696680931
 20
-21.230861814786611
 30
0.0
 11
121.11326696680931
 21
-24.716351780722231
 31
0.0
  0
LINE
  5
28A9
  8
0
 62
     0
 10
122.2245169668093
 20
-20.89348112777628
 30
0.0
 11
122.2245169668093
 21
-25.053732467733379
 31
0.0
  0
ENDBLK
  5
28AB
  8
0
  0
BLOCK
  8
0
  2
*U88
 70
     1
 10
0.0
 20
0.0
 30
0.0
  3
*U88
  1

  0
SOLID
  5
28AD
  8
SAPA_FOGBAND
  6
CONTINUOUS
 10
-84.641571726353561
 20
18.934307771280011
 30
0.0
 11
-84.821849290126764
 21
18.859634359373569
 31
0.0
 12
-84.461294162580359
 22
18.859634359373569
 32
0.0
 13
-84.461294162580359
 23
18.859634359373569
 33
0.0
210
0.0
220
0.0
230
1.0
  0
SOLID
  5
28AE
  8
SAPA_FOGBAND
  6
CONTINUOUS
 10
-84.821849290126764
 20
18.859634359373569
 30
0.0
 11
-84.896522702033195
 21
18.67935679560037
 31
0.0
 12
-84.386620750673927
 22
18.67935679560037
 32
0.0
 13
-84.386620750673927
 23
18.67935679560037
 33
0.0
210
0.0
220
0.0
230
1.0
  0
SOLID
  5
28AF
  8
SAPA_FOGBAND
  6
CONTINUOUS
 10
84.821849290126764
 20
18.859634359373569
 30
0.0
 11
84.461294162580359
 21
18.859634359373569
 31
0.0
 12
84.386620750673927
 22
18.67935679560037
 32
0.0
 13
84.386620750673927
 23
18.67935679560037
 33
0.0
210
0.0
220
0.0
230
-1.0
  0
SOLID
  5
28B0
  8
SAPA_FOGBAND
  6
CONTINUOUS
 10
84.821849290126764
 20
18.499079231827171
 30
0.0
 11
84.461294162580359
 21
18.499079231827171
 31
0.0
 12
84.641571726353561
 22
18.424405819920729
 32
0.0
 13
84.641571726353561
 23
18.424405819920729
 33
0.0
210
0.0
220
0.0
230
-1.0
  0
SOLID
  5
28B1
  8
SAPA_FOGBAND
  6
CONTINUOUS
 10
-84.896522702033195
 20
18.67935679560037
 30
0.0
 11
-84.821849290126764
 21
18.499079231827171
 31
0.0
 12
-84.461294162580359
 22
18.499079231827171
 32
0.0
 13
-84.461294162580359
 23
18.499079231827171
 33
0.0
210
0.0
220
0.0
230
1.0
  0
SOLID
  5
28B2
  8
SAPA_FOGBAND
  6
CONTINUOUS
 10
84.896522702033195
 20
18.67935679560037
 30
0.0
 11
84.386620750673927
 21
18.67935679560037
 31
0.0
 12
84.461294162580359
 22
18.499079231827171
 32
0.0
 13
84.461294162580359
 23
18.499079231827171
 33
0.0
210
0.0
220
0.0
230
-1.0
  0
LINE
  5
28B3
  8
SAPA_FOGBAND
  6
CONTINUOUS
 10
-84.641571726353561
 20
18.934307771280011
 30
0.0
 11
-84.821849290126764
 21
18.859634359373569
 31
0.0
  0
LINE
  5
28B4
  8
SAPA_FOGBAND
  6
CONTINUOUS
 10
-84.461294162580359
 20
18.859634359373569
 30
0.0
 11
-84.641571726353561
 21
18.934307771280011
 31
0.0
  0
LINE
  5
28B5
  8
SAPA_FOGBAND
  6
CONTINUOUS
 10
-84.821849290126764
 20
18.859634359373569
 30
0.0
 11
-84.896522702033195
 21
18.67935679560037
 31
0.0
  0
LINE
  5
28B6
  8
SAPA_FOGBAND
  6
CONTINUOUS
 10
-84.461294162580359
 20
18.859634359373569
 30
0.0
 11
-84.386620750673927
 21
18.67935679560037
 31
0.0
  0
LINE
  5
28B7
  8
SAPA_FOGBAND
  6
CONTINUOUS
 10
-84.461294162580359
 20
18.499079231827171
 30
0.0
 11
-84.641571726353561
 21
18.424405819920729
 31
0.0
  0
LINE
  5
28B8
  8
SAPA_FOGBAND
  6
CONTINUOUS
 10
-84.641571726353561
 20
18.424405819920729
 30
0.0
 11
-84.821849290126764
 21
18.499079231827171
 31
0.0
  0
LINE
  5
28B9
  8
SAPA_FOGBAND
  6
CONTINUOUS
 10
-84.896522702033195
 20
18.67935679560037
 30
0.0
 11
-84.821849290126764
 21
18.499079231827171
 31
0.0
  0
LINE
  5
28BA
  8
SAPA_FOGBAND
  6
CONTINUOUS
 10
-84.386620750673927
 20
18.67935679560037
 30
0.0
 11
-84.461294162580359
 21
18.499079231827171
 31
0.0
  0
ENDBLK
  5
28BC
  8
0
  0
BLOCK
  8
0
  2
*U89
 70
     1
 10
0.0
 20
0.0
 30
0.0
  3
*U89
  1

  0
SOLID
  5
299E
  8
SAPA_FOGBAND
  6
CONTINUOUS
 10
-84.641571726353561
 20
18.934307771280011
 30
0.0
 11
-84.821849290126764
 21
18.859634359373569
 31
0.0
 12
-84.461294162580359
 22
18.859634359373569
 32
0.0
 13
-84.461294162580359
 23
18.859634359373569
 33
0.0
210
0.0
220
0.0
230
1.0
  0
SOLID
  5
299F
  8
SAPA_FOGBAND
  6
CONTINUOUS
 10
-84.821849290126764
 20
18.859634359373569
 30
0.0
 11
-84.896522702033195
 21
18.67935679560037
 31
0.0
 12
-84.386620750673927
 22
18.67935679560037
 32
0.0
 13
-84.386620750673927
 23
18.67935679560037
 33
0.0
210
0.0
220
0.0
230
1.0
  0
SOLID
  5
29A0
  8
SAPA_FOGBAND
  6
CONTINUOUS
 10
84.821849290126764
 20
18.859634359373569
 30
0.0
 11
84.461294162580359
 21
18.859634359373569
 31
0.0
 12
84.386620750673927
 22
18.67935679560037
 32
0.0
 13
84.386620750673927
 23
18.67935679560037
 33
0.0
210
0.0
220
0.0
230
-1.0
  0
SOLID
  5
29A1
  8
SAPA_FOGBAND
  6
CONTINUOUS
 10
84.821849290126764
 20
18.499079231827171
 30
0.0
 11
84.461294162580359
 21
18.499079231827171
 31
0.0
 12
84.641571726353561
 22
18.424405819920729
 32
0.0
 13
84.641571726353561
 23
18.424405819920729
 33
0.0
210
0.0
220
0.0
230
-1.0
  0
SOLID
  5
29A2
  8
SAPA_FOGBAND
  6
CONTINUOUS
 10
-84.896522702033195
 20
18.67935679560037
 30
0.0
 11
-84.821849290126764
 21
18.499079231827171
 31
0.0
 12
-84.461294162580359
 22
18.499079231827171
 32
0.0
 13
-84.461294162580359
 23
18.499079231827171
 33
0.0
210
0.0
220
0.0
230
1.0
  0
SOLID
  5
29A3
  8
SAPA_FOGBAND
  6
CONTINUOUS
 10
84.896522702033195
 20
18.67935679560037
 30
0.0
 11
84.386620750673927
 21
18.67935679560037
 31
0.0
 12
84.461294162580359
 22
18.499079231827171
 32
0.0
 13
84.461294162580359
 23
18.499079231827171
 33
0.0
210
0.0
220
0.0
230
-1.0
  0
LINE
  5
29A4
  8
SAPA_FOGBAND
  6
CONTINUOUS
 10
-84.641571726353561
 20
18.934307771280011
 30
0.0
 11
-84.821849290126764
 21
18.859634359373569
 31
0.0
  0
LINE
  5
29A5
  8
SAPA_FOGBAND
  6
CONTINUOUS
 10
-84.461294162580359
 20
18.859634359373569
 30
0.0
 11
-84.641571726353561
 21
18.934307771280011
 31
0.0
  0
LINE
  5
29A6
  8
SAPA_FOGBAND
  6
CONTINUOUS
 10
-84.821849290126764
 20
18.859634359373569
 30
0.0
 11
-84.896522702033195
 21
18.67935679560037
 31
0.0
  0
LINE
  5
29A7
  8
SAPA_FOGBAND
  6
CONTINUOUS
 10
-84.461294162580359
 20
18.859634359373569
 30
0.0
 11
-84.386620750673927
 21
18.67935679560037
 31
0.0
  0
LINE
  5
29A8
  8
SAPA_FOGBAND
  6
CONTINUOUS
 10
-84.461294162580359
 20
18.499079231827171
 30
0.0
 11
-84.641571726353561
 21
18.424405819920729
 31
0.0
  0
LINE
  5
29A9
  8
SAPA_FOGBAND
  6
CONTINUOUS
 10
-84.641571726353561
 20
18.424405819920729
 30
0.0
 11
-84.821849290126764
 21
18.499079231827171
 31
0.0
  0
LINE
  5
29AA
  8
SAPA_FOGBAND
  6
CONTINUOUS
 10
-84.896522702033195
 20
18.67935679560037
 30
0.0
 11
-84.821849290126764
 21
18.499079231827171
 31
0.0
  0
LINE
  5
29AB
  8
SAPA_FOGBAND
  6
CONTINUOUS
 10
-84.386620750673927
 20
18.67935679560037
 30
0.0
 11
-84.461294162580359
 21
18.499079231827171
 31
0.0
  0
ENDBLK
  5
29AD
  8
0
  0
BLOCK
  8
0
  2
*U90
 70
     1
 10
0.0
 20
0.0
 30
0.0
  3
*U90
  1

  0
TEXT
  5
2AA1
  8
SAPA_MATT
 62
     2
 10
67.699999999998894
 20
43.549455477510449
 30
0.0
 40
3.0
  1
10
  7
ISO
  0
ENDBLK
  5
2AA3
  8
0
  0
BLOCK
  8
0
  2
*U91
 70
     1
 10
0.0
 20
0.0
 30
0.0
  3
*U91
  1

  0
TEXT
  5
2AA5
  8
SAPA_MATT
 62
     2
 10
-126.8563963596021
 20
-2.1000000000003358
 30
0.0
 40
3.0
  1
50
 50
90.0
  7
ISO
  0
ENDBLK
  5
2AA7
  8
0
  0
ENDSEC
  0
SECTION
  2
ENTITIES
  0
POLYLINE
  5
7C7
  8
SAPA_ANSLUTNING
 66
     1
 10
0.0
 20
0.0
 30
0.0
 70
     1
  0
VERTEX
  5
1EEB
  8
SAPA_ANSLUTNING
 10
-85.007832962818838
 20
-24.999999999999751
 30
0.0
  0
VERTEX
  5
1EEC
  8
SAPA_ANSLUTNING
 10
-35.500000000001137
 20
-24.999999999999758
 30
0.0
  0
VERTEX
  5
1EED
  8
SAPA_ANSLUTNING
 10
-35.500000000001137
 20
-5.0000000000000071
 30
0.0
  0
VERTEX
  5
1EEE
  8
SAPA_ANSLUTNING
 10
-85.007832962818838
 20
-4.9999999999999991
 30
0.0
  0
SEQEND
  5
1EEF
  8
SAPA_ANSLUTNING
  0
INSERT
  5
A83
  8
0
  2
*U78
 10
0.0
 20
0.0
 30
0.0
  0
INSERT
  5
A84
  8
0
  2
*U79
 10
0.0
 20
0.0
 30
0.0
  0
POLYLINE
  5
B89
  8
SAPA_LIGHT
 66
     1
 10
0.0
 20
0.0
 30
0.0
  0
VERTEX
  5
1EF8
  8
SAPA_LIGHT
 10
68.578300773496025
 20
-37.000000000000682
 30
0.0
  0
VERTEX
  5
1EF9
  8
SAPA_LIGHT
 10
68.578300773496025
 20
25.00000000000021
 30
0.0
  0
VERTEX
  5
1EFA
  8
SAPA_LIGHT
 10
-45.500000000001521
 20
25.000000000000231
 30
0.0
  0
VERTEX
  5
1EFB
  8
SAPA_LIGHT
 10
-45.506403657189772
 20
5.0000000000002407
 30
0.0
  0
VERTEX
  5
1EFC
  8
SAPA_LIGHT
 10
-80.499999999010797
 20
5.000000000000238
 30
0.0
  0
VERTEX
  5
1EFD
  8
SAPA_LIGHT
 10
-80.499999999011294
 20
24.99999999999967
 30
0.0
  0
VERTEX
  5
1EFE
  8
SAPA_LIGHT
 10
-106.4999999990105
 20
24.99999999999968
 30
0.0
  0
VERTEX
  5
1EFF
  8
SAPA_LIGHT
 10
-106.4999999990104
 20
-25.00000000000032
 30
0.0
  0
VERTEX
  5
1F00
  8
SAPA_LIGHT
 10
-86.503916480914654
 20
-25.00000000000033
 30
0.0
  0
VERTEX
  5
1F01
  8
SAPA_LIGHT
 10
-86.507832962818838
 20
-37.000000000000327
 30
0.0
  0
VERTEX
  5
1F02
  8
SAPA_LIGHT
 10
68.578300773496025
 20
-37.000000000000682
 30
0.0
  0
SEQEND
  5
1F03
  8
SAPA_LIGHT
  0
POLYLINE
  5
B91
  8
SAPA_LIGHT
 66
     1
 10
0.0
 20
0.0
 30
0.0
  0
VERTEX
  5
1F04
  8
SAPA_LIGHT
 10
106.8999999999986
 20
-89.800000000000026
 30
0.0
  0
VERTEX
  5
1F05
  8
SAPA_LIGHT
 10
106.8999999999989
 20
-61.000000000000242
 30
0.0
  0
VERTEX
  5
1F06
  8
SAPA_LIGHT
 10
82.899999999998883
 20
-61.000000000000227
 30
0.0
  0
VERTEX
  5
1F07
  8
SAPA_LIGHT
 10
82.899999999998869
 20
-89.800000000000026
 30
0.0
  0
SEQEND
  5
1F08
  8
SAPA_LIGHT
  0
POLYLINE
  5
B92
  8
SAPA_LIGHT
 66
     1
 10
0.0
 20
0.0
 30
0.0
  0
VERTEX
  5
1F09
  8
SAPA_LIGHT
 10
124.49999999999881
 20
0.0000000000000568
 30
0.0
  0
VERTEX
  5
1F0A
  8
SAPA_LIGHT
 10
74.499999999998806
 20
-0.0000000000000568
 30
0.0
  0
VERTEX
  5
1F0B
  8
SAPA_LIGHT
 10
74.499999999998778
 20
-77.999999999999943
 30
0.0
  0
VERTEX
  5
1F0C
  8
SAPA_LIGHT
 10
82.899999999998869
 20
-77.999999999999943
 30
0.0
  0
VERTEX
  5
1F0D
  8
SAPA_LIGHT
 10
82.899999999998883
 20
-55.799999999999912
 30
0.0
  0
VERTEX
  5
1F0E
  8
SAPA_LIGHT
 10
106.8999999999988
 20
-55.799999999999919
 30
0.0
  0
VERTEX
  5
1F0F
  8
SAPA_LIGHT
 10
106.899999999999
 20
-78.000000000000085
 30
0.0
  0
VERTEX
  5
1F10
  8
SAPA_LIGHT
 10
124.49999999999881
 20
-78.000000000000099
 30
0.0
  0
VERTEX
  5
1F11
  8
SAPA_LIGHT
 10
124.49999999999881
 20
0.0000000000000568
 30
0.0
  0
SEQEND
  5
1F12
  8
SAPA_LIGHT
  0
POLYLINE
  5
12EF
  8
SAPA_LIGHT
 66
     1
 10
0.0
 20
0.0
 30
0.0
  0
VERTEX
  5
1F13
  8
SAPA_LIGHT
 10
62.499999999998849
 20
75.000000000000739
 30
0.0
  0
VERTEX
  5
1F14
  8
SAPA_LIGHT
 10
62.499999999998849
 20
26.000000000000728
 30
0.0
  0
VERTEX
  5
1F15
  8
SAPA_LIGHT
 10
50.999999999998799
 20
26.000000000000728
 30
0.0
  0
VERTEX
  5
1F16
  8
SAPA_LIGHT
 10
50.999999999998792
 20
75.000000000000739
 30
0.0
  0
SEQEND
  5
1F17
  8
SAPA_LIGHT
  0
POLYLINE
  5
12F0
  8
SAPA_LIGHT
 66
     1
 10
0.0
 20
0.0
 30
0.0
  0
VERTEX
  5
1F18
  8
SAPA_LIGHT
 10
-45.50000000000172
 20
75.522593981594383
 30
0.0
  0
VERTEX
  5
1F19
  8
SAPA_LIGHT
 10
-45.506403657189757
 20
14.035113899112989
 30
0.0
  0
VERTEX
  5
1F1A
  8
SAPA_LIGHT
 10
-54.501825424425867
 20
14.03511389911298
 30
0.0
  0
VERTEX
  5
1F1B
  8
SAPA_LIGHT
 10
-54.501825424425888
 20
75.522593981594383
 30
0.0
  0
SEQEND
  5
1F1C
  8
SAPA_LIGHT
  0
POLYLINE
  5
12F1
  8
SAPA_LIGHT
 66
     1
 10
0.0
 20
0.0
 30
0.0
  0
VERTEX
  5
1F1D
  8
SAPA_LIGHT
 10
-74.499999999011038
 20
75.522593981595293
 30
0.0
  0
VERTEX
  5
1F1E
  8
SAPA_LIGHT
 10
-74.499999999011493
 20
11.000000000000711
 30
0.0
  0
VERTEX
  5
1F1F
  8
SAPA_LIGHT
 10
-80.499999999010797
 20
11.000000000000711
 30
0.0
  0
VERTEX
  5
1F20
  8
SAPA_LIGHT
 10
-80.499999999010797
 20
75.522593981595293
 30
0.0
  0
SEQEND
  5
1F21
  8
SAPA_LIGHT
  0
POLYLINE
  5
15CC
  8
SAPA_ANSLUTNING
 66
     1
 10
0.0
 20
0.0
 30
0.0
  0
VERTEX
  5
1F22
  8
SAPA_ANSLUTNING
 10
-85.007832962818838
 20
-25.009185346470169
 30
0.0
  0
VERTEX
  5
1F23
  8
SAPA_ANSLUTNING
 10
-73.498647616356436
 20
-5.0091853464704172
 30
0.0
  0
VERTEX
  5
1F24
  8
SAPA_ANSLUTNING
 10
-63.489462269894027
 20
-25.009185346470169
 30
0.0
  0
VERTEX
  5
1F25
  8
SAPA_ANSLUTNING
 10
-53.480276923431632
 20
-5.0091853464704172
 30
0.0
  0
VERTEX
  5
1F26
  8
SAPA_ANSLUTNING
 10
-45.50000000000113
 20
-24.999999999999751
 30
0.0
  0
VERTEX
  5
1F27
  8
SAPA_ANSLUTNING
 10
-35.500000000001137
 20
-5.2621975070146512
 30
0.0
  0
SEQEND
  5
1F28
  8
SAPA_ANSLUTNING
  0
LINE
  5
17CC
  8
SAPA_ANSLUTNING
 10
-74.636884046168305
 20
-24.999999999999758
 30
0.0
 11
-63.62769869970591
 21
-35.500000000000469
 31
0.0
  0
LINE
  5
17CD
  8
SAPA_ANSLUTNING
 10
-63.62769869970591
 20
-35.500000000000469
 30
0.0
 11
-53.618513353243507
 21
-24.999999999999758
 31
0.0
  0
LINE
  5
17CE
  8
SAPA_ANSLUTNING
 10
-53.618513353243507
 20
-24.999999999999758
 30
0.0
 11
-43.609328006781112
 21
-35.500000000000469
 31
0.0
  0
LINE
  5
17CF
  8
SAPA_ANSLUTNING
 10
-43.609328006781112
 20
-35.500000000000469
 30
0.0
 11
-33.60932800678907
 21
-24.999999999999758
 31
0.0
  0
LINE
  5
17D0
  8
SAPA_ANSLUTNING
 10
-33.60932800678907
 20
-24.999999999999758
 30
0.0
 11
-23.609328006797028
 21
-35.500000000000469
 31
0.0
  0
LINE
  5
17D1
  8
SAPA_ANSLUTNING
 10
-23.609328006797028
 20
-35.500000000000469
 30
0.0
 11
-13.600142660334621
 21
-24.990814653529569
 31
0.0
  0
LINE
  5
17D2
  8
SAPA_ANSLUTNING
 10
-13.600142660334621
 20
-24.990814653529569
 30
0.0
 11
-3.5909573138721909
 21
-35.500000000000497
 31
0.0
  0
LINE
  5
17D3
  8
SAPA_ANSLUTNING
 10
-3.5909573138721909
 20
-35.500000000000497
 30
0.0
 11
6.4090426861098742
 21
-25.00000000000999
 31
0.0
  0
LINE
  5
17D4
  8
SAPA_ANSLUTNING
 10
6.4090426861098742
 20
-25.00000000000999
 30
0.0
 11
16.40904268609199
 21
-35.500000000000497
 31
0.0
  0
LINE
  5
17D5
  8
SAPA_ANSLUTNING
 10
16.40904268609199
 20
-35.500000000000497
 30
0.0
 11
26.418228032554371
 21
-24.990814653529569
 31
0.0
  0
LINE
  5
17D6
  8
SAPA_ANSLUTNING
 10
26.418228032554371
 20
-24.990814653529569
 30
0.0
 11
36.427413379016798
 21
-35.500000000000497
 31
0.0
  0
LINE
  5
17D7
  8
SAPA_ANSLUTNING
 10
36.427413379016798
 20
-35.500000000000497
 30
0.0
 11
46.427413379008748
 21
-25.000000000000021
 31
0.0
  0
LINE
  5
17D8
  8
SAPA_ANSLUTNING
 10
46.427413379008748
 20
-25.000000000000021
 30
0.0
 11
56.427413379000832
 21
-35.500000000000497
 31
0.0
  0
LINE
  5
17D9
  8
SAPA_ANSLUTNING
 10
56.427413379000832
 20
-35.500000000000497
 30
0.0
 11
66.427413378992838
 21
-25.000000000000021
 31
0.0
  0
LINE
  5
17DA
  8
SAPA_ANSLUTNING
 10
66.427413378992838
 20
-25.000000000000021
 30
0.0
 11
68.999999999998863
 21
-27.557849360498739
 31
0.0
  0
LINE
  5
17DC
  8
SAPA_ANSLUTNING
 10
68.999999999998835
 20
-24.99999999999979
 30
0.0
 11
-37.507832962818867
 21
-24.999999999999758
 31
0.0
  0
LINE
  5
17DD
  8
SAPA_ANSLUTNING
 10
68.999999999998863
 20
-26.0000000000007
 30
0.0
 11
68.999999999998863
 21
-25.02123848169369
 31
0.0
  0
LINE
  5
17DE
  8
SAPA_ANSLUTNING
 10
-74.636884046168305
 20
-24.999999999999758
 30
0.0
 11
-85.007832962818838
 21
-34.891282615187031
 31
0.0
  0
INSERT
  5
17DF
  8
0
  2
*U80
 10
0.0
 20
0.0
 30
0.0
  0
INSERT
  5
17E0
  8
0
  2
*U81
 10
0.0
 20
0.0
 30
0.0
  0
INSERT
  5
17E1
  8
0
  2
*U82
 10
0.0
 20
0.0
 30
0.0
  0
INSERT
  5
17E7
  8
0
  2
*U83
 10
0.0
 20
0.0
 30
0.0
  0
LINE
  5
1C22
  8
SAPA_PROFIL
 10
68.499999999998863
 20
-35.500000000000583
 30
0.0
 11
-85.007832962818838
 21
-35.50000000000022
 31
0.0
  0
LINE
  5
1C23
  8
SAPA_PROFIL
 10
-85.007832962818838
 20
-35.50000000000022
 30
0.0
 11
-85.007832962818838
 21
-6.0000000000002132
 31
0.0
  0
LINE
  5
1C24
  8
SAPA_PROFIL
 10
-85.007832962818838
 20
-6.0000000000002132
 30
0.0
 11
-86.507832962818838
 21
-6.0000000000002132
 31
0.0
  0
LINE
  5
1C25
  8
SAPA_PROFIL
 10
-86.507832962818838
 20
-6.0000000000002132
 30
0.0
 11
-86.507832962818838
 21
-36.000000000000213
 31
0.0
  0
ARC
  5
1C26
  8
SAPA_PROFIL
 10
-85.507832962818824
 20
-36.000000000000213
 30
0.0
 40
1.0
 50
180.0
 51
270.0
  0
LINE
  5
1C27
  8
SAPA_PROFIL
 10
-85.507832962818824
 20
-37.000000000000213
 30
0.0
 11
68.499999999998863
 21
-37.000000000000583
 31
0.0
  0
ARC
  5
1C28
  8
SAPA_PROFIL
 10
68.499999999998806
 20
-35.000000000000533
 30
0.0
 40
2.000000000000056
 50
270.00000000000171
 51
0.0000000000016284
  0
LINE
  5
1C29
  8
SAPA_PROFIL
 10
70.499999999998863
 20
-35.000000000000469
 30
0.0
 11
70.499999999998863
 21
-26.0000000000007
 31
0.0
  0
LINE
  5
1C2A
  8
SAPA_PROFIL
 10
70.499999999998863
 20
-26.0000000000007
 30
0.0
 11
68.999999999998863
 21
-26.0000000000007
 31
0.0
  0
LINE
  5
1C2B
  8
SAPA_PROFIL
 10
68.999999999998863
 20
-26.0000000000007
 30
0.0
 11
68.999999999998863
 21
-35.000000000000469
 31
0.0
  0
ARC
  5
1C2C
  8
SAPA_PROFIL
 10
68.499999999998792
 20
-35.000000000000512
 30
0.0
 40
0.5000000000000711
 50
270.00000000000807
 51
0.0000000000048853
  0
LINE
  5
1C2D
  8
SAPA_FYLLNING
 10
-29.4598642162257
 20
31.348467485783171
 30
0.0
 11
42.799999999999258
 21
31.348467485783178
 31
0.0
  0
ARC
  5
1C2E
  8
SAPA_FYLLNING
 10
42.799999999999258
 20
37.348467485783182
 30
0.0
 40
6.0
 50
270.0
 51
90.0
  0
LINE
  5
1C2F
  8
SAPA_FYLLNING
 10
42.799999999999258
 20
43.348467485783182
 30
0.0
 11
-29.4598642162257
 21
43.34846748578498
 31
0.0
  0
ARC
  5
1C30
  8
SAPA_FYLLNING
 10
-29.459864216225771
 20
49.348467485783956
 30
0.0
 40
5.9999999999989688
 50
90.000000000000668
 51
270.00000000000068
  0
LINE
  5
1C31
  8
SAPA_FYLLNING
 10
-29.459864216225839
 20
55.348467485782919
 30
0.0
 11
44.999999999998167
 21
55.348467485785001
 31
0.0
  0
ARC
  5
1C32
  8
SAPA_FYLLNING
 10
44.999999999998167
 20
61.348467485784099
 30
0.0
 40
5.9999999999990967
 50
270.00000000000011
 51
90.0
  0
LINE
  5
1C33
  8
SAPA_FYLLNING
 10
44.999999999998167
 20
67.348467485783189
 30
0.0
 11
-29.459864216225711
 21
67.348467485783161
 31
0.0
  0
POLYLINE
  5
1DDE
  8
SAPA_PROFIL
 66
     1
 10
0.0
 20
0.0
 30
0.0
 70
     1
  0
VERTEX
  5
23CF
  8
SAPA_PROFIL
 10
68.49999999999882
 20
6.169827654317344
 30
0.0
  0
VERTEX
  5
23D0
  8
SAPA_PROFIL
 10
67.49999999999882
 20
5.169827654317344
 30
0.0
  0
VERTEX
  5
23D1
  8
SAPA_PROFIL
 10
67.499999999998806
 20
-5.8301723456826551
 30
0.0
  0
VERTEX
  5
23D2
  8
SAPA_PROFIL
 10
68.499999999998806
 20
-6.8301723456826551
 30
0.0
  0
VERTEX
  5
23D3
  8
SAPA_PROFIL
 10
68.499999999998806
 20
-9.3301716036108076
 30
0.0
 42
-1.0000014841447959
  0
VERTEX
  5
23D4
  8
SAPA_PROFIL
 10
67.499999999999375
 20
-9.3301716036108076
 30
0.0
  0
VERTEX
  5
23D5
  8
SAPA_PROFIL
 10
67.499999999998806
 20
-8.0801723456826551
 30
0.0
  0
VERTEX
  5
23D6
  8
SAPA_PROFIL
 10
66.399999999998784
 20
-8.0801723456826551
 30
0.0
  0
VERTEX
  5
23D7
  8
SAPA_PROFIL
 10
66.399999999998784
 20
-15.58017234568265
 30
0.0
  0
VERTEX
  5
23D8
  8
SAPA_PROFIL
 10
67.499999999998806
 20
-15.58017234568265
 30
0.0
  0
VERTEX
  5
23D9
  8
SAPA_PROFIL
 10
67.499999999998806
 20
-14.33017044287967
 30
0.0
 42
-0.9999967549392536
  0
VERTEX
  5
23DA
  8
SAPA_PROFIL
 10
68.499999999996987
 20
-14.330171003419681
 30
0.0
  0
VERTEX
  5
23DB
  8
SAPA_PROFIL
 10
68.499999999998806
 20
-16.366070730544969
 30
0.0
  0
VERTEX
  5
23DC
  8
SAPA_PROFIL
 10
67.366025403783226
 20
-18.330172345682652
 30
0.0
 42
-0.577350269189629
  0
VERTEX
  5
23DD
  8
SAPA_PROFIL
 10
65.63397459621433
 20
-18.330172345682652
 30
0.0
  0
VERTEX
  5
23DE
  8
SAPA_PROFIL
 10
64.633974596214387
 20
-16.598121538113929
 30
0.0
 42
-0.4142135623730394
  0
VERTEX
  5
23DF
  8
SAPA_PROFIL
 10
64.999999999998636
 20
-15.23209613432951
 30
0.0
  0
VERTEX
  5
23E0
  8
SAPA_PROFIL
 10
64.999999999998636
 20
14.571751442964199
 30
0.0
 42
-0.4142135623730394
  0
VERTEX
  5
23E1
  8
SAPA_PROFIL
 10
64.633974596214401
 20
15.9377768467485
 30
0.0
  0
VERTEX
  5
23E2
  8
SAPA_PROFIL
 10
65.633974596214344
 20
17.669827654317341
 30
0.0
 42
-0.5773502691896291
  0
VERTEX
  5
23E3
  8
SAPA_PROFIL
 10
67.36602540378324
 20
17.669827654317341
 30
0.0
  0
VERTEX
  5
23E4
  8
SAPA_PROFIL
 10
68.49999999999882
 20
15.705726039179551
 30
0.0
  0
VERTEX
  5
23E5
  8
SAPA_PROFIL
 10
68.499999999997002
 20
13.66982631205431
 30
0.0
 42
-0.9999967549392536
  0
VERTEX
  5
23E6
  8
SAPA_PROFIL
 10
67.49999999999882
 20
13.66982575151431
 30
0.0
  0
VERTEX
  5
23E7
  8
SAPA_PROFIL
 10
67.49999999999882
 20
14.91982765431734
 30
0.0
  0
VERTEX
  5
23E8
  8
SAPA_PROFIL
 10
66.399999999998784
 20
14.91982765431734
 30
0.0
  0
VERTEX
  5
23E9
  8
SAPA_PROFIL
 10
66.399999999998784
 20
7.419827654317344
 30
0.0
  0
VERTEX
  5
23EA
  8
SAPA_PROFIL
 10
67.49999999999882
 20
7.419827654317344
 30
0.0
  0
VERTEX
  5
23EB
  8
SAPA_PROFIL
 10
67.499999999999389
 20
8.6698269122454974
 30
0.0
 42
-1.0000014841447959
  0
VERTEX
  5
23EC
  8
SAPA_PROFIL
 10
68.49999999999882
 20
8.6698269122454974
 30
0.0
  0
SEQEND
  5
23ED
  8
SAPA_PROFIL
  0
POLYLINE
  5
1DDF
  8
SAPA_PROFIL
 66
     1
 10
0.0
 20
0.0
 30
0.0
 70
     1
  0
VERTEX
  5
23EE
  8
SAPA_PROFIL
 10
131.3027676210622
 20
-72.999999999986699
 30
0.0
  0
VERTEX
  5
23EF
  8
SAPA_PROFIL
 10
131.9585557485384
 20
-48.599999999986601
 30
0.0
 42
0.6681786379237078
  0
VERTEX
  5
23F0
  8
SAPA_PROFIL
 10
131.4464237141801
 20
-48.387867965633511
 30
0.0
  0
VERTEX
  5
23F1
  8
SAPA_PROFIL
 10
129.4464237141824
 20
-50.38786796563079
 30
0.0
 42
0.733230336258869
  0
VERTEX
  5
23F2
  8
SAPA_PROFIL
 10
129.71065020184
 20
-50.895442325890031
 30
0.0
  0
VERTEX
  5
23F3
  8
SAPA_PROFIL
 10
130.30646129523851
 20
-50.790384754718502
 30
0.0
 42
-0.4663076581593259
  0
VERTEX
  5
23F4
  8
SAPA_PROFIL
 10
130.6585557485387
 20
-51.085827080621932
 30
0.0
  0
VERTEX
  5
23F5
  8
SAPA_PROFIL
 10
130.0027676210625
 20
-72.999999999986699
 30
0.0
 42
-0.41421356237163
  0
VERTEX
  5
23F6
  8
SAPA_PROFIL
 10
129.50276762106481
 20
-73.499999999986699
 30
0.0
  0
VERTEX
  5
23F7
  8
SAPA_PROFIL
 10
120.3000000022175
 20
-73.499999999986699
 30
0.0
 42
-0.4142135623716965
  0
VERTEX
  5
23F8
  8
SAPA_PROFIL
 10
119.8000000022175
 20
-72.999999999991701
 30
0.0
  0
VERTEX
  5
23F9
  8
SAPA_PROFIL
 10
119.8000000022175
 20
-61.299999999988238
 30
0.0
 42
0.4142135623729286
  0
VERTEX
  5
23FA
  8
SAPA_PROFIL
 10
119.5000000022178
 20
-60.999999999988063
 30
0.0
  0
VERTEX
  5
23FB
  8
SAPA_PROFIL
 10
118.8000000022175
 20
-60.999999999988063
 30
0.0
 42
0.414213562373206
  0
VERTEX
  5
23FC
  8
SAPA_PROFIL
 10
118.50000000221731
 20
-61.299999999988238
 30
0.0
  0
VERTEX
  5
23FD
  8
SAPA_PROFIL
 10
118.50000000221731
 20
-72.700000000002433
 30
0.0
 42
-0.4142135623732283
  0
VERTEX
  5
23FE
  8
SAPA_PROFIL
 10
118.00000000221731
 20
-73.200000000002433
 30
0.0
  0
VERTEX
  5
23FF
  8
SAPA_PROFIL
 10
116.800000002218
 20
-73.200000000001523
 30
0.0
 42
0.4142135623732616
  0
VERTEX
  5
2400
  8
SAPA_PROFIL
 10
116.5000000022178
 20
-73.500000000001251
 30
0.0
  0
VERTEX
  5
2401
  8
SAPA_PROFIL
 10
116.50000000221731
 20
-74.699999999986971
 30
0.0
 42
0.4142135623717076
  0
VERTEX
  5
2402
  8
SAPA_PROFIL
 10
116.80000000221889
 20
-74.999999999986699
 30
0.0
  0
VERTEX
  5
2403
  8
SAPA_PROFIL
 10
146.70000000221711
 20
-75.000000000000341
 30
0.0
 42
0.4142135623732531
  0
VERTEX
  5
2404
  8
SAPA_PROFIL
 10
147.00000000221729
 20
-74.700000000000159
 30
0.0
  0
VERTEX
  5
2405
  8
SAPA_PROFIL
 10
147.00000000221729
 20
-53.204567898555872
 30
0.0
 42
0.4209196114694233
  0
VERTEX
  5
2406
  8
SAPA_PROFIL
 10
146.8000521732651
 20
-52.999999999986699
 30
0.0
  0
VERTEX
  5
2407
  8
SAPA_PROFIL
 10
145.9999987229848
 20
-52.999999999986699
 30
0.0
  0
VERTEX
  5
2408
  8
SAPA_PROFIL
 10
145.9999987229848
 20
-53.299999999986419
 30
0.0
 42
-0.4142135623730117
  0
VERTEX
  5
2409
  8
SAPA_PROFIL
 10
145.79999872298501
 20
-53.499999999986699
 30
0.0
  0
VERTEX
  5
240A
  8
SAPA_PROFIL
 10
145.5828209575152
 20
-53.499999999986699
 30
0.0
 42
-0.1988669396405999
  0
VERTEX
  5
240B
  8
SAPA_PROFIL
 10
145.44142432339871
 20
-53.441446074023467
 30
0.0
  0
VERTEX
  5
240C
  8
SAPA_PROFIL
 10
144.99982389591011
 20
-52.999999999986699
 30
0.0
  0
VERTEX
  5
240D
  8
SAPA_PROFIL
 10
144.5027676210625
 20
-52.502943725139062
 30
0.0
  0
VERTEX
  5
240E
  8
SAPA_PROFIL
 10
144.5027676210652
 20
-50.999599343579909
 30
0.0
 42
0.4956073595117196
  0
VERTEX
  5
240F
  8
SAPA_PROFIL
 10
144.71674335558049
 20
-49.422537522860132
 30
0.0
  0
VERTEX
  5
2410
  8
SAPA_PROFIL
 10
143.65456466263319
 20
-48.360358829912791
 30
0.0
 42
0.6681786379165803
  0
VERTEX
  5
2411
  8
SAPA_PROFIL
 10
143.3027676210622
 20
-48.506077935737608
 30
0.0
  0
VERTEX
  5
2412
  8
SAPA_PROFIL
 10
143.3027676210622
 20
-52.999999999986699
 30
0.0
  0
VERTEX
  5
2413
  8
SAPA_PROFIL
 10
145.37993951020229
 20
-55.077171889126362
 30
0.0
 42
-0.2061234514950363
  0
VERTEX
  5
2414
  8
SAPA_PROFIL
 10
145.52619420079191
 20
-55.444577426987387
 30
0.0
  0
VERTEX
  5
2415
  8
SAPA_PROFIL
 10
145.1066307114001
 20
-70.583112883594708
 30
0.0
 42
-0.4061212134723014
  0
VERTEX
  5
2416
  8
SAPA_PROFIL
 10
142.10778222430051
 20
-73.499999999986699
 30
0.0
  0
VERTEX
  5
2417
  8
SAPA_PROFIL
 10
131.8027676210649
 20
-73.499999999986699
 30
0.0
 42
-0.41421356237163
  0
SEQEND
  5
2418
  8
SAPA_PROFIL
  0
POLYLINE
  5
1DE0
  8
SAPA_PROFIL
  6
CONTINUOUS
 62
     7
 66
     1
 10
0.0
 20
0.0
 30
0.0
 70
     1
  0
VERTEX
  5
2419
  8
SAPA_PROFIL
  6
CONTINUOUS
 62
     7
 10
119.0878679656399
 20
2.0878679656459691
 30
0.0
  0
VERTEX
  5
241A
  8
SAPA_PROFIL
  6
CONTINUOUS
 62
     7
 10
120.5355339059291
 20
3.5355339059347131
 30
0.0
 42
-0.198912367379658
  0
VERTEX
  5
241B
  8
SAPA_PROFIL
  6
CONTINUOUS
 62
     7
 10
124.07106781186179
 20
5.000000000001946
 30
0.0
  0
VERTEX
  5
241C
  8
SAPA_PROFIL
  6
CONTINUOUS
 62
     7
 10
141.23873016277591
 20
5.000000000001946
 30
0.0
 42
-0.1989123673795848
  0
VERTEX
  5
241D
  8
SAPA_PROFIL
  6
CONTINUOUS
 62
     7
 10
141.45086219713181
 20
4.9121320343579242
 30
0.0
  0
VERTEX
  5
241E
  8
SAPA_PROFIL
  6
CONTINUOUS
 62
     7
 10
141.7621320343529
 20
4.6008621971368617
 30
0.0
 42
-0.1989123673795849
  0
VERTEX
  5
241F
  8
SAPA_PROFIL
  6
CONTINUOUS
 62
     7
 10
141.8499999999969
 20
4.3887301627809299
 30
0.0
  0
VERTEX
  5
2420
  8
SAPA_PROFIL
  6
CONTINUOUS
 62
     7
 10
141.8499999999959
 20
2.500000000001946
 30
0.0
 42
0.4142135623730951
  0
VERTEX
  5
2421
  8
SAPA_PROFIL
  6
CONTINUOUS
 62
     7
 10
142.34999999999579
 20
2.000000000001946
 30
0.0
  0
VERTEX
  5
2422
  8
SAPA_PROFIL
  6
CONTINUOUS
 62
     7
 10
143.24999999999579
 20
2.000000000001946
 30
0.0
 42
0.4142135623730951
  0
VERTEX
  5
2423
  8
SAPA_PROFIL
  6
CONTINUOUS
 62
     7
 10
143.74999999999579
 20
2.500000000001946
 30
0.0
  0
VERTEX
  5
2424
  8
SAPA_PROFIL
  6
CONTINUOUS
 62
     7
 10
143.7499999999979
 20
5.1757359312888553
 30
0.0
 42
0.1989123673811711
  0
VERTEX
  5
2425
  8
SAPA_PROFIL
  6
CONTINUOUS
 62
     7
 10
143.66213203435279
 20
5.3878679656459241
 30
0.0
  0
VERTEX
  5
2426
  8
SAPA_PROFIL
  6
CONTINUOUS
 62
     7
 10
141.1378679656398
 20
7.9121320343579242
 30
0.0
 42
0.1989123673795848
  0
VERTEX
  5
2427
  8
SAPA_PROFIL
  6
CONTINUOUS
 62
     7
 10
140.9257359312839
 20
8.0000000000019469
 30
0.0
  0
VERTEX
  5
2428
  8
SAPA_PROFIL
  6
CONTINUOUS
 62
     7
 10
134.6999999999959
 20
8.0000000000009237
 30
0.0
 42
0.1316524975871777
  0
VERTEX
  5
2429
  8
SAPA_PROFIL
  6
CONTINUOUS
 62
     7
 10
134.5499999999958
 20
7.959807621136874
 30
0.0
  0
VERTEX
  5
242A
  8
SAPA_PROFIL
  6
CONTINUOUS
 62
     7
 10
133.64999999999591
 20
7.440192378865631
 30
0.0
 42
-0.1316524975875274
  0
VERTEX
  5
242B
  8
SAPA_PROFIL
  6
CONTINUOUS
 62
     7
 10
133.49999999999579
 20
7.4000000000011283
 30
0.0
 42
-0.1316524975875274
  0
VERTEX
  5
242C
  8
SAPA_PROFIL
  6
CONTINUOUS
 62
     7
 10
133.3499999999959
 20
7.4401923788658593
 30
0.0
  0
VERTEX
  5
242D
  8
SAPA_PROFIL
  6
CONTINUOUS
 62
     7
 10
132.4499999999959
 20
7.959807621136874
 30
0.0
 42
0.1316524975870712
  0
VERTEX
  5
242E
  8
SAPA_PROFIL
  6
CONTINUOUS
 62
     7
 10
132.2999999999958
 20
8.0000000000009237
 30
0.0
  0
VERTEX
  5
242F
  8
SAPA_PROFIL
  6
CONTINUOUS
 62
     7
 10
112.6999999999959
 20
8.0000000000009237
 30
0.0
 42
0.1316524975871777
  0
VERTEX
  5
2430
  8
SAPA_PROFIL
  6
CONTINUOUS
 62
     7
 10
112.5499999999958
 20
7.959807621136874
 30
0.0
  0
VERTEX
  5
2431
  8
SAPA_PROFIL
  6
CONTINUOUS
 62
     7
 10
111.6499999999959
 20
7.440192378865631
 30
0.0
 42
-0.1316524975875274
  0
VERTEX
  5
2432
  8
SAPA_PROFIL
  6
CONTINUOUS
 62
     7
 10
111.49999999999579
 20
7.4000000000011283
 30
0.0
 42
-0.1316524975875274
  0
VERTEX
  5
2433
  8
SAPA_PROFIL
  6
CONTINUOUS
 62
     7
 10
111.3499999999959
 20
7.4401923788658593
 30
0.0
  0
VERTEX
  5
2434
  8
SAPA_PROFIL
  6
CONTINUOUS
 62
     7
 10
110.4499999999959
 20
7.959807621136874
 30
0.0
 42
0.1316524975870712
  0
VERTEX
  5
2435
  8
SAPA_PROFIL
  6
CONTINUOUS
 62
     7
 10
110.2999999999958
 20
8.0000000000009237
 30
0.0
  0
VERTEX
  5
2436
  8
SAPA_PROFIL
  6
CONTINUOUS
 62
     7
 10
90.699999999995796
 20
8.0000000000009237
 30
0.0
 42
0.1316524975871006
  0
VERTEX
  5
2437
  8
SAPA_PROFIL
  6
CONTINUOUS
 62
     7
 10
90.549999999996032
 20
7.9598076211364202
 30
0.0
  0
VERTEX
  5
2438
  8
SAPA_PROFIL
  6
CONTINUOUS
 62
     7
 10
89.649999999995813
 20
7.4401923788658593
 30
0.0
 42
-0.1316524975875669
  0
VERTEX
  5
2439
  8
SAPA_PROFIL
  6
CONTINUOUS
 62
     7
 10
89.49999999999585
 20
7.4000000000009001
 30
0.0
 42
-0.1316524975875274
  0
VERTEX
  5
243A
  8
SAPA_PROFIL
  6
CONTINUOUS
 62
     7
 10
89.349999999995873
 20
7.4401923788658593
 30
0.0
  0
VERTEX
  5
243B
  8
SAPA_PROFIL
  6
CONTINUOUS
 62
     7
 10
88.449999999995768
 20
7.959807621136874
 30
0.0
 42
0.1316524975869701
  0
VERTEX
  5
243C
  8
SAPA_PROFIL
  6
CONTINUOUS
 62
     7
 10
88.299999999995904
 20
8.0000000000019469
 30
0.0
  0
VERTEX
  5
243D
  8
SAPA_PROFIL
  6
CONTINUOUS
 62
     7
 10
82.074264068707805
 20
8.0000000000019469
 30
0.0
 42
0.1989123673796162
  0
VERTEX
  5
243E
  8
SAPA_PROFIL
  6
CONTINUOUS
 62
     7
 10
81.862132034351873
 20
7.9121320343579242
 30
0.0
  0
VERTEX
  5
243F
  8
SAPA_PROFIL
  6
CONTINUOUS
 62
     7
 10
79.33786796563794
 20
5.3878679656459241
 30
0.0
 42
0.1989123673805862
  0
VERTEX
  5
2440
  8
SAPA_PROFIL
  6
CONTINUOUS
 62
     7
 10
79.249999999993804
 20
5.1757359312888553
 30
0.0
  0
VERTEX
  5
2441
  8
SAPA_PROFIL
  6
CONTINUOUS
 62
     7
 10
79.24999999999585
 20
2.500000000001946
 30
0.0
 42
0.4142135623730951
  0
VERTEX
  5
2442
  8
SAPA_PROFIL
  6
CONTINUOUS
 62
     7
 10
79.74999999999585
 20
2.000000000001946
 30
0.0
  0
VERTEX
  5
2443
  8
SAPA_PROFIL
  6
CONTINUOUS
 62
     7
 10
80.649999999995941
 20
2.000000000001946
 30
0.0
 42
0.4142135623730951
  0
VERTEX
  5
2444
  8
SAPA_PROFIL
  6
CONTINUOUS
 62
     7
 10
81.149999999995956
 20
2.500000000001946
 30
0.0
  0
VERTEX
  5
2445
  8
SAPA_PROFIL
  6
CONTINUOUS
 62
     7
 10
81.149999999994805
 20
4.3887301627809299
 30
0.0
 42
-0.1989123673796162
  0
VERTEX
  5
2446
  8
SAPA_PROFIL
  6
CONTINUOUS
 62
     7
 10
81.237867965638941
 20
4.6008621971368617
 30
0.0
  0
VERTEX
  5
2447
  8
SAPA_PROFIL
  6
CONTINUOUS
 62
     7
 10
81.549137802859889
 20
4.9121320343579242
 30
0.0
 42
-0.1989123673796162
  0
VERTEX
  5
2448
  8
SAPA_PROFIL
  6
CONTINUOUS
 62
     7
 10
81.761269837215821
 20
5.000000000001946
 30
0.0
  0
VERTEX
  5
2449
  8
SAPA_PROFIL
  6
CONTINUOUS
 62
     7
 10
98.928932188129863
 20
5.000000000001946
 30
0.0
 42
-0.198912367379658
  0
VERTEX
  5
244A
  8
SAPA_PROFIL
  6
CONTINUOUS
 62
     7
 10
102.4644660940628
 20
3.53553390593494
 30
0.0
  0
VERTEX
  5
244B
  8
SAPA_PROFIL
  6
CONTINUOUS
 62
     7
 10
103.9121320343518
 20
2.0878679656459691
 30
0.0
 42
0.198912367379658
  0
VERTEX
  5
244C
  8
SAPA_PROFIL
  6
CONTINUOUS
 62
     7
 10
104.1242640687077
 20
2.000000000001946
 30
0.0
  0
VERTEX
  5
244D
  8
SAPA_PROFIL
  6
CONTINUOUS
 62
     7
 10
111.49999999999579
 20
2.000000000001946
 30
0.0
  0
VERTEX
  5
244E
  8
SAPA_PROFIL
  6
CONTINUOUS
 62
     7
 10
118.8757359312839
 20
2.000000000001946
 30
0.0
 42
0.198912367379658
  0
SEQEND
  5
244F
  8
SAPA_PROFIL
  6
CONTINUOUS
 62
     7
  0
POLYLINE
  5
1DE1
  8
SAPA_PROFIL
  6
CONTINUOUS
 66
     1
 10
0.0
 20
0.0
 30
0.0
 70
     1
  0
VERTEX
  5
2450
  8
SAPA_PROFIL
  6
CONTINUOUS
 10
78.500000004083816
 20
-40.799999999996949
 30
0.0
 42
-0.414213562374094
  0
VERTEX
  5
2451
  8
SAPA_PROFIL
  6
CONTINUOUS
 10
78.800000004082861
 20
-41.099999999997017
 30
0.0
  0
VERTEX
  5
2452
  8
SAPA_PROFIL
  6
CONTINUOUS
 10
78.80000000408377
 20
-41.999999999996987
 30
0.0
 42
-0.4142135623730951
  0
VERTEX
  5
2453
  8
SAPA_PROFIL
  6
CONTINUOUS
 10
78.500000004083816
 20
-42.299999999996949
 30
0.0
  0
VERTEX
  5
2454
  8
SAPA_PROFIL
  6
CONTINUOUS
 10
77.000000004083816
 20
-42.299999999996949
 30
0.0
 42
0.4142135623730951
  0
VERTEX
  5
2455
  8
SAPA_PROFIL
  6
CONTINUOUS
 10
76.500000004083816
 20
-42.799999999996949
 30
0.0
  0
VERTEX
  5
2456
  8
SAPA_PROFIL
  6
CONTINUOUS
 10
76.50000000405187
 20
-45.799999999982973
 30
0.0
 42
0.4142135623760252
  0
VERTEX
  5
2457
  8
SAPA_PROFIL
  6
CONTINUOUS
 10
77.00000000405187
 20
-46.299999999987968
 30
0.0
  0
VERTEX
  5
2458
  8
SAPA_PROFIL
  6
CONTINUOUS
 10
93.700000000013887
 20
-46.299999999987968
 30
0.0
 42
0.4142135623760253
  0
VERTEX
  5
2459
  8
SAPA_PROFIL
  6
CONTINUOUS
 10
94.200000000013873
 20
-45.799999999982973
 30
0.0
  0
VERTEX
  5
245A
  8
SAPA_PROFIL
  6
CONTINUOUS
 10
94.199999999981813
 20
-42.799999999996949
 30
0.0
 42
0.4142135623730951
  0
VERTEX
  5
245B
  8
SAPA_PROFIL
  6
CONTINUOUS
 10
93.699999999981827
 20
-42.299999999996949
 30
0.0
  0
VERTEX
  5
245C
  8
SAPA_PROFIL
  6
CONTINUOUS
 10
92.499999999982919
 20
-42.299999999996047
 30
0.0
 42
-0.414213562374094
  0
VERTEX
  5
245D
  8
SAPA_PROFIL
  6
CONTINUOUS
 10
92.199999999982836
 20
-41.999999999996987
 30
0.0
  0
VERTEX
  5
245E
  8
SAPA_PROFIL
  6
CONTINUOUS
 10
92.199999999982836
 20
-41.099999999997017
 30
0.0
 42
-0.414213562375093
  0
VERTEX
  5
245F
  8
SAPA_PROFIL
  6
CONTINUOUS
 10
92.499999999982919
 20
-40.799999999996949
 30
0.0
  0
VERTEX
  5
2460
  8
SAPA_PROFIL
  6
CONTINUOUS
 10
93.899999999982896
 20
-40.799999999997979
 30
0.0
 42
0.414213562374094
  0
VERTEX
  5
2461
  8
SAPA_PROFIL
  6
CONTINUOUS
 10
94.19999999998285
 20
-40.499999999997002
 30
0.0
  0
VERTEX
  5
2462
  8
SAPA_PROFIL
  6
CONTINUOUS
 10
94.199999999998084
 20
-30.62225809241507
 30
0.0
 42
-0.267949192430926
  0
VERTEX
  5
2463
  8
SAPA_PROFIL
  6
CONTINUOUS
 10
95.449999999999903
 20
-28.45719458295704
 30
0.0
  0
VERTEX
  5
2464
  8
SAPA_PROFIL
  6
CONTINUOUS
 10
98.250000000059885
 20
-26.84061382919397
 30
0.0
 42
0.2679491924363432
  0
VERTEX
  5
2465
  8
SAPA_PROFIL
  6
CONTINUOUS
 10
98.500000000060894
 20
-26.40760112729307
 30
0.0
  0
VERTEX
  5
2466
  8
SAPA_PROFIL
  6
CONTINUOUS
 10
98.499999999968935
 20
-21.299999999994
 30
0.0
 42
0.4142135623682002
  0
VERTEX
  5
2467
  8
SAPA_PROFIL
  6
CONTINUOUS
 10
98.199999999968924
 20
-20.999999999999051
 30
0.0
  0
VERTEX
  5
2468
  8
SAPA_PROFIL
  6
CONTINUOUS
 10
97.799999996326818
 20
-20.999999999999051
 30
0.0
 42
-0.4142135623730784
  0
VERTEX
  5
2469
  8
SAPA_PROFIL
  6
CONTINUOUS
 10
97.299999996326875
 20
-20.499999999999051
 30
0.0
  0
VERTEX
  5
246A
  8
SAPA_PROFIL
  6
CONTINUOUS
 10
97.299999996326875
 20
-8.9999999999999591
 30
0.0
 42
0.4142135623730951
  0
VERTEX
  5
246B
  8
SAPA_PROFIL
  6
CONTINUOUS
 10
96.999999996326864
 20
-8.6999999999998927
 30
0.0
  0
VERTEX
  5
246C
  8
SAPA_PROFIL
  6
CONTINUOUS
 10
96.799999996326932
 20
-8.7000000000000064
 30
0.0
 42
-0.4142135623730951
  0
VERTEX
  5
246D
  8
SAPA_PROFIL
  6
CONTINUOUS
 10
96.49999999632692
 20
-8.4000000000000519
 30
0.0
  0
VERTEX
  5
246E
  8
SAPA_PROFIL
  6
CONTINUOUS
 10
96.499999996326864
 20
-5.9999999999840439
 30
0.0
 42
0.4142135623730951
  0
VERTEX
  5
246F
  8
SAPA_PROFIL
  6
CONTINUOUS
 10
96.199999996326852
 20
-5.6999999999839757
 30
0.0
  0
VERTEX
  5
2470
  8
SAPA_PROFIL
  6
CONTINUOUS
 10
94.700000000032858
 20
-5.7000000000529836
 30
0.0
 42
-0.4142135623730951
  0
VERTEX
  5
2471
  8
SAPA_PROFIL
  6
CONTINUOUS
 10
94.200000000032873
 20
-5.2000000000529836
 30
0.0
  0
VERTEX
  5
2472
  8
SAPA_PROFIL
  6
CONTINUOUS
 10
94.200000000032873
 20
2.9999999999360329
 30
0.0
 42
0.4142135623730951
  0
VERTEX
  5
2473
  8
SAPA_PROFIL
  6
CONTINUOUS
 10
93.900000000032918
 20
3.2999999999361012
 30
0.0
  0
VERTEX
  5
2474
  8
SAPA_PROFIL
  6
CONTINUOUS
 10
85.200000000035814
 20
3.300000000007953
 30
0.0
 42
0.4142135623711971
  0
VERTEX
  5
2475
  8
SAPA_PROFIL
  6
CONTINUOUS
 10
84.900000000032904
 20
3.0000000000069749
 30
0.0
  0
VERTEX
  5
2476
  8
SAPA_PROFIL
  6
CONTINUOUS
 10
84.899999999998926
 20
-1.499999999984952
 30
0.0
 42
-0.4142135623686664
  0
VERTEX
  5
2477
  8
SAPA_PROFIL
  6
CONTINUOUS
 10
82.200000000018875
 20
-4.199999999963965
 30
0.0
  0
VERTEX
  5
2478
  8
SAPA_PROFIL
  6
CONTINUOUS
 10
77.099999998220909
 20
-4.2000000000020492
 30
0.0
 42
0.414213562636633
  0
VERTEX
  5
2479
  8
SAPA_PROFIL
  6
CONTINUOUS
 10
76.79999999822391
 20
-4.5000000002749649
 30
0.0
  0
VERTEX
  5
247A
  8
SAPA_PROFIL
  6
CONTINUOUS
 10
76.800000001681013
 20
-9.0757359311510992
 30
0.0
 42
-0.1989123675764697
  0
VERTEX
  5
247B
  8
SAPA_PROFIL
  6
CONTINUOUS
 10
76.712132036036536
 20
-9.2878679657340655
 30
0.0
  0
VERTEX
  5
247C
  8
SAPA_PROFIL
  6
CONTINUOUS
 10
76.587867969731263
 20
-9.4121320320388833
 30
0.0
 42
0.1989123673801594
  0
VERTEX
  5
247D
  8
SAPA_PROFIL
  6
CONTINUOUS
 10
76.500000004086786
 20
-9.6242640663952699
 30
0.0
  0
VERTEX
  5
247E
  8
SAPA_PROFIL
  6
CONTINUOUS
 10
76.500000004085933
 20
-33.375735931311922
 30
0.0
 42
0.1989123673800758
  0
VERTEX
  5
247F
  8
SAPA_PROFIL
  6
CONTINUOUS
 10
76.587867969730297
 20
-33.587867965668202
 30
0.0
  0
VERTEX
  5
2480
  8
SAPA_PROFIL
  6
CONTINUOUS
 10
76.712132038407987
 20
-33.712132034345537
 30
0.0
 42
-0.1989123673789671
  0
VERTEX
  5
2481
  8
SAPA_PROFIL
  6
CONTINUOUS
 10
76.800000004052464
 20
-33.92426406870046
 30
0.0
  0
VERTEX
  5
2482
  8
SAPA_PROFIL
  6
CONTINUOUS
 10
76.800000004082861
 20
-40.499999999997002
 30
0.0
 42
0.414213562374094
  0
VERTEX
  5
2483
  8
SAPA_PROFIL
  6
CONTINUOUS
 10
77.100000004082816
 20
-40.799999999997979
 30
0.0
  0
SEQEND
  5
2484
  8
SAPA_PROFIL
  6
CONTINUOUS
  0
ARC
  5
1DE2
  8
SAPA_PROFIL
  6
CONTINUOUS
 62
     7
 10
77.360770535658844
 20
-52.749999999987992
 30
0.0
 40
0.2500000000000284
 50
270.0000000000033
 51
328.2284295005291
  0
LINE
  5
1DE3
  8
SAPA_PROFIL
  6
CONTINUOUS
 62
     7
 10
76.58808321016393
 20
-52.99999999998802
 30
0.0
 11
77.360770535658844
 21
-52.99999999998802
 31
0.0
  0
POLYLINE
  5
1DE4
  8
SAPA_PROFIL
  6
CONTINUOUS
 66
     1
 10
0.0
 20
0.0
 30
0.0
  0
VERTEX
  5
2485
  8
SAPA_PROFIL
  6
CONTINUOUS
 10
96.499999999966832
 20
-50.757620842456951
 30
0.0
 42
-0.2134217652834428
  0
VERTEX
  5
2486
  8
SAPA_PROFIL
  6
CONTINUOUS
 10
96.399999999966724
 20
-50.981227640207031
 30
0.0
 42
0.7625858545243283
  0
VERTEX
  5
2487
  8
SAPA_PROFIL
  6
CONTINUOUS
 10
96.584579202164207
 20
-51.311553721224072
 30
0.0
  0
VERTEX
  5
2488
  8
SAPA_PROFIL
  6
CONTINUOUS
 10
96.775962202157928
 20
-51.253480084234972
 30
0.0
  0
VERTEX
  5
2489
  8
SAPA_PROFIL
  6
CONTINUOUS
 10
98.661805894018997
 20
-50.168915637263233
 30
0.0
  0
VERTEX
  5
248A
  8
SAPA_PROFIL
  6
CONTINUOUS
 10
98.651244527792002
 20
-49.847157909044959
 30
0.0
 42
-0.577350269189743
  0
VERTEX
  5
248B
  8
SAPA_PROFIL
  6
CONTINUOUS
 10
98.945400828046843
 20
-49.664204168934802
 30
0.0
  0
VERTEX
  5
248C
  8
SAPA_PROFIL
  6
CONTINUOUS
 10
99.230083111278475
 20
-49.816338080043572
 30
0.0
 42
-0.2216946626430171
  0
VERTEX
  5
248D
  8
SAPA_PROFIL
  6
CONTINUOUS
 10
99.635892016433274
 20
-50.357217911520351
 30
0.0
  0
VERTEX
  5
248E
  8
SAPA_PROFIL
  6
CONTINUOUS
 10
100.01733861256101
 20
-52.170448382178591
 30
0.0
 42
-0.4769755326981872
  0
VERTEX
  5
248F
  8
SAPA_PROFIL
  6
CONTINUOUS
 10
99.715085788054523
 20
-52.542105257124483
 30
0.0
  0
VERTEX
  5
2490
  8
SAPA_PROFIL
  6
CONTINUOUS
 10
98.211984707292515
 20
-52.54202164924083
 30
0.0
  0
VERTEX
  5
2491
  8
SAPA_PROFIL
  6
CONTINUOUS
 10
98.197466298045413
 20
-52.49417589924235
 30
0.0
 42
0.4142135623730953
  0
VERTEX
  5
2492
  8
SAPA_PROFIL
  6
CONTINUOUS
 10
97.823281342569601
 20
-52.294211854734939
 30
0.0
  0
VERTEX
  5
2493
  8
SAPA_PROFIL
  6
CONTINUOUS
 10
96.514672366230315
 20
-52.799999999987982
 30
0.0
  0
VERTEX
  5
2494
  8
SAPA_PROFIL
  6
CONTINUOUS
 10
93.515361556166866
 20
-52.799999999987968
 30
0.0
 42
-0.259681233730092
  0
VERTEX
  5
2495
  8
SAPA_PROFIL
  6
CONTINUOUS
 10
93.302823041741831
 20
-52.681633505927792
 30
0.0
  0
VERTEX
  5
2496
  8
SAPA_PROFIL
  6
CONTINUOUS
 10
92.544953782688907
 20
-51.457960207115853
 30
0.0
 42
-0.5877032589253041
  0
VERTEX
  5
2497
  8
SAPA_PROFIL
  6
CONTINUOUS
 10
92.799999999998889
 20
-50.99999999998802
 30
0.0
  0
VERTEX
  5
2498
  8
SAPA_PROFIL
  6
CONTINUOUS
 10
94.234178786389933
 20
-50.99999999998392
 30
0.0
 42
0.4683749459836498
  0
VERTEX
  5
2499
  8
SAPA_PROFIL
  6
CONTINUOUS
 10
94.499999999998664
 20
-50.699999999983859
 30
0.0
  0
VERTEX
  5
249A
  8
SAPA_PROFIL
  6
CONTINUOUS
 10
94.499999999998934
 20
-48.299999999985019
 30
0.0
 42
0.4683749459834663
  0
VERTEX
  5
249B
  8
SAPA_PROFIL
  6
CONTINUOUS
 10
94.234178786389876
 20
-47.99999999998483
 30
0.0
  0
VERTEX
  5
249C
  8
SAPA_PROFIL
  6
CONTINUOUS
 10
76.799999999998889
 20
-47.99999999998802
 30
0.0
 42
0.4142135623730951
  0
VERTEX
  5
249D
  8
SAPA_PROFIL
  6
CONTINUOUS
 10
76.499999999998934
 20
-48.299999999987968
 30
0.0
  0
VERTEX
  5
249E
  8
SAPA_PROFIL
  6
CONTINUOUS
 10
76.499999999998877
 20
-50.699999999987838
 30
0.0
 42
0.4142135623712111
  0
VERTEX
  5
249F
  8
SAPA_PROFIL
  6
CONTINUOUS
 10
76.799999999998889
 20
-50.99999999998802
 30
0.0
  0
VERTEX
  5
24A0
  8
SAPA_PROFIL
  6
CONTINUOUS
 10
78.19999999999898
 20
-50.99999999998802
 30
0.0
 42
-0.5877032589253028
  0
VERTEX
  5
24A1
  8
SAPA_PROFIL
  6
CONTINUOUS
 10
78.455046217308976
 20
-51.45796020711596
 30
0.0
  0
VERTEX
  5
24A2
  8
SAPA_PROFIL
  6
CONTINUOUS
 10
77.573309050084006
 20
-52.881633505927716
 30
0.0
 42
-0.2596812337301845
  0
VERTEX
  5
24A3
  8
SAPA_PROFIL
  6
CONTINUOUS
 10
77.360770535658915
 20
-52.99999999998802
 30
0.0
  0
VERTEX
  5
24A4
  8
SAPA_PROFIL
  6
CONTINUOUS
 10
76.58808321016393
 20
-52.99999999998802
 30
0.0
 42
0.4023941304328035
  0
VERTEX
  5
24A5
  8
SAPA_PROFIL
  6
CONTINUOUS
 10
76.288329481550946
 20
-53.287846721311958
 30
0.0
  0
VERTEX
  5
24A6
  8
SAPA_PROFIL
  6
CONTINUOUS
 10
75.701530718547943
 20
-67.760905542702929
 30
0.0
 42
0.4373282586278326
  0
VERTEX
  5
24A7
  8
SAPA_PROFIL
  6
CONTINUOUS
 10
76.199999998852903
 20
-68.300000000024923
 30
0.0
  0
VERTEX
  5
24A8
  8
SAPA_PROFIL
  6
CONTINUOUS
 10
77.031400236762863
 20
-68.300000000024014
 30
0.0
 42
0.3639702342660269
  0
VERTEX
  5
24A9
  8
SAPA_PROFIL
  6
CONTINUOUS
 10
77.523804113267275
 20
-67.886824088855803
 30
0.0
  0
VERTEX
  5
24AA
  8
SAPA_PROFIL
  6
CONTINUOUS
 10
77.730749952848925
 20
-66.713175911189026
 30
0.0
 42
-0.8390996311771544
  0
VERTEX
  5
24AB
  8
SAPA_PROFIL
  6
CONTINUOUS
 10
78.715557705859865
 20
-66.713175911188003
 30
0.0
  0
VERTEX
  5
24AC
  8
SAPA_PROFIL
  6
CONTINUOUS
 10
78.9924038767859
 20
-68.283248567171938
 30
0.0
 42
-0.04366094290841
  0
VERTEX
  5
24AD
  8
SAPA_PROFIL
  6
CONTINUOUS
 10
79.000000000278888
 20
-68.370072656005007
 30
0.0
  0
VERTEX
  5
24AE
  8
SAPA_PROFIL
  6
CONTINUOUS
 10
79.000000000279854
 20
-69.367544468068971
 30
0.0
 42
-0.2896898633204923
  0
VERTEX
  5
24AF
  8
SAPA_PROFIL
  6
CONTINUOUS
 10
78.428571428793873
 20
-70.271052371003023
 30
0.0
 42
-0.5507604245835917
  0
VERTEX
  5
24B0
  8
SAPA_PROFIL
  6
CONTINUOUS
 10
78.000000000240917
 20
-70.000000000106027
 30
0.0
  0
VERTEX
  5
24B1
  8
SAPA_PROFIL
  6
CONTINUOUS
 10
78.000000000251887
 20
-69.800000000128946
 30
0.0
 42
0.4142135623779357
  0
VERTEX
  5
24B2
  8
SAPA_PROFIL
  6
CONTINUOUS
 10
77.700000000263927
 20
-69.500000000111925
 30
0.0
  0
VERTEX
  5
24B3
  8
SAPA_PROFIL
  6
CONTINUOUS
 10
76.199999998873935
 20
-69.500000000053944
 30
0.0
 42
0.414213562384816
  0
VERTEX
  5
24B4
  8
SAPA_PROFIL
  6
CONTINUOUS
 10
75.699999998854949
 20
-70.000000000054982
 30
0.0
  0
VERTEX
  5
24B5
  8
SAPA_PROFIL
  6
CONTINUOUS
 10
75.699999998859951
 20
-73.300000000045955
 30
0.0
 42
0.4142135623613409
  0
VERTEX
  5
24B6
  8
SAPA_PROFIL
  6
CONTINUOUS
 10
76.199999998850913
 20
-73.800000000054936
 30
0.0
  0
VERTEX
  5
24B7
  8
SAPA_PROFIL
  6
CONTINUOUS
 10
77.700000000030926
 20
-73.800000000111993
 30
0.0
 42
0.4142135623672138
  0
VERTEX
  5
24B8
  8
SAPA_PROFIL
  6
CONTINUOUS
 10
78.000000000041965
 20
-73.500000000128992
 30
0.0
  0
VERTEX
  5
24B9
  8
SAPA_PROFIL
  6
CONTINUOUS
 10
78.000000000053632
 20
-73.300000000107005
 30
0.0
 42
-0.5507604245886322
  0
VERTEX
  5
24BA
  8
SAPA_PROFIL
  6
CONTINUOUS
 10
78.428571428642172
 20
-73.028947629258326
 30
0.0
 42
-0.2896898632851459
  0
VERTEX
  5
24BB
  8
SAPA_PROFIL
  6
CONTINUOUS
 10
79.000000000013884
 20
-73.932455532137013
 30
0.0
  0
VERTEX
  5
24BC
  8
SAPA_PROFIL
  6
CONTINUOUS
 10
79.000000000013927
 20
-74.700000000163939
 30
0.0
 42
-0.4142135623906921
  0
VERTEX
  5
24BD
  8
SAPA_PROFIL
  6
CONTINUOUS
 10
78.6999999999979
 20
-75.000000000164007
 30
0.0
  0
VERTEX
  5
24BE
  8
SAPA_PROFIL
  6
CONTINUOUS
 10
74.999999999985803
 20
-74.999999999973127
 30
0.0
 42
-0.4142135623566291
  0
VERTEX
  5
24BF
  8
SAPA_PROFIL
  6
CONTINUOUS
 10
74.499999999998849
 20
-74.499999999958021
 30
0.0
  0
VERTEX
  5
24C0
  8
SAPA_PROFIL
  6
CONTINUOUS
 10
74.499999999998948
 20
2.3999999999991108
 30
0.0
 42
-0.4142135623725956
  0
VERTEX
  5
24C1
  8
SAPA_PROFIL
  6
CONTINUOUS
 10
77.099999999994424
 20
4.9999999999992459
 30
0.0
  0
VERTEX
  5
24C2
  8
SAPA_PROFIL
  6
CONTINUOUS
 10
77.599999999997891
 20
5.0000000000011777
 30
0.0
 42
-0.4142135623728287
  0
VERTEX
  5
24C3
  8
SAPA_PROFIL
  6
CONTINUOUS
 10
78.599999999998971
 20
4.000000000001064
 30
0.0
  0
VERTEX
  5
24C4
  8
SAPA_PROFIL
  6
CONTINUOUS
 10
78.599999999998843
 20
3.80000000000011
 30
0.0
 42
-0.4142135623730951
  0
VERTEX
  5
24C5
  8
SAPA_PROFIL
  6
CONTINUOUS
 10
78.299999999998903
 20
3.500000000000155
 30
0.0
  0
VERTEX
  5
24C6
  8
SAPA_PROFIL
  6
CONTINUOUS
 10
76.79999999678293
 20
3.5000000000000422
 30
0.0
 42
0.4142135623722084
  0
VERTEX
  5
24C7
  8
SAPA_PROFIL
  6
CONTINUOUS
 10
76.5000000040869
 20
3.2000000000009972
 30
0.0
  0
VERTEX
  5
24C8
  8
SAPA_PROFIL
  6
CONTINUOUS
 10
76.5000000040869
 20
2.5000000000009508
 30
0.0
 42
0.4142135623731094
  0
VERTEX
  5
24C9
  8
SAPA_PROFIL
  6
CONTINUOUS
 10
76.79999999678293
 20
2.2000000000009972
 30
0.0
  0
VERTEX
  5
24CA
  8
SAPA_PROFIL
  6
CONTINUOUS
 10
78.299999999998903
 20
2.2000000000000872
 30
0.0
 42
-0.4142135623720961
  0
VERTEX
  5
24CB
  8
SAPA_PROFIL
  6
CONTINUOUS
 10
78.599999999998971
 20
1.9000000000011561
 30
0.0
  0
VERTEX
  5
24CC
  8
SAPA_PROFIL
  6
CONTINUOUS
 10
78.599999999998843
 20
1.1999999999999731
 30
0.0
 42
-0.4142135623730951
  0
VERTEX
  5
24CD
  8
SAPA_PROFIL
  6
CONTINUOUS
 10
78.299999999998903
 20
0.9000000000000195
 30
0.0
  0
VERTEX
  5
24CE
  8
SAPA_PROFIL
  6
CONTINUOUS
 10
76.800000004086954
 20
0.9000000000000195
 30
0.0
 42
0.4142135623740939
  0
VERTEX
  5
24CF
  8
SAPA_PROFIL
  6
CONTINUOUS
 10
76.5000000040869
 20
0.600000000000065
 30
0.0
  0
VERTEX
  5
24D0
  8
SAPA_PROFIL
  6
CONTINUOUS
 10
76.5000000040869
 20
-1.5000000000009801
 30
0.0
 42
0.4142135623730951
  0
VERTEX
  5
24D1
  8
SAPA_PROFIL
  6
CONTINUOUS
 10
77.500000004086885
 20
-2.5000000000009801
 30
0.0
  0
VERTEX
  5
24D2
  8
SAPA_PROFIL
  6
CONTINUOUS
 10
82.199999999998994
 20
-2.5000000000008669
 30
0.0
 42
0.4142135623619735
  0
VERTEX
  5
24D3
  8
SAPA_PROFIL
  6
CONTINUOUS
 10
83.199999999998994
 20
-1.5000000000018909
 30
0.0
  0
VERTEX
  5
24D4
  8
SAPA_PROFIL
  6
CONTINUOUS
 10
83.19999999999996
 20
0.6000000000000642
 30
0.0
 42
0.4142135623730951
  0
VERTEX
  5
24D5
  8
SAPA_PROFIL
  6
CONTINUOUS
 10
82.899999999999949
 20
0.9000000000000185
 30
0.0
  0
VERTEX
  5
24D6
  8
SAPA_PROFIL
  6
CONTINUOUS
 10
82.099999999998971
 20
0.8999999999999047
 30
0.0
 42
-0.4142135623730951
  0
VERTEX
  5
24D7
  8
SAPA_PROFIL
  6
CONTINUOUS
 10
81.799999999998903
 20
1.1999999999999731
 30
0.0
  0
VERTEX
  5
24D8
  8
SAPA_PROFIL
  6
CONTINUOUS
 10
81.799999999999017
 20
1.9000000000000179
 30
0.0
 42
-0.4142135623730951
  0
VERTEX
  5
24D9
  8
SAPA_PROFIL
  6
CONTINUOUS
 10
82.099999999998971
 20
2.1999999999999731
 30
0.0
  0
VERTEX
  5
24DA
  8
SAPA_PROFIL
  6
CONTINUOUS
 10
82.900000000001938
 20
2.2000000000011091
 30
0.0
 42
0.4142135623721503
  0
VERTEX
  5
24DB
  8
SAPA_PROFIL
  6
CONTINUOUS
 10
83.200000000000927
 20
2.500000000001064
 30
0.0
  0
VERTEX
  5
24DC
  8
SAPA_PROFIL
  6
CONTINUOUS
 10
83.200000000000969
 20
3.2000000000009949
 30
0.0
 42
0.4142135623740942
  0
VERTEX
  5
24DD
  8
SAPA_PROFIL
  6
CONTINUOUS
 10
82.899999999999949
 20
3.500000000001064
 30
0.0
  0
VERTEX
  5
24DE
  8
SAPA_PROFIL
  6
CONTINUOUS
 10
82.099999999998971
 20
3.5000000000000409
 30
0.0
 42
-0.4142135623730951
  0
VERTEX
  5
24DF
  8
SAPA_PROFIL
  6
CONTINUOUS
 10
81.799999999998903
 20
3.8000000000001091
 30
0.0
  0
VERTEX
  5
24E0
  8
SAPA_PROFIL
  6
CONTINUOUS
 10
81.799999999998903
 20
4.000000000001064
 30
0.0
 42
-0.4142135623728287
  0
VERTEX
  5
24E1
  8
SAPA_PROFIL
  6
CONTINUOUS
 10
82.799999999998903
 20
5.0000000000001537
 30
0.0
  0
VERTEX
  5
24E2
  8
SAPA_PROFIL
  6
CONTINUOUS
 10
98.199999996326923
 20
5.0000000000010614
 30
0.0
 42
-0.4142135623730951
  0
VERTEX
  5
24E3
  8
SAPA_PROFIL
  6
CONTINUOUS
 10
98.499999996326977
 20
4.7000000000009932
 30
0.0
  0
VERTEX
  5
24E4
  8
SAPA_PROFIL
  6
CONTINUOUS
 10
98.499999996326864
 20
0.6294114367971515
 30
0.0
 42
-0.5486187866264207
  0
VERTEX
  5
24E5
  8
SAPA_PROFIL
  6
CONTINUOUS
 10
98.073214517804985
 20
0.3575191006860154
 30
0.0
  0
VERTEX
  5
24E6
  8
SAPA_PROFIL
  6
CONTINUOUS
 10
96.32678547855599
 20
1.171892336112061
 30
0.0
 42
0.5486187866274888
  0
VERTEX
  5
24E7
  8
SAPA_PROFIL
  6
CONTINUOUS
 10
95.900000000032975
 20
0.9000000000011528
 30
0.0
  0
VERTEX
  5
24E8
  8
SAPA_PROFIL
  6
CONTINUOUS
 10
95.900000000032975
 20
-3.4999999999989369
 30
0.0
 42
0.5486187866274777
  0
VERTEX
  5
24E9
  8
SAPA_PROFIL
  6
CONTINUOUS
 10
96.326785478555934
 20
-3.771892336109846
 30
0.0
  0
VERTEX
  5
24EA
  8
SAPA_PROFIL
  6
CONTINUOUS
 10
98.073214517804885
 20
-2.9575191006838009
 30
0.0
 42
-0.5486187866264464
  0
VERTEX
  5
24EB
  8
SAPA_PROFIL
  6
CONTINUOUS
 10
98.499999996326977
 20
-3.2294114367949369
 30
0.0
  0
VERTEX
  5
24EC
  8
SAPA_PROFIL
  6
CONTINUOUS
 10
98.499999996326906
 20
-6.3999999999999382
 30
0.0
 42
0.4142135623730953
  0
VERTEX
  5
24ED
  8
SAPA_PROFIL
  6
CONTINUOUS
 10
98.799999996326918
 20
-6.6999999999998918
 30
0.0
  0
VERTEX
  5
24EE
  8
SAPA_PROFIL
  6
CONTINUOUS
 10
98.999999996326906
 20
-6.699999999999779
 30
0.0
 42
-0.4142135623730951
  0
VERTEX
  5
24EF
  8
SAPA_PROFIL
  6
CONTINUOUS
 10
99.299999996326903
 20
-6.9999999999998472
 30
0.0
  0
VERTEX
  5
24F0
  8
SAPA_PROFIL
  6
CONTINUOUS
 10
99.299999996326903
 20
-18.69999999999898
 30
0.0
 42
0.4142135623730948
  0
VERTEX
  5
24F1
  8
SAPA_PROFIL
  6
CONTINUOUS
 10
99.599999996326915
 20
-18.999999999999051
 30
0.0
  0
VERTEX
  5
24F2
  8
SAPA_PROFIL
  6
CONTINUOUS
 10
100.50216438463229
 20
-18.999999999998991
 30
0.0
  0
VERTEX
  5
24F3
  8
SAPA_PROFIL
  6
CONTINUOUS
 10
101.8232813425667
 20
-19.510622583136989
 30
0.0
 42
0.4142135623730951
  0
VERTEX
  5
24F4
  8
SAPA_PROFIL
  6
CONTINUOUS
 10
102.1974662980425
 20
-19.3106585386296
 30
0.0
  0
VERTEX
  5
24F5
  8
SAPA_PROFIL
  6
CONTINUOUS
 10
102.2119847072896
 20
-19.262812788631109
 30
0.0
  0
VERTEX
  5
24F6
  8
SAPA_PROFIL
  6
CONTINUOUS
 10
103.7150857880516
 20
-19.262729180747488
 30
0.0
 42
-0.4769755326981695
  0
VERTEX
  5
24F7
  8
SAPA_PROFIL
  6
CONTINUOUS
 10
104.01733861255811
 20
-19.63438605569333
 30
0.0
  0
VERTEX
  5
24F8
  8
SAPA_PROFIL
  6
CONTINUOUS
 10
103.6358920164303
 20
-21.447616526351592
 30
0.0
 42
-0.22169466264302
  0
VERTEX
  5
24F9
  8
SAPA_PROFIL
  6
CONTINUOUS
 10
103.2300831112755
 20
-21.988496357828371
 30
0.0
  0
VERTEX
  5
24FA
  8
SAPA_PROFIL
  6
CONTINUOUS
 10
102.9454008280439
 20
-22.14063026893713
 30
0.0
 42
-0.5773502691897348
  0
VERTEX
  5
24FB
  8
SAPA_PROFIL
  6
CONTINUOUS
 10
102.6512445277891
 20
-21.957676528826951
 30
0.0
  0
VERTEX
  5
24FC
  8
SAPA_PROFIL
  6
CONTINUOUS
 10
102.6618058940161
 20
-21.63591880060871
 30
0.0
  0
VERTEX
  5
24FD
  8
SAPA_PROFIL
  6
CONTINUOUS
 10
100.775962202155
 20
-20.55135435363697
 30
0.0
  0
VERTEX
  5
24FE
  8
SAPA_PROFIL
  6
CONTINUOUS
 10
100.58457920216129
 20
-20.493280716647881
 30
0.0
 42
0.7625858545243229
  0
VERTEX
  5
24FF
  8
SAPA_PROFIL
  6
CONTINUOUS
 10
100.3999999999638
 20
-20.823606797664869
 30
0.0
 42
-0.2134217652834286
  0
VERTEX
  5
2500
  8
SAPA_PROFIL
  6
CONTINUOUS
 10
100.4999999999639
 20
-21.047213595498949
 30
0.0
  0
VERTEX
  5
2501
  8
SAPA_PROFIL
  6
CONTINUOUS
 10
100.50000000003391
 20
-24.900000000005971
 30
0.0
 42
0.4142135623643546
  0
VERTEX
  5
2502
  8
SAPA_PROFIL
  6
CONTINUOUS
 10
100.80000000003091
 20
-25.20000000000001
 30
0.0
  0
VERTEX
  5
2503
  8
SAPA_PROFIL
  6
CONTINUOUS
 10
101.0916265078269
 20
-25.200000000002849
 30
0.0
  0
VERTEX
  5
2504
  8
SAPA_PROFIL
  6
CONTINUOUS
 10
102.7000000000329
 20
-24.271405131321071
 30
0.0
 42
-0.5773502691895335
  0
VERTEX
  5
2505
  8
SAPA_PROFIL
  6
CONTINUOUS
 10
103.0000000000328
 20
-24.44461021207799
 30
0.0
  0
VERTEX
  5
2506
  8
SAPA_PROFIL
  6
CONTINUOUS
 10
103.0000000000329
 20
-25.830250858131951
 30
0.0
 42
-0.267949192431441
  0
VERTEX
  5
2507
  8
SAPA_PROFIL
  6
CONTINUOUS
 10
102.5000000000329
 20
-26.696276261916939
 30
0.0
  0
VERTEX
  5
2508
  8
SAPA_PROFIL
  6
CONTINUOUS
 10
96.449999999998994
 20
-30.18924539052599
 30
0.0
 42
0.2679491924318235
  0
VERTEX
  5
2509
  8
SAPA_PROFIL
  6
CONTINUOUS
 10
96.199999999997729
 20
-30.622258092418939
 30
0.0
  0
VERTEX
  5
250A
  8
SAPA_PROFIL
  6
CONTINUOUS
 10
96.199999999998994
 20
-43.487142984322041
 30
0.0
 42
0.2679491924310522
  0
VERTEX
  5
250B
  8
SAPA_PROFIL
  6
CONTINUOUS
 10
96.449999999998894
 20
-43.920155686214187
 30
0.0
  0
VERTEX
  5
250C
  8
SAPA_PROFIL
  6
CONTINUOUS
 10
98.500000000033964
 20
-45.10372373807089
 30
0.0
 42
-0.2679491924312968
  0
VERTEX
  5
250D
  8
SAPA_PROFIL
  6
CONTINUOUS
 10
99.000000000034944
 20
-45.969749141854969
 30
0.0
  0
VERTEX
  5
250E
  8
SAPA_PROFIL
  6
CONTINUOUS
 10
99.000000000034973
 20
-47.355389787908919
 30
0.0
 42
-0.5773502691895323
  0
VERTEX
  5
250F
  8
SAPA_PROFIL
  6
CONTINUOUS
 10
98.700000000034905
 20
-47.528594868665849
 30
0.0
  0
VERTEX
  5
2510
  8
SAPA_PROFIL
  6
CONTINUOUS
 10
97.091626507827925
 20
-46.599999999983837
 30
0.0
  0
VERTEX
  5
2511
  8
SAPA_PROFIL
  6
CONTINUOUS
 10
96.800000000032895
 20
-46.59999999998702
 30
0.0
 42
0.4142135623662692
  0
VERTEX
  5
2512
  8
SAPA_PROFIL
  6
CONTINUOUS
 10
96.500000000034916
 20
-46.899999999981858
 30
0.0
  0
VERTEX
  5
2513
  8
SAPA_PROFIL
  6
CONTINUOUS
 10
96.499999999965965
 20
-50.752786404489001
 30
0.0
  0
SEQEND
  5
2514
  8
SAPA_PROFIL
  6
CONTINUOUS
  0
POLYLINE
  5
1DE5
  8
SAPA_PROFIL
  6
CONTINUOUS
 66
     1
 10
0.0
 20
0.0
 30
0.0
 70
     1
  0
VERTEX
  5
2515
  8
SAPA_PROFIL
  6
CONTINUOUS
 10
145.99999999591401
 20
-41.936781123696001
 30
0.0
 42
-0.4142135623730951
  0
VERTEX
  5
2516
  8
SAPA_PROFIL
  6
CONTINUOUS
 10
146.49999999591401
 20
-42.436781123696001
 30
0.0
  0
VERTEX
  5
2517
  8
SAPA_PROFIL
  6
CONTINUOUS
 10
146.49999999594601
 20
-45.436781123682138
 30
0.0
 42
-0.4142135623760252
  0
VERTEX
  5
2518
  8
SAPA_PROFIL
  6
CONTINUOUS
 10
145.99999999594601
 20
-45.93678112368714
 30
0.0
  0
VERTEX
  5
2519
  8
SAPA_PROFIL
  6
CONTINUOUS
 10
129.29999999998401
 20
-45.93678112368714
 30
0.0
 42
-0.4142135623760253
  0
VERTEX
  5
251A
  8
SAPA_PROFIL
  6
CONTINUOUS
 10
128.79999999998401
 20
-45.436781123682017
 30
0.0
  0
VERTEX
  5
251B
  8
SAPA_PROFIL
  6
CONTINUOUS
 10
128.8000000000159
 20
-42.436781123696001
 30
0.0
 42
-0.4142135623730951
  0
VERTEX
  5
251C
  8
SAPA_PROFIL
  6
CONTINUOUS
 10
129.3000000000159
 20
-41.936781123696001
 30
0.0
  0
VERTEX
  5
251D
  8
SAPA_PROFIL
  6
CONTINUOUS
 10
130.50000000001489
 20
-41.936781123695098
 30
0.0
 42
0.414213562374094
  0
VERTEX
  5
251E
  8
SAPA_PROFIL
  6
CONTINUOUS
 10
130.8000000000149
 20
-41.636781123696053
 30
0.0
  0
VERTEX
  5
251F
  8
SAPA_PROFIL
  6
CONTINUOUS
 10
130.80000000001499
 20
-40.736781123696069
 30
0.0
 42
0.414213562375093
  0
VERTEX
  5
2520
  8
SAPA_PROFIL
  6
CONTINUOUS
 10
130.50000000001489
 20
-40.436781123696001
 30
0.0
  0
VERTEX
  5
2521
  8
SAPA_PROFIL
  6
CONTINUOUS
 10
129.100000000015
 20
-40.436781123697031
 30
0.0
 42
-0.414213562374094
  0
VERTEX
  5
2522
  8
SAPA_PROFIL
  6
CONTINUOUS
 10
128.8000000000149
 20
-40.136781123696053
 30
0.0
  0
VERTEX
  5
2523
  8
SAPA_PROFIL
  6
CONTINUOUS
 10
128.79999999999961
 20
-30.259039216114001
 30
0.0
 42
0.2679491924309108
  0
VERTEX
  5
2524
  8
SAPA_PROFIL
  6
CONTINUOUS
 10
127.54999999999799
 20
-28.093975706656199
 30
0.0
  0
VERTEX
  5
2525
  8
SAPA_PROFIL
  6
CONTINUOUS
 10
124.749999999938
 20
-26.477394952893022
 30
0.0
 42
-0.2679491924363356
  0
VERTEX
  5
2526
  8
SAPA_PROFIL
  6
CONTINUOUS
 10
124.4999999999369
 20
-26.044382250992228
 30
0.0
  0
VERTEX
  5
2527
  8
SAPA_PROFIL
  6
CONTINUOUS
 10
124.5000000000289
 20
-20.936781123693049
 30
0.0
 42
-0.4142135623682168
  0
VERTEX
  5
2528
  8
SAPA_PROFIL
  6
CONTINUOUS
 10
124.8000000000289
 20
-20.6367811236981
 30
0.0
  0
VERTEX
  5
2529
  8
SAPA_PROFIL
  6
CONTINUOUS
 10
125.20000000367099
 20
-20.6367811236981
 30
0.0
 42
0.4142135623730784
  0
VERTEX
  5
252A
  8
SAPA_PROFIL
  6
CONTINUOUS
 10
125.70000000367089
 20
-20.1367811236981
 30
0.0
  0
VERTEX
  5
252B
  8
SAPA_PROFIL
  6
CONTINUOUS
 10
125.70000000367089
 20
-8.6367811236990093
 30
0.0
 42
-0.4142135623730951
  0
VERTEX
  5
252C
  8
SAPA_PROFIL
  6
CONTINUOUS
 10
126.00000000367091
 20
-8.3367811236990548
 30
0.0
  0
VERTEX
  5
252D
  8
SAPA_PROFIL
  6
CONTINUOUS
 10
126.20000000367089
 20
-8.3367811236991685
 30
0.0
 42
0.4142135623730951
  0
VERTEX
  5
252E
  8
SAPA_PROFIL
  6
CONTINUOUS
 10
126.50000000367091
 20
-8.0367811236991002
 30
0.0
  0
VERTEX
  5
252F
  8
SAPA_PROFIL
  6
CONTINUOUS
 10
126.50000000367091
 20
-5.6367811236830931
 30
0.0
 42
-0.4142135623730951
  0
VERTEX
  5
2530
  8
SAPA_PROFIL
  6
CONTINUOUS
 10
126.800000003671
 20
-5.336781123683024
 30
0.0
  0
VERTEX
  5
2531
  8
SAPA_PROFIL
  6
CONTINUOUS
 10
128.29999999996491
 20
-5.336781123752032
 30
0.0
 42
0.4142135623730951
  0
VERTEX
  5
2532
  8
SAPA_PROFIL
  6
CONTINUOUS
 10
128.79999999996491
 20
-4.836781123752032
 30
0.0
  0
VERTEX
  5
2533
  8
SAPA_PROFIL
  6
CONTINUOUS
 10
128.79999999996491
 20
3.3632188762368709
 30
0.0
 42
-0.4142135623730951
  0
VERTEX
  5
2534
  8
SAPA_PROFIL
  6
CONTINUOUS
 10
129.09999999996489
 20
3.6632188762369391
 30
0.0
  0
VERTEX
  5
2535
  8
SAPA_PROFIL
  6
CONTINUOUS
 10
137.79999999996201
 20
3.6632188763088962
 30
0.0
 42
-0.4142135623712137
  0
VERTEX
  5
2536
  8
SAPA_PROFIL
  6
CONTINUOUS
 10
138.09999999996489
 20
3.363218876307918
 30
0.0
  0
VERTEX
  5
2537
  8
SAPA_PROFIL
  6
CONTINUOUS
 10
138.099999999999
 20
-1.1367811236840091
 30
0.0
 42
0.4142135623686664
  0
VERTEX
  5
2538
  8
SAPA_PROFIL
  6
CONTINUOUS
 10
140.79999999997889
 20
-3.8367811236630232
 30
0.0
  0
VERTEX
  5
2539
  8
SAPA_PROFIL
  6
CONTINUOUS
 10
145.9000000017769
 20
-3.836781123701221
 30
0.0
 42
-0.414213562636633
  0
VERTEX
  5
253A
  8
SAPA_PROFIL
  6
CONTINUOUS
 10
146.20000000177379
 20
-4.136781123974024
 30
0.0
  0
VERTEX
  5
253B
  8
SAPA_PROFIL
  6
CONTINUOUS
 10
146.1999999983168
 20
-8.7125170548502737
 30
0.0
 42
0.1989123675764549
  0
VERTEX
  5
253C
  8
SAPA_PROFIL
  6
CONTINUOUS
 10
146.28786796396119
 20
-8.9246490894332382
 30
0.0
  0
VERTEX
  5
253D
  8
SAPA_PROFIL
  6
CONTINUOUS
 10
146.41213203026649
 20
-9.0489131557379423
 30
0.0
 42
-0.198912367380149
  0
VERTEX
  5
253E
  8
SAPA_PROFIL
  6
CONTINUOUS
 10
146.49999999591091
 20
-9.2610451900944426
 30
0.0
  0
VERTEX
  5
253F
  8
SAPA_PROFIL
  6
CONTINUOUS
 10
146.49999999591191
 20
-33.012517055011088
 30
0.0
 42
-0.1989123673800758
  0
VERTEX
  5
2540
  8
SAPA_PROFIL
  6
CONTINUOUS
 10
146.41213203026749
 20
-33.224649089367361
 30
0.0
  0
VERTEX
  5
2541
  8
SAPA_PROFIL
  6
CONTINUOUS
 10
146.2878679615898
 20
-33.348913158044603
 30
0.0
 42
0.1989123673789567
  0
VERTEX
  5
2542
  8
SAPA_PROFIL
  6
CONTINUOUS
 10
146.1999999959454
 20
-33.561045192399511
 30
0.0
  0
VERTEX
  5
2543
  8
SAPA_PROFIL
  6
CONTINUOUS
 10
146.19999999591491
 20
-40.136781123696053
 30
0.0
 42
-0.414213562374094
  0
VERTEX
  5
2544
  8
SAPA_PROFIL
  6
CONTINUOUS
 10
145.8999999959149
 20
-40.436781123697031
 30
0.0
  0
VERTEX
  5
2545
  8
SAPA_PROFIL
  6
CONTINUOUS
 10
144.49999999591401
 20
-40.436781123696001
 30
0.0
 42
0.414213562374094
  0
VERTEX
  5
2546
  8
SAPA_PROFIL
  6
CONTINUOUS
 10
144.19999999591491
 20
-40.736781123696069
 30
0.0
  0
VERTEX
  5
2547
  8
SAPA_PROFIL
  6
CONTINUOUS
 10
144.19999999591491
 20
-41.636781123696053
 30
0.0
 42
0.4142135623730951
  0
VERTEX
  5
2548
  8
SAPA_PROFIL
  6
CONTINUOUS
 10
144.49999999591401
 20
-41.936781123696001
 30
0.0
  0
SEQEND
  5
2549
  8
SAPA_PROFIL
  6
CONTINUOUS
  0
POLYLINE
  5
1DE6
  8
SAPA_PROFIL
  6
CONTINUOUS
 66
     1
 10
0.0
 20
0.0
 30
0.0
  0
VERTEX
  5
254A
  8
SAPA_PROFIL
  6
CONTINUOUS
 10
126.50000000003099
 20
-50.75762084245558
 30
0.0
 42
0.2134217652834423
  0
VERTEX
  5
254B
  8
SAPA_PROFIL
  6
CONTINUOUS
 10
126.6000000000311
 20
-50.981227640205653
 30
0.0
 42
-0.7625858545243283
  0
VERTEX
  5
254C
  8
SAPA_PROFIL
  6
CONTINUOUS
 10
126.4154207978336
 20
-51.311553721222687
 30
0.0
  0
VERTEX
  5
254D
  8
SAPA_PROFIL
  6
CONTINUOUS
 10
126.2240377978399
 20
-51.253480084233601
 30
0.0
  0
VERTEX
  5
254E
  8
SAPA_PROFIL
  6
CONTINUOUS
 10
124.3381941059789
 20
-50.168915637261861
 30
0.0
  0
VERTEX
  5
254F
  8
SAPA_PROFIL
  6
CONTINUOUS
 10
124.3487554722058
 20
-49.847157909043588
 30
0.0
 42
0.577350269189743
  0
VERTEX
  5
2550
  8
SAPA_PROFIL
  6
CONTINUOUS
 10
124.054599171951
 20
-49.664204168933438
 30
0.0
  0
VERTEX
  5
2551
  8
SAPA_PROFIL
  6
CONTINUOUS
 10
123.76991688871939
 20
-49.8163380800422
 30
0.0
 42
0.2216946626430171
  0
VERTEX
  5
2552
  8
SAPA_PROFIL
  6
CONTINUOUS
 10
123.36410798356459
 20
-50.357217911518987
 30
0.0
  0
VERTEX
  5
2553
  8
SAPA_PROFIL
  6
CONTINUOUS
 10
122.98266138743681
 20
-52.170448382177213
 30
0.0
 42
0.4769755326981872
  0
VERTEX
  5
2554
  8
SAPA_PROFIL
  6
CONTINUOUS
 10
123.2849142119433
 20
-52.542105257123112
 30
0.0
  0
VERTEX
  5
2555
  8
SAPA_PROFIL
  6
CONTINUOUS
 10
124.7880152927053
 20
-52.542021649239452
 30
0.0
  0
VERTEX
  5
2556
  8
SAPA_PROFIL
  6
CONTINUOUS
 10
124.8025337019524
 20
-52.494175899240972
 30
0.0
 42
-0.4142135623730953
  0
VERTEX
  5
2557
  8
SAPA_PROFIL
  6
CONTINUOUS
 10
125.1767186574282
 20
-52.294211854733568
 30
0.0
  0
VERTEX
  5
2558
  8
SAPA_PROFIL
  6
CONTINUOUS
 10
126.4853276337675
 20
-52.799999999986611
 30
0.0
  0
VERTEX
  5
2559
  8
SAPA_PROFIL
  6
CONTINUOUS
 10
129.48463844383099
 20
-52.799999999986611
 30
0.0
 42
0.259681233730092
  0
VERTEX
  5
255A
  8
SAPA_PROFIL
  6
CONTINUOUS
 10
129.69717695825599
 20
-52.681633505926428
 30
0.0
  0
VERTEX
  5
255B
  8
SAPA_PROFIL
  6
CONTINUOUS
 10
130.4550462173089
 20
-51.457960207114482
 30
0.0
 42
0.5877032589253041
  0
VERTEX
  5
255C
  8
SAPA_PROFIL
  6
CONTINUOUS
 10
130.19999999999891
 20
-50.999999999986649
 30
0.0
  0
VERTEX
  5
255D
  8
SAPA_PROFIL
  6
CONTINUOUS
 10
128.76582121360789
 20
-50.99999999998257
 30
0.0
 42
-0.4683749459836498
  0
VERTEX
  5
255E
  8
SAPA_PROFIL
  6
CONTINUOUS
 10
128.4999999999992
 20
-50.699999999982488
 30
0.0
  0
VERTEX
  5
255F
  8
SAPA_PROFIL
  6
CONTINUOUS
 10
128.49999999999889
 20
-48.299999999983648
 30
0.0
 42
-0.4683749459834663
  0
VERTEX
  5
2560
  8
SAPA_PROFIL
  6
CONTINUOUS
 10
128.76582121360789
 20
-47.999999999983473
 30
0.0
  0
VERTEX
  5
2561
  8
SAPA_PROFIL
  6
CONTINUOUS
 10
146.19999999999891
 20
-47.999999999986649
 30
0.0
 42
-0.4142135623730951
  0
VERTEX
  5
2562
  8
SAPA_PROFIL
  6
CONTINUOUS
 10
146.49999999999889
 20
-48.299999999986611
 30
0.0
  0
VERTEX
  5
2563
  8
SAPA_PROFIL
  6
CONTINUOUS
 10
146.49999999999901
 20
-50.699999999986467
 30
0.0
 42
-0.4142135623712111
  0
VERTEX
  5
2564
  8
SAPA_PROFIL
  6
CONTINUOUS
 10
146.19999999999891
 20
-50.999999999986649
 30
0.0
  0
VERTEX
  5
2565
  8
SAPA_PROFIL
  6
CONTINUOUS
 10
144.7999999999989
 20
-50.999999999986649
 30
0.0
 42
0.5877032589253028
  0
VERTEX
  5
2566
  8
SAPA_PROFIL
  6
CONTINUOUS
 10
144.54495378268879
 20
-51.457960207114589
 30
0.0
  0
VERTEX
  5
2567
  8
SAPA_PROFIL
  6
CONTINUOUS
 10
145.42669094991379
 20
-52.881633505926359
 30
0.0
 42
0.2596812337301845
  0
VERTEX
  5
2568
  8
SAPA_PROFIL
  6
CONTINUOUS
 10
145.63922946433891
 20
-52.999999999986649
 30
0.0
  0
VERTEX
  5
2569
  8
SAPA_PROFIL
  6
CONTINUOUS
 10
148.1999999999999
 20
-52.999999999986542
 30
0.0
 42
0.4142135623721487
  0
VERTEX
  5
256A
  8
SAPA_PROFIL
  6
CONTINUOUS
 10
148.49999999999901
 20
-52.699999999986467
 30
0.0
  0
VERTEX
  5
256B
  8
SAPA_PROFIL
  6
CONTINUOUS
 10
148.49999999999889
 20
2.4000000000004671
 30
0.0
 42
0.4142135623725956
  0
VERTEX
  5
256C
  8
SAPA_PROFIL
  6
CONTINUOUS
 10
145.90000000000339
 20
5.0000000000006031
 30
0.0
  0
VERTEX
  5
256D
  8
SAPA_PROFIL
  6
CONTINUOUS
 10
145.39999999999989
 20
5.0000000000025357
 30
0.0
 42
0.4142135623728287
  0
VERTEX
  5
256E
  8
SAPA_PROFIL
  6
CONTINUOUS
 10
144.3999999999989
 20
4.0000000000024221
 30
0.0
  0
VERTEX
  5
256F
  8
SAPA_PROFIL
  6
CONTINUOUS
 10
144.39999999999901
 20
3.8000000000014671
 30
0.0
 42
0.4142135623730951
  0
VERTEX
  5
2570
  8
SAPA_PROFIL
  6
CONTINUOUS
 10
144.69999999999891
 20
3.500000000001513
 30
0.0
  0
VERTEX
  5
2571
  8
SAPA_PROFIL
  6
CONTINUOUS
 10
146.20000000321491
 20
3.5000000000013989
 30
0.0
 42
-0.41421356237221
  0
VERTEX
  5
2572
  8
SAPA_PROFIL
  6
CONTINUOUS
 10
146.49999999591091
 20
3.2000000000023539
 30
0.0
  0
VERTEX
  5
2573
  8
SAPA_PROFIL
  6
CONTINUOUS
 10
146.49999999591091
 20
2.5000000000023088
 30
0.0
 42
-0.4142135623731102
  0
VERTEX
  5
2574
  8
SAPA_PROFIL
  6
CONTINUOUS
 10
146.20000000321491
 20
2.2000000000023539
 30
0.0
  0
VERTEX
  5
2575
  8
SAPA_PROFIL
  6
CONTINUOUS
 10
144.69999999999891
 20
2.2000000000014448
 30
0.0
 42
0.4142135623720961
  0
VERTEX
  5
2576
  8
SAPA_PROFIL
  6
CONTINUOUS
 10
144.3999999999989
 20
1.900000000002513
 30
0.0
  0
VERTEX
  5
2577
  8
SAPA_PROFIL
  6
CONTINUOUS
 10
144.39999999999901
 20
1.2000000000013309
 30
0.0
 42
0.4142135623730951
  0
VERTEX
  5
2578
  8
SAPA_PROFIL
  6
CONTINUOUS
 10
144.69999999999891
 20
0.900000000001377
 30
0.0
  0
VERTEX
  5
2579
  8
SAPA_PROFIL
  6
CONTINUOUS
 10
146.1999999959109
 20
0.900000000001377
 30
0.0
 42
-0.4142135623740939
  0
VERTEX
  5
257A
  8
SAPA_PROFIL
  6
CONTINUOUS
 10
146.49999999591091
 20
0.6000000000014225
 30
0.0
  0
VERTEX
  5
257B
  8
SAPA_PROFIL
  6
CONTINUOUS
 10
146.49999999591091
 20
-1.499999999999623
 30
0.0
 42
-0.4142135623730951
  0
VERTEX
  5
257C
  8
SAPA_PROFIL
  6
CONTINUOUS
 10
145.49999999591091
 20
-2.499999999999623
 30
0.0
  0
VERTEX
  5
257D
  8
SAPA_PROFIL
  6
CONTINUOUS
 10
140.79999999999879
 20
-2.4999999999995088
 30
0.0
 42
-0.4142135623619735
  0
VERTEX
  5
257E
  8
SAPA_PROFIL
  6
CONTINUOUS
 10
139.7999999999989
 20
-1.500000000000532
 30
0.0
  0
VERTEX
  5
257F
  8
SAPA_PROFIL
  6
CONTINUOUS
 10
139.79999999999791
 20
0.6000000000014225
 30
0.0
 42
-0.4142135623730951
  0
VERTEX
  5
2580
  8
SAPA_PROFIL
  6
CONTINUOUS
 10
140.09999999999789
 20
0.900000000001377
 30
0.0
  0
VERTEX
  5
2581
  8
SAPA_PROFIL
  6
CONTINUOUS
 10
140.8999999999989
 20
0.9000000000012633
 30
0.0
 42
0.4142135623730951
  0
VERTEX
  5
2582
  8
SAPA_PROFIL
  6
CONTINUOUS
 10
141.19999999999891
 20
1.2000000000013309
 30
0.0
  0
VERTEX
  5
2583
  8
SAPA_PROFIL
  6
CONTINUOUS
 10
141.19999999999879
 20
1.900000000001377
 30
0.0
 42
0.4142135623730951
  0
VERTEX
  5
2584
  8
SAPA_PROFIL
  6
CONTINUOUS
 10
140.8999999999989
 20
2.2000000000013311
 30
0.0
  0
VERTEX
  5
2585
  8
SAPA_PROFIL
  6
CONTINUOUS
 10
140.0999999999959
 20
2.200000000002468
 30
0.0
 42
-0.414213562372149
  0
VERTEX
  5
2586
  8
SAPA_PROFIL
  6
CONTINUOUS
 10
139.79999999999691
 20
2.5000000000024221
 30
0.0
  0
VERTEX
  5
2587
  8
SAPA_PROFIL
  6
CONTINUOUS
 10
139.79999999999691
 20
3.2000000000023539
 30
0.0
 42
-0.4142135623740942
  0
VERTEX
  5
2588
  8
SAPA_PROFIL
  6
CONTINUOUS
 10
140.09999999999789
 20
3.5000000000024221
 30
0.0
  0
VERTEX
  5
2589
  8
SAPA_PROFIL
  6
CONTINUOUS
 10
140.8999999999989
 20
3.5000000000013989
 30
0.0
 42
0.4142135623730951
  0
VERTEX
  5
258A
  8
SAPA_PROFIL
  6
CONTINUOUS
 10
141.19999999999891
 20
3.8000000000014671
 30
0.0
  0
VERTEX
  5
258B
  8
SAPA_PROFIL
  6
CONTINUOUS
 10
141.19999999999891
 20
4.0000000000024221
 30
0.0
 42
0.4142135623728287
  0
VERTEX
  5
258C
  8
SAPA_PROFIL
  6
CONTINUOUS
 10
140.19999999999891
 20
5.0000000000015126
 30
0.0
  0
VERTEX
  5
258D
  8
SAPA_PROFIL
  6
CONTINUOUS
 10
124.8000000036709
 20
5.0000000000024301
 30
0.0
 42
0.4142135623730951
  0
VERTEX
  5
258E
  8
SAPA_PROFIL
  6
CONTINUOUS
 10
124.50000000367091
 20
4.700000000002361
 30
0.0
  0
VERTEX
  5
258F
  8
SAPA_PROFIL
  6
CONTINUOUS
 10
124.500000003671
 20
0.6294114367985202
 30
0.0
 42
0.5486187866264242
  0
VERTEX
  5
2590
  8
SAPA_PROFIL
  6
CONTINUOUS
 10
124.9267854821929
 20
0.3575191006873837
 30
0.0
  0
VERTEX
  5
2591
  8
SAPA_PROFIL
  6
CONTINUOUS
 10
126.67321452144191
 20
1.1718923361134299
 30
0.0
 42
-0.5486187866274858
  0
VERTEX
  5
2592
  8
SAPA_PROFIL
  6
CONTINUOUS
 10
127.09999999996489
 20
0.900000000002521
 30
0.0
  0
VERTEX
  5
2593
  8
SAPA_PROFIL
  6
CONTINUOUS
 10
127.09999999996489
 20
-3.4999999999975691
 30
0.0
 42
-0.5486187866274797
  0
VERTEX
  5
2594
  8
SAPA_PROFIL
  6
CONTINUOUS
 10
126.67321452144191
 20
-3.7718923361084791
 30
0.0
  0
VERTEX
  5
2595
  8
SAPA_PROFIL
  6
CONTINUOUS
 10
124.926785482193
 20
-2.9575191006824322
 30
0.0
 42
0.5486187866264408
  0
VERTEX
  5
2596
  8
SAPA_PROFIL
  6
CONTINUOUS
 10
124.50000000367091
 20
-3.2294114367935691
 30
0.0
  0
VERTEX
  5
2597
  8
SAPA_PROFIL
  6
CONTINUOUS
 10
124.50000000367091
 20
-6.3999999999985704
 30
0.0
 42
-0.4142135623730953
  0
VERTEX
  5
2598
  8
SAPA_PROFIL
  6
CONTINUOUS
 10
124.20000000367089
 20
-6.699999999998524
 30
0.0
  0
VERTEX
  5
2599
  8
SAPA_PROFIL
  6
CONTINUOUS
 10
124.00000000367091
 20
-6.6999999999984112
 30
0.0
 42
0.4142135623730951
  0
VERTEX
  5
259A
  8
SAPA_PROFIL
  6
CONTINUOUS
 10
123.70000000367089
 20
-6.9999999999984794
 30
0.0
  0
VERTEX
  5
259B
  8
SAPA_PROFIL
  6
CONTINUOUS
 10
123.70000000367089
 20
-18.699999999997608
 30
0.0
 42
-0.4142135623730948
  0
VERTEX
  5
259C
  8
SAPA_PROFIL
  6
CONTINUOUS
 10
123.4000000036709
 20
-18.99999999999768
 30
0.0
  0
VERTEX
  5
259D
  8
SAPA_PROFIL
  6
CONTINUOUS
 10
122.4978356153655
 20
-18.99999999999763
 30
0.0
  0
VERTEX
  5
259E
  8
SAPA_PROFIL
  6
CONTINUOUS
 10
121.17671865743119
 20
-19.510622583135628
 30
0.0
 42
-0.4142135623730953
  0
VERTEX
  5
259F
  8
SAPA_PROFIL
  6
CONTINUOUS
 10
120.8025337019553
 20
-19.310658538628228
 30
0.0
  0
VERTEX
  5
25A0
  8
SAPA_PROFIL
  6
CONTINUOUS
 10
120.7880152927082
 20
-19.262812788629741
 30
0.0
  0
VERTEX
  5
25A1
  8
SAPA_PROFIL
  6
CONTINUOUS
 10
119.2849142119462
 20
-19.262729180746121
 30
0.0
 42
0.4769755326981663
  0
VERTEX
  5
25A2
  8
SAPA_PROFIL
  6
CONTINUOUS
 10
118.9826613874398
 20
-19.634386055691959
 30
0.0
  0
VERTEX
  5
25A3
  8
SAPA_PROFIL
  6
CONTINUOUS
 10
119.36410798356749
 20
-21.44761652635022
 30
0.0
 42
0.2216946626430184
  0
VERTEX
  5
25A4
  8
SAPA_PROFIL
  6
CONTINUOUS
 10
119.76991688872231
 20
-21.988496357827
 30
0.0
  0
VERTEX
  5
25A5
  8
SAPA_PROFIL
  6
CONTINUOUS
 10
120.0545991719539
 20
-22.140630268935769
 30
0.0
 42
0.5773502691897339
  0
VERTEX
  5
25A6
  8
SAPA_PROFIL
  6
CONTINUOUS
 10
120.34875547220879
 20
-21.957676528825591
 30
0.0
  0
VERTEX
  5
25A7
  8
SAPA_PROFIL
  6
CONTINUOUS
 10
120.3381941059818
 20
-21.635918800607339
 30
0.0
  0
VERTEX
  5
25A8
  8
SAPA_PROFIL
  6
CONTINUOUS
 10
122.2240377978428
 20
-20.551354353635599
 30
0.0
  0
VERTEX
  5
25A9
  8
SAPA_PROFIL
  6
CONTINUOUS
 10
122.4154207978366
 20
-20.49328071664651
 30
0.0
 42
-0.7625858545243346
  0
VERTEX
  5
25AA
  8
SAPA_PROFIL
  6
CONTINUOUS
 10
122.6000000000341
 20
-20.823606797663508
 30
0.0
 42
0.2134217652834345
  0
VERTEX
  5
25AB
  8
SAPA_PROFIL
  6
CONTINUOUS
 10
122.50000000003391
 20
-21.047213595497581
 30
0.0
  0
VERTEX
  5
25AC
  8
SAPA_PROFIL
  6
CONTINUOUS
 10
122.4999999999639
 20
-24.900000000004599
 30
0.0
 42
-0.4142135623643546
  0
VERTEX
  5
25AD
  8
SAPA_PROFIL
  6
CONTINUOUS
 10
122.19999999996691
 20
-25.199999999998639
 30
0.0
  0
VERTEX
  5
25AE
  8
SAPA_PROFIL
  6
CONTINUOUS
 10
121.9083734921709
 20
-25.200000000001481
 30
0.0
  0
VERTEX
  5
25AF
  8
SAPA_PROFIL
  6
CONTINUOUS
 10
120.2999999999649
 20
-24.2714051313197
 30
0.0
 42
0.5773502691895283
  0
VERTEX
  5
25B0
  8
SAPA_PROFIL
  6
CONTINUOUS
 10
119.999999999965
 20
-24.444610212076629
 30
0.0
  0
VERTEX
  5
25B1
  8
SAPA_PROFIL
  6
CONTINUOUS
 10
119.9999999999649
 20
-25.83025085813059
 30
0.0
 42
0.267949192431441
  0
VERTEX
  5
25B2
  8
SAPA_PROFIL
  6
CONTINUOUS
 10
120.4999999999649
 20
-26.696276261915571
 30
0.0
  0
VERTEX
  5
25B3
  8
SAPA_PROFIL
  6
CONTINUOUS
 10
126.5499999999988
 20
-30.189245390524619
 30
0.0
 42
-0.2679491924318217
  0
VERTEX
  5
25B4
  8
SAPA_PROFIL
  6
CONTINUOUS
 10
126.8000000000001
 20
-30.622258092417571
 30
0.0
  0
VERTEX
  5
25B5
  8
SAPA_PROFIL
  6
CONTINUOUS
 10
126.7999999999988
 20
-43.487142984320663
 30
0.0
 42
-0.2679491924310522
  0
VERTEX
  5
25B6
  8
SAPA_PROFIL
  6
CONTINUOUS
 10
126.549999999999
 20
-43.920155686212823
 30
0.0
  0
VERTEX
  5
25B7
  8
SAPA_PROFIL
  6
CONTINUOUS
 10
124.4999999999639
 20
-45.103723738069512
 30
0.0
 42
0.267949192431297
  0
VERTEX
  5
25B8
  8
SAPA_PROFIL
  6
CONTINUOUS
 10
123.9999999999629
 20
-45.96974914185359
 30
0.0
  0
VERTEX
  5
25B9
  8
SAPA_PROFIL
  6
CONTINUOUS
 10
123.9999999999628
 20
-47.355389787907562
 30
0.0
 42
0.5773502691895273
  0
VERTEX
  5
25BA
  8
SAPA_PROFIL
  6
CONTINUOUS
 10
124.29999999996291
 20
-47.528594868664477
 30
0.0
  0
VERTEX
  5
25BB
  8
SAPA_PROFIL
  6
CONTINUOUS
 10
125.9083734921699
 20
-46.599999999982472
 30
0.0
  0
VERTEX
  5
25BC
  8
SAPA_PROFIL
  6
CONTINUOUS
 10
126.199999999965
 20
-46.599999999985648
 30
0.0
 42
-0.4142135623662692
  0
VERTEX
  5
25BD
  8
SAPA_PROFIL
  6
CONTINUOUS
 10
126.4999999999629
 20
-46.899999999980487
 30
0.0
  0
VERTEX
  5
25BE
  8
SAPA_PROFIL
  6
CONTINUOUS
 10
126.5000000000319
 20
-50.752786404487622
 30
0.0
  0
SEQEND
  5
25BF
  8
SAPA_PROFIL
  6
CONTINUOUS
  0
POLYLINE
  5
1DE7
  8
SAPA_PROFIL
 62
     4
 66
     1
 10
0.0
 20
0.0
 30
0.0
 70
     1
  0
VERTEX
  5
25C0
  8
SAPA_PROFIL
 62
     4
 10
99.537778470552496
 20
-49.827485331484162
 30
0.0
 42
-0.3137019356282051
  0
VERTEX
  5
25C1
  8
SAPA_PROFIL
 62
     4
 10
99.818728254098801
 20
-50.025110957017588
 30
0.0
  0
VERTEX
  5
25C2
  8
SAPA_PROFIL
 62
     4
 10
100.70420596696999
 20
-52.457940978561609
 30
0.0
 42
0.3152987888779321
  0
VERTEX
  5
25C3
  8
SAPA_PROFIL
 62
     4
 10
101.08008301528641
 20
-52.72113292123133
 30
0.0
  0
VERTEX
  5
25C4
  8
SAPA_PROFIL
 62
     4
 10
111.5000000000005
 20
-52.721132921231302
 30
0.0
  0
VERTEX
  5
25C5
  8
SAPA_PROFIL
 62
     4
 10
121.9199169847186
 20
-52.721132921231252
 30
0.0
 42
0.3152987888779395
  0
VERTEX
  5
25C6
  8
SAPA_PROFIL
 62
     4
 10
122.2957940330309
 20
-52.457940978561531
 30
0.0
  0
VERTEX
  5
25C7
  8
SAPA_PROFIL
 62
     4
 10
123.1812717458991
 20
-50.025110957025831
 30
0.0
 42
-0.3138982169096283
  0
VERTEX
  5
25C8
  8
SAPA_PROFIL
 62
     4
 10
123.4622215294133
 20
-49.827485331485477
 30
0.0
 42
-0.0157923906855865
  0
VERTEX
  5
25C9
  8
SAPA_PROFIL
 62
     4
 10
123.81368006175219
 20
-49.82408220184589
 30
0.0
  0
VERTEX
  5
25CA
  8
SAPA_PROFIL
 62
     4
 10
124.05386312653449
 20
-49.685412444739363
 30
0.0
 42
-0.5773502691889272
  0
VERTEX
  5
25CB
  8
SAPA_PROFIL
 62
     4
 10
124.36886312653419
 20
-49.867277779534149
 30
0.0
  0
VERTEX
  5
25CC
  8
SAPA_PROFIL
 62
     4
 10
124.36886312653429
 20
-50.134392307747071
 30
0.0
  0
VERTEX
  5
25CD
  8
SAPA_PROFIL
 62
     4
 10
124.7000000000005
 20
-50.330614373531361
 30
0.0
  0
VERTEX
  5
25CE
  8
SAPA_PROFIL
 62
     4
 10
125.683320137981
 20
-50.898258537028809
 30
0.0
 42
0.1316524975869703
  0
VERTEX
  5
25CF
  8
SAPA_PROFIL
 62
     4
 10
125.7883201379798
 20
-50.926393202233371
 30
0.0
  0
VERTEX
  5
25D0
  8
SAPA_PROFIL
 62
     4
 10
126.1000000000024
 20
-50.926393202233491
 30
0.0
 42
0.4142135623775584
  0
VERTEX
  5
25D1
  8
SAPA_PROFIL
 62
     4
 10
126.5000000000004
 20
-50.526393202233173
 30
0.0
  0
VERTEX
  5
25D2
  8
SAPA_PROFIL
 62
     4
 10
126.5000000000005
 20
-47.126393202233423
 30
0.0
 42
0.4142135623773978
  0
VERTEX
  5
25D3
  8
SAPA_PROFIL
 62
     4
 10
126.10000000000051
 20
-46.726393202233439
 30
0.0
  0
VERTEX
  5
25D4
  8
SAPA_PROFIL
 62
     4
 10
125.7883201379768
 20
-46.726393202233439
 30
0.0
 42
0.1316524975869708
  0
VERTEX
  5
25D5
  8
SAPA_PROFIL
 62
     4
 10
125.68332013797981
 20
-46.754527867438689
 30
0.0
  0
VERTEX
  5
25D6
  8
SAPA_PROFIL
 62
     4
 10
124.7000000000005
 20
-47.322248013800717
 30
0.0
  0
VERTEX
  5
25D7
  8
SAPA_PROFIL
 62
     4
 10
124.10525588832959
 20
-47.665623686772832
 30
0.0
 42
-0.1316524975869772
  0
VERTEX
  5
25D8
  8
SAPA_PROFIL
 62
     4
 10
123.5052558883262
 20
-47.826393202233348
 30
0.0
  0
VERTEX
  5
25D9
  8
SAPA_PROFIL
 62
     4
 10
122.5533915554398
 20
-47.826393202233128
 30
0.0
 42
0.3152987888780149
  0
VERTEX
  5
25DA
  8
SAPA_PROFIL
 62
     4
 10
121.61369893466831
 20
-48.484373058907508
 30
0.0
  0
VERTEX
  5
25DB
  8
SAPA_PROFIL
 62
     4
 10
120.8225849097584
 20
-50.6579409785612
 30
0.0
 42
-0.3152987888779391
  0
VERTEX
  5
25DC
  8
SAPA_PROFIL
 62
     4
 10
120.4467078614439
 20
-50.921132921231333
 30
0.0
  0
VERTEX
  5
25DD
  8
SAPA_PROFIL
 62
     4
 10
111.5000000000005
 20
-50.921132921231319
 30
0.0
  0
VERTEX
  5
25DE
  8
SAPA_PROFIL
 62
     4
 10
102.553292138557
 20
-50.921132921231369
 30
0.0
 42
-0.3152987888779318
  0
VERTEX
  5
25DF
  8
SAPA_PROFIL
 62
     4
 10
102.1774150902438
 20
-50.657940978564952
 30
0.0
  0
VERTEX
  5
25E0
  8
SAPA_PROFIL
 62
     4
 10
101.3863010653327
 20
-48.484373058907728
 30
0.0
 42
0.3152987888779361
  0
VERTEX
  5
25E1
  8
SAPA_PROFIL
 62
     4
 10
100.4466084445321
 20
-47.826393202233398
 30
0.0
  0
VERTEX
  5
25E2
  8
SAPA_PROFIL
 62
     4
 10
99.494744111674663
 20
-47.826393202233398
 30
0.0
 42
-0.1316524975869766
  0
VERTEX
  5
25E3
  8
SAPA_PROFIL
 62
     4
 10
98.894744111681462
 20
-47.665623686778687
 30
0.0
  0
VERTEX
  5
25E4
  8
SAPA_PROFIL
 62
     4
 10
98.307179676972964
 20
-47.326393202233461
 30
0.0
  0
VERTEX
  5
25E5
  8
SAPA_PROFIL
 62
     4
 10
97.316679862021033
 20
-46.754527867438739
 30
0.0
 42
0.1316524975869832
  0
VERTEX
  5
25E6
  8
SAPA_PROFIL
 62
     4
 10
97.211679862017945
 20
-46.726393202233488
 30
0.0
  0
VERTEX
  5
25E7
  8
SAPA_PROFIL
 62
     4
 10
96.900000000000432
 20
-46.726393202233439
 30
0.0
 42
0.414213562371655
  0
VERTEX
  5
25E8
  8
SAPA_PROFIL
 62
     4
 10
96.500000000000455
 20
-47.126393202237388
 30
0.0
  0
VERTEX
  5
25E9
  8
SAPA_PROFIL
 62
     4
 10
96.500000000000455
 20
-50.52639320223345
 30
0.0
 42
0.4142135623716633
  0
VERTEX
  5
25EA
  8
SAPA_PROFIL
 62
     4
 10
96.900000000002478
 20
-50.926393202233427
 30
0.0
  0
VERTEX
  5
25EB
  8
SAPA_PROFIL
 62
     4
 10
97.211679862021128
 20
-50.926393202233427
 30
0.0
 42
0.1316524975869709
  0
VERTEX
  5
25EC
  8
SAPA_PROFIL
 62
     4
 10
97.316679862021715
 20
-50.898258537027843
 30
0.0
  0
VERTEX
  5
25ED
  8
SAPA_PROFIL
 62
     4
 10
98.631136873466716
 20
-50.134392307747063
 30
0.0
  0
VERTEX
  5
25EE
  8
SAPA_PROFIL
 62
     4
 10
98.631136873466815
 20
-49.867277779534149
 30
0.0
 42
-0.5773502691889269
  0
VERTEX
  5
25EF
  8
SAPA_PROFIL
 62
     4
 10
98.946136873466557
 20
-49.685412444739363
 30
0.0
  0
VERTEX
  5
25F0
  8
SAPA_PROFIL
 62
     4
 10
99.186319938248843
 20
-49.824082201845883
 30
0.0
 42
-0.015792390685586
  0
SEQEND
  5
25F1
  8
SAPA_PROFIL
 62
     4
  0
POLYLINE
  5
1DE8
  8
SAPA_PROFIL
 62
     4
 66
     1
 10
0.0
 20
0.0
 30
0.0
 70
     1
  0
VERTEX
  5
25F2
  8
SAPA_PROFIL
 62
     4
 10
103.49474411165551
 20
-21.97360679775441
 30
0.0
 42
-0.0158087792519252
  0
VERTEX
  5
25F3
  8
SAPA_PROFIL
 62
     4
 10
103.18631993824729
 20
-21.975917798141818
 30
0.0
  0
VERTEX
  5
25F4
  8
SAPA_PROFIL
 62
     4
 10
102.94613687346499
 20
-22.114587555248349
 30
0.0
 42
-0.5773502691889283
  0
VERTEX
  5
25F5
  8
SAPA_PROFIL
 62
     4
 10
102.63113687346529
 20
-21.932722220453559
 30
0.0
  0
VERTEX
  5
25F6
  8
SAPA_PROFIL
 62
     4
 10
102.6332864004289
 20
-21.661884602327159
 30
0.0
  0
VERTEX
  5
25F7
  8
SAPA_PROFIL
 62
     4
 10
101.3375644347016
 20
-20.91379917661958
 30
0.0
 42
0.1316524975870228
  0
VERTEX
  5
25F8
  8
SAPA_PROFIL
 62
     4
 10
101.1875644347007
 20
-20.873606797754451
 30
0.0
  0
VERTEX
  5
25F9
  8
SAPA_PROFIL
 62
     4
 10
100.9000000000009
 20
-20.873606797754451
 30
0.0
 42
0.4142135623716466
  0
VERTEX
  5
25FA
  8
SAPA_PROFIL
 62
     4
 10
100.49999999999891
 20
-21.273606797754422
 30
0.0
  0
VERTEX
  5
25FB
  8
SAPA_PROFIL
 62
     4
 10
100.49999999999891
 20
-24.67360679775048
 30
0.0
 42
0.4142135623716799
  0
VERTEX
  5
25FC
  8
SAPA_PROFIL
 62
     4
 10
100.899999999999
 20
-25.07360679775438
 30
0.0
  0
VERTEX
  5
25FD
  8
SAPA_PROFIL
 62
     4
 10
101.1875644346964
 20
-25.07360679775444
 30
0.0
 42
0.1316524975869177
  0
VERTEX
  5
25FE
  8
SAPA_PROFIL
 62
     4
 10
101.3375644347006
 20
-25.033414418889709
 30
0.0
  0
VERTEX
  5
25FF
  8
SAPA_PROFIL
 62
     4
 10
102.8947441116799
 20
-24.134376313209131
 30
0.0
 42
-0.1316524975869702
  0
VERTEX
  5
2600
  8
SAPA_PROFIL
 62
     4
 10
103.4947441116731
 20
-23.973606797754421
 30
0.0
  0
VERTEX
  5
2601
  8
SAPA_PROFIL
 62
     4
 10
104.9056465456206
 20
-23.973606797754421
 30
0.0
 42
0.2956153501796054
  0
VERTEX
  5
2602
  8
SAPA_PROFIL
 62
     4
 10
105.1794410810088
 20
-23.796230418619341
 30
0.0
  0
VERTEX
  5
2603
  8
SAPA_PROFIL
 62
     4
 10
106.3559868458432
 20
-21.169234096308841
 30
0.0
 42
-0.2956153501796242
  0
VERTEX
  5
2604
  8
SAPA_PROFIL
 62
     4
 10
106.81231107148101
 20
-20.873606797754221
 30
0.0
  0
VERTEX
  5
2605
  8
SAPA_PROFIL
 62
     4
 10
116.1874352799433
 20
-20.873606797754221
 30
0.0
 42
-0.2962134949611152
  0
VERTEX
  5
2606
  8
SAPA_PROFIL
 62
     4
 10
116.64420800876491
 20
-21.170238476216909
 30
0.0
  0
VERTEX
  5
2607
  8
SAPA_PROFIL
 62
     4
 10
117.8131066416651
 20
-23.795627790677081
 30
0.0
 42
0.2962134949611341
  0
VERTEX
  5
2608
  8
SAPA_PROFIL
 62
     4
 10
118.08717027895349
 20
-23.973606797754421
 30
0.0
  0
VERTEX
  5
2609
  8
SAPA_PROFIL
 62
     4
 10
119.5052558883247
 20
-23.973606797754421
 30
0.0
 42
-0.1316524975869708
  0
VERTEX
  5
260A
  8
SAPA_PROFIL
 62
     4
 10
120.105255888328
 20
-24.13437631321511
 30
0.0
  0
VERTEX
  5
260B
  8
SAPA_PROFIL
 62
     4
 10
120.69999999999899
 20
-24.477751986187108
 30
0.0
  0
VERTEX
  5
260C
  8
SAPA_PROFIL
 62
     4
 10
121.6624355652971
 20
-25.033414418889709
 30
0.0
 42
0.1316524975870234
  0
VERTEX
  5
260D
  8
SAPA_PROFIL
 62
     4
 10
121.8124355652928
 20
-25.07360679775444
 30
0.0
  0
VERTEX
  5
260E
  8
SAPA_PROFIL
 62
     4
 10
122.0999999999989
 20
-25.07360679775438
 30
0.0
 42
0.4142135623773905
  0
VERTEX
  5
260F
  8
SAPA_PROFIL
 62
     4
 10
122.49999999999901
 20
-24.67360679775441
 30
0.0
  0
VERTEX
  5
2610
  8
SAPA_PROFIL
 62
     4
 10
122.49999999999891
 20
-21.273606797754429
 30
0.0
 42
0.4142135623716633
  0
VERTEX
  5
2611
  8
SAPA_PROFIL
 62
     4
 10
122.1000000000009
 20
-20.873606797754451
 30
0.0
  0
VERTEX
  5
2612
  8
SAPA_PROFIL
 62
     4
 10
121.81243556529721
 20
-20.873606797754451
 30
0.0
 42
0.1316524975870223
  0
VERTEX
  5
2613
  8
SAPA_PROFIL
 62
     4
 10
121.66243556529879
 20
-20.913799176618159
 30
0.0
  0
VERTEX
  5
2614
  8
SAPA_PROFIL
 62
     4
 10
120.69999999999899
 20
-21.46946160932173
 30
0.0
  0
VERTEX
  5
2615
  8
SAPA_PROFIL
 62
     4
 10
120.366713599569
 20
-21.661884602327142
 30
0.0
  0
VERTEX
  5
2616
  8
SAPA_PROFIL
 62
     4
 10
120.3688631265327
 20
-21.932722220453559
 30
0.0
 42
-0.577350269188929
  0
VERTEX
  5
2617
  8
SAPA_PROFIL
 62
     4
 10
120.0538631265329
 20
-22.114587555248349
 30
0.0
  0
VERTEX
  5
2618
  8
SAPA_PROFIL
 62
     4
 10
119.8136800617507
 20
-21.975917798141829
 30
0.0
 42
-0.0126854278206095
  0
VERTEX
  5
2619
  8
SAPA_PROFIL
 62
     4
 10
119.46222152941191
 20
-21.973606797754449
 30
0.0
  0
VERTEX
  5
261A
  8
SAPA_PROFIL
 62
     4
 10
119.3859854653529
 20
-21.973606797754421
 30
0.0
 42
-0.2962134949611687
  0
VERTEX
  5
261B
  8
SAPA_PROFIL
 62
     4
 10
119.1119218280586
 20
-21.795627790674061
 30
0.0
  0
VERTEX
  5
261C
  8
SAPA_PROFIL
 62
     4
 10
117.97924135933241
 20
-19.25158580483172
 30
0.0
 42
0.2962134949611357
  0
VERTEX
  5
261D
  8
SAPA_PROFIL
 62
     4
 10
117.7051777220411
 20
-19.07360679775444
 30
0.0
  0
VERTEX
  5
261E
  8
SAPA_PROFIL
 62
     4
 10
113.23005594144961
 20
-19.07360679775427
 30
0.0
  0
VERTEX
  5
261F
  8
SAPA_PROFIL
 62
     4
 10
105.2948222779596
 20
-19.073606797754319
 30
0.0
 42
0.2962134949611373
  0
VERTEX
  5
2620
  8
SAPA_PROFIL
 62
     4
 10
105.02075864066541
 20
-19.251585804831599
 30
0.0
  0
VERTEX
  5
2621
  8
SAPA_PROFIL
 62
     4
 10
103.8880781719355
 20
-21.795627790682129
 30
0.0
 42
-0.2962134949611043
  0
VERTEX
  5
2622
  8
SAPA_PROFIL
 62
     4
 10
103.61401453464489
 20
-21.97360679775441
 30
0.0
  0
SEQEND
  5
2623
  8
SAPA_PROFIL
 62
     4
  0
POLYLINE
  5
1DE9
  8
SAPA_PROFIL
 66
     1
 10
0.0
 20
0.0
 30
0.0
 70
     1
  0
VERTEX
  5
2624
  8
SAPA_PROFIL
 10
-62.691421355248622
 20
14.9585786437579
 30
0.0
 42
-0.4142135623730879
  0
VERTEX
  5
2625
  8
SAPA_PROFIL
 10
-62.191421355248622
 20
15.4585786437579
 30
0.0
  0
VERTEX
  5
2626
  8
SAPA_PROFIL
 10
-57.391421355248433
 20
15.45857864375767
 30
0.0
 42
0.4142135623731014
  0
VERTEX
  5
2627
  8
SAPA_PROFIL
 10
-56.89142135524844
 20
15.95857864375767
 30
0.0
  0
VERTEX
  5
2628
  8
SAPA_PROFIL
 10
-56.891421355248212
 20
23.05857864375702
 30
0.0
 42
-0.4142135623730951
  0
VERTEX
  5
2629
  8
SAPA_PROFIL
 10
-56.391421355248212
 20
23.558578643757009
 30
0.0
  0
VERTEX
  5
262A
  8
SAPA_PROFIL
 10
-46.791421355247842
 20
23.558578643757009
 30
0.0
 42
-0.4142135623731054
  0
VERTEX
  5
262B
  8
SAPA_PROFIL
 10
-46.291421355247849
 20
23.05857864375702
 30
0.0
  0
VERTEX
  5
262C
  8
SAPA_PROFIL
 10
-46.291421355248083
 20
16.9585786437571
 30
0.0
 42
-0.4142135623730822
  0
VERTEX
  5
262D
  8
SAPA_PROFIL
 10
-46.791421355248069
 20
16.458578643757111
 30
0.0
  0
VERTEX
  5
262E
  8
SAPA_PROFIL
 10
-51.891421355248887
 20
16.458578643757111
 30
0.0
 42
0.4142135623730919
  0
VERTEX
  5
262F
  8
SAPA_PROFIL
 10
-52.391421355248902
 20
15.958578643757111
 30
0.0
  0
VERTEX
  5
2630
  8
SAPA_PROFIL
 10
-52.391421355248902
 20
12.25857864376024
 30
0.0
 42
-0.414213562373061
  0
VERTEX
  5
2631
  8
SAPA_PROFIL
 10
-52.891421355248887
 20
11.75857864376024
 30
0.0
  0
VERTEX
  5
2632
  8
SAPA_PROFIL
 10
-62.191421355248622
 20
11.75857864375922
 30
0.0
 42
-0.414213562373165
  0
VERTEX
  5
2633
  8
SAPA_PROFIL
 10
-62.691421355248622
 20
12.25857864375922
 30
0.0
  0
SEQEND
  5
2634
  8
SAPA_PROFIL
  0
POLYLINE
  5
1DEA
  8
SAPA_PROFIL
 66
     1
 10
0.0
 20
0.0
 30
0.0
 70
     1
  0
VERTEX
  5
2635
  8
SAPA_PROFIL
 10
-64.191421355248494
 20
18.05857864375713
 30
0.0
  0
VERTEX
  5
2636
  8
SAPA_PROFIL
 10
-63.726497935683142
 20
18.64496265951794
 30
0.0
 42
-0.7105995015651415
  0
VERTEX
  5
2637
  8
SAPA_PROFIL
 10
-63.191421355248281
 20
18.458578643757221
 30
0.0
  0
VERTEX
  5
2638
  8
SAPA_PROFIL
 10
-63.191421355248508
 20
17.458578643757331
 30
0.0
 42
0.4142135623731451
  0
VERTEX
  5
2639
  8
SAPA_PROFIL
 10
-62.691421355248508
 20
16.958578643757221
 30
0.0
  0
VERTEX
  5
263A
  8
SAPA_PROFIL
 10
-58.891421355248667
 20
16.958578643757221
 30
0.0
 42
0.4142135623730951
  0
VERTEX
  5
263B
  8
SAPA_PROFIL
 10
-58.39142135524866
 20
17.458578643757221
 30
0.0
  0
VERTEX
  5
263C
  8
SAPA_PROFIL
 10
-58.391421355248212
 20
23.05857864375713
 30
0.0
 42
0.4142135623730951
  0
VERTEX
  5
263D
  8
SAPA_PROFIL
 10
-58.891421355248212
 20
23.55857864375713
 30
0.0
  0
VERTEX
  5
263E
  8
SAPA_PROFIL
 10
-62.691421355248387
 20
23.55857864375713
 30
0.0
 42
0.4142135623730368
  0
VERTEX
  5
263F
  8
SAPA_PROFIL
 10
-63.191421355248387
 20
23.05857864375724
 30
0.0
  0
VERTEX
  5
2640
  8
SAPA_PROFIL
 10
-63.191421355248508
 20
22.05857864375713
 30
0.0
 42
-0.7105995015650846
  0
VERTEX
  5
2641
  8
SAPA_PROFIL
 10
-63.726497935683142
 20
21.872194627996411
 30
0.0
  0
VERTEX
  5
2642
  8
SAPA_PROFIL
 10
-64.191421355248494
 20
22.458578643757221
 30
0.0
  0
VERTEX
  5
2643
  8
SAPA_PROFIL
 10
-64.191421355248494
 20
24.558578643757251
 30
0.0
 42
-0.4142135623730951
  0
VERTEX
  5
2644
  8
SAPA_PROFIL
 10
-63.691421355248501
 20
25.05857864375724
 30
0.0
  0
VERTEX
  5
2645
  8
SAPA_PROFIL
 10
-44.791421355247842
 20
25.05857864375702
 30
0.0
 42
-0.4142135623730951
  0
VERTEX
  5
2646
  8
SAPA_PROFIL
 10
-44.291421355247842
 20
24.55857864375702
 30
0.0
  0
VERTEX
  5
2647
  8
SAPA_PROFIL
 10
-44.291421355247621
 20
22.958578643757111
 30
0.0
  0
VERTEX
  5
2648
  8
SAPA_PROFIL
 10
-44.291421355247621
 20
22.958578643757111
 30
0.0
 42
0.4142135623730868
  0
VERTEX
  5
2649
  8
SAPA_PROFIL
 10
-44.791421355247621
 20
22.458578643757111
 30
0.0
  0
VERTEX
  5
264A
  8
SAPA_PROFIL
 10
-44.791421355247842
 20
15.458578643757111
 30
0.0
 42
-0.4142135623730951
  0
VERTEX
  5
264B
  8
SAPA_PROFIL
 10
-45.291421355247849
 20
14.9585786437571
 30
0.0
  0
VERTEX
  5
264C
  8
SAPA_PROFIL
 10
-50.391421355248212
 20
14.9585786437571
 30
0.0
 42
0.4142135623730951
  0
VERTEX
  5
264D
  8
SAPA_PROFIL
 10
-50.891421355248212
 20
14.4585786437571
 30
0.0
  0
VERTEX
  5
264E
  8
SAPA_PROFIL
 10
-50.89142135524844
 20
11.4585786437571
 30
0.0
 42
0.4142135623730951
  0
VERTEX
  5
264F
  8
SAPA_PROFIL
 10
-50.391421355248333
 20
10.958578643757111
 30
0.0
  0
VERTEX
  5
2650
  8
SAPA_PROFIL
 10
-34.491421355247901
 20
10.95857864375801
 30
0.0
 42
0.4142135623730951
  0
VERTEX
  5
2651
  8
SAPA_PROFIL
 10
-34.19142135524794
 20
11.25857864375797
 30
0.0
  0
VERTEX
  5
2652
  8
SAPA_PROFIL
 10
-34.191421355248053
 20
12.54678952346563
 30
0.0
 42
-0.6681786379192988
  0
VERTEX
  5
2653
  8
SAPA_PROFIL
 10
-33.679289320892053
 20
12.758921557821679
 30
0.0
  0
VERTEX
  5
2654
  8
SAPA_PROFIL
 10
-31.479289320891901
 20
10.558921557821741
 30
0.0
 42
-0.1989123673796285
  0
VERTEX
  5
2655
  8
SAPA_PROFIL
 10
-31.391421355247989
 20
10.34678952346581
 30
0.0
  0
VERTEX
  5
2656
  8
SAPA_PROFIL
 10
-31.391421355247761
 20
9.7585786437578577
 30
0.0
 42
-0.4142135623730951
  0
VERTEX
  5
2657
  8
SAPA_PROFIL
 10
-31.691421355247829
 20
9.4585786437580168
 30
0.0
  0
VERTEX
  5
2658
  8
SAPA_PROFIL
 10
-50.39142135524866
 20
9.4585786437580168
 30
0.0
 42
0.4142135623730951
  0
VERTEX
  5
2659
  8
SAPA_PROFIL
 10
-50.89142135524866
 20
8.9585786437580168
 30
0.0
  0
VERTEX
  5
265A
  8
SAPA_PROFIL
 10
-50.89142135524866
 20
7.2585786437581978
 30
0.0
 42
0.4142135623730951
  0
VERTEX
  5
265B
  8
SAPA_PROFIL
 10
-50.39142135524866
 20
6.7585786437581978
 30
0.0
  0
VERTEX
  5
265C
  8
SAPA_PROFIL
 10
-38.891421355248902
 20
6.7585786437584261
 30
0.0
 42
-0.4142135623730951
  0
VERTEX
  5
265D
  8
SAPA_PROFIL
 10
-38.391421355248902
 20
6.2585786437584261
 30
0.0
  0
VERTEX
  5
265E
  8
SAPA_PROFIL
 10
-38.391421355248902
 20
5.7585786437581978
 30
0.0
 42
-0.4142135623730951
  0
VERTEX
  5
265F
  8
SAPA_PROFIL
 10
-38.891421355248902
 20
5.2585786437581978
 30
0.0
  0
VERTEX
  5
2660
  8
SAPA_PROFIL
 10
-51.891421355248887
 20
5.258578643759221
 30
0.0
 42
-0.4142135623730951
  0
VERTEX
  5
2661
  8
SAPA_PROFIL
 10
-52.391421355248902
 20
5.758578643759221
 30
0.0
  0
VERTEX
  5
2662
  8
SAPA_PROFIL
 10
-52.391421355249001
 20
9.7585786437602451
 30
0.0
 42
0.4142135623731284
  0
VERTEX
  5
2663
  8
SAPA_PROFIL
 10
-52.891421355249122
 20
10.25857864376024
 30
0.0
  0
VERTEX
  5
2664
  8
SAPA_PROFIL
 10
-63.691421355248742
 20
10.258578643758989
 30
0.0
 42
-0.4142135623730951
  0
VERTEX
  5
2665
  8
SAPA_PROFIL
 10
-64.191421355248735
 20
10.758578643758989
 30
0.0
  0
SEQEND
  5
2666
  8
SAPA_PROFIL
  0
POLYLINE
  5
1DEB
  8
SAPA_PROFIL
 66
     1
 10
0.0
 20
0.0
 30
0.0
 70
     1
  0
VERTEX
  5
2667
  8
SAPA_PROFIL
 10
48.799999999999038
 20
45.000000000000561
 30
0.0
  0
VERTEX
  5
2668
  8
SAPA_PROFIL
 10
50.799999999999052
 20
45.000000000000561
 30
0.0
  0
VERTEX
  5
2669
  8
SAPA_PROFIL
 10
50.799999999999052
 20
30.656854249492991
 30
0.0
  0
VERTEX
  5
266A
  8
SAPA_PROFIL
 10
45.143145750506612
 20
25.000000000000568
 30
0.0
  0
VERTEX
  5
266B
  8
SAPA_PROFIL
 10
25.799999999999049
 20
25.000000000000568
 30
0.0
  0
VERTEX
  5
266C
  8
SAPA_PROFIL
 10
25.799999999999049
 20
27.000000000000568
 30
0.0
  0
VERTEX
  5
266D
  8
SAPA_PROFIL
 10
31.107179676971551
 20
27.000000000000568
 30
0.0
  0
VERTEX
  5
266E
  8
SAPA_PROFIL
 10
31.799999999999049
 20
26.600000000000708
 30
0.0
  0
VERTEX
  5
266F
  8
SAPA_PROFIL
 10
32.492820323026763
 20
27.000000000000568
 30
0.0
  0
VERTEX
  5
2670
  8
SAPA_PROFIL
 10
43.486291501014421
 20
27.000000000000568
 30
0.0
 42
0.1989123673796584
  0
VERTEX
  5
2671
  8
SAPA_PROFIL
 10
44.900505063387527
 20
27.585786437627458
 30
0.0
  0
VERTEX
  5
2672
  8
SAPA_PROFIL
 10
48.214213562372152
 20
30.899494936612321
 30
0.0
 42
0.1989123673796572
  0
VERTEX
  5
2673
  8
SAPA_PROFIL
 10
48.799999999999038
 20
32.31370849898542
 30
0.0
  0
VERTEX
  5
2674
  8
SAPA_PROFIL
 10
48.799999999999038
 20
38.307179676973078
 30
0.0
  0
VERTEX
  5
2675
  8
SAPA_PROFIL
 10
49.199999999999129
 20
39.000000000000568
 30
0.0
  0
VERTEX
  5
2676
  8
SAPA_PROFIL
 10
48.799999999999038
 20
39.692820323028279
 30
0.0
  0
SEQEND
  5
2677
  8
SAPA_PROFIL
  0
POLYLINE
  5
1DEC
  8
SAPA_PROFIL
 66
     1
 10
0.0
 20
0.0
 30
0.0
 70
     1
  0
VERTEX
  5
2678
  8
SAPA_PROFIL
 10
-86.499999999010456
 20
20.85000000000036
 30
0.0
 42
-0.1989123673797145
  0
VERTEX
  5
2679
  8
SAPA_PROFIL
 10
-86.587867964654379
 20
20.637867965644091
 30
0.0
  0
VERTEX
  5
267A
  8
SAPA_PROFIL
 10
-86.987867964654455
 20
20.237867965644451
 30
0.0
 42
-0.668178637919182
  0
VERTEX
  5
267B
  8
SAPA_PROFIL
 10
-87.499999999010484
 20
20.450000000000269
 30
0.0
  0
VERTEX
  5
267C
  8
SAPA_PROFIL
 10
-87.499999999010484
 20
21.300000000000178
 30
0.0
 42
0.4142135623730284
  0
VERTEX
  5
267D
  8
SAPA_PROFIL
 10
-87.999999999010456
 20
21.800000000000178
 30
0.0
  0
VERTEX
  5
267E
  8
SAPA_PROFIL
 10
-88.390808928730607
 20
21.800000000000178
 30
0.0
 42
0.17632698070845
  0
VERTEX
  5
267F
  8
SAPA_PROFIL
 10
-88.583645211636394
 20
21.729813332935919
 30
0.0
  0
VERTEX
  5
2680
  8
SAPA_PROFIL
 10
-90.392836281916061
 20
20.211721773135199
 30
0.0
 42
0.2216946626429421
  0
VERTEX
  5
2681
  8
SAPA_PROFIL
 10
-90.499999999010015
 20
19.98190844019928
 30
0.0
  0
VERTEX
  5
2682
  8
SAPA_PROFIL
 10
-90.499999999010456
 20
16.450000000000269
 30
0.0
 42
0.4142135623730951
  0
VERTEX
  5
2683
  8
SAPA_PROFIL
 10
-90.199999999010288
 20
16.150000000000091
 30
0.0
  0
VERTEX
  5
2684
  8
SAPA_PROFIL
 10
-87.799999999010197
 20
16.150000000000539
 30
0.0
 42
0.4142135623730951
  0
VERTEX
  5
2685
  8
SAPA_PROFIL
 10
-87.499999999010484
 20
16.450000000000269
 30
0.0
  0
VERTEX
  5
2686
  8
SAPA_PROFIL
 10
-87.499999999010484
 20
16.85000000000036
 30
0.0
 42
-0.6681786379193188
  0
VERTEX
  5
2687
  8
SAPA_PROFIL
 10
-86.987867964654455
 20
17.062132034356178
 30
0.0
  0
VERTEX
  5
2688
  8
SAPA_PROFIL
 10
-86.587867964654379
 20
16.662132034356091
 30
0.0
 42
-0.198912367379658
  0
VERTEX
  5
2689
  8
SAPA_PROFIL
 10
-86.499999999010456
 20
16.450000000000269
 30
0.0
  0
VERTEX
  5
268A
  8
SAPA_PROFIL
 10
-86.499999999010015
 20
14.65000000000054
 30
0.0
 42
-0.4142135623731284
  0
VERTEX
  5
268B
  8
SAPA_PROFIL
 10
-86.999999999010015
 20
14.15000000000054
 30
0.0
  0
VERTEX
  5
268C
  8
SAPA_PROFIL
 10
-91.499999999010925
 20
14.150000000000089
 30
0.0
 42
-0.4142135623730951
  0
VERTEX
  5
268D
  8
SAPA_PROFIL
 10
-91.999999999010925
 20
14.650000000000089
 30
0.0
  0
VERTEX
  5
268E
  8
SAPA_PROFIL
 10
-91.999999999010015
 20
18.650000000000091
 30
0.0
 42
0.4142135623729619
  0
VERTEX
  5
268F
  8
SAPA_PROFIL
 10
-92.499999999010015
 20
19.150000000000091
 30
0.0
  0
VERTEX
  5
2690
  8
SAPA_PROFIL
 10
-94.516956646213657
 20
19.150000000000091
 30
0.0
 42
0.1763269807084973
  0
VERTEX
  5
2691
  8
SAPA_PROFIL
 10
-94.838350451057053
 20
19.033022221559349
 30
0.0
  0
VERTEX
  5
2692
  8
SAPA_PROFIL
 10
-97.321393803853425
 20
16.949501460030199
 30
0.0
 42
0.2216946626428772
  0
VERTEX
  5
2693
  8
SAPA_PROFIL
 10
-97.499999999010015
 20
16.566479238470951
 30
0.0
  0
VERTEX
  5
2694
  8
SAPA_PROFIL
 10
-97.499999999010484
 20
10.56853372839123
 30
0.0
 42
0.315298788878991
  0
VERTEX
  5
2695
  8
SAPA_PROFIL
 10
-97.171010070673219
 20
10.098687417998461
 30
0.0
  0
VERTEX
  5
2696
  8
SAPA_PROFIL
 10
-93.157979855684516
 20
8.6380638705318233
 30
0.0
 42
-0.3152987888789731
  0
VERTEX
  5
2697
  8
SAPA_PROFIL
 10
-92.499999999010015
 20
7.6983712497458319
 30
0.0
  0
VERTEX
  5
2698
  8
SAPA_PROFIL
 10
-92.499999999010015
 20
6.6500000000000901
 30
0.0
 42
0.4142135623732616
  0
VERTEX
  5
2699
  8
SAPA_PROFIL
 10
-92.199999999010288
 20
6.3499999999999091
 30
0.0
  0
VERTEX
  5
269A
  8
SAPA_PROFIL
 10
-91.799999999010197
 20
6.3499999999999091
 30
0.0
 42
-0.4142135623731506
  0
VERTEX
  5
269B
  8
SAPA_PROFIL
 10
-91.499999999010015
 20
6.050000000000181
 30
0.0
  0
VERTEX
  5
269C
  8
SAPA_PROFIL
 10
-91.499999999010015
 20
5.6500000000000901
 30
0.0
 42
-0.4142135623731505
  0
VERTEX
  5
269D
  8
SAPA_PROFIL
 10
-91.799999999010197
 20
5.3499999999999091
 30
0.0
  0
VERTEX
  5
269E
  8
SAPA_PROFIL
 10
-92.199999999010288
 20
5.3499999999999091
 30
0.0
 42
0.4142135623732061
  0
VERTEX
  5
269F
  8
SAPA_PROFIL
 10
-92.499999999010015
 20
5.050000000000181
 30
0.0
  0
VERTEX
  5
26A0
  8
SAPA_PROFIL
 10
-92.499999999010015
 20
0.6242640687119092
 30
0.0
 42
-0.198912367379577
  0
VERTEX
  5
26A1
  8
SAPA_PROFIL
 10
-92.587867964654379
 20
0.4121320343560911
 30
0.0
  0
VERTEX
  5
26A2
  8
SAPA_PROFIL
 10
-92.999999999010015
 20
0.0
 30
0.0
  0
VERTEX
  5
26A3
  8
SAPA_PROFIL
 10
-92.587867964654379
 20
-0.4121320343560911
 30
0.0
 42
-0.1989123673795771
  0
VERTEX
  5
26A4
  8
SAPA_PROFIL
 10
-92.499999999010015
 20
-0.6242640687119092
 30
0.0
  0
VERTEX
  5
26A5
  8
SAPA_PROFIL
 10
-92.499999999010015
 20
-5.0499999999997272
 30
0.0
 42
0.4142135623732059
  0
VERTEX
  5
26A6
  8
SAPA_PROFIL
 10
-92.199999999010288
 20
-5.3499999999999091
 30
0.0
  0
VERTEX
  5
26A7
  8
SAPA_PROFIL
 10
-91.799999999010197
 20
-5.3499999999999091
 30
0.0
 42
-0.4142135623731506
  0
VERTEX
  5
26A8
  8
SAPA_PROFIL
 10
-91.499999999010015
 20
-5.6500000000000901
 30
0.0
  0
VERTEX
  5
26A9
  8
SAPA_PROFIL
 10
-91.499999999010015
 20
-6.0499999999997272
 30
0.0
 42
-0.4142135623731505
  0
VERTEX
  5
26AA
  8
SAPA_PROFIL
 10
-91.799999999010197
 20
-6.3499999999999091
 30
0.0
  0
VERTEX
  5
26AB
  8
SAPA_PROFIL
 10
-92.199999999010288
 20
-6.3499999999999091
 30
0.0
 42
0.4142135623732615
  0
VERTEX
  5
26AC
  8
SAPA_PROFIL
 10
-92.499999999010015
 20
-6.6500000000000901
 30
0.0
  0
VERTEX
  5
26AD
  8
SAPA_PROFIL
 10
-92.499999999010015
 20
-7.698371249745378
 30
0.0
 42
-0.3152987888789731
  0
VERTEX
  5
26AE
  8
SAPA_PROFIL
 10
-93.157979855684516
 20
-8.6380638705313686
 30
0.0
  0
VERTEX
  5
26AF
  8
SAPA_PROFIL
 10
-97.171010070673219
 20
-10.09868741799801
 30
0.0
 42
0.315298788878991
  0
VERTEX
  5
26B0
  8
SAPA_PROFIL
 10
-97.499999999010484
 20
-10.56853372839123
 30
0.0
  0
VERTEX
  5
26B1
  8
SAPA_PROFIL
 10
-97.499999999010015
 20
-16.566479238470489
 30
0.0
 42
0.2216946626428772
  0
VERTEX
  5
26B2
  8
SAPA_PROFIL
 10
-97.321393803853425
 20
-16.949501460029751
 30
0.0
  0
VERTEX
  5
26B3
  8
SAPA_PROFIL
 10
-94.838350451057053
 20
-19.033022221559349
 30
0.0
 42
0.1763269807084973
  0
VERTEX
  5
26B4
  8
SAPA_PROFIL
 10
-94.516956646213657
 20
-19.150000000000091
 30
0.0
  0
VERTEX
  5
26B5
  8
SAPA_PROFIL
 10
-92.499999999010015
 20
-19.150000000000091
 30
0.0
 42
0.4142135623729619
  0
VERTEX
  5
26B6
  8
SAPA_PROFIL
 10
-91.999999999010015
 20
-18.650000000000091
 30
0.0
  0
VERTEX
  5
26B7
  8
SAPA_PROFIL
 10
-91.999999999010925
 20
-14.650000000000089
 30
0.0
 42
-0.4142135623730951
  0
VERTEX
  5
26B8
  8
SAPA_PROFIL
 10
-91.499999999010925
 20
-14.150000000000089
 30
0.0
  0
VERTEX
  5
26B9
  8
SAPA_PROFIL
 10
-86.999999999010015
 20
-14.150000000000089
 30
0.0
 42
-0.4142135623731285
  0
VERTEX
  5
26BA
  8
SAPA_PROFIL
 10
-86.499999999010015
 20
-14.650000000000089
 30
0.0
  0
VERTEX
  5
26BB
  8
SAPA_PROFIL
 10
-86.499999999010456
 20
-16.450000000000269
 30
0.0
 42
-0.198912367379658
  0
VERTEX
  5
26BC
  8
SAPA_PROFIL
 10
-86.587867964654379
 20
-16.662132034356091
 30
0.0
  0
VERTEX
  5
26BD
  8
SAPA_PROFIL
 10
-86.987867964654455
 20
-17.062132034356178
 30
0.0
 42
-0.6681786379193188
  0
VERTEX
  5
26BE
  8
SAPA_PROFIL
 10
-87.499999999010484
 20
-16.849999999999909
 30
0.0
  0
VERTEX
  5
26BF
  8
SAPA_PROFIL
 10
-87.499999999010484
 20
-16.450000000000269
 30
0.0
 42
0.4142135623730951
  0
VERTEX
  5
26C0
  8
SAPA_PROFIL
 10
-87.799999999010197
 20
-16.150000000000091
 30
0.0
  0
VERTEX
  5
26C1
  8
SAPA_PROFIL
 10
-90.199999999010288
 20
-16.150000000000091
 30
0.0
 42
0.4142135623730951
  0
VERTEX
  5
26C2
  8
SAPA_PROFIL
 10
-90.499999999010456
 20
-16.450000000000269
 30
0.0
  0
VERTEX
  5
26C3
  8
SAPA_PROFIL
 10
-90.499999999010015
 20
-19.98190844019928
 30
0.0
 42
0.221694662642942
  0
VERTEX
  5
26C4
  8
SAPA_PROFIL
 10
-90.392836281916061
 20
-20.211721773134741
 30
0.0
  0
VERTEX
  5
26C5
  8
SAPA_PROFIL
 10
-88.583645211636394
 20
-21.729813332935471
 30
0.0
 42
0.1763269807084499
  0
VERTEX
  5
26C6
  8
SAPA_PROFIL
 10
-88.390808928730607
 20
-21.799999999999731
 30
0.0
  0
VERTEX
  5
26C7
  8
SAPA_PROFIL
 10
-87.999999999010456
 20
-21.800000000000178
 30
0.0
 42
0.4142135623730284
  0
VERTEX
  5
26C8
  8
SAPA_PROFIL
 10
-87.499999999010484
 20
-21.300000000000178
 30
0.0
  0
VERTEX
  5
26C9
  8
SAPA_PROFIL
 10
-87.499999999010484
 20
-20.450000000000269
 30
0.0
 42
-0.668178637919182
  0
VERTEX
  5
26CA
  8
SAPA_PROFIL
 10
-86.987867964654455
 20
-20.237867965644
 30
0.0
  0
VERTEX
  5
26CB
  8
SAPA_PROFIL
 10
-86.587867964654379
 20
-20.637867965644091
 30
0.0
 42
-0.1989123673797144
  0
VERTEX
  5
26CC
  8
SAPA_PROFIL
 10
-86.499999999010456
 20
-20.849999999999909
 30
0.0
  0
VERTEX
  5
26CD
  8
SAPA_PROFIL
 10
-86.499999999010456
 20
-23.300000000000178
 30
0.0
 42
-0.4142135623730951
  0
VERTEX
  5
26CE
  8
SAPA_PROFIL
 10
-86.99999999901047
 20
-23.800000000000178
 30
0.0
  0
VERTEX
  5
26CF
  8
SAPA_PROFIL
 10
-90.699999999010274
 20
-23.800000000000178
 30
0.0
 42
-0.4142135623730951
  0
VERTEX
  5
26D0
  8
SAPA_PROFIL
 10
-90.99999999901047
 20
-23.500000000000451
 30
0.0
  0
VERTEX
  5
26D1
  8
SAPA_PROFIL
 10
-90.99999999901047
 20
-22.473205080757001
 30
0.0
 42
0.2679491924311428
  0
VERTEX
  5
26D2
  8
SAPA_PROFIL
 10
-91.149999999010575
 20
-22.21339745962177
 30
0.0
  0
VERTEX
  5
26D3
  8
SAPA_PROFIL
 10
-92.687083486550804
 20
-21.325961894323431
 30
0.0
 42
0.4142135623731709
  0
VERTEX
  5
26D4
  8
SAPA_PROFIL
 10
-93.096891107686133
 20
-21.435769515459011
 30
0.0
  0
VERTEX
  5
26D5
  8
SAPA_PROFIL
 10
-93.404123202713436
 20
-21.96791111376206
 30
0.0
 42
-0.4663076581551056
  0
VERTEX
  5
26D6
  8
SAPA_PROFIL
 10
-94.912936216184335
 20
-22.233955556881028
 30
0.0
  0
VERTEX
  5
26D7
  8
SAPA_PROFIL
 10
-99.821393803853425
 20
-18.115270605417209
 30
0.0
 42
-0.2216946626428921
  0
VERTEX
  5
26D8
  8
SAPA_PROFIL
 10
-99.999999999010484
 20
-17.732248383857488
 30
0.0
  0
VERTEX
  5
26D9
  8
SAPA_PROFIL
 10
-99.999999999010484
 20
-9.7002075382097246
 30
0.0
 42
-0.3152987888789878
  0
VERTEX
  5
26DA
  8
SAPA_PROFIL
 10
-99.342020142335983
 20
-8.760514917423734
 30
0.0
  0
VERTEX
  5
26DB
  8
SAPA_PROFIL
 10
-95.657979855684516
 20
-7.4196339112449996
 30
0.0
 42
0.3152987888789804
  0
VERTEX
  5
26DC
  8
SAPA_PROFIL
 10
-94.999999999010015
 20
-6.479941290459009
 30
0.0
  0
VERTEX
  5
26DD
  8
SAPA_PROFIL
 10
-94.999999999010015
 20
6.4799412904594638
 30
0.0
 42
0.3152987888789804
  0
VERTEX
  5
26DE
  8
SAPA_PROFIL
 10
-95.657979855684516
 20
7.4196339112454552
 30
0.0
  0
VERTEX
  5
26DF
  8
SAPA_PROFIL
 10
-99.342020142335983
 20
8.760514917423734
 30
0.0
 42
-0.3152987888789877
  0
VERTEX
  5
26E0
  8
SAPA_PROFIL
 10
-99.999999999010484
 20
9.7002075382097246
 30
0.0
  0
VERTEX
  5
26E1
  8
SAPA_PROFIL
 10
-99.999999999010484
 20
17.73224838385795
 30
0.0
 42
-0.2216946626428921
  0
VERTEX
  5
26E2
  8
SAPA_PROFIL
 10
-99.821393803853425
 20
18.115270605417209
 30
0.0
  0
VERTEX
  5
26E3
  8
SAPA_PROFIL
 10
-94.912936216184335
 20
22.233955556881028
 30
0.0
 42
-0.4663076581551056
  0
VERTEX
  5
26E4
  8
SAPA_PROFIL
 10
-93.404123202713436
 20
21.967911113762511
 30
0.0
  0
VERTEX
  5
26E5
  8
SAPA_PROFIL
 10
-93.096891107686133
 20
21.435769515459011
 30
0.0
 42
0.414213562373157
  0
VERTEX
  5
26E6
  8
SAPA_PROFIL
 10
-92.687083486550804
 20
21.325961894323878
 30
0.0
  0
VERTEX
  5
26E7
  8
SAPA_PROFIL
 10
-91.149999999010575
 20
22.213397459622229
 30
0.0
 42
0.2679491924311554
  0
VERTEX
  5
26E8
  8
SAPA_PROFIL
 10
-90.99999999901047
 20
22.473205080757449
 30
0.0
  0
VERTEX
  5
26E9
  8
SAPA_PROFIL
 10
-90.99999999901047
 20
23.500000000000451
 30
0.0
 42
-0.4142135623730951
  0
VERTEX
  5
26EA
  8
SAPA_PROFIL
 10
-90.699999999010274
 20
23.80000000000064
 30
0.0
  0
VERTEX
  5
26EB
  8
SAPA_PROFIL
 10
-86.99999999901047
 20
23.800000000000178
 30
0.0
 42
-0.4142135623730951
  0
VERTEX
  5
26EC
  8
SAPA_PROFIL
 10
-86.499999999010456
 20
23.300000000000178
 30
0.0
  0
SEQEND
  5
26ED
  8
SAPA_PROFIL
  0
POLYLINE
  5
1DED
  8
SAPA_PROFIL
 62
     4
 66
     1
 10
0.0
 20
0.0
 30
0.0
 70
     1
  0
VERTEX
  5
26EE
  8
SAPA_PROFIL
 62
     4
 10
-88.358578641879717
 20
-1.055634910786466
 30
0.0
 42
0.1989123671061458
  0
VERTEX
  5
26EF
  8
SAPA_PROFIL
 62
     4
 10
-88.00710678019658
 20
-0.2071067742556352
 30
0.0
  0
VERTEX
  5
26F0
  8
SAPA_PROFIL
 62
     4
 10
-88.00710678019658
 20
0.2071067742555215
 30
0.0
 42
0.1989123671061505
  0
VERTEX
  5
26F1
  8
SAPA_PROFIL
 62
     4
 10
-88.358578641879717
 20
1.0556349107863521
 30
0.0
  0
VERTEX
  5
26F2
  8
SAPA_PROFIL
 62
     4
 10
-90.590811692262079
 20
3.287867965867235
 30
0.0
 42
-0.6681786375387371
  0
VERTEX
  5
26F3
  8
SAPA_PROFIL
 62
     4
 10
-90.378679657682881
 20
3.7999999999999541
 30
0.0
  0
VERTEX
  5
26F4
  8
SAPA_PROFIL
 62
     4
 10
-73.799999999010083
 20
3.7999999999999541
 30
0.0
 42
-0.4142135623731034
  0
VERTEX
  5
26F5
  8
SAPA_PROFIL
 62
     4
 10
-73.499999999010072
 20
3.4999999999999432
 30
0.0
  0
VERTEX
  5
26F6
  8
SAPA_PROFIL
 62
     4
 10
-73.499999999010072
 20
-3.4999999999999432
 30
0.0
 42
-0.4142135623731034
  0
VERTEX
  5
26F7
  8
SAPA_PROFIL
 62
     4
 10
-73.799999999010083
 20
-3.8000000000000109
 30
0.0
  0
VERTEX
  5
26F8
  8
SAPA_PROFIL
 62
     4
 10
-90.378679657682881
 20
-3.8000000000000682
 30
0.0
 42
-0.6681786375387019
  0
VERTEX
  5
26F9
  8
SAPA_PROFIL
 62
     4
 10
-90.590811692262079
 20
-3.2878679658673491
 30
0.0
  0
SEQEND
  5
26FA
  8
SAPA_PROFIL
 62
     4
  0
POLYLINE
  5
1DEE
  8
SAPA_PROFIL
 62
     4
 66
     1
 10
0.0
 20
0.0
 30
0.0
 70
     1
  0
VERTEX
  5
26FB
  8
SAPA_PROFIL
 62
     4
 10
-72.19999999901006
 20
3.7999999999999541
 30
0.0
  0
VERTEX
  5
26FC
  8
SAPA_PROFIL
 62
     4
 10
-53.999999999010022
 20
3.7999999999999541
 30
0.0
 42
-0.4142135623730951
  0
VERTEX
  5
26FD
  8
SAPA_PROFIL
 62
     4
 10
-53.699999999010011
 20
3.5
 30
0.0
  0
VERTEX
  5
26FE
  8
SAPA_PROFIL
 62
     4
 10
-53.69999999901006
 20
2.6029437251521581
 30
0.0
  0
VERTEX
  5
26FF
  8
SAPA_PROFIL
 62
     4
 10
-52.147056273857629
 20
1.0499999999999541
 30
0.0
  0
VERTEX
  5
2700
  8
SAPA_PROFIL
 62
     4
 10
-46.568653346957198
 20
1.0499999999999541
 30
0.0
  0
VERTEX
  5
2701
  8
SAPA_PROFIL
 62
     4
 10
-45.57499999901006
 20
0.4763139720814138
 30
0.0
 42
-0.5773502691896344
  0
VERTEX
  5
2702
  8
SAPA_PROFIL
 62
     4
 10
-45.574999999009997
 20
-0.4763139720814707
 30
0.0
  0
VERTEX
  5
2703
  8
SAPA_PROFIL
 62
     4
 10
-46.568653346957369
 20
-1.050000000000068
 30
0.0
  0
VERTEX
  5
2704
  8
SAPA_PROFIL
 62
     4
 10
-52.1470562738578
 20
-1.050000000000068
 30
0.0
  0
VERTEX
  5
2705
  8
SAPA_PROFIL
 62
     4
 10
-53.69999999901006
 20
-2.6029437251522718
 30
0.0
  0
VERTEX
  5
2706
  8
SAPA_PROFIL
 62
     4
 10
-53.699999999010011
 20
-3.5000000000001128
 30
0.0
 42
-0.4142135623730951
  0
VERTEX
  5
2707
  8
SAPA_PROFIL
 62
     4
 10
-53.999999999010022
 20
-3.8000000000000682
 30
0.0
  0
VERTEX
  5
2708
  8
SAPA_PROFIL
 62
     4
 10
-72.19999999901006
 20
-3.8000000000000109
 30
0.0
 42
-0.4142135623730951
  0
VERTEX
  5
2709
  8
SAPA_PROFIL
 62
     4
 10
-72.499999999010015
 20
-3.500000000000056
 30
0.0
  0
VERTEX
  5
270A
  8
SAPA_PROFIL
 62
     4
 10
-72.499999999010072
 20
3.500000000000056
 30
0.0
 42
-0.4142135623730951
  0
SEQEND
  5
270B
  8
SAPA_PROFIL
 62
     4
  0
POLYLINE
  5
1DEF
  8
SAPA_PROFIL
 62
     4
 66
     1
 10
0.0
 20
0.0
 30
0.0
 70
     1
  0
VERTEX
  5
270C
  8
SAPA_PROFIL
 62
     4
 10
-89.353553389603292
 20
-0.3535533839706204
 30
0.0
 42
0.4142135623730951
  0
VERTEX
  5
270D
  8
SAPA_PROFIL
 62
     4
 10
-89.353553389603292
 20
0.3535533972159328
 30
0.0
  0
VERTEX
  5
270E
  8
SAPA_PROFIL
 62
     4
 10
-92.499999999010015
 20
3.5
 30
0.0
  0
VERTEX
  5
270F
  8
SAPA_PROFIL
 62
     4
 10
-92.499999999010015
 20
5.0
 30
0.0
  0
VERTEX
  5
2710
  8
SAPA_PROFIL
 62
     4
 10
-52.999999999010008
 20
5.0
 30
0.0
 42
-0.4142135623730951
  0
VERTEX
  5
2711
  8
SAPA_PROFIL
 62
     4
 10
-52.499999999010008
 20
4.5
 30
0.0
  0
VERTEX
  5
2712
  8
SAPA_PROFIL
 62
     4
 10
-52.499999999010008
 20
3.0999999999999091
 30
0.0
  0
VERTEX
  5
2713
  8
SAPA_PROFIL
 62
     4
 10
-51.649999999010049
 20
2.25
 30
0.0
  0
VERTEX
  5
2714
  8
SAPA_PROFIL
 62
     4
 10
-47.047114316039988
 20
2.25
 30
0.0
  0
VERTEX
  5
2715
  8
SAPA_PROFIL
 62
     4
 10
-45.174999999010019
 20
1.1691342951090169
 30
0.0
 42
-0.5773502691896344
  0
VERTEX
  5
2716
  8
SAPA_PROFIL
 62
     4
 10
-45.174999999010019
 20
-1.169134295109074
 30
0.0
  0
VERTEX
  5
2717
  8
SAPA_PROFIL
 62
     4
 10
-47.047114316040172
 20
-2.2500000000001128
 30
0.0
  0
VERTEX
  5
2718
  8
SAPA_PROFIL
 62
     4
 10
-51.649999999010049
 20
-2.2500000000001128
 30
0.0
  0
VERTEX
  5
2719
  8
SAPA_PROFIL
 62
     4
 10
-52.499999999010008
 20
-3.1000000000000218
 30
0.0
  0
VERTEX
  5
271A
  8
SAPA_PROFIL
 62
     4
 10
-52.499999999010008
 20
-4.5
 30
0.0
 42
-0.4142135623730951
  0
VERTEX
  5
271B
  8
SAPA_PROFIL
 62
     4
 10
-52.999999999010008
 20
-5.0
 30
0.0
  0
VERTEX
  5
271C
  8
SAPA_PROFIL
 62
     4
 10
-92.499999999010015
 20
-5.0
 30
0.0
  0
VERTEX
  5
271D
  8
SAPA_PROFIL
 62
     4
 10
-92.499999999010015
 20
-3.5
 30
0.0
  0
SEQEND
  5
271E
  8
SAPA_PROFIL
 62
     4
  0
POLYLINE
  5
1DF0
  8
SAPA_PROFIL
 66
     1
 10
0.0
 20
0.0
 30
0.0
 70
     1
  0
VERTEX
  5
271F
  8
SAPA_PROFIL
 10
-91.098475071208114
 20
-22.800000000000189
 30
0.0
  0
VERTEX
  5
2720
  8
SAPA_PROFIL
 10
-91.098475071208114
 20
-23.800000000000189
 30
0.0
  0
VERTEX
  5
2721
  8
SAPA_PROFIL
 10
-88.498475071207949
 20
-23.800000000000189
 30
0.0
 42
-0.4142135623730951
  0
VERTEX
  5
2722
  8
SAPA_PROFIL
 10
-87.998475071207935
 20
-24.300000000000189
 30
0.0
  0
VERTEX
  5
2723
  8
SAPA_PROFIL
 10
-87.998475071207935
 20
-24.70000000000028
 30
0.0
 42
-0.4142135623730951
  0
VERTEX
  5
2724
  8
SAPA_PROFIL
 10
-88.298475071207903
 20
-25.000000000000231
 30
0.0
  0
VERTEX
  5
2725
  8
SAPA_PROFIL
 10
-105.9999999990106
 20
-25.000000000000231
 30
0.0
 42
-0.4142135623730951
  0
VERTEX
  5
2726
  8
SAPA_PROFIL
 10
-106.4999999990106
 20
-24.500000000000231
 30
0.0
  0
VERTEX
  5
2727
  8
SAPA_PROFIL
 10
-106.4999999990106
 20
24.499999999999769
 30
0.0
 42
-0.4142135623730951
  0
VERTEX
  5
2728
  8
SAPA_PROFIL
 10
-105.9999999990105
 20
24.999999999999769
 30
0.0
  0
VERTEX
  5
2729
  8
SAPA_PROFIL
 10
-88.298475071207875
 20
24.999999999999769
 30
0.0
 42
-0.4142135623730951
  0
VERTEX
  5
272A
  8
SAPA_PROFIL
 10
-87.998475071207935
 20
24.699999999999811
 30
0.0
  0
VERTEX
  5
272B
  8
SAPA_PROFIL
 10
-87.998475071207935
 20
24.29999999999972
 30
0.0
 42
-0.4142135623730951
  0
VERTEX
  5
272C
  8
SAPA_PROFIL
 10
-88.498475071207935
 20
23.79999999999972
 30
0.0
  0
VERTEX
  5
272D
  8
SAPA_PROFIL
 10
-91.098475071208085
 20
23.79999999999972
 30
0.0
  0
VERTEX
  5
272E
  8
SAPA_PROFIL
 10
-91.098475071208085
 20
22.79999999999972
 30
0.0
  0
VERTEX
  5
272F
  8
SAPA_PROFIL
 10
-92.102507830841091
 20
22.22033922157857
 30
0.0
 42
-0.4155392929676362
  0
VERTEX
  5
2730
  8
SAPA_PROFIL
 10
-93.197126802633065
 20
22.51631264788443
 30
0.0
  0
VERTEX
  5
2731
  8
SAPA_PROFIL
 10
-93.93826404093204
 20
23.79999999999972
 30
0.0
  0
VERTEX
  5
2732
  8
SAPA_PROFIL
 10
-104.09999999901071
 20
23.799999999999731
 30
0.0
 42
0.4142135623730951
  0
VERTEX
  5
2733
  8
SAPA_PROFIL
 10
-105.09999999901071
 20
22.799999999999731
 30
0.0
  0
VERTEX
  5
2734
  8
SAPA_PROFIL
 10
-105.09999999901071
 20
-22.800000000000178
 30
0.0
 42
0.4142135623730951
  0
VERTEX
  5
2735
  8
SAPA_PROFIL
 10
-104.09999999901071
 20
-23.800000000000178
 30
0.0
  0
VERTEX
  5
2736
  8
SAPA_PROFIL
 10
-93.938264040932054
 20
-23.800000000000189
 30
0.0
  0
VERTEX
  5
2737
  8
SAPA_PROFIL
 10
-93.197126802633093
 20
-22.516312647884892
 30
0.0
 42
-0.4155392929676362
  0
VERTEX
  5
2738
  8
SAPA_PROFIL
 10
-92.102507830841105
 20
-22.220339221579032
 30
0.0
  0
SEQEND
  5
2739
  8
SAPA_PROFIL
  0
POLYLINE
  5
1DF1
  8
SAPA_PROFIL
 66
     1
 10
0.0
 20
0.0
 30
0.0
 70
     1
  0
VERTEX
  5
273A
  8
SAPA_PROFIL
 10
-33.050000000001091
 20
2.700000000000272
 30
0.0
  0
VERTEX
  5
273B
  8
SAPA_PROFIL
 10
-31.67376540642476
 20
2.0767196966983188
 30
0.0
 42
0.5450207798987328
  0
VERTEX
  5
273C
  8
SAPA_PROFIL
 10
-31.25000000000114
 20
2.350000000000136
 30
0.0
  0
VERTEX
  5
273D
  8
SAPA_PROFIL
 10
-31.25000000000114
 20
2.700000000000272
 30
0.0
  0
VERTEX
  5
273E
  8
SAPA_PROFIL
 10
-31.00000000000114
 20
2.700000000000272
 30
0.0
 42
-0.4142135623730951
  0
VERTEX
  5
273F
  8
SAPA_PROFIL
 10
-30.00000000000114
 20
1.700000000000272
 30
0.0
  0
VERTEX
  5
2740
  8
SAPA_PROFIL
 10
-30.00000000000114
 20
-1.6999999999998181
 30
0.0
 42
-0.4142135623730951
  0
VERTEX
  5
2741
  8
SAPA_PROFIL
 10
-31.00000000000114
 20
-2.6999999999998181
 30
0.0
  0
VERTEX
  5
2742
  8
SAPA_PROFIL
 10
-32.150000000001
 20
-2.6999999999998181
 30
0.0
  0
VERTEX
  5
2743
  8
SAPA_PROFIL
 10
-32.150000000001
 20
-2.3499999999996808
 30
0.0
 42
0.5450200690651551
  0
VERTEX
  5
2744
  8
SAPA_PROFIL
 10
-32.573765000001011
 20
-2.0767189999999109
 30
0.0
  0
VERTEX
  5
2745
  8
SAPA_PROFIL
 10
-33.950000000000948
 20
-2.6999999999998181
 30
0.0
  0
VERTEX
  5
2746
  8
SAPA_PROFIL
 10
-33.950000000000948
 20
-2.3499999999996808
 30
0.0
 42
0.5450200690651692
  0
VERTEX
  5
2747
  8
SAPA_PROFIL
 10
-34.373765000000958
 20
-2.0767189999999109
 30
0.0
  0
VERTEX
  5
2748
  8
SAPA_PROFIL
 10
-35.750000000001137
 20
-2.6999999999998181
 30
0.0
  0
VERTEX
  5
2749
  8
SAPA_PROFIL
 10
-35.750000000001137
 20
-2.3499999999996808
 30
0.0
 42
0.5450200690651619
  0
VERTEX
  5
274A
  8
SAPA_PROFIL
 10
-36.17376500000114
 20
-2.0767189999999109
 30
0.0
  0
VERTEX
  5
274B
  8
SAPA_PROFIL
 10
-37.550000000001091
 20
-2.6999999999998181
 30
0.0
  0
VERTEX
  5
274C
  8
SAPA_PROFIL
 10
-37.550000000001091
 20
-2.3499999999996808
 30
0.0
 42
0.5450200690651619
  0
VERTEX
  5
274D
  8
SAPA_PROFIL
 10
-37.973765000001102
 20
-2.0767189999999109
 30
0.0
  0
VERTEX
  5
274E
  8
SAPA_PROFIL
 10
-39.350000000001053
 20
-2.6999999999998181
 30
0.0
  0
VERTEX
  5
274F
  8
SAPA_PROFIL
 10
-39.350000000001053
 20
-2.3499999999996808
 30
0.0
 42
0.5450200690651692
  0
VERTEX
  5
2750
  8
SAPA_PROFIL
 10
-39.773765000001049
 20
-2.0767189999999109
 30
0.0
  0
VERTEX
  5
2751
  8
SAPA_PROFIL
 10
-41.150000000001
 20
-2.6999999999998181
 30
0.0
  0
VERTEX
  5
2752
  8
SAPA_PROFIL
 10
-41.450000000000948
 20
-2.6999999999998181
 30
0.0
  0
VERTEX
  5
2753
  8
SAPA_PROFIL
 10
-41.450000000000948
 20
2.42826763351104
 30
0.0
  0
VERTEX
  5
2754
  8
SAPA_PROFIL
 10
-40.673765406424756
 20
2.0767196966983188
 30
0.0
 42
0.5450207798987328
  0
VERTEX
  5
2755
  8
SAPA_PROFIL
 10
-40.250000000001137
 20
2.350000000000136
 30
0.0
  0
VERTEX
  5
2756
  8
SAPA_PROFIL
 10
-40.250000000001137
 20
2.700000000000272
 30
0.0
  0
VERTEX
  5
2757
  8
SAPA_PROFIL
 10
-38.873765000000958
 20
2.0767200000002499
 30
0.0
 42
0.5450205149791638
  0
VERTEX
  5
2758
  8
SAPA_PROFIL
 10
-38.450000000000962
 20
2.350000000000136
 30
0.0
  0
VERTEX
  5
2759
  8
SAPA_PROFIL
 10
-38.450000000000962
 20
2.700000000000272
 30
0.0
  0
VERTEX
  5
275A
  8
SAPA_PROFIL
 10
-37.073765406424627
 20
2.0767196966983188
 30
0.0
 42
0.545020779898768
  0
VERTEX
  5
275B
  8
SAPA_PROFIL
 10
-36.650000000001
 20
2.350000000000136
 30
0.0
  0
VERTEX
  5
275C
  8
SAPA_PROFIL
 10
-36.650000000001
 20
2.700000000000272
 30
0.0
  0
VERTEX
  5
275D
  8
SAPA_PROFIL
 10
-35.273765406424673
 20
2.0767196966983188
 30
0.0
 42
0.54502077989874
  0
VERTEX
  5
275E
  8
SAPA_PROFIL
 10
-34.850000000001053
 20
2.350000000000136
 30
0.0
  0
VERTEX
  5
275F
  8
SAPA_PROFIL
 10
-34.850000000001053
 20
2.700000000000272
 30
0.0
  0
VERTEX
  5
2760
  8
SAPA_PROFIL
 10
-33.473765406424718
 20
2.0767196966983188
 30
0.0
 42
0.545020779898761
  0
VERTEX
  5
2761
  8
SAPA_PROFIL
 10
-33.050000000001091
 20
2.350000000000136
 30
0.0
  0
SEQEND
  5
2762
  8
SAPA_PROFIL
  0
POLYLINE
  5
1DF2
  8
SAPA_PROFIL
 66
     1
 10
0.0
 20
0.0
 30
0.0
 70
     1
  0
VERTEX
  5
2763
  8
SAPA_PROFIL
 10
58.024264068710863
 20
23.000000000000231
 30
0.0
 42
0.1989123673796753
  0
VERTEX
  5
2764
  8
SAPA_PROFIL
 10
57.812132034355052
 20
22.912132034356091
 30
0.0
  0
VERTEX
  5
2765
  8
SAPA_PROFIL
 10
56.087867965642999
 20
21.187867965644269
 30
0.0
 42
-0.1989123673796753
  0
VERTEX
  5
2766
  8
SAPA_PROFIL
 10
55.875735931286947
 20
21.10000000000014
 30
0.0
  0
VERTEX
  5
2767
  8
SAPA_PROFIL
 10
55.299999999999052
 20
21.10000000000014
 30
0.0
 42
-0.4142135623730951
  0
VERTEX
  5
2768
  8
SAPA_PROFIL
 10
54.999999999998863
 20
21.400000000000318
 30
0.0
  0
VERTEX
  5
2769
  8
SAPA_PROFIL
 10
54.999999999998863
 20
22.700000000000269
 30
0.0
 42
0.4142135623730951
  0
VERTEX
  5
276A
  8
SAPA_PROFIL
 10
54.699999999998909
 20
23.000000000000231
 30
0.0
  0
VERTEX
  5
276B
  8
SAPA_PROFIL
 10
29.99999999999886
 20
23.000000000000231
 30
0.0
 42
0.4142135623730951
  0
VERTEX
  5
276C
  8
SAPA_PROFIL
 10
28.99999999999887
 20
22.000000000000231
 30
0.0
  0
VERTEX
  5
276D
  8
SAPA_PROFIL
 10
28.99999999999887
 20
17.600000000000129
 30
0.0
 42
-0.4142135623730951
  0
VERTEX
  5
276E
  8
SAPA_PROFIL
 10
28.699999999998909
 20
17.300000000000178
 30
0.0
  0
VERTEX
  5
276F
  8
SAPA_PROFIL
 10
26.399999999998961
 20
17.300000000000178
 30
0.0
 42
-0.4142135623730951
  0
VERTEX
  5
2770
  8
SAPA_PROFIL
 10
26.099999999999
 20
17.600000000000129
 30
0.0
  0
VERTEX
  5
2771
  8
SAPA_PROFIL
 10
26.099999999999
 20
18.100000000000129
 30
0.0
 42
-0.4142135623730951
  0
VERTEX
  5
2772
  8
SAPA_PROFIL
 10
26.399999999998961
 20
18.400000000000318
 30
0.0
  0
VERTEX
  5
2773
  8
SAPA_PROFIL
 10
26.736626924633359
 20
18.400000000000318
 30
0.0
 42
0.5535245743249297
  0
VERTEX
  5
2774
  8
SAPA_PROFIL
 10
24.96410760212348
 20
22.71055421153164
 30
0.0
  0
VERTEX
  5
2775
  8
SAPA_PROFIL
 10
24.67677669529553
 20
22.42322330470347
 30
0.0
 42
-0.4142135623729421
  0
VERTEX
  5
2776
  8
SAPA_PROFIL
 10
24.32322330470242
 20
22.42322330470347
 30
0.0
  0
VERTEX
  5
2777
  8
SAPA_PROFIL
 10
24.035892397874481
 20
22.71055421153164
 30
0.0
 42
0.5535245743249292
  0
VERTEX
  5
2778
  8
SAPA_PROFIL
 10
22.26337307536437
 20
18.400000000000318
 30
0.0
  0
VERTEX
  5
2779
  8
SAPA_PROFIL
 10
22.599999999999
 20
18.400000000000318
 30
0.0
 42
-0.4142135623730951
  0
VERTEX
  5
277A
  8
SAPA_PROFIL
 10
22.899999999998961
 20
18.100000000000129
 30
0.0
  0
VERTEX
  5
277B
  8
SAPA_PROFIL
 10
22.899999999998961
 20
17.600000000000129
 30
0.0
 42
-0.4142135623730951
  0
VERTEX
  5
277C
  8
SAPA_PROFIL
 10
22.599999999999
 20
17.300000000000178
 30
0.0
  0
VERTEX
  5
277D
  8
SAPA_PROFIL
 10
21.49999999999886
 20
17.300000000000178
 30
0.0
 42
-0.4142135623730951
  0
VERTEX
  5
277E
  8
SAPA_PROFIL
 10
19.99999999999886
 20
18.800000000000178
 30
0.0
  0
VERTEX
  5
277F
  8
SAPA_PROFIL
 10
19.99999999999886
 20
21.63397459621569
 30
0.0
 42
-0.267949192431143
  0
VERTEX
  5
2780
  8
SAPA_PROFIL
 10
20.24999999999886
 20
22.066987298107961
 30
0.0
 42
0.767326987978956
  0
VERTEX
  5
2781
  8
SAPA_PROFIL
 10
19.99999999999886
 20
23.000000000000231
 30
0.0
  0
VERTEX
  5
2782
  8
SAPA_PROFIL
 10
-15.00000000000113
 20
23.000000000000231
 30
0.0
 42
0.4142135623730951
  0
VERTEX
  5
2783
  8
SAPA_PROFIL
 10
-16.00000000000114
 20
22.000000000000231
 30
0.0
  0
VERTEX
  5
2784
  8
SAPA_PROFIL
 10
-16.00000000000114
 20
17.600000000000129
 30
0.0
 42
-0.4142135623730951
  0
VERTEX
  5
2785
  8
SAPA_PROFIL
 10
-16.300000000001091
 20
17.300000000000178
 30
0.0
  0
VERTEX
  5
2786
  8
SAPA_PROFIL
 10
-18.600000000001039
 20
17.300000000000178
 30
0.0
 42
-0.4142135623730951
  0
VERTEX
  5
2787
  8
SAPA_PROFIL
 10
-18.900000000001
 20
17.600000000000129
 30
0.0
  0
VERTEX
  5
2788
  8
SAPA_PROFIL
 10
-18.900000000001
 20
18.100000000000129
 30
0.0
 42
-0.4142135623730951
  0
VERTEX
  5
2789
  8
SAPA_PROFIL
 10
-18.600000000001039
 20
18.400000000000318
 30
0.0
  0
VERTEX
  5
278A
  8
SAPA_PROFIL
 10
-18.263373075366641
 20
18.400000000000318
 30
0.0
 42
0.5535245743249297
  0
VERTEX
  5
278B
  8
SAPA_PROFIL
 10
-20.03589239787652
 20
22.71055421153164
 30
0.0
  0
VERTEX
  5
278C
  8
SAPA_PROFIL
 10
-20.32322330470447
 20
22.42322330470347
 30
0.0
 42
-0.4142135623730243
  0
VERTEX
  5
278D
  8
SAPA_PROFIL
 10
-20.67677669529758
 20
22.423223304703701
 30
0.0
  0
VERTEX
  5
278E
  8
SAPA_PROFIL
 10
-20.96410760212553
 20
22.71055421153164
 30
0.0
 42
0.5535245743249292
  0
VERTEX
  5
278F
  8
SAPA_PROFIL
 10
-22.73662692463563
 20
18.400000000000318
 30
0.0
  0
VERTEX
  5
2790
  8
SAPA_PROFIL
 10
-22.400000000001
 20
18.400000000000318
 30
0.0
 42
-0.4142135623730951
  0
VERTEX
  5
2791
  8
SAPA_PROFIL
 10
-22.100000000001049
 20
18.100000000000129
 30
0.0
  0
VERTEX
  5
2792
  8
SAPA_PROFIL
 10
-22.100000000001049
 20
17.600000000000129
 30
0.0
 42
-0.4142135623730951
  0
VERTEX
  5
2793
  8
SAPA_PROFIL
 10
-22.400000000001
 20
17.300000000000178
 30
0.0
  0
VERTEX
  5
2794
  8
SAPA_PROFIL
 10
-23.50000000000114
 20
17.300000000000178
 30
0.0
 42
-0.4142135623730951
  0
VERTEX
  5
2795
  8
SAPA_PROFIL
 10
-25.00000000000114
 20
18.800000000000178
 30
0.0
  0
VERTEX
  5
2796
  8
SAPA_PROFIL
 10
-25.00000000000114
 20
21.780384757729511
 30
0.0
 42
-0.2679491924311188
  0
VERTEX
  5
2797
  8
SAPA_PROFIL
 10
-24.850000000001049
 20
22.040192378864958
 30
0.0
 42
0.7673269879789557
  0
VERTEX
  5
2798
  8
SAPA_PROFIL
 10
-25.00000000000114
 20
22.600000000000129
 30
0.0
  0
VERTEX
  5
2799
  8
SAPA_PROFIL
 10
-27.00000000000114
 20
22.599999999999909
 30
0.0
 42
0.4142137811865366
  0
VERTEX
  5
279A
  8
SAPA_PROFIL
 10
-28.00000000000114
 20
21.600000747075459
 30
0.0
  0
VERTEX
  5
279B
  8
SAPA_PROFIL
 10
-28.00000000000114
 20
-21.599999999999682
 30
0.0
 42
0.4142140000000124
  0
VERTEX
  5
279C
  8
SAPA_PROFIL
 10
-27.00000000000114
 20
-22.599999999999682
 30
0.0
  0
VERTEX
  5
279D
  8
SAPA_PROFIL
 10
-25.00000000000114
 20
-22.599999999999682
 30
0.0
 42
0.7673269879789457
  0
VERTEX
  5
279E
  8
SAPA_PROFIL
 10
-24.850000000001049
 20
-22.0401923788645
 30
0.0
 42
-0.2679491924311191
  0
VERTEX
  5
279F
  8
SAPA_PROFIL
 10
-25.00000000000114
 20
-21.780384757729049
 30
0.0
  0
VERTEX
  5
27A0
  8
SAPA_PROFIL
 10
-25.00000000000114
 20
-18.799999999999731
 30
0.0
 42
-0.4142135623730951
  0
VERTEX
  5
27A1
  8
SAPA_PROFIL
 10
-23.50000000000114
 20
-17.299999999999731
 30
0.0
  0
VERTEX
  5
27A2
  8
SAPA_PROFIL
 10
-22.400000000001
 20
-17.299999999999731
 30
0.0
 42
-0.4142135623730951
  0
VERTEX
  5
27A3
  8
SAPA_PROFIL
 10
-22.100000000001049
 20
-17.599999999999682
 30
0.0
  0
VERTEX
  5
27A4
  8
SAPA_PROFIL
 10
-22.100000000001049
 20
-18.099999999999682
 30
0.0
 42
-0.4142135623730951
  0
VERTEX
  5
27A5
  8
SAPA_PROFIL
 10
-22.400000000001
 20
-18.39999999999986
 30
0.0
  0
VERTEX
  5
27A6
  8
SAPA_PROFIL
 10
-22.73662692463563
 20
-18.39999999999986
 30
0.0
 42
0.5535245743249307
  0
VERTEX
  5
27A7
  8
SAPA_PROFIL
 10
-20.96410760212553
 20
-22.710554211531189
 30
0.0
  0
VERTEX
  5
27A8
  8
SAPA_PROFIL
 10
-20.67677669529758
 20
-22.423223304703239
 30
0.0
 42
-0.4142135623730951
  0
VERTEX
  5
27A9
  8
SAPA_PROFIL
 10
-20.32322330470447
 20
-22.423223304703239
 30
0.0
  0
VERTEX
  5
27AA
  8
SAPA_PROFIL
 10
-20.03589239787652
 20
-22.710554211531189
 30
0.0
 42
0.553524574324932
  0
VERTEX
  5
27AB
  8
SAPA_PROFIL
 10
-18.263373075366641
 20
-18.39999999999986
 30
0.0
  0
VERTEX
  5
27AC
  8
SAPA_PROFIL
 10
-18.600000000001039
 20
-18.39999999999986
 30
0.0
 42
-0.4142135623730951
  0
VERTEX
  5
27AD
  8
SAPA_PROFIL
 10
-18.900000000001
 20
-18.099999999999682
 30
0.0
  0
VERTEX
  5
27AE
  8
SAPA_PROFIL
 10
-18.900000000001
 20
-17.599999999999682
 30
0.0
 42
-0.4142135623730951
  0
VERTEX
  5
27AF
  8
SAPA_PROFIL
 10
-18.600000000001039
 20
-17.299999999999731
 30
0.0
  0
VERTEX
  5
27B0
  8
SAPA_PROFIL
 10
-16.300000000001091
 20
-17.299999999999731
 30
0.0
 42
-0.4142135623730951
  0
VERTEX
  5
27B1
  8
SAPA_PROFIL
 10
-16.00000000000114
 20
-17.599999999999682
 30
0.0
  0
VERTEX
  5
27B2
  8
SAPA_PROFIL
 10
-16.00000000000114
 20
-21.999999999999769
 30
0.0
 42
0.4142135623730951
  0
VERTEX
  5
27B3
  8
SAPA_PROFIL
 10
-15.00000000000113
 20
-22.999999999999769
 30
0.0
  0
VERTEX
  5
27B4
  8
SAPA_PROFIL
 10
19.99999999999886
 20
-22.999999999999769
 30
0.0
 42
0.7673269879789569
  0
VERTEX
  5
27B5
  8
SAPA_PROFIL
 10
20.24999999999886
 20
-22.066987298107509
 30
0.0
 42
-0.2679491924311163
  0
VERTEX
  5
27B6
  8
SAPA_PROFIL
 10
19.99999999999886
 20
-21.633974596215239
 30
0.0
  0
VERTEX
  5
27B7
  8
SAPA_PROFIL
 10
19.99999999999886
 20
-18.799999999999731
 30
0.0
 42
-0.4142135623730951
  0
VERTEX
  5
27B8
  8
SAPA_PROFIL
 10
21.49999999999886
 20
-17.299999999999731
 30
0.0
  0
VERTEX
  5
27B9
  8
SAPA_PROFIL
 10
22.599999999999
 20
-17.299999999999731
 30
0.0
 42
-0.4142135623730951
  0
VERTEX
  5
27BA
  8
SAPA_PROFIL
 10
22.899999999998961
 20
-17.599999999999682
 30
0.0
  0
VERTEX
  5
27BB
  8
SAPA_PROFIL
 10
22.899999999998961
 20
-18.099999999999682
 30
0.0
 42
-0.4142135623730951
  0
VERTEX
  5
27BC
  8
SAPA_PROFIL
 10
22.599999999999
 20
-18.39999999999986
 30
0.0
  0
VERTEX
  5
27BD
  8
SAPA_PROFIL
 10
22.26337307536437
 20
-18.39999999999986
 30
0.0
 42
0.5535245743249307
  0
VERTEX
  5
27BE
  8
SAPA_PROFIL
 10
24.035892397874481
 20
-22.710554211531189
 30
0.0
  0
VERTEX
  5
27BF
  8
SAPA_PROFIL
 10
24.32322330470242
 20
-22.423223304703239
 30
0.0
 42
-0.4142135623731068
  0
VERTEX
  5
27C0
  8
SAPA_PROFIL
 10
24.67677669529553
 20
-22.423223304703011
 30
0.0
  0
VERTEX
  5
27C1
  8
SAPA_PROFIL
 10
24.96410760212348
 20
-22.710554211531189
 30
0.0
 42
0.553524574324932
  0
VERTEX
  5
27C2
  8
SAPA_PROFIL
 10
26.736626924633359
 20
-18.39999999999986
 30
0.0
  0
VERTEX
  5
27C3
  8
SAPA_PROFIL
 10
26.399999999998961
 20
-18.39999999999986
 30
0.0
 42
-0.4142135623730951
  0
VERTEX
  5
27C4
  8
SAPA_PROFIL
 10
26.099999999999
 20
-18.099999999999682
 30
0.0
  0
VERTEX
  5
27C5
  8
SAPA_PROFIL
 10
26.099999999999
 20
-17.599999999999682
 30
0.0
 42
-0.4142135623730951
  0
VERTEX
  5
27C6
  8
SAPA_PROFIL
 10
26.399999999998961
 20
-17.299999999999731
 30
0.0
  0
VERTEX
  5
27C7
  8
SAPA_PROFIL
 10
28.699999999998909
 20
-17.299999999999731
 30
0.0
 42
-0.4142135623730951
  0
VERTEX
  5
27C8
  8
SAPA_PROFIL
 10
28.99999999999887
 20
-17.599999999999682
 30
0.0
  0
VERTEX
  5
27C9
  8
SAPA_PROFIL
 10
28.99999999999887
 20
-21.999999999999769
 30
0.0
 42
0.4142135623730951
  0
VERTEX
  5
27CA
  8
SAPA_PROFIL
 10
29.99999999999886
 20
-22.999999999999769
 30
0.0
  0
VERTEX
  5
27CB
  8
SAPA_PROFIL
 10
54.699999999998909
 20
-22.999999999999769
 30
0.0
 42
0.4142135623730951
  0
VERTEX
  5
27CC
  8
SAPA_PROFIL
 10
54.999999999998863
 20
-22.699999999999822
 30
0.0
  0
VERTEX
  5
27CD
  8
SAPA_PROFIL
 10
54.999999999998863
 20
-21.39999999999986
 30
0.0
 42
-0.4142135623730951
  0
VERTEX
  5
27CE
  8
SAPA_PROFIL
 10
55.299999999999052
 20
-21.099999999999682
 30
0.0
  0
VERTEX
  5
27CF
  8
SAPA_PROFIL
 10
55.875735931286947
 20
-21.099999999999682
 30
0.0
 42
-0.1989123673796752
  0
VERTEX
  5
27D0
  8
SAPA_PROFIL
 10
56.087867965642999
 20
-21.187867965643822
 30
0.0
  0
VERTEX
  5
27D1
  8
SAPA_PROFIL
 10
57.812132034355052
 20
-22.91213203435586
 30
0.0
 42
0.1989123673796057
  0
VERTEX
  5
27D2
  8
SAPA_PROFIL
 10
58.024264068710863
 20
-22.999999999999769
 30
0.0
  0
VERTEX
  5
27D3
  8
SAPA_PROFIL
 10
61.499999999998863
 20
-22.999999999999769
 30
0.0
 42
0.4142135623730951
  0
VERTEX
  5
27D4
  8
SAPA_PROFIL
 10
62.499999999998863
 20
-21.999999999999769
 30
0.0
  0
VERTEX
  5
27D5
  8
SAPA_PROFIL
 10
62.499999999998863
 20
22.000000000000231
 30
0.0
 42
0.4142135623730951
  0
VERTEX
  5
27D6
  8
SAPA_PROFIL
 10
61.499999999998863
 20
23.000000000000231
 30
0.0
  0
SEQEND
  5
27D7
  8
SAPA_PROFIL
  0
POLYLINE
  5
1DF3
  8
SAPA_PROFIL
 66
     1
 10
0.0
 20
0.0
 30
0.0
 70
     1
  0
VERTEX
  5
27D8
  8
SAPA_PROFIL
 10
-30.00000000000114
 20
6.0000000000002274
 30
0.0
 42
-0.4142135623730951
  0
VERTEX
  5
27D9
  8
SAPA_PROFIL
 10
-31.00000000000114
 20
5.0000000000002274
 30
0.0
  0
VERTEX
  5
27DA
  8
SAPA_PROFIL
 10
-52.200000000000948
 20
5.0000000000002274
 30
0.0
 42
0.4142135623730951
  0
VERTEX
  5
27DB
  8
SAPA_PROFIL
 10
-52.50000000000113
 20
4.700000000000272
 30
0.0
  0
VERTEX
  5
27DC
  8
SAPA_PROFIL
 10
-52.50000000000113
 20
3.0757360000002332
 30
0.0
  0
VERTEX
  5
27DD
  8
SAPA_PROFIL
 10
-51.562132034356871
 20
2.2378679656442269
 30
0.0
 42
0.668178637919305
  0
VERTEX
  5
27DE
  8
SAPA_PROFIL
 10
-51.050000000001091
 20
2.450000000000272
 30
0.0
  0
VERTEX
  5
27DF
  8
SAPA_PROFIL
 10
-51.050000000001091
 20
2.700000000000272
 30
0.0
  0
VERTEX
  5
27E0
  8
SAPA_PROFIL
 10
-49.673765406424756
 20
2.1767196966982278
 30
0.0
 42
0.5450207798987201
  0
VERTEX
  5
27E1
  8
SAPA_PROFIL
 10
-49.250000000001137
 20
2.450000000000272
 30
0.0
  0
VERTEX
  5
27E2
  8
SAPA_PROFIL
 10
-49.250000000001137
 20
2.700000000000272
 30
0.0
  0
VERTEX
  5
27E3
  8
SAPA_PROFIL
 10
-47.873765406424567
 20
2.1767196966982278
 30
0.0
 42
0.5450207798987201
  0
VERTEX
  5
27E4
  8
SAPA_PROFIL
 10
-47.450000000000962
 20
2.450000000000272
 30
0.0
  0
VERTEX
  5
27E5
  8
SAPA_PROFIL
 10
-47.450000000000962
 20
2.700000000000272
 30
0.0
  0
VERTEX
  5
27E6
  8
SAPA_PROFIL
 10
-46.07376540642462
 20
2.1767196966982278
 30
0.0
 42
0.5450207798987342
  0
VERTEX
  5
27E7
  8
SAPA_PROFIL
 10
-45.650000000000993
 20
2.450000000000272
 30
0.0
  0
VERTEX
  5
27E8
  8
SAPA_PROFIL
 10
-45.650000000000993
 20
2.700000000000272
 30
0.0
  0
VERTEX
  5
27E9
  8
SAPA_PROFIL
 10
-44.273765406424673
 20
2.1767196966982278
 30
0.0
 42
0.5450207798987201
  0
VERTEX
  5
27EA
  8
SAPA_PROFIL
 10
-43.850000000001039
 20
2.450000000000272
 30
0.0
  0
VERTEX
  5
27EB
  8
SAPA_PROFIL
 10
-43.850000000001039
 20
2.700000000000272
 30
0.0
  0
VERTEX
  5
27EC
  8
SAPA_PROFIL
 10
-43.126282705194853
 20
2.4722372826161059
 30
0.0
 42
-0.2945484962563026
  0
VERTEX
  5
27ED
  8
SAPA_PROFIL
 10
-42.950048040246656
 20
2.1988824689378812
 30
0.0
  0
VERTEX
  5
27EE
  8
SAPA_PROFIL
 10
-42.950255222213173
 20
1.2642999377483191
 30
0.0
 42
0.3475954753796591
  0
VERTEX
  5
27EF
  8
SAPA_PROFIL
 10
-42.719501178044077
 20
0.9723265106783856
 30
0.0
 42
-0.790522909611319
  0
VERTEX
  5
27F0
  8
SAPA_PROFIL
 10
-42.71949097360357
 20
-0.973664089865224
 30
0.0
 42
0.3476065658631364
  0
VERTEX
  5
27F1
  8
SAPA_PROFIL
 10
-42.950241952335773
 20
-1.2656518108867649
 30
0.0
  0
VERTEX
  5
27F2
  8
SAPA_PROFIL
 10
-42.950095231626847
 20
-1.8499926620931999
 30
0.0
 42
-0.4102317530969976
  0
VERTEX
  5
27F3
  8
SAPA_PROFIL
 10
-43.245946879780369
 20
-2.1500282985855388
 30
0.0
 42
0.0712587206050384
  0
VERTEX
  5
27F4
  8
SAPA_PROFIL
 10
-43.329990804708579
 20
-2.1632556124550311
 30
0.0
  0
VERTEX
  5
27F5
  8
SAPA_PROFIL
 10
-44.750000000001137
 20
-2.6999999999998181
 30
0.0
  0
VERTEX
  5
27F6
  8
SAPA_PROFIL
 10
-44.750000000001137
 20
-2.4499999999998181
 30
0.0
 42
0.5450200690651619
  0
VERTEX
  5
27F7
  8
SAPA_PROFIL
 10
-45.173765000001133
 20
-2.17671899999982
 30
0.0
  0
VERTEX
  5
27F8
  8
SAPA_PROFIL
 10
-46.550000000001091
 20
-2.6999999999998181
 30
0.0
  0
VERTEX
  5
27F9
  8
SAPA_PROFIL
 10
-46.550000000000857
 20
-2.4499999999998181
 30
0.0
 42
0.545020069065176
  0
VERTEX
  5
27FA
  8
SAPA_PROFIL
 10
-46.973765000001087
 20
-2.17671899999982
 30
0.0
  0
VERTEX
  5
27FB
  8
SAPA_PROFIL
 10
-48.350000000001039
 20
-2.6999999999998181
 30
0.0
  0
VERTEX
  5
27FC
  8
SAPA_PROFIL
 10
-48.350000000001039
 20
-2.4499999999998181
 30
0.0
 42
0.5450200690651692
  0
VERTEX
  5
27FD
  8
SAPA_PROFIL
 10
-48.773765000001049
 20
-2.17671899999982
 30
0.0
  0
VERTEX
  5
27FE
  8
SAPA_PROFIL
 10
-50.150000000001
 20
-2.6999999999998181
 30
0.0
  0
VERTEX
  5
27FF
  8
SAPA_PROFIL
 10
-50.150000000001
 20
-2.1499999999998631
 30
0.0
  0
VERTEX
  5
2800
  8
SAPA_PROFIL
 10
-51.350000000001039
 20
-2.1499999999998631
 30
0.0
 42
0.1989123673797004
  0
VERTEX
  5
2801
  8
SAPA_PROFIL
 10
-51.562132000001156
 20
-2.2378679999997071
 30
0.0
  0
VERTEX
  5
2802
  8
SAPA_PROFIL
 10
-52.50000000000113
 20
-3.075735999999778
 30
0.0
  0
VERTEX
  5
2803
  8
SAPA_PROFIL
 10
-52.50000000000113
 20
-4.6999999999998181
 30
0.0
 42
0.4142135623730951
  0
VERTEX
  5
2804
  8
SAPA_PROFIL
 10
-52.200000000000948
 20
-4.9999999999997717
 30
0.0
  0
VERTEX
  5
2805
  8
SAPA_PROFIL
 10
-31.00000000000114
 20
-4.9999999999997717
 30
0.0
 42
-0.4142135623730951
  0
VERTEX
  5
2806
  8
SAPA_PROFIL
 10
-30.00000000000114
 20
-5.9999999999997717
 30
0.0
  0
VERTEX
  5
2807
  8
SAPA_PROFIL
 10
-30.00000000000114
 20
-14.19999999999982
 30
0.0
 42
-0.4142135623730951
  0
VERTEX
  5
2808
  8
SAPA_PROFIL
 10
-30.50000000000114
 20
-14.69999999999982
 30
0.0
  0
VERTEX
  5
2809
  8
SAPA_PROFIL
 10
-33.700000000000962
 20
-14.69999999999982
 30
0.0
 42
-0.4142135623730951
  0
VERTEX
  5
280A
  8
SAPA_PROFIL
 10
-34.200000000000962
 20
-14.19999999999982
 30
0.0
  0
VERTEX
  5
280B
  8
SAPA_PROFIL
 10
-34.200000000000962
 20
-11.299999999999731
 30
0.0
 42
0.4142135623730951
  0
VERTEX
  5
280C
  8
SAPA_PROFIL
 10
-34.500000000001137
 20
-10.999999999999771
 30
0.0
  0
VERTEX
  5
280D
  8
SAPA_PROFIL
 10
-35.200000000000948
 20
-10.999999999999771
 30
0.0
 42
0.4142135623730951
  0
VERTEX
  5
280E
  8
SAPA_PROFIL
 10
-35.500000000001137
 20
-11.299999999999731
 30
0.0
  0
VERTEX
  5
280F
  8
SAPA_PROFIL
 10
-35.500000000001137
 20
-17.999999999999769
 30
0.0
  0
VERTEX
  5
2810
  8
SAPA_PROFIL
 10
-35.035076580641999
 20
-18.586384015500471
 30
0.0
 42
0.7105995019814511
  0
VERTEX
  5
2811
  8
SAPA_PROFIL
 10
-34.500000000001137
 20
-18.39999999999986
 30
0.0
  0
VERTEX
  5
2812
  8
SAPA_PROFIL
 10
-34.500000000001137
 20
-16.499999999999769
 30
0.0
 42
-0.4142135623730951
  0
VERTEX
  5
2813
  8
SAPA_PROFIL
 10
-34.200000000000962
 20
-16.199999999999822
 30
0.0
  0
VERTEX
  5
2814
  8
SAPA_PROFIL
 10
-30.300000000001091
 20
-16.199999999999822
 30
0.0
 42
-0.4142135623730951
  0
VERTEX
  5
2815
  8
SAPA_PROFIL
 10
-30.00000000000114
 20
-16.499999999999769
 30
0.0
  0
VERTEX
  5
2816
  8
SAPA_PROFIL
 10
-30.00000000000114
 20
-23.199999999999822
 30
0.0
 42
-0.4142135623730951
  0
VERTEX
  5
2817
  8
SAPA_PROFIL
 10
-30.300000000001091
 20
-23.499999999999769
 30
0.0
  0
VERTEX
  5
2818
  8
SAPA_PROFIL
 10
-34.200000000000962
 20
-23.499999999999769
 30
0.0
 42
-0.4142135623730951
  0
VERTEX
  5
2819
  8
SAPA_PROFIL
 10
-34.500000000001137
 20
-23.199999999999822
 30
0.0
  0
VERTEX
  5
281A
  8
SAPA_PROFIL
 10
-34.500000000001137
 20
-21.999999999999769
 30
0.0
 42
0.7105990647993611
  0
VERTEX
  5
281B
  8
SAPA_PROFIL
 10
-35.035076000001027
 20
-21.81361599999968
 30
0.0
  0
VERTEX
  5
281C
  8
SAPA_PROFIL
 10
-35.500000000001137
 20
-22.39999999999986
 30
0.0
  0
VERTEX
  5
281D
  8
SAPA_PROFIL
 10
-35.500000000001137
 20
-24.699999999999822
 30
0.0
 42
0.4142135623730951
  0
VERTEX
  5
281E
  8
SAPA_PROFIL
 10
-35.200000000000948
 20
-24.999999999999769
 30
0.0
  0
VERTEX
  5
281F
  8
SAPA_PROFIL
 10
63.999999999998863
 20
-24.999999999999769
 30
0.0
 42
0.4142135623730951
  0
VERTEX
  5
2820
  8
SAPA_PROFIL
 10
64.499999999998863
 20
-24.499999999999769
 30
0.0
  0
VERTEX
  5
2821
  8
SAPA_PROFIL
 10
64.499999999998863
 20
24.500000000000231
 30
0.0
 42
0.4142135623730951
  0
VERTEX
  5
2822
  8
SAPA_PROFIL
 10
63.999999999998863
 20
25.000000000000231
 30
0.0
  0
VERTEX
  5
2823
  8
SAPA_PROFIL
 10
-35.200000000000948
 20
25.000000000000231
 30
0.0
 42
0.4142135623730951
  0
VERTEX
  5
2824
  8
SAPA_PROFIL
 10
-35.500000000001137
 20
24.700000000000269
 30
0.0
  0
VERTEX
  5
2825
  8
SAPA_PROFIL
 10
-35.500000000001137
 20
22.400000000000318
 30
0.0
  0
VERTEX
  5
2826
  8
SAPA_PROFIL
 10
-35.035076580641999
 20
21.81361598449962
 30
0.0
 42
0.7105995019814511
  0
VERTEX
  5
2827
  8
SAPA_PROFIL
 10
-34.500000000001137
 20
22.000000000000231
 30
0.0
  0
VERTEX
  5
2828
  8
SAPA_PROFIL
 10
-34.500000000001137
 20
23.200000000000269
 30
0.0
 42
-0.4142135623730951
  0
VERTEX
  5
2829
  8
SAPA_PROFIL
 10
-34.200000000000962
 20
23.500000000000231
 30
0.0
  0
VERTEX
  5
282A
  8
SAPA_PROFIL
 10
-30.300000000001091
 20
23.500000000000231
 30
0.0
 42
-0.4142135623730951
  0
VERTEX
  5
282B
  8
SAPA_PROFIL
 10
-30.00000000000114
 20
23.200000000000269
 30
0.0
  0
VERTEX
  5
282C
  8
SAPA_PROFIL
 10
-30.00000000000114
 20
16.500000000000231
 30
0.0
 42
-0.4142135623730951
  0
VERTEX
  5
282D
  8
SAPA_PROFIL
 10
-30.300000000001091
 20
16.200000000000269
 30
0.0
  0
VERTEX
  5
282E
  8
SAPA_PROFIL
 10
-34.200000000000962
 20
16.200000000000269
 30
0.0
 42
-0.4142135623730951
  0
VERTEX
  5
282F
  8
SAPA_PROFIL
 10
-34.500000000001137
 20
16.500000000000231
 30
0.0
  0
VERTEX
  5
2830
  8
SAPA_PROFIL
 10
-34.500000000001137
 20
18.400000000000318
 30
0.0
 42
0.7105995019814511
  0
VERTEX
  5
2831
  8
SAPA_PROFIL
 10
-35.035076580641999
 20
18.586384015500919
 30
0.0
  0
VERTEX
  5
2832
  8
SAPA_PROFIL
 10
-35.500000000001137
 20
18.000000000000231
 30
0.0
  0
VERTEX
  5
2833
  8
SAPA_PROFIL
 10
-35.500000000001137
 20
11.30000000000018
 30
0.0
 42
0.4142135623730951
  0
VERTEX
  5
2834
  8
SAPA_PROFIL
 10
-35.200000000000948
 20
11.00000000000022
 30
0.0
  0
VERTEX
  5
2835
  8
SAPA_PROFIL
 10
-34.500000000001137
 20
11.00000000000022
 30
0.0
 42
0.4142135623730951
  0
VERTEX
  5
2836
  8
SAPA_PROFIL
 10
-34.200000000000962
 20
11.30000000000018
 30
0.0
  0
VERTEX
  5
2837
  8
SAPA_PROFIL
 10
-34.200000000000962
 20
14.200000000000269
 30
0.0
 42
-0.4142135623730951
  0
VERTEX
  5
2838
  8
SAPA_PROFIL
 10
-33.700000000000962
 20
14.700000000000269
 30
0.0
  0
VERTEX
  5
2839
  8
SAPA_PROFIL
 10
-30.50000000000114
 20
14.700000000000269
 30
0.0
 42
-0.4142135623730951
  0
VERTEX
  5
283A
  8
SAPA_PROFIL
 10
-30.00000000000114
 20
14.200000000000269
 30
0.0
  0
SEQEND
  5
283B
  8
SAPA_PROFIL
  0
POLYLINE
  5
1E21
  8
SAPA_GLAS
 66
     1
 10
0.0
 20
0.0
 30
0.0
  0
VERTEX
  5
2846
  8
SAPA_GLAS
 10
-76.499999999011635
 20
75.52259398159481
 30
0.0
  0
VERTEX
  5
2847
  8
SAPA_GLAS
 10
-76.499999999012104
 20
11.000967646493571
 30
0.0
  0
VERTEX
  5
2848
  8
SAPA_GLAS
 10
-82.499999999011422
 20
11.000967646493571
 30
0.0
  0
VERTEX
  5
2849
  8
SAPA_GLAS
 10
-82.499999999011393
 20
75.52259398159481
 30
0.0
  0
SEQEND
  5
284A
  8
SAPA_GLAS
  0
LINE
  5
1E22
  8
SAPA_GLAS
 10
89.449999922547022
 20
-67.999999999986642
 30
0.0
 11
101.44999992254699
 21
-67.999999999986642
 31
0.0
  0
POLYLINE
  5
1E23
  8
SAPA_GLAS
 66
     1
 10
0.0
 20
0.0
 30
0.0
  0
VERTEX
  5
284B
  8
SAPA_GLAS
 10
107.44999992254699
 20
-87.999999999986642
 30
0.0
  0
VERTEX
  5
284C
  8
SAPA_GLAS
 10
107.44999992254699
 20
-57.999999999986642
 30
0.0
  0
VERTEX
  5
284D
  8
SAPA_GLAS
 10
83.449999922547022
 20
-57.999999999986642
 30
0.0
  0
VERTEX
  5
284E
  8
SAPA_GLAS
 10
83.449999922547022
 20
-87.999999999986642
 30
0.0
  0
SEQEND
  5
284F
  8
SAPA_GLAS
  0
LINE
  5
1E24
  8
SAPA_GLAS
 10
101.44999992254699
 20
-87.999999999986642
 30
0.0
 11
101.44999992254699
 21
-57.999999999986642
 31
0.0
  0
LINE
  5
1E25
  8
SAPA_GLAS
 10
89.449999922547022
 20
-87.999999999986642
 30
0.0
 11
89.449999922547022
 21
-57.999999999986642
 31
0.0
  0
LINE
  5
1E2D
  8
SAPA_FYLLNING
 10
52.49999999999887
 20
26.000000000000231
 30
0.0
 11
52.49999999999882
 21
75.000000000000227
 31
0.0
  0
POLYLINE
  5
1E2E
  8
SAPA_FYLLNING
 66
     1
 10
0.0
 20
0.0
 30
0.0
  0
VERTEX
  5
285A
  8
SAPA_FYLLNING
 10
50.99999999999882
 20
75.000000000000227
 30
0.0
  0
VERTEX
  5
285B
  8
SAPA_FYLLNING
 10
50.999999999998813
 20
26.000000000000231
 30
0.0
  0
VERTEX
  5
285C
  8
SAPA_FYLLNING
 10
62.49999999999887
 20
26.000000000000242
 30
0.0
  0
VERTEX
  5
285D
  8
SAPA_FYLLNING
 10
62.499999999998877
 20
75.000000000000227
 30
0.0
  0
SEQEND
  5
285E
  8
SAPA_FYLLNING
  0
POLYLINE
  5
1E2F
  8
SAPA_FYLLNING
 66
     1
 10
0.0
 20
0.0
 30
0.0
  0
VERTEX
  5
285F
  8
SAPA_FYLLNING
 10
-44.291421355247991
 20
75.55191439287259
 30
0.0
  0
VERTEX
  5
2860
  8
SAPA_FYLLNING
 10
-44.291421355247998
 20
14.064434310391199
 30
0.0
  0
VERTEX
  5
2861
  8
SAPA_FYLLNING
 10
-36.291421355248012
 20
14.064434310391199
 30
0.0
  0
VERTEX
  5
2862
  8
SAPA_FYLLNING
 10
-36.291421355247991
 20
75.551914392872604
 30
0.0
  0
SEQEND
  5
2863
  8
SAPA_FYLLNING
  0
INSERT
  5
1E36
  8
SAPA_ISOLATOR
  6
CONTINUOUS
  2
*X86
 10
0.0
 20
0.0
 30
0.0
1001
ACAD
1000
HATCH
1002
{
1070
    19
1000
ANSI31
1040
0.35
1040
5.4977871437821371
1000
R14_HATCH_DATA
1000
1E36
1011
1.0
1021
0.0
1031
0.0
1021
0.0
1031
0.0
1011
0.0
1021
0.0
1031
0.0
1021
1.0
1031
0.0
1011
0.0
1021
0.0
1031
0.0
1021
0.0
1031
1.0
1040
0.0
1010
0.0
1020
0.0
1030
1.0
1000
ANSI31
1070
     0
1070
     0
1071
        1
1071
        1
1071
       49
1070
     2
1040
99.536257502558982
1040
-50.128163190639661
1040
0.3006817060114675
1040
-1.565737906380728
1040
-0.3498199254894487
1070
     0
1070
     1
1040
99.818728254098801
1040
-50.025110957017588
1040
100.70420596696999
1040
-52.457940978561609
1070
     2
1040
101.08008301528611
1040
-52.321132921228788
1040
0.400000000002539
1040
3.490658503993135
1040
4.7123889803853389
1070
     1
1070
     1
1040
101.08008301528641
1040
-52.72113292123133
1040
111.5000000000005
1040
-52.721132921231302
1070
     1
1040
111.5000000000005
1040
-52.721132921231302
1040
121.9199169847186
1040
-52.721132921231238
1070
     2
1040
121.91991698471681
1040
-52.321132921231602
1040
0.3999999999996488
1040
4.7123889803890684
1040
5.9341194567812998
1070
     1
1070
     1
1040
122.2957940330309
1040
-52.457940978561531
1040
123.1812717458991
1040
-50.025110957025831
1070
     2
1040
123.4636343180465
1040
-50.128009399969571
1040
0.3005273892841634
1040
3.4910552070390422
1040
4.7076879318700922
1070
     0
1070
     2
1040
123.6918102929848
1040
-55.388128406494502
1040
5.5653807064749881
1040
4.6711242502471872
1040
4.7342885622872561
1070
     0
1070
     1
1040
123.81368006175219
1040
-49.82408220184589
1040
124.05386312653449
1040
-49.685412444739363
1070
     2
1040
124.1588631265342
1040
-49.867277779534263
1040
0.2100000000000017
1040
4.188790204787975
1040
6.2831853071790738
1070
     0
1070
     1
1040
124.36886312653419
1040
-49.867277779534149
1040
124.36886312653429
1040
-50.134392307747071
1070
     1
1040
124.36886312653429
1040
-50.134392307747071
1040
124.7000000000005
1040
-50.330614373531361
1070
     1
1040
124.7000000000005
1040
-50.330614373531361
1040
125.683320137981
1040
-50.898258537028809
1070
     2
1040
125.7883201379793
1040
-50.716393202235267
1040
0.209999999998109
1040
4.1887902047907017
1040
4.7123889803873276
1070
     1
1070
     1
1040
125.7883201379798
1040
-50.926393202233371
1040
126.1000000000024
1040
-50.926393202233491
1070
     2
1040
126.1000000000043
1040
-50.526393202237358
1040
0.3999999999961332
1040
4.7123889803799113
1040
6.2831853071900472
1070
     1
1070
     1
1040
126.5000000000004
1040
-50.526393202233173
1040
126.5000000000005
1040
-47.126393202233423
1070
     2
1040
126.1000000000034
1040
-47.126393202230503
1040
0.3999999999970676
1040
6.2831853071723121
1040
7.8539816339818991
1070
     1
1070
     1
1040
126.10000000000051
1040
-46.726393202233439
1040
125.7883201379768
1040
-46.726393202233439
1070
     2
1040
125.7883201379784
1040
-46.936393202228388
1040
0.2099999999949489
1040
1.5707963268027789
1040
2.0943951023994072
1070
     1
1070
     1
1040
125.68332013797981
1040
-46.754527867438689
1040
124.7000000000005
1040
-47.322248013800717
1070
     1
1040
124.7000000000005
1040
-47.322248013800717
1040
124.10525588832959
1040
-47.665623686772832
1070
     2
1040
123.5052558883235
1040
-46.626393202222438
1040
1.2000000000109059
1040
1.0471975511959639
1040
1.570796326792617
1070
     0
1070
     1
1040
123.5052558883262
1040
-47.826393202233348
1040
122.5533915554398
1040
-47.826393202233128
1070
     2
1040
122.5533915554488
1040
-48.826393202225368
1040
0.9999999999922533
1040
1.570796326803906
1040
2.7925268031964121
1070
     1
1070
     1
1040
121.61369893466831
1040
-48.484373058907508
1040
120.8225849097584
1040
-50.6579409785612
1070
     2
1040
120.446707861443
1040
-50.521132921229928
1040
0.4000000000013905
1040
0.3490658504002768
1040
1.5707963267925069
1070
     0
1070
     1
1040
120.4467078614439
1040
-50.921132921231333
1040
111.5000000000005
1040
-50.921132921231333
1070
     1
1040
111.5000000000005
1040
-50.921132921231319
1040
102.553292138557
1040
-50.921132921231369
1070
     2
1040
102.553292138556
1040
-50.521132921232798
1040
0.3999999999985775
1040
1.5707963267924121
1040
2.7925268031846149
1070
     0
1070
     1
1040
102.1774150902438
1040
-50.657940978564952
1040
101.3863010653327
1040
-48.484373058907728
1070
     2
1040
100.4466084445376
1040
-48.826393202246621
1040
1.000000000013211
1040
6.632251157587703
1040
7.853981633979922
1070
     1
1070
     1
1040
100.4466084445321
1040
-47.826393202233398
1040
99.494744111674663
1040
-47.826393202233398
1070
     2
1040
99.494744111671665
1040
-46.62639320224438
1040
1.1999999999890261
1040
1.570796326792401
1040
2.0943951023890519
1070
     0
1070
     1
1040
98.894744111681462
1040
-47.665623686778687
1040
98.307179676972964
1040
-47.326393202233461
1070
     1
1040
98.307179676972964
1040
-47.326393202233461
1040
97.316679862021033
1040
-46.754527867438739
1070
     2
1040
97.211679862019366
1040
-46.936393202239877
1040
0.2100000000063851
1040
7.3303828583845627
1040
7.8539816339812401
1070
     1
1070
     1
1040
97.211679862017945
1040
-46.726393202233488
1040
96.900000000000432
1040
-46.726393202233439
1070
     2
1040
96.900000000003402
1040
-47.126393202236379
1040
0.40000000000295
1040
1.5707963268023279
1040
3.141592653592308
1070
     1
1070
     1
1040
96.500000000000455
1040
-47.126393202237388
1040
96.500000000000455
1040
-50.52639320223345
1070
     2
1040
96.900000000002436
1040
-50.526393202231439
1040
0.4000000000019782
1040
3.1415926535947949
1040
4.7123889803848034
1070
     1
1070
     1
1040
96.900000000002478
1040
-50.926393202233427
1040
97.211679862021128
1040
-50.926393202233427
1070
     2
1040
97.211679862020674
1040
-50.716393202231522
1040
0.2100000000019078
1040
4.7123889803869412
1040
5.2359877559835688
1070
     1
1070
     1
1040
97.316679862021715
1040
-50.898258537027843
1040
98.631136873466716
1040
-50.134392307747063
1070
     1
1040
98.631136873466716
1040
-50.134392307747063
1040
98.631136873466815
1040
-49.867277779534149
1070
     2
1040
98.841136873466823
1040
-49.867277779534263
1040
0.2100000000000017
1040
3.1415926535902998
1040
5.235987755981399
1070
     0
1070
     1
1040
98.946136873466557
1040
-49.685412444739363
1040
99.186319938248843
1040
-49.824082201845883
1070
     2
1040
99.308189707019238
1040
-55.388128405937003
1040
5.5653807059176952
1040
4.6904893984793761
1040
4.7536537105194441
1070
     0
1071
        0
1070
     0
1070
     1
1040
5.4977871437821371
1040
0.35
1070
     0
1070
     1
1040
0.0
1040
0.0
1040
0.0
1040
0.0000000000000003
1040
1.111249999999999
1070
     0
1071
        1
1040
96.49999984918469
1040
-52.721133114251508
1040
0.0
1002
}
  0
INSERT
  5
1E37
  8
SAPA_ISOLATOR
  6
CONTINUOUS
  2
*X87
 10
0.0
 20
0.0
 30
0.0
1001
ACAD
1000
HATCH
1002
{
1070
    19
1000
ANSI31
1040
0.35
1040
3.926990816987241
1000
R14_HATCH_DATA
1000
1E37
1011
1.0
1021
0.0
1031
0.0
1021
0.0
1031
0.0
1011
0.0
1021
0.0
1031
0.0
1021
1.0
1031
0.0
1011
0.0
1021
0.0
1031
0.0
1021
0.0
1031
1.0
1040
0.0
1010
0.0
1020
0.0
1030
1.0
1000
ANSI31
1070
     0
1070
     0
1071
        1
1071
        1
1071
       49
1070
     2
1040
103.30399500347831
1040
-17.098562056682582
1040
4.8787750972680151
1040
7.8148739203742901
1040
7.878103770317618
1070
     0
1070
     1
1040
103.18631993824729
1040
-21.975917798141818
1040
102.94613687346499
1040
-22.114587555248349
1070
     2
1040
102.8411368734653
1040
-21.932722220453449
1040
0.2100000000000011
1040
7.330382858377769
1040
9.4247779607688731
1070
     0
1070
     1
1040
102.63113687346529
1040
-21.932722220453559
1040
102.6332864004289
1040
-21.661884602327159
1070
     1
1040
102.6332864004289
1040
-21.661884602327159
1040
101.3375644347016
1040
-20.91379917661958
1070
     2
1040
101.18756443470011
1040
-21.173606797757149
1040
0.3000000000027061
1040
1.047197551195945
1040
1.5707963267927769
1070
     1
1070
     1
1040
101.1875644347007
1040
-20.873606797754451
1040
100.9000000000009
1040
-20.873606797754451
1070
     2
1040
100.9000000000009
1040
-21.273606797756411
1040
0.400000000001961
1040
1.5707963267948819
1040
3.1415926535848331
1070
     1
1070
     1
1040
100.49999999999891
1040
-21.273606797754422
1040
100.49999999999891
1040
-24.67360679775048
1070
     2
1040
100.9000000000018
1040
-24.67360679775145
1040
0.4000000000029332
1040
3.1415926535873768
1040
4.7123889803774421
1070
     1
1070
     1
1040
100.899999999999
1040
-25.07360679775438
1040
101.1875644346964
1040
-25.07360679775444
1070
     2
1040
101.1875644346981
1040
-24.773606797745341
1040
0.3000000000091028
1040
4.712388980378857
1040
5.2359877559752741
1070
     1
1070
     1
1040
101.3375644347006
1040
-25.033414418889709
1040
102.8947441116799
1040
-24.134376313209131
1070
     2
1040
103.4947441116701
1040
-25.173606797743499
1040
1.199999999989082
1040
4.1887902047905472
1040
4.712388980387173
1070
     0
1070
     1
1040
103.4947441116731
1040
-23.973606797754421
1040
104.9056465456206
1040
-23.973606797754421
1070
     2
1040
104.9056465456223
1040
-23.673606797750189
1040
0.3000000000042169
1040
4.7123889803790941
1040
5.8621063461627063
1070
     1
1070
     1
1040
105.1794410810088
1040
-23.796230418619341
1040
106.3559868458432
1040
-21.169234096308841
1070
     2
1040
106.8123110714798
1040
-21.37360679775232
1040
0.4999999999980974
1040
3.5626716146034889
1040
4.7123889803871712
1070
     0
1070
     1
1040
106.81231107148101
1040
-20.873606797754221
1040
116.1874352799433
1040
-20.873606797754221
1070
     2
1040
116.18743527994209
1040
-21.373606797756111
1040
0.5000000000018839
1040
4.7123889803870771
1040
5.8643062866997866
1070
     0
1070
     1
1040
116.64420800876491
1040
-21.170238476216909
1040
117.8131066416651
1040
-23.795627790677081
1070
     2
1040
118.08717027895629
1040
-23.673606797756939
1040
0.2999999999974772
1040
3.5604716740626752
1040
4.7123889803754517
1070
     1
1070
     1
1040
118.08717027895349
1040
-23.973606797754421
1040
119.5052558883247
1040
-23.973606797754421
1070
     2
1040
119.5052558883216
1040
-25.173606797765359
1040
1.2000000000109421
1040
4.7123889803872707
1040
5.2359877559838992
1070
     0
1070
     1
1040
120.105255888328
1040
-24.13437631321511
1040
120.69999999999899
1040
-24.477751986187108
1070
     1
1040
120.69999999999899
1040
-24.477751986187108
1040
121.6624355652971
1040
-25.033414418889709
1070
     2
1040
121.8124355652953
1040
-24.773606797761701
1040
0.2999999999927472
1040
4.1887902047794929
1040
4.7123889803763293
1070
     1
1070
     1
1040
121.8124355652928
1040
-25.07360679775444
1040
122.0999999999989
1040
-25.07360679775438
1070
     2
1040
122.1000000000019
1040
-24.673606797757309
1040
0.3999999999970729
1040
4.7123889803772823
1040
6.2831853071868471
1070
     1
1070
     1
1040
122.49999999999901
1040
-24.67360679775441
1040
122.49999999999891
1040
-21.273606797754429
1070
     2
1040
122.0999999999989
1040
-21.273606797754439
1040
0.3999999999999879
1040
0.0000000000000286
1040
1.570796326790038
1070
     1
1070
     1
1040
122.1000000000009
1040
-20.873606797754451
1040
121.81243556529721
1040
-20.873606797754451
1070
     2
1040
121.8124355652964
1040
-21.17360679775167
1040
0.2999999999972234
1040
1.570796326792445
1040
2.094395102389274
1070
     1
1070
     1
1040
121.66243556529879
1040
-20.913799176618159
1040
120.69999999999899
1040
-21.46946160932173
1070
     1
1040
120.69999999999899
1040
-21.46946160932173
1040
120.366713599569
1040
-21.661884602327142
1070
     1
1040
120.366713599569
1040
-21.661884602327142
1040
120.3688631265327
1040
-21.932722220453559
1070
     2
1040
120.15886312653269
1040
-21.932722220453449
1040
0.2100000000000008
1040
6.2831853071800934
1040
8.3775804095711983
1070
     0
1070
     1
1040
120.0538631265329
1040
-22.114587555248349
1040
119.8136800617507
1040
-21.975917798141829
1070
     2
1040
119.68348785853421
1040
-15.049454366411339
1040
6.9276868925261033
1040
7.8351875011051932
1040
7.8859264908636648
1070
     0
1070
     1
1040
119.46222152941191
1040
-21.973606797754449
1040
119.3859854653529
1040
-21.973606797754421
1070
     2
1040
119.38598546535501
1040
-21.673606797750999
1040
0.3000000000034175
1040
1.5707963268021321
1040
2.7227136331150401
1070
     0
1070
     1
1040
119.1119218280586
1040
-21.795627790674061
1040
117.97924135933241
1040
-19.25158580483172
1070
     2
1040
117.70517772203981
1040
-19.373606797754121
1040
0.2999999999996781
1040
0.4188790204778597
1040
1.5707963267906451
1070
     1
1070
     1
1040
117.7051777220411
1040
-19.07360679775444
1040
113.23005594144961
1040
-19.07360679775427
1070
     1
1040
113.23005594144961
1040
-19.07360679775427
1040
105.2948222779596
1040
-19.073606797754319
1070
     2
1040
105.2948222779594
1040
-19.37360679775627
1040
0.3000000000019533
1040
1.5707963267942211
1040
2.7227136331070101
1070
     1
1070
     1
1040
105.02075864066541
1040
-19.251585804831599
1040
103.8880781719355
1040
-21.795627790682129
1070
     2
1040
103.6140145346471
1040
-21.673606797757781
1040
0.2999999999966353
1040
6.7020643276691079
1040
7.8539816339817774
1070
     0
1070
     1
1040
103.61401453464489
1040
-21.97360679775441
1040
103.49474411165551
1040
-21.97360679775441
1071
        0
1070
     0
1070
     1
1040
3.926990816987241
1040
0.35
1070
     0
1070
     1
1040
4.7123889803846888
1040
99.999516966809296
1040
-18.441525233297781
1040
1.111249999999999
1040
-0.0000000000000005
1070
     0
1071
        1
1040
99.999516966809296
1040
-18.441525233297781
1040
0.0
1002
}
  0
CIRCLE
  5
1E4B
  8
SAPA_FOGBAND
 10
-84.641571726353561
 20
18.67935679560037
 30
0.0
 40
0.2549509756796394
  0
INSERT
  5
1E4C
  8
SAPA_FOGBAND
  6
CONTINUOUS
  2
*U89
 10
0.0
 20
0.0
 30
0.0
1001
ACAD
1002
{
1000
R14_HATCH_DATA
1000
1E4C
1011
1.0
1021
0.0
1031
0.0
1021
0.0
1031
0.0
1011
0.0
1021
0.0
1031
0.0
1021
1.0
1031
0.0
1011
0.0
1021
0.0
1031
0.0
1021
0.0
1031
1.0
1040
0.0
1010
0.0
1020
0.0
1030
1.0
1000
SOLID
1070
     1
1070
     1
1071
        1
1071
        1
1071
        1
1070
     2
1040
-84.641571726353561
1040
18.67935679560037
1040
0.2549509756796394
1040
-1.5707963267948959
1040
4.7123889803846888
1070
     1
1071
        1
1005
1E4B
1070
     0
1070
     1
1071
        1
1040
-84.559720229024663
1040
18.916095697170469
1040
0.0
1002
}
  0
POLYLINE
  5
1E4D
  8
SAPA_FOGBAND
 66
     1
 10
0.0
 20
0.0
 30
0.0
 70
     1
  0
VERTEX
  5
29AE
  8
SAPA_FOGBAND
 10
-87.604003505598087
 20
17.779356795600389
 30
0.0
 42
0.9999999999999998
  0
VERTEX
  5
29AF
  8
SAPA_FOGBAND
 10
-87.604003505598087
 20
19.579356795600351
 30
0.0
  0
VERTEX
  5
29B0
  8
SAPA_FOGBAND
 10
-88.204003505598109
 20
19.579356795600351
 30
0.0
 42
0.9999999999999998
  0
VERTEX
  5
29B1
  8
SAPA_FOGBAND
 10
-88.204003505598109
 20
17.779356795600389
 30
0.0
  0
SEQEND
  5
29B2
  8
SAPA_FOGBAND
  0
POLYLINE
  5
1E4E
  8
SAPA_FOGBAND
 66
     1
 10
0.0
 20
0.0
 30
0.0
 70
     1
  0
VERTEX
  5
29B3
  8
SAPA_FOGBAND
 10
-82.504003505598064
 20
27.307233103773569
 30
0.0
 42
0.0775891054856093
  0
VERTEX
  5
29B4
  8
SAPA_FOGBAND
 10
-82.820639489659413
 20
23.840451373351009
 30
0.0
  0
VERTEX
  5
29B5
  8
SAPA_FOGBAND
 10
-82.604003505598044
 20
23.60256188052222
 30
0.0
 42
-0.5773502691896298
  0
VERTEX
  5
29B6
  8
SAPA_FOGBAND
 10
-82.604003505598044
 20
23.256151719008361
 30
0.0
  0
VERTEX
  5
29B7
  8
SAPA_FOGBAND
 10
-82.820913359821077
 20
23.018104102277562
 30
0.0
  0
VERTEX
  5
29B8
  8
SAPA_FOGBAND
 10
-82.820913359821077
 20
22.240609492360932
 30
0.0
  0
VERTEX
  5
29B9
  8
SAPA_FOGBAND
 10
-82.604003505598044
 20
22.002561880522201
 30
0.0
 42
-0.577350269189699
  0
VERTEX
  5
29BA
  8
SAPA_FOGBAND
 10
-82.604003505598044
 20
21.656151719008449
 30
0.0
  0
VERTEX
  5
29BB
  8
SAPA_FOGBAND
 10
-82.820913359821077
 20
21.418104102277649
 30
0.0
  0
VERTEX
  5
29BC
  8
SAPA_FOGBAND
 10
-82.820913359821077
 20
20.640609492360909
 30
0.0
  0
VERTEX
  5
29BD
  8
SAPA_FOGBAND
 10
-82.604003505598044
 20
20.402561880522171
 30
0.0
 42
-0.577350269189699
  0
VERTEX
  5
29BE
  8
SAPA_FOGBAND
 10
-82.604003505598044
 20
20.05615171900843
 30
0.0
  0
VERTEX
  5
29BF
  8
SAPA_FOGBAND
 10
-82.820913359821077
 20
19.81810410227763
 30
0.0
  0
VERTEX
  5
29C0
  8
SAPA_FOGBAND
 10
-82.820913359821077
 20
19.040609492360879
 30
0.0
  0
VERTEX
  5
29C1
  8
SAPA_FOGBAND
 10
-82.604003505598044
 20
18.802561880522259
 30
0.0
 42
-0.5773502691896298
  0
VERTEX
  5
29C2
  8
SAPA_FOGBAND
 10
-82.604003505598044
 20
18.4561517190084
 30
0.0
  0
VERTEX
  5
29C3
  8
SAPA_FOGBAND
 10
-82.820913359821077
 20
18.218104102277611
 30
0.0
  0
VERTEX
  5
29C4
  8
SAPA_FOGBAND
 10
-82.820913359821077
 20
17.44060949236086
 30
0.0
  0
VERTEX
  5
29C5
  8
SAPA_FOGBAND
 10
-82.604003505598044
 20
17.202561880522239
 30
0.0
 42
-0.5773502691896298
  0
VERTEX
  5
29C6
  8
SAPA_FOGBAND
 10
-82.604003505598044
 20
16.85615171900838
 30
0.0
  0
VERTEX
  5
29C7
  8
SAPA_FOGBAND
 10
-82.820913359821077
 20
16.618104102277581
 30
0.0
  0
VERTEX
  5
29C8
  8
SAPA_FOGBAND
 10
-82.820913359821077
 20
15.84060948819592
 30
0.0
  0
VERTEX
  5
29C9
  8
SAPA_FOGBAND
 10
-82.604003505598044
 20
15.60256187635718
 30
0.0
 42
-0.577350269189699
  0
VERTEX
  5
29CA
  8
SAPA_FOGBAND
 10
-82.604003505598044
 20
15.25615171484344
 30
0.0
  0
VERTEX
  5
29CB
  8
SAPA_FOGBAND
 10
-83.677333574082525
 20
14.456151715288341
 30
0.0
 42
-0.1316524987190269
  0
VERTEX
  5
29CC
  8
SAPA_FOGBAND
 10
-83.777333574853245
 20
14.42935679560037
 30
0.0
  0
VERTEX
  5
29CD
  8
SAPA_FOGBAND
 10
-86.304003505598004
 20
14.429356795600251
 30
0.0
 42
-0.4142135623730951
  0
VERTEX
  5
29CE
  8
SAPA_FOGBAND
 10
-86.504003505598064
 20
14.6293567956003
 30
0.0
  0
VERTEX
  5
29CF
  8
SAPA_FOGBAND
 10
-86.504003505598064
 20
16.67935679560037
 30
0.0
 42
0.4142135623730951
  0
VERTEX
  5
29D0
  8
SAPA_FOGBAND
 10
-87.004003505598064
 20
17.17935679560037
 30
0.0
  0
VERTEX
  5
29D1
  8
SAPA_FOGBAND
 10
-87.730798424841225
 20
17.17935679560037
 30
0.0
  0
VERTEX
  5
29D2
  8
SAPA_FOGBAND
 10
-87.798258334151626
 20
16.927592986579839
 30
0.0
 42
-0.4740571810232869
  0
VERTEX
  5
29D3
  8
SAPA_FOGBAND
 10
-88.080540919790295
 20
16.800299124216281
 30
0.0
  0
VERTEX
  5
29D4
  8
SAPA_FOGBAND
 10
-89.526747056550036
 20
17.42039962697481
 30
0.0
 42
-0.2846003776495916
  0
VERTEX
  5
29D5
  8
SAPA_FOGBAND
 10
-89.804003505598018
 20
17.868043805435029
 30
0.0
  0
VERTEX
  5
29D6
  8
SAPA_FOGBAND
 10
-89.804003505598018
 20
19.49066978576559
 30
0.0
 42
-0.2846003776495917
  0
VERTEX
  5
29D7
  8
SAPA_FOGBAND
 10
-89.526747056550036
 20
19.938313964225809
 30
0.0
  0
VERTEX
  5
29D8
  8
SAPA_FOGBAND
 10
-88.080540919790295
 20
20.558414466984349
 30
0.0
 42
-0.4740571810232869
  0
VERTEX
  5
29D9
  8
SAPA_FOGBAND
 10
-87.798258334151626
 20
20.431120604620791
 30
0.0
  0
VERTEX
  5
29DA
  8
SAPA_FOGBAND
 10
-87.730798424841225
 20
20.17935679560037
 30
0.0
  0
VERTEX
  5
29DB
  8
SAPA_FOGBAND
 10
-87.004003505598064
 20
20.17935679560037
 30
0.0
 42
0.4142135623730951
  0
VERTEX
  5
29DC
  8
SAPA_FOGBAND
 10
-86.504003505598064
 20
20.67935679560037
 30
0.0
  0
VERTEX
  5
29DD
  8
SAPA_FOGBAND
 10
-86.504003505598064
 20
23.729356795600332
 30
0.0
 42
0.4142135623730951
  0
VERTEX
  5
29DE
  8
SAPA_FOGBAND
 10
-86.704003505598109
 20
23.92935679560037
 30
0.0
  0
VERTEX
  5
29DF
  8
SAPA_FOGBAND
 10
-87.604003505598087
 20
23.92935679560026
 30
0.0
 42
-0.4142135623731784
  0
VERTEX
  5
29E0
  8
SAPA_FOGBAND
 10
-87.804003505598004
 20
24.129356795600302
 30
0.0
  0
VERTEX
  5
29E1
  8
SAPA_FOGBAND
 10
-87.804003505598146
 20
24.829356795600351
 30
0.0
 42
-0.4142135623730398
  0
VERTEX
  5
29E2
  8
SAPA_FOGBAND
 10
-87.504003505598064
 20
25.129356795600302
 30
0.0
  0
VERTEX
  5
29E3
  8
SAPA_FOGBAND
 10
-86.693491728946526
 20
25.129356795600302
 30
0.0
 42
0.1316524975873973
  0
VERTEX
  5
29E4
  8
SAPA_FOGBAND
 10
-85.693491728946526
 20
25.397305988031459
 30
0.0
  0
VERTEX
  5
29E5
  8
SAPA_FOGBAND
 10
-83.103923736854597
 20
30.560151138071891
 30
0.0
 42
-0.7057658529986604
  0
VERTEX
  5
29E6
  8
SAPA_FOGBAND
 10
-82.504003505598064
 20
30.292557962713548
 30
0.0
  0
SEQEND
  5
29E7
  8
SAPA_FOGBAND
  0
POLYLINE
  5
1E4F
  8
SAPA_FOGBAND
 10
-72.650067744886982
 20
15.203568545938454
 30
0.0
 66
     1
 70
     8
  0
VERTEX
  8
SAPA_FOGBAND
  5
2AAA
 10
-72.6501
 20
15.2036
 30
0.000000
  70
    32
  0
VERTEX
  8
SAPA_FOGBAND
  5
2AAB
 10
-72.7441
 20
15.2081
 30
0.000000
  70
    32
  0
VERTEX
  8
SAPA_FOGBAND
  5
2AAC
 10
-72.8379
 20
15.2215
 30
0.000000
  70
    32
  0
VERTEX
  8
SAPA_FOGBAND
  5
2AAD
 10
-72.9313
 20
15.2440
 30
0.000000
  70
    32
  0
VERTEX
  8
SAPA_FOGBAND
  5
2AAE
 10
-73.0240
 20
15.2753
 30
0.000000
  70
    32
  0
VERTEX
  8
SAPA_FOGBAND
  5
2AAF
 10
-73.1158
 20
15.3154
 30
0.000000
  70
    32
  0
VERTEX
  8
SAPA_FOGBAND
  5
2AB0
 10
-73.2065
 20
15.3642
 30
0.000000
  70
    32
  0
VERTEX
  8
SAPA_FOGBAND
  5
2AB1
 10
-73.2958
 20
15.4217
 30
0.000000
  70
    32
  0
VERTEX
  8
SAPA_FOGBAND
  5
2AB2
 10
-73.3836
 20
15.4876
 30
0.000000
  70
    32
  0
VERTEX
  8
SAPA_FOGBAND
  5
2AB3
 10
-73.4696
 20
15.5618
 30
0.000000
  70
    32
  0
VERTEX
  8
SAPA_FOGBAND
  5
2AB4
 10
-73.5536
 20
15.6442
 30
0.000000
  70
    32
  0
VERTEX
  8
SAPA_FOGBAND
  5
2AB5
 10
-73.6354
 20
15.7344
 30
0.000000
  70
    32
  0
VERTEX
  8
SAPA_FOGBAND
  5
2AB6
 10
-73.7149
 20
15.8324
 30
0.000000
  70
    32
  0
VERTEX
  8
SAPA_FOGBAND
  5
2AB7
 10
-73.7918
 20
15.9379
 30
0.000000
  70
    32
  0
VERTEX
  8
SAPA_FOGBAND
  5
2AB8
 10
-73.8660
 20
16.0505
 30
0.000000
  70
    32
  0
VERTEX
  8
SAPA_FOGBAND
  5
2AB9
 10
-73.9372
 20
16.1702
 30
0.000000
  70
    32
  0
VERTEX
  8
SAPA_FOGBAND
  5
2ABA
 10
-74.0054
 20
16.2964
 30
0.000000
  70
    32
  0
VERTEX
  8
SAPA_FOGBAND
  5
2ABB
 10
-74.0702
 20
16.4291
 30
0.000000
  70
    32
  0
VERTEX
  8
SAPA_FOGBAND
  5
2ABC
 10
-74.1317
 20
16.5678
 30
0.000000
  70
    32
  0
VERTEX
  8
SAPA_FOGBAND
  5
2ABD
 10
-74.1896
 20
16.7121
 30
0.000000
  70
    32
  0
VERTEX
  8
SAPA_FOGBAND
  5
2ABE
 10
-74.2437
 20
16.8619
 30
0.000000
  70
    32
  0
VERTEX
  8
SAPA_FOGBAND
  5
2ABF
 10
-74.2941
 20
17.0166
 30
0.000000
  70
    32
  0
VERTEX
  8
SAPA_FOGBAND
  5
2AC0
 10
-74.3404
 20
17.1760
 30
0.000000
  70
    32
  0
VERTEX
  8
SAPA_FOGBAND
  5
2AC1
 10
-74.3827
 20
17.3395
 30
0.000000
  70
    32
  0
VERTEX
  8
SAPA_FOGBAND
  5
2AC2
 10
-74.4209
 20
17.5070
 30
0.000000
  70
    32
  0
VERTEX
  8
SAPA_FOGBAND
  5
2AC3
 10
-74.4547
 20
17.6778
 30
0.000000
  70
    32
  0
VERTEX
  8
SAPA_FOGBAND
  5
2AC4
 10
-74.4842
 20
17.8517
 30
0.000000
  70
    32
  0
VERTEX
  8
SAPA_FOGBAND
  5
2AC5
 10
-74.5093
 20
18.0282
 30
0.000000
  70
    32
  0
VERTEX
  8
SAPA_FOGBAND
  5
2AC6
 10
-74.5299
 20
18.2069
 30
0.000000
  70
    32
  0
VERTEX
  8
SAPA_FOGBAND
  5
2AC7
 10
-74.5460
 20
18.3874
 30
0.000000
  70
    32
  0
VERTEX
  8
SAPA_FOGBAND
  5
2AC8
 10
-74.5575
 20
18.5692
 30
0.000000
  70
    32
  0
VERTEX
  8
SAPA_FOGBAND
  5
2AC9
 10
-74.5644
 20
18.7518
 30
0.000000
  70
    32
  0
VERTEX
  8
SAPA_FOGBAND
  5
2ACA
 10
-74.5668
 20
18.9349
 30
0.000000
  70
    32
  0
VERTEX
  8
SAPA_FOGBAND
  5
2ACB
 10
-74.5644
 20
19.1180
 30
0.000000
  70
    32
  0
VERTEX
  8
SAPA_FOGBAND
  5
2ACC
 10
-74.5575
 20
19.3006
 30
0.000000
  70
    32
  0
VERTEX
  8
SAPA_FOGBAND
  5
2ACD
 10
-74.5460
 20
19.4824
 30
0.000000
  70
    32
  0
VERTEX
  8
SAPA_FOGBAND
  5
2ACE
 10
-74.5299
 20
19.6628
 30
0.000000
  70
    32
  0
VERTEX
  8
SAPA_FOGBAND
  5
2ACF
 10
-74.5093
 20
19.8415
 30
0.000000
  70
    32
  0
VERTEX
  8
SAPA_FOGBAND
  5
2AD0
 10
-74.4842
 20
20.0180
 30
0.000000
  70
    32
  0
VERTEX
  8
SAPA_FOGBAND
  5
2AD1
 10
-74.4547
 20
20.1919
 30
0.000000
  70
    32
  0
VERTEX
  8
SAPA_FOGBAND
  5
2AD2
 10
-74.4209
 20
20.3628
 30
0.000000
  70
    32
  0
VERTEX
  8
SAPA_FOGBAND
  5
2AD3
 10
-74.3827
 20
20.5302
 30
0.000000
  70
    32
  0
VERTEX
  8
SAPA_FOGBAND
  5
2AD4
 10
-74.3404
 20
20.6938
 30
0.000000
  70
    32
  0
VERTEX
  8
SAPA_FOGBAND
  5
2AD5
 10
-74.2941
 20
20.8532
 30
0.000000
  70
    32
  0
VERTEX
  8
SAPA_FOGBAND
  5
2AD6
 10
-74.2437
 20
21.0079
 30
0.000000
  70
    32
  0
VERTEX
  8
SAPA_FOGBAND
  5
2AD7
 10
-74.1896
 20
21.1576
 30
0.000000
  70
    32
  0
VERTEX
  8
SAPA_FOGBAND
  5
2AD8
 10
-74.1317
 20
21.3020
 30
0.000000
  70
    32
  0
VERTEX
  8
SAPA_FOGBAND
  5
2AD9
 10
-74.0702
 20
21.4407
 30
0.000000
  70
    32
  0
VERTEX
  8
SAPA_FOGBAND
  5
2ADA
 10
-74.0054
 20
21.5733
 30
0.000000
  70
    32
  0
VERTEX
  8
SAPA_FOGBAND
  5
2ADB
 10
-73.9372
 20
21.6996
 30
0.000000
  70
    32
  0
VERTEX
  8
SAPA_FOGBAND
  5
2ADC
 10
-73.8660
 20
21.8192
 30
0.000000
  70
    32
  0
VERTEX
  8
SAPA_FOGBAND
  5
2ADD
 10
-73.7918
 20
21.9319
 30
0.000000
  70
    32
  0
VERTEX
  8
SAPA_FOGBAND
  5
2ADE
 10
-73.7149
 20
22.0374
 30
0.000000
  70
    32
  0
VERTEX
  8
SAPA_FOGBAND
  5
2ADF
 10
-73.6354
 20
22.1353
 30
0.000000
  70
    32
  0
VERTEX
  8
SAPA_FOGBAND
  5
2AE0
 10
-73.5536
 20
22.2256
 30
0.000000
  70
    32
  0
VERTEX
  8
SAPA_FOGBAND
  5
2AE1
 10
-73.4696
 20
22.3080
 30
0.000000
  70
    32
  0
VERTEX
  8
SAPA_FOGBAND
  5
2AE2
 10
-73.3836
 20
22.3822
 30
0.000000
  70
    32
  0
VERTEX
  8
SAPA_FOGBAND
  5
2AE3
 10
-73.2958
 20
22.4481
 30
0.000000
  70
    32
  0
VERTEX
  8
SAPA_FOGBAND
  5
2AE4
 10
-73.2065
 20
22.5055
 30
0.000000
  70
    32
  0
VERTEX
  8
SAPA_FOGBAND
  5
2AE5
 10
-73.1158
 20
22.5544
 30
0.000000
  70
    32
  0
VERTEX
  8
SAPA_FOGBAND
  5
2AE6
 10
-73.0240
 20
22.5945
 30
0.000000
  70
    32
  0
VERTEX
  8
SAPA_FOGBAND
  5
2AE7
 10
-72.9313
 20
22.6258
 30
0.000000
  70
    32
  0
VERTEX
  8
SAPA_FOGBAND
  5
2AE8
 10
-72.8379
 20
22.6482
 30
0.000000
  70
    32
  0
VERTEX
  8
SAPA_FOGBAND
  5
2AE9
 10
-72.7441
 20
22.6617
 30
0.000000
  70
    32
  0
VERTEX
  8
SAPA_FOGBAND
  5
2AEA
 10
-72.6501
 20
22.6662
 30
0.000000
  70
    32
  0
VERTEX
  8
SAPA_FOGBAND
  5
2AEB
 10
-72.5560
 20
22.6617
 30
0.000000
  70
    32
  0
VERTEX
  8
SAPA_FOGBAND
  5
2AEC
 10
-72.4622
 20
22.6482
 30
0.000000
  70
    32
  0
VERTEX
  8
SAPA_FOGBAND
  5
2AED
 10
-72.3688
 20
22.6258
 30
0.000000
  70
    32
  0
VERTEX
  8
SAPA_FOGBAND
  5
2AEE
 10
-72.2761
 20
22.5945
 30
0.000000
  70
    32
  0
VERTEX
  8
SAPA_FOGBAND
  5
2AEF
 10
-72.1844
 20
22.5544
 30
0.000000
  70
    32
  0
VERTEX
  8
SAPA_FOGBAND
  5
2AF0
 10
-72.0937
 20
22.5055
 30
0.000000
  70
    32
  0
VERTEX
  8
SAPA_FOGBAND
  5
2AF1
 10
-72.0044
 20
22.4481
 30
0.000000
  70
    32
  0
VERTEX
  8
SAPA_FOGBAND
  5
2AF2
 10
-71.9166
 20
22.3822
 30
0.000000
  70
    32
  0
VERTEX
  8
SAPA_FOGBAND
  5
2AF3
 10
-71.8306
 20
22.3080
 30
0.000000
  70
    32
  0
VERTEX
  8
SAPA_FOGBAND
  5
2AF4
 10
-71.7465
 20
22.2256
 30
0.000000
  70
    32
  0
VERTEX
  8
SAPA_FOGBAND
  5
2AF5
 10
-71.6647
 20
22.1353
 30
0.000000
  70
    32
  0
VERTEX
  8
SAPA_FOGBAND
  5
2AF6
 10
-71.5852
 20
22.0374
 30
0.000000
  70
    32
  0
VERTEX
  8
SAPA_FOGBAND
  5
2AF7
 10
-71.5083
 20
21.9319
 30
0.000000
  70
    32
  0
VERTEX
  8
SAPA_FOGBAND
  5
2AF8
 10
-71.4341
 20
21.8192
 30
0.000000
  70
    32
  0
VERTEX
  8
SAPA_FOGBAND
  5
2AF9
 10
-71.3629
 20
21.6996
 30
0.000000
  70
    32
  0
VERTEX
  8
SAPA_FOGBAND
  5
2AFA
 10
-71.2948
 20
21.5733
 30
0.000000
  70
    32
  0
VERTEX
  8
SAPA_FOGBAND
  5
2AFB
 10
-71.2299
 20
21.4407
 30
0.000000
  70
    32
  0
VERTEX
  8
SAPA_FOGBAND
  5
2AFC
 10
-71.1684
 20
21.3020
 30
0.000000
  70
    32
  0
VERTEX
  8
SAPA_FOGBAND
  5
2AFD
 10
-71.1106
 20
21.1576
 30
0.000000
  70
    32
  0
VERTEX
  8
SAPA_FOGBAND
  5
2AFE
 10
-71.0564
 20
21.0079
 30
0.000000
  70
    32
  0
VERTEX
  8
SAPA_FOGBAND
  5
2AFF
 10
-71.0061
 20
20.8532
 30
0.000000
  70
    32
  0
VERTEX
  8
SAPA_FOGBAND
  5
2B00
 10
-70.9597
 20
20.6938
 30
0.000000
  70
    32
  0
VERTEX
  8
SAPA_FOGBAND
  5
2B01
 10
-70.9174
 20
20.5302
 30
0.000000
  70
    32
  0
VERTEX
  8
SAPA_FOGBAND
  5
2B02
 10
-70.8793
 20
20.3628
 30
0.000000
  70
    32
  0
VERTEX
  8
SAPA_FOGBAND
  5
2B03
 10
-70.8454
 20
20.1919
 30
0.000000
  70
    32
  0
VERTEX
  8
SAPA_FOGBAND
  5
2B04
 10
-70.8159
 20
20.0180
 30
0.000000
  70
    32
  0
VERTEX
  8
SAPA_FOGBAND
  5
2B05
 10
-70.7908
 20
19.8415
 30
0.000000
  70
    32
  0
VERTEX
  8
SAPA_FOGBAND
  5
2B06
 10
-70.7702
 20
19.6628
 30
0.000000
  70
    32
  0
VERTEX
  8
SAPA_FOGBAND
  5
2B07
 10
-70.7541
 20
19.4824
 30
0.000000
  70
    32
  0
VERTEX
  8
SAPA_FOGBAND
  5
2B08
 10
-70.7426
 20
19.3006
 30
0.000000
  70
    32
  0
VERTEX
  8
SAPA_FOGBAND
  5
2B09
 10
-70.7357
 20
19.1180
 30
0.000000
  70
    32
  0
VERTEX
  8
SAPA_FOGBAND
  5
2B0A
 10
-70.7334
 20
18.9349
 30
0.000000
  70
    32
  0
VERTEX
  8
SAPA_FOGBAND
  5
2B0B
 10
-70.7357
 20
18.7518
 30
0.000000
  70
    32
  0
VERTEX
  8
SAPA_FOGBAND
  5
2B0C
 10
-70.7426
 20
18.5692
 30
0.000000
  70
    32
  0
VERTEX
  8
SAPA_FOGBAND
  5
2B0D
 10
-70.7541
 20
18.3874
 30
0.000000
  70
    32
  0
VERTEX
  8
SAPA_FOGBAND
  5
2B0E
 10
-70.7702
 20
18.2069
 30
0.000000
  70
    32
  0
VERTEX
  8
SAPA_FOGBAND
  5
2B0F
 10
-70.7908
 20
18.0282
 30
0.000000
  70
    32
  0
VERTEX
  8
SAPA_FOGBAND
  5
2B10
 10
-70.8159
 20
17.8517
 30
0.000000
  70
    32
  0
VERTEX
  8
SAPA_FOGBAND
  5
2B11
 10
-70.8454
 20
17.6778
 30
0.000000
  70
    32
  0
VERTEX
  8
SAPA_FOGBAND
  5
2B12
 10
-70.8793
 20
17.5070
 30
0.000000
  70
    32
  0
VERTEX
  8
SAPA_FOGBAND
  5
2B13
 10
-70.9174
 20
17.3395
 30
0.000000
  70
    32
  0
VERTEX
  8
SAPA_FOGBAND
  5
2B14
 10
-70.9597
 20
17.1760
 30
0.000000
  70
    32
  0
VERTEX
  8
SAPA_FOGBAND
  5
2B15
 10
-71.0061
 20
17.0166
 30
0.000000
  70
    32
  0
VERTEX
  8
SAPA_FOGBAND
  5
2B16
 10
-71.0564
 20
16.8619
 30
0.000000
  70
    32
  0
VERTEX
  8
SAPA_FOGBAND
  5
2B17
 10
-71.1106
 20
16.7121
 30
0.000000
  70
    32
  0
VERTEX
  8
SAPA_FOGBAND
  5
2B18
 10
-71.1684
 20
16.5678
 30
0.000000
  70
    32
  0
VERTEX
  8
SAPA_FOGBAND
  5
2B19
 10
-71.2299
 20
16.4291
 30
0.000000
  70
    32
  0
VERTEX
  8
SAPA_FOGBAND
  5
2B1A
 10
-71.2948
 20
16.2964
 30
0.000000
  70
    32
  0
VERTEX
  8
SAPA_FOGBAND
  5
2B1B
 10
-71.3629
 20
16.1702
 30
0.000000
  70
    32
  0
VERTEX
  8
SAPA_FOGBAND
  5
2B1C
 10
-71.4341
 20
16.0505
 30
0.000000
  70
    32
  0
VERTEX
  8
SAPA_FOGBAND
  5
2B1D
 10
-71.5083
 20
15.9379
 30
0.000000
  70
    32
  0
VERTEX
  8
SAPA_FOGBAND
  5
2B1E
 10
-71.5852
 20
15.8324
 30
0.000000
  70
    32
  0
VERTEX
  8
SAPA_FOGBAND
  5
2B1F
 10
-71.6647
 20
15.7344
 30
0.000000
  70
    32
  0
VERTEX
  8
SAPA_FOGBAND
  5
2B20
 10
-71.7465
 20
15.6442
 30
0.000000
  70
    32
  0
VERTEX
  8
SAPA_FOGBAND
  5
2B21
 10
-71.8306
 20
15.5618
 30
0.000000
  70
    32
  0
VERTEX
  8
SAPA_FOGBAND
  5
2B22
 10
-71.9166
 20
15.4876
 30
0.000000
  70
    32
  0
VERTEX
  8
SAPA_FOGBAND
  5
2B23
 10
-72.0044
 20
15.4217
 30
0.000000
  70
    32
  0
VERTEX
  8
SAPA_FOGBAND
  5
2B24
 10
-72.0937
 20
15.3642
 30
0.000000
  70
    32
  0
VERTEX
  8
SAPA_FOGBAND
  5
2B25
 10
-72.1844
 20
15.3154
 30
0.000000
  70
    32
  0
VERTEX
  8
SAPA_FOGBAND
  5
2B26
 10
-72.2761
 20
15.2753
 30
0.000000
  70
    32
  0
VERTEX
  8
SAPA_FOGBAND
  5
2B27
 10
-72.3688
 20
15.2440
 30
0.000000
  70
    32
  0
VERTEX
  8
SAPA_FOGBAND
  5
2B28
 10
-72.4622
 20
15.2215
 30
0.000000
  70
    32
  0
VERTEX
  8
SAPA_FOGBAND
  5
2B29
 10
-72.5560
 20
15.2081
 30
0.000000
  70
    32
  0
VERTEX
  8
SAPA_FOGBAND
  5
2B2A
 10
-72.6501
 20
15.2036
 30
0.000000
  70
    32
  0
SEQEND
  8
SAPA_FOGBAND
  5
2B2B
  0
POLYLINE
  5
1E50
  8
SAPA_FOGBAND
 66
     1
 10
0.0
 20
0.0
 30
0.0
  0
VERTEX
  5
29E8
  8
SAPA_FOGBAND
 10
-64.491421355248647
 20
23.809252980877641
 30
0.0
  0
VERTEX
  5
29E9
  8
SAPA_FOGBAND
 10
-64.191421355248693
 20
23.809252980877641
 30
0.0
  0
VERTEX
  5
29EA
  8
SAPA_FOGBAND
 10
-64.491421355248647
 20
23.809252980877641
 30
0.0
 42
0.4142135623730951
  0
VERTEX
  5
29EB
  8
SAPA_FOGBAND
 10
-64.991421355248647
 20
23.309252980877641
 30
0.0
  0
VERTEX
  5
29EC
  8
SAPA_FOGBAND
 10
-64.991421355248704
 20
16.00925298087768
 30
0.0
 42
0.4142135623730951
  0
VERTEX
  5
29ED
  8
SAPA_FOGBAND
 10
-64.491421355248704
 20
15.50925298087768
 30
0.0
  0
VERTEX
  5
29EE
  8
SAPA_FOGBAND
 10
-64.191421355248693
 20
15.50925298087768
 30
0.0
  0
SEQEND
  5
29EF
  8
SAPA_FOGBAND
  0
POLYLINE
  5
1E51
  8
SAPA_FOGBAND
 66
     1
 10
0.0
 20
0.0
 30
0.0
 70
     1
  0
VERTEX
  5
29F0
  8
SAPA_FOGBAND
 10
-62.276790857609932
 20
21.109252980877649
 30
0.0
  0
VERTEX
  5
29F1
  8
SAPA_FOGBAND
 10
-62.87679085760989
 20
21.109252980877649
 30
0.0
 42
0.9999999999999998
  0
VERTEX
  5
29F2
  8
SAPA_FOGBAND
 10
-62.87679085760989
 20
19.309252980877691
 30
0.0
  0
VERTEX
  5
29F3
  8
SAPA_FOGBAND
 10
-62.276790857609932
 20
19.309252980877641
 30
0.0
 42
0.9999999999999998
  0
SEQEND
  5
29F4
  8
SAPA_FOGBAND
  0
POLYLINE
  5
1E52
  8
SAPA_FOGBAND
 66
     1
 10
0.0
 20
0.0
 30
0.0
 70
     1
  0
VERTEX
  5
29F5
  8
SAPA_FOGBAND
 10
-69.686637672611823
 20
10.84653611789915
 30
0.0
 42
0.646356061736289
  0
VERTEX
  5
29F6
  8
SAPA_FOGBAND
 10
-70.435507727777534
 20
12.50925298087768
 30
0.0
  0
VERTEX
  5
29F7
  8
SAPA_FOGBAND
 10
-73.914480339237599
 20
12.50925298087768
 30
0.0
 42
0.4879283649264857
  0
VERTEX
  5
29F8
  8
SAPA_FOGBAND
 10
-74.884622839382956
 20
11.26671735584134
 30
0.0
  0
VERTEX
  5
29F9
  8
SAPA_FOGBAND
 10
-74.165173485298013
 20
8.3889199395015783
 30
0.0
 42
0.3441507314089108
  0
VERTEX
  5
29FA
  8
SAPA_FOGBAND
 10
-73.195030985152684
 20
7.6314555645379096
 30
0.0
  0
VERTEX
  5
29FB
  8
SAPA_FOGBAND
 10
-72.982231105069374
 20
7.6314555645379079
 30
0.0
 42
0.214804042991016
  0
VERTEX
  5
29FC
  8
SAPA_FOGBAND
 10
-72.233361049903664
 20
7.968738701559392
 30
0.0
  0
SEQEND
  5
29FD
  8
SAPA_FOGBAND
  0
POLYLINE
  5
1E53
  8
SAPA_FOGBAND
 66
     1
 10
0.0
 20
0.0
 30
0.0
 70
     1
  0
VERTEX
  5
29FE
  8
SAPA_FOGBAND
 10
-64.191421355248693
 20
18.209252980877672
 30
0.0
 42
-0.4142135623730951
  0
VERTEX
  5
29FF
  8
SAPA_FOGBAND
 10
-63.691421355248693
 20
18.709252980877672
 30
0.0
  0
VERTEX
  5
2A00
  8
SAPA_FOGBAND
 10
-62.749995938366808
 20
18.709252980877672
 30
0.0
  0
VERTEX
  5
2A01
  8
SAPA_FOGBAND
 10
-62.682536029056351
 20
18.457489171857191
 30
0.0
 42
0.474057181023226
  0
VERTEX
  5
2A02
  8
SAPA_FOGBAND
 10
-62.400253443417753
 20
18.330195309493579
 30
0.0
  0
VERTEX
  5
2A03
  8
SAPA_FOGBAND
 10
-60.95404730665787
 20
18.950295812252229
 30
0.0
 42
0.2846003776496053
  0
VERTEX
  5
2A04
  8
SAPA_FOGBAND
 10
-60.676790857609902
 20
19.397939990712342
 30
0.0
  0
VERTEX
  5
2A05
  8
SAPA_FOGBAND
 10
-60.676790857609902
 20
21.020565971042949
 30
0.0
 42
0.2846003776496055
  0
VERTEX
  5
2A06
  8
SAPA_FOGBAND
 10
-60.95404730665787
 20
21.468210149503118
 30
0.0
  0
VERTEX
  5
2A07
  8
SAPA_FOGBAND
 10
-62.400253443417697
 20
22.088310652261711
 30
0.0
 42
0.474057181023226
  0
VERTEX
  5
2A08
  8
SAPA_FOGBAND
 10
-62.682536029056351
 20
21.961016789898149
 30
0.0
  0
VERTEX
  5
2A09
  8
SAPA_FOGBAND
 10
-62.749995938366808
 20
21.709252980877672
 30
0.0
  0
VERTEX
  5
2A0A
  8
SAPA_FOGBAND
 10
-63.691421355248693
 20
21.709252980877672
 30
0.0
 42
-0.4142135623730951
  0
VERTEX
  5
2A0B
  8
SAPA_FOGBAND
 10
-64.191421355248693
 20
22.209252980877672
 30
0.0
  0
VERTEX
  5
2A0C
  8
SAPA_FOGBAND
 10
-64.191421355248636
 20
24.721413144259131
 30
0.0
 42
0.4052499559557504
  0
VERTEX
  5
2A0D
  8
SAPA_FOGBAND
 10
-64.482212694375974
 20
25.021271778560259
 30
0.0
  0
VERTEX
  5
2A0E
  8
SAPA_FOGBAND
 10
-76.182212694375977
 20
25.509111593229679
 30
0.0
 42
0.4232343445545565
  0
VERTEX
  5
2A0F
  8
SAPA_FOGBAND
 10
-76.491421355248661
 20
25.209252958928548
 30
0.0
  0
VERTEX
  5
2A10
  8
SAPA_FOGBAND
 10
-76.491421355248661
 20
11.57080579368651
 30
0.0
 42
0.0613213552369726
  0
VERTEX
  5
2A11
  8
SAPA_FOGBAND
 10
-76.47649260532134
 20
11.449537981168341
 30
0.0
  0
VERTEX
  5
2A12
  8
SAPA_FOGBAND
 10
-75.10578744898956
 20
5.966717355841344
 30
0.0
 42
0.3441507314089092
  0
VERTEX
  5
2A13
  8
SAPA_FOGBAND
 10
-74.135644948844231
 20
5.2092529808776842
 30
0.0
  0
VERTEX
  5
2A14
  8
SAPA_FOGBAND
 10
-72.897560780316013
 20
5.2092529808776824
 30
0.0
 42
0.2148040429910146
  0
VERTEX
  5
2A15
  8
SAPA_FOGBAND
 10
-72.523125752733165
 20
5.3778945493884196
 30
0.0
  0
VERTEX
  5
2A16
  8
SAPA_FOGBAND
 10
-64.442551300082926
 20
14.50894368088305
 30
0.0
 42
0.1831167524995932
  0
VERTEX
  5
2A17
  8
SAPA_FOGBAND
 10
-64.191421355248693
 20
15.171660543861581
 30
0.0
  0
SEQEND
  5
2A18
  8
SAPA_FOGBAND
  0
POLYLINE
  5
1E54
  8
SAPA_FOGBAND
 66
     1
 10
0.0
 20
0.0
 30
0.0
 70
   129
  0
VERTEX
  5
2A19
  8
SAPA_FOGBAND
 10
111.0848194796238
 20
-58.56171828625093
 30
0.0
  0
VERTEX
  5
2A1A
  8
SAPA_FOGBAND
 10
111.3213835350741
 20
-58.612229112954367
 30
0.0
  0
VERTEX
  5
2A1B
  8
SAPA_FOGBAND
 10
111.549397549199
 20
-58.761936000182061
 30
0.0
  0
VERTEX
  5
2A1C
  8
SAPA_FOGBAND
 10
111.7606205014433
 20
-59.005428150972712
 30
0.0
  0
VERTEX
  5
2A1D
  8
SAPA_FOGBAND
 10
111.9474182439764
 20
-59.333905124584192
 30
0.0
  0
VERTEX
  5
2A1E
  8
SAPA_FOGBAND
 10
112.1030394196866
 20
-59.735494907350869
 30
0.0
  0
VERTEX
  5
2A1F
  8
SAPA_FOGBAND
 10
112.22185947381671
 20
-60.195682998193043
 30
0.0
  0
VERTEX
  5
2A20
  8
SAPA_FOGBAND
 10
112.299583940028
 20
-60.697837000498389
 30
0.0
  0
VERTEX
  5
2A21
  8
SAPA_FOGBAND
 10
112.3334036536023
 20
-61.223807760273587
 30
0.0
  0
VERTEX
  5
2A22
  8
SAPA_FOGBAND
 10
112.32209628197479
 20
-61.754585323858286
 30
0.0
  0
VERTEX
  5
2A23
  8
SAPA_FOGBAND
 10
112.26607050301681
 20
-62.270986007175743
 30
0.0
  0
VERTEX
  5
2A24
  8
SAPA_FOGBAND
 10
112.1673512343543
 20
-62.754345744062732
 30
0.0
  0
VERTEX
  5
2A25
  8
SAPA_FOGBAND
 10
112.0295064475665
 20
-63.1871946542472
 30
0.0
  0
VERTEX
  5
2A26
  8
SAPA_FOGBAND
 10
111.8575182123993
 20
-63.553888450336949
 30
0.0
  0
VERTEX
  5
2A27
  8
SAPA_FOGBAND
 10
111.65760263178269
 20
-63.841173863130557
 30
0.0
  0
VERTEX
  5
2A28
  8
SAPA_FOGBAND
 10
111.4369851756753
 20
-64.038667649294723
 30
0.0
  0
VERTEX
  5
2A29
  8
SAPA_FOGBAND
 10
111.2036395337538
 20
-64.139231868832951
 30
0.0
  0
VERTEX
  5
2A2A
  8
SAPA_FOGBAND
 10
110.96599942549349
 20
-64.139231868832951
 30
0.0
  0
VERTEX
  5
2A2B
  8
SAPA_FOGBAND
 10
110.73265378357171
 20
-64.038667649294723
 30
0.0
  0
VERTEX
  5
2A2C
  8
SAPA_FOGBAND
 10
110.5120363274643
 20
-63.841173863130557
 30
0.0
  0
VERTEX
  5
2A2D
  8
SAPA_FOGBAND
 10
110.3121207468477
 20
-63.553888450336949
 30
0.0
  0
VERTEX
  5
2A2E
  8
SAPA_FOGBAND
 10
110.1401325116808
 20
-63.1871946542472
 30
0.0
  0
VERTEX
  5
2A2F
  8
SAPA_FOGBAND
 10
110.00228772489319
 20
-62.754345744062732
 30
0.0
  0
VERTEX
  5
2A30
  8
SAPA_FOGBAND
 10
109.9035684562302
 20
-62.270986007175743
 30
0.0
  0
VERTEX
  5
2A31
  8
SAPA_FOGBAND
 10
109.8475426772725
 20
-61.754585323858286
 30
0.0
  0
VERTEX
  5
2A32
  8
SAPA_FOGBAND
 10
109.83623530564471
 20
-61.223807760273587
 30
0.0
  0
VERTEX
  5
2A33
  8
SAPA_FOGBAND
 10
109.87005501921909
 20
-60.697837000498389
 30
0.0
  0
VERTEX
  5
2A34
  8
SAPA_FOGBAND
 10
109.9477794854303
 20
-60.195682998193043
 30
0.0
  0
VERTEX
  5
2A35
  8
SAPA_FOGBAND
 10
110.0665995395609
 20
-59.735494907350869
 30
0.0
  0
VERTEX
  5
2A36
  8
SAPA_FOGBAND
 10
110.22222071527111
 20
-59.333905124584192
 30
0.0
  0
VERTEX
  5
2A37
  8
SAPA_FOGBAND
 10
110.40901845780419
 20
-59.005428150972712
 30
0.0
  0
VERTEX
  5
2A38
  8
SAPA_FOGBAND
 10
110.62024141004819
 20
-58.761936000182061
 30
0.0
  0
VERTEX
  5
2A39
  8
SAPA_FOGBAND
 10
110.8482554241732
 20
-58.612229112954367
 30
0.0
  0
SEQEND
  5
2A3A
  8
SAPA_FOGBAND
  0
POLYLINE
  5
1E55
  8
SAPA_FOGBAND
 66
     1
 10
0.0
 20
0.0
 30
0.0
 70
     1
  0
VERTEX
  5
2A3B
  8
SAPA_FOGBAND
 10
107.44999992254699
 20
-61.819535350687893
 30
0.0
  0
VERTEX
  5
2A3C
  8
SAPA_FOGBAND
 10
107.44999992254699
 20
-75.499999999986642
 30
0.0
 42
0.427966335106886
  0
VERTEX
  5
2A3D
  8
SAPA_FOGBAND
 10
107.76401249390641
 20
-75.799672567706523
 30
0.0
  0
VERTEX
  5
2A3E
  8
SAPA_FOGBAND
 10
116.164012493906
 20
-75.31337265962685
 30
0.0
 42
0.4005932428724212
  0
VERTEX
  5
2A3F
  8
SAPA_FOGBAND
 10
116.44999992254699
 20
-75.013700091906969
 30
0.0
  0
VERTEX
  5
2A40
  8
SAPA_FOGBAND
 10
116.44999992254699
 20
-73.19999999998646
 30
0.0
  0
VERTEX
  5
2A41
  8
SAPA_FOGBAND
 10
118.1499999225468
 20
-73.19999999998646
 30
0.0
 42
0.4142135623730951
  0
VERTEX
  5
2A42
  8
SAPA_FOGBAND
 10
118.44999992254699
 20
-72.899999999986264
 30
0.0
  0
VERTEX
  5
2A43
  8
SAPA_FOGBAND
 10
118.44999992254699
 20
-65.481219236360914
 30
0.0
 42
0.1379343940649207
  0
VERTEX
  5
2A44
  8
SAPA_FOGBAND
 10
118.3034233076921
 20
-64.960000927312024
 30
0.0
  0
VERTEX
  5
2A45
  8
SAPA_FOGBAND
 10
111.4962050697838
 20
-53.039390845462378
 30
0.0
 42
0.2613472755167645
  0
VERTEX
  5
2A46
  8
SAPA_FOGBAND
 10
111.0694933772113
 20
-52.799999999986831
 30
0.0
  0
VERTEX
  5
2A47
  8
SAPA_FOGBAND
 10
109.2747967600482
 20
-52.799999999986831
 30
0.0
 42
0.3915187749346393
  0
VERTEX
  5
2A48
  8
SAPA_FOGBAND
 10
108.27784514604279
 20
-53.721977699760203
 30
0.0
  0
VERTEX
  5
2A49
  8
SAPA_FOGBAND
 10
107.4515241155443
 20
-61.780524200574582
 30
0.0
 42
0.0195279011117891
  0
SEQEND
  5
2A4A
  8
SAPA_FOGBAND
  0
POLYLINE
  5
1E56
  8
SAPA_FOGBAND
 66
     1
 10
0.0
 20
0.0
 30
0.0
 70
   129
  0
VERTEX
  5
2A4B
  8
SAPA_FOGBAND
 10
112.9295653152533
 20
-66.286377803023527
 30
0.0
  0
VERTEX
  5
2A4C
  8
SAPA_FOGBAND
 10
113.1661293707036
 20
-66.336888629726957
 30
0.0
  0
VERTEX
  5
2A4D
  8
SAPA_FOGBAND
 10
113.3941433848285
 20
-66.486595516954651
 30
0.0
  0
VERTEX
  5
2A4E
  8
SAPA_FOGBAND
 10
113.60536633707279
 20
-66.730087667745295
 30
0.0
  0
VERTEX
  5
2A4F
  8
SAPA_FOGBAND
 10
113.792164079606
 20
-67.058564641356782
 30
0.0
  0
VERTEX
  5
2A50
  8
SAPA_FOGBAND
 10
113.94778525531611
 20
-67.460154424123459
 30
0.0
  0
VERTEX
  5
2A51
  8
SAPA_FOGBAND
 10
114.0666053094462
 20
-67.920342514965625
 30
0.0
  0
VERTEX
  5
2A52
  8
SAPA_FOGBAND
 10
114.1443297756575
 20
-68.422496517270986
 30
0.0
  0
VERTEX
  5
2A53
  8
SAPA_FOGBAND
 10
114.1781494892318
 20
-68.948467277046177
 30
0.0
  0
VERTEX
  5
2A54
  8
SAPA_FOGBAND
 10
114.1668421176043
 20
-69.479244840630884
 30
0.0
  0
VERTEX
  5
2A55
  8
SAPA_FOGBAND
 10
114.1108163386463
 20
-69.995645523948326
 30
0.0
  0
VERTEX
  5
2A56
  8
SAPA_FOGBAND
 10
114.0120970699838
 20
-70.479005260835322
 30
0.0
  0
VERTEX
  5
2A57
  8
SAPA_FOGBAND
 10
113.874252283196
 20
-70.911854171019783
 30
0.0
  0
VERTEX
  5
2A58
  8
SAPA_FOGBAND
 10
113.70226404802879
 20
-71.278547967109546
 30
0.0
  0
VERTEX
  5
2A59
  8
SAPA_FOGBAND
 10
113.5023484674122
 20
-71.565833379903154
 30
0.0
  0
VERTEX
  5
2A5A
  8
SAPA_FOGBAND
 10
113.2817310113048
 20
-71.763327166067313
 30
0.0
  0
VERTEX
  5
2A5B
  8
SAPA_FOGBAND
 10
113.0483853693833
 20
-71.863891385605541
 30
0.0
  0
VERTEX
  5
2A5C
  8
SAPA_FOGBAND
 10
112.810745261123
 20
-71.863891385605541
 30
0.0
  0
VERTEX
  5
2A5D
  8
SAPA_FOGBAND
 10
112.5773996192013
 20
-71.763327166067313
 30
0.0
  0
VERTEX
  5
2A5E
  8
SAPA_FOGBAND
 10
112.3567821630938
 20
-71.565833379903154
 30
0.0
  0
VERTEX
  5
2A5F
  8
SAPA_FOGBAND
 10
112.15686658247721
 20
-71.278547967109546
 30
0.0
  0
VERTEX
  5
2A60
  8
SAPA_FOGBAND
 10
111.9848783473103
 20
-70.911854171019783
 30
0.0
  0
VERTEX
  5
2A61
  8
SAPA_FOGBAND
 10
111.8470335605227
 20
-70.479005260835322
 30
0.0
  0
VERTEX
  5
2A62
  8
SAPA_FOGBAND
 10
111.7483142918597
 20
-69.995645523948326
 30
0.0
  0
VERTEX
  5
2A63
  8
SAPA_FOGBAND
 10
111.692288512902
 20
-69.479244840630884
 30
0.0
  0
VERTEX
  5
2A64
  8
SAPA_FOGBAND
 10
111.6809811412743
 20
-68.948467277046177
 30
0.0
  0
VERTEX
  5
2A65
  8
SAPA_FOGBAND
 10
111.7148008548486
 20
-68.422496517270986
 30
0.0
  0
VERTEX
  5
2A66
  8
SAPA_FOGBAND
 10
111.7925253210598
 20
-67.920342514965625
 30
0.0
  0
VERTEX
  5
2A67
  8
SAPA_FOGBAND
 10
111.91134537519039
 20
-67.460154424123459
 30
0.0
  0
VERTEX
  5
2A68
  8
SAPA_FOGBAND
 10
112.0669665509006
 20
-67.058564641356782
 30
0.0
  0
VERTEX
  5
2A69
  8
SAPA_FOGBAND
 10
112.2537642934337
 20
-66.730087667745295
 30
0.0
  0
VERTEX
  5
2A6A
  8
SAPA_FOGBAND
 10
112.4649872456777
 20
-66.486595516954651
 30
0.0
  0
VERTEX
  5
2A6B
  8
SAPA_FOGBAND
 10
112.6930012598027
 20
-66.336888629726957
 30
0.0
  0
SEQEND
  5
2A6C
  8
SAPA_FOGBAND
  0
POLYLINE
  5
1E57
  8
SAPA_FOGBAND
 66
     1
 10
0.0
 20
0.0
 30
0.0
  0
VERTEX
  5
2A6D
  8
SAPA_FOGBAND
 10
78.949999922547022
 20
-73.056372436878803
 30
0.0
 42
0.285714285714282
  0
VERTEX
  5
2A6E
  8
SAPA_FOGBAND
 10
78.949999922547022
 20
-70.256372436878621
 30
0.0
  0
VERTEX
  5
2A6F
  8
SAPA_FOGBAND
 10
78.949999922547477
 20
-68.182592267490975
 30
0.0
 42
-0.3882600129940275
  0
VERTEX
  5
2A70
  8
SAPA_FOGBAND
 10
79.223210648827035
 20
-67.883790770149346
 30
0.0
  0
VERTEX
  5
2A71
  8
SAPA_FOGBAND
 10
83.123210648827126
 20
-67.417580846223075
 30
0.0
 42
-0.4406523138893894
  0
VERTEX
  5
2A72
  8
SAPA_FOGBAND
 10
83.449999922547022
 20
-67.716382343565144
 30
0.0
  0
VERTEX
  5
2A73
  8
SAPA_FOGBAND
 10
83.449999922547022
 20
-69.426174340485261
 30
0.0
 42
-0.3394542588634375
  0
VERTEX
  5
2A74
  8
SAPA_FOGBAND
 10
83.227645636078023
 20
-69.715952088371807
 30
0.0
  0
VERTEX
  5
2A75
  8
SAPA_FOGBAND
 10
83.010059853910434
 20
-69.918331816303464
 30
0.0
 42
0.3394542588633663
  0
VERTEX
  5
2A76
  8
SAPA_FOGBAND
 10
82.787705567441435
 20
-70.208109564190011
 30
0.0
  0
VERTEX
  5
2A77
  8
SAPA_FOGBAND
 10
82.787705567441435
 20
-73.104635309567868
 30
0.0
 42
0.3394542588634373
  0
VERTEX
  5
2A78
  8
SAPA_FOGBAND
 10
83.010059853910434
 20
-73.394413057454415
 30
0.0
  0
VERTEX
  5
2A79
  8
SAPA_FOGBAND
 10
83.227645636078023
 20
-73.596792785385617
 30
0.0
 42
-0.3394542588633662
  0
VERTEX
  5
2A7A
  8
SAPA_FOGBAND
 10
83.449999922547022
 20
-73.886570533272604
 30
0.0
  0
VERTEX
  5
2A7B
  8
SAPA_FOGBAND
 10
83.449999922547022
 20
-75.596362530192721
 30
0.0
 42
-0.4406523138893994
  0
VERTEX
  5
2A7C
  8
SAPA_FOGBAND
 10
83.123210648827126
 20
-75.895164027534349
 30
0.0
  0
VERTEX
  5
2A7D
  8
SAPA_FOGBAND
 10
79.223210648827035
 20
-75.428954103608078
 30
0.0
 42
-0.3882600129940462
  0
VERTEX
  5
2A7E
  8
SAPA_FOGBAND
 10
78.949999922547022
 20
-75.130152606266435
 30
0.0
  0
VERTEX
  5
2A7F
  8
SAPA_FOGBAND
 10
78.949999922547022
 20
-73.067964813729134
 30
0.0
  0
SEQEND
  5
2A80
  8
SAPA_FOGBAND
  0
POLYLINE
  5
1E58
  8
SAPA_FOGBAND
 66
     1
 10
0.0
 20
0.0
 30
0.0
  0
VERTEX
  5
2A81
  8
SAPA_FOGBAND
 10
78.949999922547022
 20
-73.067964813729134
 30
0.0
  0
VERTEX
  5
2A82
  8
SAPA_FOGBAND
 10
77.859081112394279
 20
-72.875606393736504
 30
0.0
  0
VERTEX
  5
2A83
  8
SAPA_FOGBAND
 10
77.743381572874341
 20
-73.307402953638586
 30
0.0
 42
-0.4430158954262519
  0
VERTEX
  5
2A84
  8
SAPA_FOGBAND
 10
77.479905144767372
 20
-73.442880001182232
 30
0.0
  0
VERTEX
  5
2A85
  8
SAPA_FOGBAND
 10
76.209417396849176
 20
-72.965931807963273
 30
0.0
 42
-0.3125358528825162
  0
VERTEX
  5
2A86
  8
SAPA_FOGBAND
 10
75.949999922547477
 20
-72.591450094834101
 30
0.0
  0
VERTEX
  5
2A87
  8
SAPA_FOGBAND
 10
75.949999922547022
 20
-70.721294778923777
 30
0.0
 42
-0.3125358528825104
  0
VERTEX
  5
2A88
  8
SAPA_FOGBAND
 10
76.209417396849176
 20
-70.346813065794151
 30
0.0
  0
VERTEX
  5
2A89
  8
SAPA_FOGBAND
 10
77.479905144767372
 20
-69.869864872575192
 30
0.0
 42
-0.4430158954262519
  0
VERTEX
  5
2A8A
  8
SAPA_FOGBAND
 10
77.743381572874341
 20
-70.005341920119292
 30
0.0
  0
VERTEX
  5
2A8B
  8
SAPA_FOGBAND
 10
77.859081112394279
 20
-70.437138480020906
 30
0.0
  0
VERTEX
  5
2A8C
  8
SAPA_FOGBAND
 10
78.931769226161805
 20
-70.24799462367838
 30
0.0
  0
SEQEND
  5
2A8D
  8
SAPA_FOGBAND
  0
INSERT
  5
1E59
  8
SAPA_FOGBAND
  2
BYGG-023125$0$BORST_9
 10
64.499999999998707
 20
16.937776846748498
 30
0.0
 50
270.0
  0
DIMENSION
  5
1E62
  8
SAPA_MATT
  2
*D77
 10
148.49999999999881
 20
42.549455477510442
 30
0.0
 11
111.49999999999891
 21
45.049455477510442
 31
0.0
 70
     0
 13
74.49999999999892
 23
2.3999999999990811
 33
0.0
 14
148.49999999999881
 24
-2.6000000000015429
 34
0.0
1001
ACAD
1000
DSTYLE
1002
{
1070
   287
1070
     4
1070
    40
1040
1.0
1070
   279
1070
     1
1002
}
  0
DIMENSION
  5
1E63
  8
SAPA_MATT
  2
*D76
 10
74.49999999999892
 20
42.549455477510442
 30
0.0
 11
69.499999999998892
 21
45.049455477510442
 31
0.0
 70
     0
 13
64.499999999998863
 23
24.500000000000188
 33
0.0
 14
74.49999999999892
 24
2.3999999999990811
 34
0.0
1001
ACAD
1000
DSTYLE
1002
{
1070
    40
1040
1.0
1002
}
  0
DIMENSION
  5
1E64
  8
SAPA_MATT
  2
*D75
 10
-125.8563963596021
 20
-37.00000000000032
 30
0.0
 11
-128.35639635960209
 21
-31.000000000000341
 31
0.0
 70
     0
 13
-105.9999999990105
 23
-25.00000000000032
 33
0.0
 14
-85.507832962818824
 24
-37.000000000000327
 34
0.0
 50
270.0
1001
ACAD
1000
DSTYLE
1002
{
1070
   287
1070
     4
1070
    40
1040
1.0
1070
   279
1070
     1
1002
}
  0
DIMENSION
  5
1E65
  8
SAPA_MATT
  2
*D74
 10
-125.8563963596021
 20
-25.00000000000032
 30
0.0
 11
-128.35639635960209
 21
-0.0000000000003366
 31
0.0
 70
     0
 13
-105.9999999990105
 23
24.99999999999968
 33
0.0
 14
-105.9999999990105
 24
-25.00000000000032
 34
0.0
 50
270.0
1001
ACAD
1000
DSTYLE
1002
{
1070
    40
1040
1.0
1002
}
  0
VIEWPORT
  5
C4
 67
     1
  8
0
 10
143.06236603067589
 20
116.00969601843509
 30
0.0
 40
369.98580003443811
 41
256.8421457311839
 68
     1
 69
     1
1001
ACAD
1000
MVIEW
1002
{
1070
    16
1010
0.0
1020
0.0
1030
0.0
1010
0.0
1020
0.0
1030
1.0
1040
0.0
1040
256.8421457311839
1040
99.112914085388169
1040
143.07606935501099
1040
50.0
1040
0.0
1040
0.0
1070
     0
1070
     0
1070
     1
1070
     1
1070
     0
1070
     0
1070
     0
1070
     0
1040
0.0
1040
0.0
1040
0.0
1040
10.0
1040
10.0
1040
10.0
1040
10.0
1070
     0
1002
{
1002
}
1002
}
  0
ENDSEC
  0
EOF
