  0
SECTION
  2
HEADER
  9
$ACADVER
  1
AC1009
  9
$INSBASE
 10
0.0
 20
0.0
 30
0.0
  9
$EXTMIN
 10
-95.641214679413167
 20
-12.256005645978901
 30
0.0
  9
$EXTMAX
 10
99.291214679413315
 20
79.149685758277542
 30
0.0
  9
$LIMMIN
 10
0.0
 20
0.0
  9
$LIMMAX
 10
790.0
 20
790.0
  9
$ORTHOMODE
 70
     0
  9
$REGENMODE
 70
     1
  9
$FILLMODE
 70
     1
  9
$QTEXTMODE
 70
     0
  9
$MIRRTEXT
 70
     1
  9
$DRAGMODE
 70
     2
  9
$LTSCALE
 40
4.0
  9
$OSMODE
 70
   167
  9
$ATTMODE
 70
     1
  9
$TEXTSIZE
 40
3.5
  9
$TRACEWID
 40
0.05
  9
$TEXTSTYLE
  7
ISO
  9
$CLAYER
  8
0
  9
$CELTYPE
  6
BYLAYER
  9
$CECOLOR
 62
   256
  9
$DIMSCALE
 40
0.0
  9
$DIMASZ
 40
3.0
  9
$DIMEXO
 40
1.5
  9
$DIMDLI
 40
10.0
  9
$DIMRND
 40
0.0
  9
$DIMDLE
 40
0.0
  9
$DIMEXE
 40
1.5
  9
$DIMTP
 40
0.0
  9
$DIMTM
 40
0.0
  9
$DIMTXT
 40
3.0
  9
$DIMCEN
 40
-5.0
  9
$DIMTSZ
 40
0.0
  9
$DIMTOL
 70
     0
  9
$DIMLIM
 70
     0
  9
$DIMTIH
 70
     0
  9
$DIMTOH
 70
     0
  9
$DIMSE1
 70
     0
  9
$DIMSE2
 70
     0
  9
$DIMTAD
 70
     1
  9
$DIMZIN
 70
     8
  9
$DIMBLK
  1

  9
$DIMASO
 70
     1
  9
$DIMSHO
 70
     1
  9
$DIMPOST
  1

  9
$DIMAPOST
  1

  9
$DIMALT
 70
     0
  9
$DIMALTD
 70
     0
  9
$DIMALTF
 40
25.399999999999999
  9
$DIMLFAC
 40
-1.0
  9
$DIMTOFL
 70
     1
  9
$DIMTVP
 40
0.0
  9
$DIMTIX
 70
     0
  9
$DIMSOXD
 70
     0
  9
$DIMSAH
 70
     0
  9
$DIMBLK1
  1

  9
$DIMBLK2
  1

  9
$DIMSTYLE
  2
MASKIN
  9
$DIMCLRD
 70
   256
  9
$DIMCLRE
 70
   256
  9
$DIMCLRT
 70
     2
  9
$DIMTFAC
 40
1.0
  9
$DIMGAP
 40
1.0
  9
$LUNITS
 70
     2
  9
$LUPREC
 70
     8
  9
$SKETCHINC
 40
0.1
  9
$FILLETRAD
 40
0.0
  9
$AUNITS
 70
     0
  9
$AUPREC
 70
     8
  9
$MENU
  1
ACAD
  9
$ELEVATION
 40
0.0
  9
$PELEVATION
 40
0.0
  9
$THICKNESS
 40
0.0
  9
$LIMCHECK
 70
     0
  9
$BLIPMODE
 70
     0
  9
$CHAMFERA
 40
0.0
  9
$CHAMFERB
 40
0.0
  9
$SKPOLY
 70
     0
  9
$TDCREATE
 40
2454896.3344622222
  9
$TDUPDATE
 40
2454896.4521932518
  9
$TDINDWG
 40
0.0098025116
  9
$TDUSRTIMER
 40
0.0098025116
  9
$USRTIMER
 70
     1
  9
$ANGBASE
 50
0.0
  9
$ANGDIR
 70
     0
  9
$PDMODE
 70
     0
  9
$PDSIZE
 40
0.0
  9
$PLINEWID
 40
0.0
  9
$COORDS
 70
     1
  9
$SPLFRAME
 70
     0
  9
$SPLINETYPE
 70
     6
  9
$SPLINESEGS
 70
     8
  9
$ATTDIA
 70
     0
  9
$ATTREQ
 70
     1
  9
$HANDLING
 70
     1
  9
$HANDSEED
  5
1125
  9
$SURFTAB1
 70
     6
  9
$SURFTAB2
 70
     6
  9
$SURFTYPE
 70
     6
  9
$SURFU
 70
     6
  9
$SURFV
 70
     6
  9
$UCSNAME
  2

  9
$UCSORG
 10
0.0
 20
0.0
 30
0.0
  9
$UCSXDIR
 10
1.0
 20
0.0
 30
0.0
  9
$UCSYDIR
 10
0.0
 20
1.0
 30
0.0
  9
$PUCSNAME
  2

  9
$PUCSORG
 10
0.0
 20
0.0
 30
0.0
  9
$PUCSXDIR
 10
1.0
 20
0.0
 30
0.0
  9
$PUCSYDIR
 10
0.0
 20
1.0
 30
0.0
  9
$USERI1
 70
     0
  9
$USERI2
 70
     0
  9
$USERI3
 70
     0
  9
$USERI4
 70
     0
  9
$USERI5
 70
     0
  9
$USERR1
 40
0.0
  9
$USERR2
 40
0.0
  9
$USERR3
 40
0.0
  9
$USERR4
 40
0.0
  9
$USERR5
 40
0.0
  9
$WORLDVIEW
 70
     1
  9
$SHADEDGE
 70
     3
  9
$SHADEDIF
 70
    70
  9
$TILEMODE
 70
     1
  9
$MAXACTVP
 70
    16
  9
$PLIMCHECK
 70
     0
  9
$PEXTMIN
 10
1.0000000000000000E+020
 20
1.0000000000000000E+020
 30
1.0000000000000000E+020
  9
$PEXTMAX
 10
-1.0000000000000000E+020
 20
-1.0000000000000000E+020
 30
-1.0000000000000000E+020
  9
$PLIMMIN
 10
-5.069427490234375
 20
-5.8737497329711914
  9
$PLIMMAX
 10
291.89889526367187
 20
204.0995779037475
  9
$UNITMODE
 70
     0
  9
$VISRETAIN
 70
     1
  9
$PLINEGEN
 70
     0
  9
$PSLTSCALE
 70
     1
  0
ENDSEC
  0
SECTION
  2
TABLES
  0
TABLE
  2
VPORT
 70
     1
  0
VPORT
  2
*ACTIVE
 70
     0
 10
0.0
 20
0.0
 11
1.0
 21
1.0
 12
53.293795913263807
 22
24.84681968097232
 13
0.0
 23
0.0
 14
1.0
 24
1.0
 15
0.0
 25
0.0
 16
0.0
 26
0.0
 36
1.0
 17
0.0
 27
0.0
 37
0.0
 40
147.08976889689461
 41
2.2833787465940052
 42
50.0
 43
0.0
 44
0.0
 50
0.0
 51
0.0
 71
     0
 72
   100
 73
     1
 74
     1
 75
     0
 76
     0
 77
     0
 78
     0
  0
ENDTAB
  0
TABLE
  2
LTYPE
 70
     3
  0
LTYPE
  2
CONTINUOUS
 70
     0
  3
Solid line
 72
    65
 73
     0
 40
0.0
  0
LTYPE
  2
BYGG-01457801$0$NEWDOT
 70
     0
  3
____ . ____ . ____ . ____ . ____ . ____ . ____
 72
    65
 73
     4
 40
2.0
 49
1.0
 49
-0.5
 49
0.0
 49
-0.5
  0
LTYPE
  2
BYGG-014198$0$DASHDOT
 70
     0
  3
__ . __ . __ . __ . __ . __ . __ . __ . __ . __
 72
    65
 73
     4
 40
1.0
 49
0.5
 49
-0.25
 49
0.0
 49
-0.25
  0
ENDTAB
  0
TABLE
  2
LAYER
 70
    36
  0
LAYER
  2
0
 70
     0
 62
     7
  6
CONTINUOUS
  0
LAYER
  2
DEFPOINTS
 70
     0
 62
     7
  6
CONTINUOUS
  0
LAYER
  2
SAPA_ARTIKELNR
 70
     0
 62
     4
  6
CONTINUOUS
  0
LAYER
  2
SAPA_LIGHT
 70
     1
 62
     1
  6
CONTINUOUS
  0
LAYER
  2
SAPA_MATT
 70
     0
 62
     1
  6
CONTINUOUS
  0
LAYER
  2
SAPA_GLAS
 70
     0
 62
     4
  6
CONTINUOUS
  0
LAYER
  2
SAPA_FOGBAND
 70
     0
 62
     2
  6
CONTINUOUS
  0
LAYER
  2
SAPA_PROFIL
 70
     0
 62
     7
  6
CONTINUOUS
  0
ENDTAB
  0
TABLE
  2
STYLE
 70
    11
  0
STYLE
  2
STANDARD
 70
     0
 40
0.0
 41
1.0
 50
0.0
 71
     0
 42
0.2
  3
txt
  4

  0
STYLE
  2
ISO
 70
     0
 40
0.0
 41
1.0
 50
0.0
 71
     0
 42
3.5
  3
txt
  4

  0
STYLE
  2
BYGG-022634$0$STANDARD
 70
     0
 40
0.0
 41
1.0
 50
0.0
 71
     0
 42
0.2
  3
txt
  4

  0
STYLE
  2
BYGG-022634$0$ISO
 70
     0
 40
0.0
 41
1.0
 50
0.0
 71
     0
 42
3.5
  3
txt
  4

  0
STYLE
  2
BYGG-01457801$0$STANDARD
 70
     0
 40
0.0
 41
1.0
 50
0.0
 71
     0
 42
0.2
  3
txt
  4

  0
STYLE
  2
BYGG-01457801$0$ISO
 70
     0
 40
0.0
 41
1.0
 50
0.0
 71
     0
 42
2.5
  3
isocp3.shx
  4

  0
STYLE
  2
BYGG-01457801$0$ANNOTATIVE
 70
     0
 40
0.0
 41
1.0
 50
0.0
 71
     0
 42
0.2
  3
txt
  4

  0
STYLE
  2
BYGG-022709$0$STANDARD
 70
     0
 40
0.0
 41
1.0
 50
0.0
 71
     0
 42
0.2
  3
txt
  4

  0
STYLE
  2
BYGG-022709$0$ISO
 70
     0
 40
0.0
 41
1.0
 50
0.0
 71
     0
 42
3.5
  3
txt
  4

  0
STYLE
  2
BYGG-014198$0$STANDARD
 70
     0
 40
0.0
 41
1.0
 50
0.0
 71
     0
 42
0.2
  3
txt
  4

  0
STYLE
  2
BYGG-014198$0$ISO
 70
     0
 40
0.0
 41
1.0
 50
0.0
 71
     0
 42
3.5
  3
isocp3.shx
  4

  0
ENDTAB
  0
TABLE
  2
VIEW
 70
     0
  0
ENDTAB
  0
TABLE
  2
UCS
 70
     0
  0
ENDTAB
  0
TABLE
  2
APPID
 70
    15
  0
APPID
  2
ACAD
 70
     0
  0
APPID
  2
ACAD_DSTYLE_DIMTEXT_FILL
 70
     0
  0
APPID
  2
ACAD_DSTYLE_DIMEXT_LENGTH
 70
     0
  0
APPID
  2
ACAD_DSTYLE_DIMEXT_ENABLED
 70
     0
  0
APPID
  2
ACAD_DSTYLE_DIM_LINETYPE
 70
     0
  0
APPID
  2
ACAD_DSTYLE_DIM_EXT1_LINETYPE
 70
     0
  0
APPID
  2
ACAD_DSTYLE_DIM_EXT2_LINETYPE
 70
     0
  0
APPID
  2
ACAD_DSTYLE_DIMJOGGED_JOGA
 70
     0
  0
APPID
  2
ACAD_DSTYLE_DIMARC_LENGTH_
 70
     0
  0
APPID
  2
ACAD_PSEXT
 70
     0
  0
APPID
  2
ACAD_MLEADERVER
 70
     0
  0
APPID
  2
ACAD_EXEMPT_FROM_CAD_STANDARDS
 70
     0
  0
APPID
  2
ACADANNOTATIVE
 70
     0
  0
APPID
  2
AMG_ARCHIVE11
 70
     0
  0
APPID
  2
ACAECLAYERSTANDARD
 70
     0
  0
ENDTAB
  0
TABLE
  2
DIMSTYLE
 70
    11
  0
DIMSTYLE
  2
STANDARD
 70
     0
  3

  4

  5

  6

  7

 40
1.0
 41
0.18
 42
0.0625
 43
0.38
 44
0.18
 45
0.0
 46
0.0
 47
0.0
 48
0.0
140
0.18
141
0.09
142
0.0
143
25.399999999999999
144
1.0
145
0.0
146
1.0
147
0.09
 71
     0
 72
     0
 73
     1
 74
     1
 75
     0
 76
     0
 77
     0
 78
     0
170
     0
171
     2
172
     0
173
     0
174
     0
175
     0
176
     0
177
     0
178
     0
  0
DIMSTYLE
  2
MASKIN
 70
     0
  3

  4

  5

  6

  7

 40
0.0
 41
3.0
 42
1.5
 43
10.0
 44
1.5
 45
0.0
 46
0.0
 47
0.0
 48
0.0
140
3.0
141
-5.0
142
0.0
143
25.399999999999999
144
-1.0
145
0.0
146
1.0
147
1.0
 71
     0
 72
     0
 73
     0
 74
     0
 75
     0
 76
     0
 77
     1
 78
     8
170
     0
171
     0
172
     1
173
     0
174
     0
175
     0
176
   256
177
   256
178
     2
  0
DIMSTYLE
  2
BYGG-022634$0$STANDARD
 70
     0
  3

  4

  5

  6

  7

 40
1.0
 41
0.18
 42
0.0625
 43
0.38
 44
0.18
 45
0.0
 46
0.0
 47
0.0
 48
0.0
140
0.18
141
0.09
142
0.0
143
25.399999999999999
144
1.0
145
0.0
146
1.0
147
0.09
 71
     0
 72
     0
 73
     1
 74
     1
 75
     0
 76
     0
 77
     0
 78
     0
170
     0
171
     2
172
     0
173
     0
174
     0
175
     0
176
     0
177
     0
178
     0
  0
DIMSTYLE
  2
BYGG-022634$0$MASKIN
 70
     0
  3

  4

  5

  6

  7

 40
0.0
 41
3.0
 42
1.5
 43
10.0
 44
1.5
 45
0.0
 46
0.0
 47
0.0
 48
0.0
140
3.0
141
-5.0
142
0.0
143
25.399999999999999
144
-1.0
145
0.0
146
1.0
147
1.0
 71
     0
 72
     0
 73
     0
 74
     0
 75
     0
 76
     0
 77
     1
 78
     8
170
     0
171
     0
172
     1
173
     0
174
     0
175
     0
176
   256
177
   256
178
     2
  0
DIMSTYLE
  2
BYGG-01457801$0$STANDARD
 70
     0
  3

  4

  5

  6

  7

 40
1.0
 41
0.18
 42
0.0625
 43
0.38
 44
0.18
 45
0.0
 46
0.0
 47
0.0
 48
0.0
140
0.18
141
0.09
142
0.0
143
25.399999999999999
144
1.0
145
0.0
146
1.0
147
0.09
 71
     0
 72
     0
 73
     1
 74
     1
 75
     0
 76
     0
 77
     0
 78
     0
170
     0
171
     2
172
     0
173
     0
174
     0
175
     0
176
     0
177
     0
178
     0
  0
DIMSTYLE
  2
BYGG-01457801$0$MASKIN
 70
     0
  3

  4

  5

  6

  7

 40
0.0
 41
3.0
 42
1.5
 43
10.0
 44
1.5
 45
0.0
 46
0.0
 47
0.0
 48
0.0
140
3.0
141
-5.0
142
0.0
143
25.399999999999999
144
-1.0
145
0.0
146
1.0
147
1.0
 71
     0
 72
     0
 73
     0
 74
     1
 75
     0
 76
     0
 77
     1
 78
     8
170
     0
171
     0
172
     1
173
     0
174
     0
175
     0
176
   256
177
   256
178
     2
  0
DIMSTYLE
  2
BYGG-01457801$0$ANNOTATIVE
 70
     0
  3

  4

  5

  6

  7

 40
1.0
 41
0.18
 42
0.0625
 43
0.38
 44
0.18
 45
0.0
 46
0.0
 47
0.0
 48
0.0
140
0.18
141
0.09
142
0.0
143
25.399999999999999
144
1.0
145
0.0
146
1.0
147
0.09
 71
     0
 72
     0
 73
     1
 74
     1
 75
     0
 76
     0
 77
     0
 78
     0
170
     0
171
     2
172
     0
173
     0
174
     0
175
     0
176
     0
177
     0
178
     0
  0
DIMSTYLE
  2
BYGG-022709$0$STANDARD
 70
     0
  3

  4

  5

  6

  7

 40
1.0
 41
0.18
 42
0.0625
 43
0.38
 44
0.18
 45
0.0
 46
0.0
 47
0.0
 48
0.0
140
0.18
141
0.09
142
0.0
143
25.399999999999999
144
1.0
145
0.0
146
1.0
147
0.09
 71
     0
 72
     0
 73
     1
 74
     1
 75
     0
 76
     0
 77
     0
 78
     0
170
     0
171
     2
172
     0
173
     0
174
     0
175
     0
176
     0
177
     0
178
     0
  0
DIMSTYLE
  2
BYGG-022709$0$MASKIN
 70
     0
  3

  4

  5

  6

  7

 40
0.0
 41
3.0
 42
1.5
 43
10.0
 44
1.5
 45
0.0
 46
0.0
 47
0.0
 48
0.0
140
3.0
141
-5.0
142
0.0
143
25.399999999999999
144
-1.0
145
0.0
146
1.0
147
1.0
 71
     0
 72
     0
 73
     0
 74
     0
 75
     0
 76
     0
 77
     1
 78
     8
170
     0
171
     0
172
     1
173
     0
174
     0
175
     0
176
   256
177
   256
178
     2
  0
DIMSTYLE
  2
BYGG-014198$0$STANDARD
 70
     0
  3

  4

  5

  6

  7

 40
1.0
 41
0.18
 42
0.0625
 43
0.38
 44
0.18
 45
0.0
 46
0.0
 47
0.0
 48
0.0
140
0.18
141
0.09
142
0.0
143
25.399999999999999
144
1.0
145
0.0
146
1.0
147
0.09
 71
     0
 72
     0
 73
     1
 74
     1
 75
     0
 76
     0
 77
     0
 78
     0
170
     0
171
     2
172
     0
173
     0
174
     0
175
     0
176
     0
177
     0
178
     0
  0
DIMSTYLE
  2
BYGG-014198$0$MASKIN
 70
     0
  3

  4

  5

  6

  7

 40
0.0
 41
3.0
 42
1.5
 43
10.0
 44
1.5
 45
0.0
 46
0.0
 47
0.0
 48
0.0
140
3.0
141
-5.0
142
0.0
143
25.399999999999999
144
-1.0
145
0.0
146
1.0
147
1.0
 71
     0
 72
     0
 73
     0
 74
     0
 75
     0
 76
     0
 77
     1
 78
     8
170
     0
171
     0
172
     1
173
     0
174
     0
175
     0
176
   256
177
   256
178
   256
  0
ENDTAB
  0
ENDSEC
  0
SECTION
  2
BLOCKS
  0
BLOCK
  8
0
  2
$MODEL_SPACE
 70
     0
 10
0.0
 20
0.0
 30
0.0
  3
$MODEL_SPACE
  1

  0
ENDBLK
  5
37
  8
0
  0
BLOCK
 67
     1
  8
0
  2
$PAPER_SPACE
 70
     0
 10
0.0
 20
0.0
 30
0.0
  3
$PAPER_SPACE
  1

  0
ENDBLK
  5
35
 67
     1
  8
0
  0
BLOCK
  8
0
  2
*D26
 70
     1
 10
0.0
 20
0.0
 30
0.0
  3
*D26
  1

  0
LINE
  5
9C8
  8
SAPA_MATT
 10
-77.999999999999886
 20
7.6500000000000901
 30
0.0
 11
-77.999999999999886
 21
-12.256005645978901
 31
0.0
  0
LINE
  5
9C9
  8
SAPA_MATT
 10
0.0000000000001136
 20
7.6499999999999204
 30
0.0
 11
0.0000000000001124
 21
-12.256005645978901
 31
0.0
  0
LINE
  5
9CA
  8
SAPA_MATT
 10
-74.999999999999886
 20
-10.756005645978901
 30
0.0
 11
-2.9999999999998872
 21
-10.756005645978901
 31
0.0
  0
SOLID
  5
9CB
  8
SAPA_MATT
 10
-74.999999999999886
 20
-10.256005645978901
 30
0.0
 11
-74.999999999999886
 21
-11.256005645978901
 31
0.0
 12
-77.999999999999886
 22
-10.756005645978901
 32
0.0
 13
-77.999999999999886
 23
-10.756005645978901
 33
0.0
  0
SOLID
  5
9CC
  8
SAPA_MATT
 10
-2.9999999999998872
 20
-10.256005645978901
 30
0.0
 11
-2.9999999999998872
 21
-11.256005645978901
 31
0.0
 12
0.0000000000001125
 22
-10.756005645978901
 32
0.0
 13
0.0000000000001125
 23
-10.756005645978901
 33
0.0
  0
INSERT
  5
9CD
  8
0
  2
*U51
 10
0.0
 20
0.0
 30
0.0
  0
POINT
  5
9CE
  8
DEFPOINTS
 62
     0
 10
-77.999999999999886
 20
9.1500000000000892
 30
0.0
  0
POINT
  5
9CF
  8
DEFPOINTS
 62
     0
 10
0.0000000000001137
 20
9.1499999999999204
 30
0.0
  0
POINT
  5
9D0
  8
DEFPOINTS
 62
     0
 10
0.0000000000001125
 20
-10.756005645978901
 30
0.0
  0
ENDBLK
  5
999
  8
0
  0
BLOCK
  8
0
  2
*D27
 70
     1
 10
0.0
 20
0.0
 30
0.0
  3
*D27
  1

  0
LINE
  5
1114
  8
SAPA_MATT
 10
0.0000000000001136
 20
7.6499999999999204
 30
0.0
 11
0.0000000000001124
 21
-12.256005645978901
 31
0.0
  0
LINE
  5
1115
  8
SAPA_MATT
 10
6.0000000000001128
 20
7.6499999999999773
 30
0.0
 11
6.0000000000001119
 21
-12.256005645978901
 31
0.0
  0
LINE
  5
1116
  8
SAPA_MATT
 10
-2.9999999999998872
 20
-10.756005645978901
 30
0.0
 11
-5.9999999999998872
 21
-10.756005645978901
 31
0.0
  0
LINE
  5
1117
  8
SAPA_MATT
 10
9.0000000000001137
 20
-10.756005645978901
 30
0.0
 11
12.00000000000011
 21
-10.756005645978901
 31
0.0
  0
LINE
  5
1118
  8
SAPA_MATT
 10
0.0000000000001125
 20
-10.756005645978901
 30
0.0
 11
6.0000000000001119
 21
-10.756005645978901
 31
0.0
  0
SOLID
  5
1119
  8
SAPA_MATT
 10
-2.9999999999998872
 20
-10.256005645978901
 30
0.0
 11
-2.9999999999998872
 21
-11.256005645978901
 31
0.0
 12
0.0000000000001125
 22
-10.756005645978901
 32
0.0
 13
0.0000000000001125
 23
-10.756005645978901
 33
0.0
  0
SOLID
  5
111A
  8
SAPA_MATT
 10
9.0000000000001137
 20
-10.256005645978901
 30
0.0
 11
9.0000000000001137
 21
-11.256005645978901
 31
0.0
 12
6.0000000000001119
 22
-10.756005645978901
 32
0.0
 13
6.0000000000001119
 23
-10.756005645978901
 33
0.0
  0
TEXT
  8
SAPA_MATT
  40
3
  5
1123
  62
2
  72
0
  71
0
 10
-3.00000
 20
-13.5660
 30
0.000000
  1
6
  7
ISO
  0
POINT
  5
111C
  8
DEFPOINTS
 62
     0
 10
0.0000000000001137
 20
9.1499999999999204
 30
0.0
  0
POINT
  5
111D
  8
DEFPOINTS
 62
     0
 10
6.0000000000001128
 20
9.1499999999999773
 30
0.0
  0
POINT
  5
111E
  8
DEFPOINTS
 62
     0
 10
6.0000000000001119
 20
-10.756005645978901
 30
0.0
  0
ENDBLK
  5
9A7
  8
0
  0
BLOCK
  8
0
  2
*D28
 70
     1
 10
0.0
 20
0.0
 30
0.0
  3
*D28
  1

  0
LINE
  5
110B
  8
SAPA_MATT
 10
6.0000000000001128
 20
7.6499999999999773
 30
0.0
 11
6.0000000000001119
 21
-12.256005645978901
 31
0.0
  0
LINE
  5
110C
  8
SAPA_MATT
 10
84.000000000000114
 20
7.6500000000000341
 30
0.0
 11
84.000000000000114
 21
-12.256005645978901
 31
0.0
  0
LINE
  5
110D
  8
SAPA_MATT
 10
9.0000000000001137
 20
-10.756005645978901
 30
0.0
 11
81.000000000000114
 21
-10.756005645978901
 31
0.0
  0
SOLID
  5
110E
  8
SAPA_MATT
 10
9.0000000000001137
 20
-10.256005645978901
 30
0.0
 11
9.0000000000001137
 21
-11.256005645978901
 31
0.0
 12
6.0000000000001119
 22
-10.756005645978901
 32
0.0
 13
6.0000000000001119
 23
-10.756005645978901
 33
0.0
  0
SOLID
  5
110F
  8
SAPA_MATT
 10
81.000000000000114
 20
-10.256005645978901
 30
0.0
 11
81.000000000000114
 21
-11.256005645978901
 31
0.0
 12
84.000000000000114
 22
-10.756005645978901
 32
0.0
 13
84.000000000000114
 23
-10.756005645978901
 33
0.0
  0
TEXT
  8
SAPA_MATT
  40
3
  5
1124
  62
2
  72
0
  71
0
 10
39.0000
 20
-13.5660
 30
0.000000
  1
78
  7
ISO
  0
POINT
  5
1111
  8
DEFPOINTS
 62
     0
 10
6.0000000000001128
 20
9.1499999999999773
 30
0.0
  0
POINT
  5
1112
  8
DEFPOINTS
 62
     0
 10
84.000000000000114
 20
9.1500000000000341
 30
0.0
  0
POINT
  5
1113
  8
DEFPOINTS
 62
     0
 10
84.000000000000114
 20
-10.756005645978901
 30
0.0
  0
ENDBLK
  5
9B3
  8
0
  0
BLOCK
  8
0
  2
*U29
 70
     1
 10
0.0
 20
0.0
 30
0.0
  3
*U29
  1

  0
TEXT
  5
9E9
  8
SAPA_ARTIKELNR
 10
-74.015378112951197
 20
62.89266311087863
 30
0.0
 40
3.5
  1
42072
  7
ISO
  0
ENDBLK
  5
9EB
  8
0
  0
BLOCK
  8
0
  2
*U30
 70
     1
 10
0.0
 20
0.0
 30
0.0
  3
*U30
  1

  0
TEXT
  5
9ED
  8
SAPA_ARTIKELNR
 10
-35.572014200882769
 20
62.89266311087863
 30
0.0
 40
3.5
  1
68074
  7
ISO
  0
ENDBLK
  5
9EF
  8
0
  0
BLOCK
  8
0
  2
*U31
 70
     1
 10
0.0
 20
0.0
 30
0.0
  3
*U31
  1

  0
TEXT
  5
9F1
  8
SAPA_ARTIKELNR
 10
27.481019181044211
 20
62.89266311087863
 30
0.0
 40
3.5
  1
68074
  7
ISO
  0
ENDBLK
  5
9F3
  8
0
  0
BLOCK
  8
0
  2
*U32
 70
     1
 10
0.0
 20
0.0
 30
0.0
  3
*U32
  1

  0
TEXT
  5
9F5
  8
SAPA_ARTIKELNR
 10
68.16303163652438
 20
62.89266311087863
 30
0.0
 40
3.5
  1
42072
  7
ISO
  0
ENDBLK
  5
9F7
  8
0
  0
BLOCK
  8
0
  2
*U33
 70
     1
 10
0.0
 20
0.0
 30
0.0
  3
*U33
  1

  0
TEXT
  5
ACE
  8
0
 62
     2
 10
919.72391383653485
 20
547.10253458471277
 30
0.0
 40
3.0
  1
56
  7
BYGG-01457801$0$ISO
  0
ENDBLK
  5
AD0
  8
0
  0
BLOCK
  8
0
  2
*U34
 70
     1
 10
0.0
 20
0.0
 30
0.0
  3
*U34
  1

  0
TEXT
  5
AD2
  8
0
 62
     2
 10
970.27478805316582
 20
506.99537380256618
 30
0.0
 40
3.0
  1
50
 50
90.0
  7
BYGG-01457801$0$ISO
  0
ENDBLK
  5
AD4
  8
0
  0
BLOCK
  8
0
  2
*U35
 70
     1
 10
0.0
 20
0.0
 30
0.0
  3
*U35
  1

  0
TEXT
  5
AD6
  8
0
 62
     2
 10
908.7983232853536
 20
471.11520364751999
 30
0.0
 40
3.0
  1
78
  7
BYGG-01457801$0$ISO
  0
ENDBLK
  5
AD8
  8
0
  0
BLOCK
  8
0
  2
*U36
 70
     1
 10
0.0
 20
0.0
 30
0.0
  3
*U36
  1

  0
TEXT
  5
B7F
  8
0
 10
37.055390465841519
 20
-420.46468390418471
 30
0.0
 40
3.0
  1
11.5
  7
BYGG-014198$0$ISO
  0
ENDBLK
  5
B81
  8
0
  0
BLOCK
  8
0
  2
*U37
 70
     1
 10
0.0
 20
0.0
 30
0.0
  3
*U37
  1

  0
TEXT
  5
B87
  8
0
 10
61.316617707294021
 20
-447.47946737143371
 30
0.0
 40
3.0
  1
22
 50
90.0
  7
BYGG-014198$0$ISO
  0
ENDBLK
  5
B89
  8
0
  0
BLOCK
  8
0
  2
*U38
 70
     1
 10
0.0
 20
0.0
 30
0.0
  3
*U38
  1

  0
TEXT
  5
B8C
  8
0
 62
     2
 10
1.9500000000001121
 20
-9.7560056459789042
 30
0.0
 40
3.0
  1
6
  7
ISO
  0
ENDBLK
  5
B8E
  8
0
  0
BLOCK
  8
0
  2
*U39
 70
     1
 10
0.0
 20
0.0
 30
0.0
  3
*U39
  1

  0
TEXT
  5
B90
  8
0
 62
     2
 10
42.900000000000119
 20
-9.7560056459789042
 30
0.0
 40
3.0
  1
78
  7
ISO
  0
ENDBLK
  5
B92
  8
0
  0
BLOCK
  8
0
  2
*U40
 70
     1
 10
0.0
 20
0.0
 30
0.0
  3
*U40
  1

  0
TEXT
  5
B94
  8
0
 62
     2
 10
-41.099999999999874
 20
-9.7560056459789042
 30
0.0
 40
3.0
  1
78
  7
ISO
  0
ENDBLK
  5
B96
  8
0
  0
BLOCK
  8
0
  2
*U41
 70
     1
 10
0.0
 20
0.0
 30
0.0
  3
*U41
  1

  0
TEXT
  5
B98
  8
0
 10
-92.791214679413102
 20
50.03786796564399
 30
0.0
 40
3.0
  1
11.5
 50
90.0
  7
BYGG-014198$0$ISO
  0
ENDBLK
  5
B9A
  8
0
  0
BLOCK
  8
0
  2
*U42
 70
     1
 10
0.0
 20
0.0
 30
0.0
  3
*U42
  1

  0
TEXT
  5
B9C
  8
0
 10
-70.080427275156225
 20
76.299685758277519
 30
0.0
 40
3.0
  1
22
  7
BYGG-014198$0$ISO
  0
ENDBLK
  5
B9E
  8
0
  0
BLOCK
  8
0
  2
*U43
 70
     1
 10
0.0
 20
0.0
 30
0.0
  3
*U43
  1

  0
TEXT
  5
BA0
  8
0
 62
     2
 10
36.174409448819013
 20
69.855979679784525
 30
0.0
 40
3.0
  1
56
 50
180.0
  7
BYGG-01457801$0$ISO
  0
ENDBLK
  5
BA2
  8
0
  0
BLOCK
  8
0
  2
*U44
 70
     1
 10
0.0
 20
0.0
 30
0.0
  3
*U44
  1

  0
TEXT
  5
BA4
  8
0
 62
     2
 10
-14.376464767812189
 20
35.95118110236217
 30
0.0
 40
3.0
  1
50
 50
270.0
  7
BYGG-01457801$0$ISO
  0
ENDBLK
  5
BA6
  8
0
  0
BLOCK
  8
0
  2
*U45
 70
     1
 10
0.0
 20
0.0
 30
0.0
  3
*U45
  1

  0
TEXT
  5
BA8
  8
0
 62
     2
 10
47.100000000000229
 20
-6.1313512574083173
 30
0.0
 40
3.0
  1
78
 50
180.0
  7
BYGG-01457801$0$ISO
  0
ENDBLK
  5
BAA
  8
0
  0
BLOCK
  8
0
  2
*U46
 70
     1
 10
0.0
 20
0.0
 30
0.0
  3
*U46
  1

  0
TEXT
  5
BAC
  8
0
 10
96.791214679413315
 20
50.03786796564399
 30
0.0
 40
3.0
  1
11.5
 50
90.000000000000028
  7
BYGG-014198$0$ISO
  0
ENDBLK
  5
BAE
  8
0
  0
BLOCK
  8
0
  2
*U47
 70
     1
 10
0.0
 20
0.0
 30
0.0
  3
*U47
  1

  0
TEXT
  5
BB0
  8
0
 10
76.080427275156438
 20
74.299095207096471
 30
0.0
 40
3.0
  1
22
 50
180.0
  7
BYGG-014198$0$ISO
  0
ENDBLK
  5
BB2
  8
0
  0
BLOCK
  8
0
  2
*U48
 70
     1
 10
0.0
 20
0.0
 30
0.0
  3
*U48
  1

  0
TEXT
  5
EA8
  8
0
 62
     2
 10
-30.174409448818778
 20
71.855979679784525
 30
0.0
 40
3.0
  1
56
  7
BYGG-01457801$0$ISO
  0
ENDBLK
  5
EAA
  8
0
  0
BLOCK
  8
0
  2
*U49
 70
     1
 10
0.0
 20
0.0
 30
0.0
  3
*U49
  1

  0
TEXT
  5
EAC
  8
0
 62
     2
 10
20.376464767812418
 20
31.748818897637761
 30
0.0
 40
3.0
  1
50
 50
90.0
  7
BYGG-01457801$0$ISO
  0
ENDBLK
  5
EAE
  8
0
  0
BLOCK
  8
0
  2
*U50
 70
     1
 10
0.0
 20
0.0
 30
0.0
  3
*U50
  1

  0
TEXT
  5
EB0
  8
0
 62
     2
 10
-41.100000000000001
 20
-4.1313512574083111
 30
0.0
 40
3.0
  1
78
  7
BYGG-01457801$0$ISO
  0
ENDBLK
  5
EB2
  8
0
  0
BLOCK
  8
0
  2
*U51
 70
     1
 10
0.0
 20
0.0
 30
0.0
  3
*U51
  1

  0
TEXT
  5
1120
  8
SAPA_MATT
 62
     2
 10
-41.099999999999874
 20
-9.7560056459789042
 30
0.0
 40
3.0
  1
78
  7
ISO
  0
ENDBLK
  5
1122
  8
0
  0
ENDSEC
  0
SECTION
  2
ENTITIES
  0
INSERT
  5
6DC
  8
0
  2
*U29
 10
0.0
 20
0.0
 30
0.0
  0
INSERT
  5
6DD
  8
0
  2
*U30
 10
0.0
 20
0.0
 30
0.0
  0
INSERT
  5
6DE
  8
0
  2
*U31
 10
0.0
 20
0.0
 30
0.0
  0
INSERT
  5
6DF
  8
0
  2
*U32
 10
0.0
 20
0.0
 30
0.0
  0
POLYLINE
  5
6E4
  8
SAPA_LIGHT
 66
     1
 10
0.0
 20
0.0
 30
0.0
  0
VERTEX
  5
9F8
  8
SAPA_LIGHT
 10
3.0000000000001128
 20
58.849999999999973
 30
0.0
  0
VERTEX
  5
9F9
  8
SAPA_LIGHT
 10
-78.0
 20
58.84999999999998
 30
0.0
  0
VERTEX
  5
9FA
  8
SAPA_LIGHT
 10
-77.999999999999858
 20
41.249999999999922
 30
0.0
  0
VERTEX
  5
9FB
  8
SAPA_LIGHT
 10
-55.799999999999841
 20
41.249999999999908
 30
0.0
  0
VERTEX
  5
9FC
  8
SAPA_LIGHT
 10
-55.799999999999841
 20
17.25000000000006
 30
0.0
  0
VERTEX
  5
9FD
  8
SAPA_LIGHT
 10
-77.999999999999886
 20
17.25000000000005
 30
0.0
  0
VERTEX
  5
9FE
  8
SAPA_LIGHT
 10
-77.999999999999886
 20
8.8500000000000227
 30
0.0
  0
VERTEX
  5
9FF
  8
SAPA_LIGHT
 10
3.0000000000001128
 20
8.8500000000000227
 30
0.0
  0
VERTEX
  5
A00
  8
SAPA_LIGHT
 10
3.0000000000001181
 20
58.849999999999973
 30
0.0
  0
SEQEND
  5
A01
  8
SAPA_LIGHT
  0
POLYLINE
  5
6E5
  8
SAPA_LIGHT
 66
     1
 10
0.0
 20
0.0
 30
0.0
  0
VERTEX
  5
A02
  8
SAPA_LIGHT
 10
-89.799999999999983
 20
41.249999999999829
 30
0.0
  0
VERTEX
  5
A03
  8
SAPA_LIGHT
 10
-61.000000000000199
 20
41.250000000000057
 30
0.0
  0
VERTEX
  5
A04
  8
SAPA_LIGHT
 10
-61.000000000000199
 20
17.25000000000006
 30
0.0
  0
VERTEX
  5
A05
  8
SAPA_LIGHT
 10
-89.799999999999983
 20
17.25000000000006
 30
0.0
  0
SEQEND
  5
A06
  8
SAPA_LIGHT
  0
POLYLINE
  5
6E6
  8
SAPA_LIGHT
 66
     1
 10
0.0
 20
0.0
 30
0.0
  0
VERTEX
  5
A07
  8
SAPA_LIGHT
 10
3.0000000000001221
 20
58.849999999999973
 30
0.0
  0
VERTEX
  5
A08
  8
SAPA_LIGHT
 10
84.000000000000256
 20
58.84999999999998
 30
0.0
  0
VERTEX
  5
A09
  8
SAPA_LIGHT
 10
84.000000000000114
 20
41.249999999999922
 30
0.0
  0
VERTEX
  5
A0A
  8
SAPA_LIGHT
 10
61.800000000000082
 20
41.249999999999908
 30
0.0
  0
VERTEX
  5
A0B
  8
SAPA_LIGHT
 10
61.800000000000082
 20
17.25000000000006
 30
0.0
  0
VERTEX
  5
A0C
  8
SAPA_LIGHT
 10
84.000000000000114
 20
17.25000000000005
 30
0.0
  0
VERTEX
  5
A0D
  8
SAPA_LIGHT
 10
84.000000000000114
 20
8.8500000000000227
 30
0.0
  0
VERTEX
  5
A0E
  8
SAPA_LIGHT
 10
3.0000000000001221
 20
8.8500000000000227
 30
0.0
  0
VERTEX
  5
A0F
  8
SAPA_LIGHT
 10
3.0000000000001181
 20
58.849999999999973
 30
0.0
  0
SEQEND
  5
A10
  8
SAPA_LIGHT
  0
POLYLINE
  5
6E7
  8
SAPA_LIGHT
 66
     1
 10
0.0
 20
0.0
 30
0.0
  0
VERTEX
  5
A11
  8
SAPA_LIGHT
 10
95.800000000000225
 20
41.249999999999829
 30
0.0
  0
VERTEX
  5
A12
  8
SAPA_LIGHT
 10
67.000000000000441
 20
41.250000000000057
 30
0.0
  0
VERTEX
  5
A13
  8
SAPA_LIGHT
 10
67.000000000000441
 20
17.25000000000006
 30
0.0
  0
VERTEX
  5
A14
  8
SAPA_LIGHT
 10
95.800000000000225
 20
17.25000000000006
 30
0.0
  0
SEQEND
  5
A15
  8
SAPA_LIGHT
  0
POLYLINE
  5
937
  8
SAPA_PROFIL
 66
     1
 10
0.0
 20
0.0
 30
0.0
 70
     1
  0
VERTEX
  5
D2D
  8
SAPA_PROFIL
 10
84.000000000000227
 20
47.64999999999992
 30
0.0
 42
-0.4142135623730951
  0
VERTEX
  5
D2E
  8
SAPA_PROFIL
 10
83.700000000000216
 20
47.349999999999959
 30
0.0
  0
VERTEX
  5
D2F
  8
SAPA_PROFIL
 10
82.490000000000279
 20
47.349999999999959
 30
0.0
 42
-0.4142135623730951
  0
VERTEX
  5
D30
  8
SAPA_PROFIL
 10
81.500000000000284
 20
48.339999999999968
 30
0.0
  0
VERTEX
  5
D31
  8
SAPA_PROFIL
 10
81.500000000000284
 20
48.550000000000011
 30
0.0
  0
VERTEX
  5
D32
  8
SAPA_PROFIL
 10
82.750000000000284
 20
48.550000000000011
 30
0.0
  0
VERTEX
  5
D33
  8
SAPA_PROFIL
 10
82.750000000000284
 20
49.849999999999959
 30
0.0
 42
0.4142135623730951
  0
VERTEX
  5
D34
  8
SAPA_PROFIL
 10
82.250000000000284
 20
50.349999999999959
 30
0.0
  0
VERTEX
  5
D35
  8
SAPA_PROFIL
 10
74.250000000000284
 20
50.349999999999959
 30
0.0
 42
0.4142135623730951
  0
VERTEX
  5
D36
  8
SAPA_PROFIL
 10
73.750000000000284
 20
49.849999999999959
 30
0.0
  0
VERTEX
  5
D37
  8
SAPA_PROFIL
 10
73.750000000000284
 20
48.550000000000011
 30
0.0
  0
VERTEX
  5
D38
  8
SAPA_PROFIL
 10
75.000000000000284
 20
48.550000000000011
 30
0.0
  0
VERTEX
  5
D39
  8
SAPA_PROFIL
 10
75.000000000000284
 20
48.339999999999968
 30
0.0
 42
-0.4142135623730867
  0
VERTEX
  5
D3A
  8
SAPA_PROFIL
 10
74.010000000000275
 20
47.349999999999959
 30
0.0
  0
VERTEX
  5
D3B
  8
SAPA_PROFIL
 10
73.490000000000293
 20
47.349999999999959
 30
0.0
 42
-0.4142135623730951
  0
VERTEX
  5
D3C
  8
SAPA_PROFIL
 10
72.500000000000284
 20
48.339999999999968
 30
0.0
  0
VERTEX
  5
D3D
  8
SAPA_PROFIL
 10
72.500000000000284
 20
50.550000000000011
 30
0.0
 42
-0.4142135623730951
  0
VERTEX
  5
D3E
  8
SAPA_PROFIL
 10
74.000000000000284
 20
52.050000000000011
 30
0.0
  0
VERTEX
  5
D3F
  8
SAPA_PROFIL
 10
82.000000000000284
 20
52.050000000000011
 30
0.0
 42
0.4142135623730951
  0
VERTEX
  5
D40
  8
SAPA_PROFIL
 10
82.500000000000284
 20
52.550000000000011
 30
0.0
  0
VERTEX
  5
D41
  8
SAPA_PROFIL
 10
82.500000000000284
 20
56.849999999999959
 30
0.0
 42
0.4142135623730951
  0
VERTEX
  5
D42
  8
SAPA_PROFIL
 10
82.000000000000284
 20
57.349999999999959
 30
0.0
  0
VERTEX
  5
D43
  8
SAPA_PROFIL
 10
69.258153378746442
 20
57.349999999999959
 30
0.0
 42
0.493145426031308
  0
VERTEX
  5
D44
  8
SAPA_PROFIL
 10
68.775190465601895
 20
56.720590477448638
 30
0.0
  0
VERTEX
  5
D45
  8
SAPA_PROFIL
 10
69.241158122023762
 20
54.98157550899856
 30
0.0
 42
-0.9999999999999452
  0
VERTEX
  5
D46
  8
SAPA_PROFIL
 10
68.275232295734668
 20
54.722756463896019
 30
0.0
  0
VERTEX
  5
D47
  8
SAPA_PROFIL
 10
67.914306240702217
 20
56.069750839052801
 30
0.0
 42
0.6613727838043239
  0
VERTEX
  5
D48
  8
SAPA_PROFIL
 10
65.98041090329292
 20
56.326611530029773
 30
0.0
  0
VERTEX
  5
D49
  8
SAPA_PROFIL
 10
62.671264511915751
 20
50.59500185048131
 30
0.0
  0
VERTEX
  5
D4A
  8
SAPA_PROFIL
 10
62.671264511915751
 20
46.30692193816531
 30
0.0
  0
VERTEX
  5
D4B
  8
SAPA_PROFIL
 10
59.078483428499389
 20
42.149999999999977
 30
0.0
  0
VERTEX
  5
D4C
  8
SAPA_PROFIL
 10
59.078483428499339
 20
40.150000454912693
 30
0.0
 42
-1.0
  0
VERTEX
  5
D4D
  8
SAPA_PROFIL
 10
58.078483428499403
 20
40.14999999999997
 30
0.0
  0
VERTEX
  5
D4E
  8
SAPA_PROFIL
 10
58.078483428499403
 20
42.349999999999959
 30
0.0
  0
VERTEX
  5
D4F
  8
SAPA_PROFIL
 10
61.171264511915751
 20
46.424563148968161
 30
0.0
  0
VERTEX
  5
D50
  8
SAPA_PROFIL
 10
61.171264511915751
 20
50.996925639128051
 30
0.0
  0
VERTEX
  5
D51
  8
SAPA_PROFIL
 10
61.372226406239122
 20
51.34500185048131
 30
0.0
  0
VERTEX
  5
D52
  8
SAPA_PROFIL
 10
62.346953113331089
 20
52.599999999999973
 30
0.0
 42
0.5773502691896074
  0
VERTEX
  5
D53
  8
SAPA_PROFIL
 10
61.913940411438936
 20
53.349999999999973
 30
0.0
  0
VERTEX
  5
D54
  8
SAPA_PROFIL
 10
61.729298545870734
 20
53.349999999999973
 30
0.0
  0
VERTEX
  5
D55
  8
SAPA_PROFIL
 10
61.729298545870734
 20
54.849999999999959
 30
0.0
  0
VERTEX
  5
D56
  8
SAPA_PROFIL
 10
63.10716289677805
 20
54.849999999999959
 30
0.0
 42
0.2679491924311161
  0
VERTEX
  5
D57
  8
SAPA_PROFIL
 10
63.540175598670203
 20
55.099999999999973
 30
0.0
  0
VERTEX
  5
D58
  8
SAPA_PROFIL
 10
64.406201002454623
 20
56.599999999999959
 30
0.0
 42
0.3494280882832233
  0
VERTEX
  5
D59
  8
SAPA_PROFIL
 10
63.187594325157761
 20
57.349999999999959
 30
0.0
  0
VERTEX
  5
D5A
  8
SAPA_PROFIL
 10
62.928429243660389
 20
57.349999999999959
 30
0.0
  0
VERTEX
  5
D5B
  8
SAPA_PROFIL
 10
62.928429243660389
 20
57.560315061466262
 30
0.0
  0
VERTEX
  5
D5C
  8
SAPA_PROFIL
 10
62.928429243660389
 20
58.849999999999973
 30
0.0
  0
VERTEX
  5
D5D
  8
SAPA_PROFIL
 10
83.700000000000216
 20
58.849999999999973
 30
0.0
 42
-0.4142135623730951
  0
VERTEX
  5
D5E
  8
SAPA_PROFIL
 10
84.000000000000227
 20
58.549999999999891
 30
0.0
  0
SEQEND
  5
D5F
  8
SAPA_PROFIL
  0
POLYLINE
  5
938
  8
SAPA_PROFIL
 66
     1
 10
0.0
 20
0.0
 30
0.0
 70
     1
  0
VERTEX
  5
D60
  8
SAPA_PROFIL
 10
11.30000000000018
 20
41.64999999999992
 30
0.0
  0
VERTEX
  5
D61
  8
SAPA_PROFIL
 10
11.30000000000018
 20
49.12500000000005
 30
0.0
 42
-0.4142135623730951
  0
VERTEX
  5
D62
  8
SAPA_PROFIL
 10
11.80000000000018
 20
49.62500000000005
 30
0.0
  0
VERTEX
  5
D63
  8
SAPA_PROFIL
 10
13.50000000000011
 20
49.62499999999995
 30
0.0
 42
0.4142135623730951
  0
VERTEX
  5
D64
  8
SAPA_PROFIL
 10
18.100000000000129
 20
54.224999999999959
 30
0.0
  0
VERTEX
  5
D65
  8
SAPA_PROFIL
 10
18.100000000000129
 20
56.050000000000011
 30
0.0
 42
-0.4142135623730951
  0
VERTEX
  5
D66
  8
SAPA_PROFIL
 10
19.100000000000129
 20
57.050000000000011
 30
0.0
  0
VERTEX
  5
D67
  8
SAPA_PROFIL
 10
53.500000000000341
 20
57.049999999999898
 30
0.0
 42
-0.4142135623730951
  0
VERTEX
  5
D68
  8
SAPA_PROFIL
 10
54.500000000000341
 20
56.049999999999891
 30
0.0
  0
VERTEX
  5
D69
  8
SAPA_PROFIL
 10
54.500000000000341
 20
35.949999999999882
 30
0.0
 42
0.4142135623730951
  0
VERTEX
  5
D6A
  8
SAPA_PROFIL
 10
55.000000000000341
 20
35.449999999999868
 30
0.0
  0
VERTEX
  5
D6B
  8
SAPA_PROFIL
 10
55.700000000000273
 20
35.449999999999868
 30
0.0
 42
0.4150844288340716
  0
VERTEX
  5
D6C
  8
SAPA_PROFIL
 10
56.199997791199053
 20
35.95148620197989
 30
0.0
 42
-0.3121484461588222
  0
VERTEX
  5
D6D
  8
SAPA_PROFIL
 10
56.522216822930659
 20
36.420299604839776
 30
0.0
 42
-0.482358125222547
  0
VERTEX
  5
D6E
  8
SAPA_PROFIL
 10
60.224395043236321
 20
34.22439504323637
 30
0.0
  0
VERTEX
  5
D6F
  8
SAPA_PROFIL
 10
59.849999999999788
 20
33.849999999999973
 30
0.0
  0
VERTEX
  5
D70
  8
SAPA_PROFIL
 10
60.224395043236321
 20
33.475604956763448
 30
0.0
 42
-0.4823574778722663
  0
VERTEX
  5
D71
  8
SAPA_PROFIL
 10
56.522222222222581
 20
31.279698341188631
 30
0.0
 42
-0.311333703729445
  0
VERTEX
  5
D72
  8
SAPA_PROFIL
 10
56.200000000000273
 20
31.747025915517899
 30
0.0
  0
VERTEX
  5
D73
  8
SAPA_PROFIL
 10
56.200000000000273
 20
31.74999999999994
 30
0.0
 42
0.4142135623730951
  0
VERTEX
  5
D74
  8
SAPA_PROFIL
 10
55.700000000000273
 20
32.249999999999943
 30
0.0
  0
VERTEX
  5
D75
  8
SAPA_PROFIL
 10
55.000000000000341
 20
32.249999999999943
 30
0.0
 42
0.4142135623731117
  0
VERTEX
  5
D76
  8
SAPA_PROFIL
 10
54.500000000000227
 20
31.74999999999994
 30
0.0
  0
VERTEX
  5
D77
  8
SAPA_PROFIL
 10
54.500000000000227
 20
11.649999999999981
 30
0.0
 42
-0.4142135623730951
  0
VERTEX
  5
D78
  8
SAPA_PROFIL
 10
53.50000000000022
 20
10.64999999999997
 30
0.0
  0
VERTEX
  5
D79
  8
SAPA_PROFIL
 10
19.10000000000025
 20
10.64999999999997
 30
0.0
 42
-0.4142135623730951
  0
VERTEX
  5
D7A
  8
SAPA_PROFIL
 10
18.10000000000025
 20
11.649999999999981
 30
0.0
  0
VERTEX
  5
D7B
  8
SAPA_PROFIL
 10
18.10000000000025
 20
13.474999999999961
 30
0.0
 42
0.4142135623730914
  0
VERTEX
  5
D7C
  8
SAPA_PROFIL
 10
13.50000000000022
 20
18.074999999999928
 30
0.0
  0
VERTEX
  5
D7D
  8
SAPA_PROFIL
 10
11.80000000000029
 20
18.074999999999871
 30
0.0
 42
-0.4142135623730951
  0
VERTEX
  5
D7E
  8
SAPA_PROFIL
 10
11.30000000000029
 20
18.574999999999871
 30
0.0
  0
VERTEX
  5
D7F
  8
SAPA_PROFIL
 10
11.30000000000018
 20
26.049999999999951
 30
0.0
 42
-0.4142135623730951
  0
VERTEX
  5
D80
  8
SAPA_PROFIL
 10
11.60000000000025
 20
26.349999999999859
 30
0.0
  0
VERTEX
  5
D81
  8
SAPA_PROFIL
 10
11.700000000000269
 20
26.349999999999969
 30
0.0
 42
0.4142135623730951
  0
VERTEX
  5
D82
  8
SAPA_PROFIL
 10
12.000000000000229
 20
26.64999999999992
 30
0.0
  0
VERTEX
  5
D83
  8
SAPA_PROFIL
 10
12.000000000000229
 20
41.049999999999891
 30
0.0
 42
0.4142135623730951
  0
VERTEX
  5
D84
  8
SAPA_PROFIL
 10
11.700000000000269
 20
41.349999999999852
 30
0.0
  0
VERTEX
  5
D85
  8
SAPA_PROFIL
 10
11.60000000000025
 20
41.349999999999973
 30
0.0
 42
-0.4142135623730951
  0
SEQEND
  5
D86
  8
SAPA_PROFIL
  0
POLYLINE
  5
939
  8
SAPA_PROFIL
 66
     1
 10
0.0
 20
0.0
 30
0.0
 70
     1
  0
VERTEX
  5
D87
  8
SAPA_PROFIL
 10
61.000000000000121
 20
54.849999999999959
 30
0.0
  0
VERTEX
  5
D88
  8
SAPA_PROFIL
 10
60.000000000000107
 20
54.849999999999959
 30
0.0
  0
VERTEX
  5
D89
  8
SAPA_PROFIL
 10
60.000000000000107
 20
57.050000000000011
 30
0.0
  0
VERTEX
  5
D8A
  8
SAPA_PROFIL
 10
57.000000000000107
 20
57.050000000000011
 30
0.0
  0
VERTEX
  5
D8B
  8
SAPA_PROFIL
 10
57.000000000000227
 20
38.349999999999973
 30
0.0
  0
VERTEX
  5
D8C
  8
SAPA_PROFIL
 10
60.000000000000227
 20
38.349999999999973
 30
0.0
  0
VERTEX
  5
D8D
  8
SAPA_PROFIL
 10
60.000000000000227
 20
40.849999999999959
 30
0.0
  0
VERTEX
  5
D8E
  8
SAPA_PROFIL
 10
61.00000000000022
 20
40.849999999999959
 30
0.0
  0
VERTEX
  5
D8F
  8
SAPA_PROFIL
 10
61.800000000000182
 20
40.049999999999898
 30
0.0
  0
VERTEX
  5
D90
  8
SAPA_PROFIL
 10
61.800000000000182
 20
34.36961524227064
 30
0.0
  0
VERTEX
  5
D91
  8
SAPA_PROFIL
 10
61.500000000000227
 20
33.849999999999973
 30
0.0
  0
VERTEX
  5
D92
  8
SAPA_PROFIL
 10
61.800000000000182
 20
33.330384757729291
 30
0.0
  0
VERTEX
  5
D93
  8
SAPA_PROFIL
 10
61.800000000000182
 20
27.64999999999992
 30
0.0
  0
VERTEX
  5
D94
  8
SAPA_PROFIL
 10
61.00000000000022
 20
26.849999999999969
 30
0.0
  0
VERTEX
  5
D95
  8
SAPA_PROFIL
 10
60.000000000000227
 20
26.849999999999969
 30
0.0
  0
VERTEX
  5
D96
  8
SAPA_PROFIL
 10
60.000000000000227
 20
29.349999999999969
 30
0.0
  0
VERTEX
  5
D97
  8
SAPA_PROFIL
 10
57.000000000000227
 20
29.349999999999969
 30
0.0
  0
VERTEX
  5
D98
  8
SAPA_PROFIL
 10
57.000000000000227
 20
10.64999999999997
 30
0.0
  0
VERTEX
  5
D99
  8
SAPA_PROFIL
 10
60.000000000000227
 20
10.64999999999997
 30
0.0
  0
VERTEX
  5
D9A
  8
SAPA_PROFIL
 10
60.000000000000227
 20
12.849999999999961
 30
0.0
  0
VERTEX
  5
D9B
  8
SAPA_PROFIL
 10
61.00000000000022
 20
12.849999999999961
 30
0.0
  0
VERTEX
  5
D9C
  8
SAPA_PROFIL
 10
62.000000000000227
 20
11.849999999999961
 30
0.0
  0
VERTEX
  5
D9D
  8
SAPA_PROFIL
 10
62.000000000000227
 20
10.64999999999997
 30
0.0
  0
VERTEX
  5
D9E
  8
SAPA_PROFIL
 10
72.000000000000227
 20
10.650000000000031
 30
0.0
 42
0.4142135623730951
  0
VERTEX
  5
D9F
  8
SAPA_PROFIL
 10
72.500000000000227
 20
11.150000000000031
 30
0.0
  0
VERTEX
  5
DA0
  8
SAPA_PROFIL
 10
72.500000000000227
 20
12.36000000000001
 30
0.0
 42
-0.4142135623730951
  0
VERTEX
  5
DA1
  8
SAPA_PROFIL
 10
73.490000000000236
 20
13.349999999999961
 30
0.0
  0
VERTEX
  5
DA2
  8
SAPA_PROFIL
 10
74.010000000000218
 20
13.350000000000019
 30
0.0
 42
-0.4142135623730951
  0
VERTEX
  5
DA3
  8
SAPA_PROFIL
 10
75.000000000000227
 20
12.36000000000001
 30
0.0
  0
VERTEX
  5
DA4
  8
SAPA_PROFIL
 10
75.000000000000227
 20
12.350000000000019
 30
0.0
  0
VERTEX
  5
DA5
  8
SAPA_PROFIL
 10
73.750000000000227
 20
12.350000000000019
 30
0.0
  0
VERTEX
  5
DA6
  8
SAPA_PROFIL
 10
73.750000000000227
 20
10.850000000000019
 30
0.0
 42
0.4142135623730951
  0
VERTEX
  5
DA7
  8
SAPA_PROFIL
 10
74.250000000000213
 20
10.350000000000019
 30
0.0
  0
VERTEX
  5
DA8
  8
SAPA_PROFIL
 10
82.250000000000213
 20
10.350000000000019
 30
0.0
 42
0.4142135623730951
  0
VERTEX
  5
DA9
  8
SAPA_PROFIL
 10
82.750000000000227
 20
10.850000000000019
 30
0.0
  0
VERTEX
  5
DAA
  8
SAPA_PROFIL
 10
82.750000000000227
 20
12.350000000000019
 30
0.0
  0
VERTEX
  5
DAB
  8
SAPA_PROFIL
 10
81.500000000000227
 20
12.350000000000019
 30
0.0
  0
VERTEX
  5
DAC
  8
SAPA_PROFIL
 10
81.500000000000227
 20
12.36000000000001
 30
0.0
 42
-0.4142135623730951
  0
VERTEX
  5
DAD
  8
SAPA_PROFIL
 10
82.490000000000236
 20
13.349999999999961
 30
0.0
  0
VERTEX
  5
DAE
  8
SAPA_PROFIL
 10
83.700000000000159
 20
13.350000000000019
 30
0.0
 42
-0.4142135623731229
  0
VERTEX
  5
DAF
  8
SAPA_PROFIL
 10
84.000000000000227
 20
13.05000000000001
 30
0.0
  0
VERTEX
  5
DB0
  8
SAPA_PROFIL
 10
84.000000000000227
 20
9.1500000000000341
 30
0.0
 42
-0.4142135623730675
  0
VERTEX
  5
DB1
  8
SAPA_PROFIL
 10
83.700000000000159
 20
8.8500000000000227
 30
0.0
  0
VERTEX
  5
DB2
  8
SAPA_PROFIL
 10
6.300000000000181
 20
8.8499999999999641
 30
0.0
 42
-0.4142135623731227
  0
VERTEX
  5
DB3
  8
SAPA_PROFIL
 10
6.0000000000002274
 20
9.1499999999999773
 30
0.0
  0
VERTEX
  5
DB4
  8
SAPA_PROFIL
 10
6.0000000000002274
 20
10.64999999999997
 30
0.0
 42
-0.4142135623730951
  0
VERTEX
  5
DB5
  8
SAPA_PROFIL
 10
7.5000000000002274
 20
12.149999999999981
 30
0.0
  0
VERTEX
  5
DB6
  8
SAPA_PROFIL
 10
8.0000000000002274
 20
12.149999999999981
 30
0.0
  0
VERTEX
  5
DB7
  8
SAPA_PROFIL
 10
8.0000000000002274
 20
10.87499999999994
 30
0.0
  0
VERTEX
  5
DB8
  8
SAPA_PROFIL
 10
9.1000000000002501
 20
10.87499999999994
 30
0.0
  0
VERTEX
  5
DB9
  8
SAPA_PROFIL
 10
9.1000000000002501
 20
11.849999999999961
 30
0.0
 42
-0.4142135623731227
  0
VERTEX
  5
DBA
  8
SAPA_PROFIL
 10
9.4000000000002046
 20
12.14999999999992
 30
0.0
  0
VERTEX
  5
DBB
  8
SAPA_PROFIL
 10
10.400000000000199
 20
12.14999999999992
 30
0.0
  0
VERTEX
  5
DBC
  8
SAPA_PROFIL
 10
10.400000000000199
 20
10.87499999999994
 30
0.0
  0
VERTEX
  5
DBD
  8
SAPA_PROFIL
 10
13.50000000000022
 20
10.87499999999994
 30
0.0
 42
1.0
  0
VERTEX
  5
DBE
  8
SAPA_PROFIL
 10
13.50000000000022
 20
16.074999999999928
 30
0.0
  0
VERTEX
  5
DBF
  8
SAPA_PROFIL
 10
10.40000000000032
 20
16.074999999999989
 30
0.0
  0
VERTEX
  5
DC0
  8
SAPA_PROFIL
 10
10.40000000000032
 20
14.849999999999911
 30
0.0
  0
VERTEX
  5
DC1
  8
SAPA_PROFIL
 10
9.4000000000002046
 20
14.849999999999911
 30
0.0
 42
-0.4142135623730673
  0
VERTEX
  5
DC2
  8
SAPA_PROFIL
 10
9.1000000000002501
 20
15.14999999999992
 30
0.0
  0
VERTEX
  5
DC3
  8
SAPA_PROFIL
 10
9.1000000000002501
 20
16.074999999999989
 30
0.0
  0
VERTEX
  5
DC4
  8
SAPA_PROFIL
 10
8.0000000000002274
 20
16.074999999999989
 30
0.0
  0
VERTEX
  5
DC5
  8
SAPA_PROFIL
 10
8.0000000000002274
 20
14.849999999999961
 30
0.0
  0
VERTEX
  5
DC6
  8
SAPA_PROFIL
 10
7.5000000000002274
 20
14.849999999999961
 30
0.0
 42
-0.4142135623730951
  0
VERTEX
  5
DC7
  8
SAPA_PROFIL
 10
6.0000000000002274
 20
16.349999999999959
 30
0.0
  0
VERTEX
  5
DC8
  8
SAPA_PROFIL
 10
6.0000000000002274
 20
17.799999999999951
 30
0.0
 42
-0.4142135623731227
  0
VERTEX
  5
DC9
  8
SAPA_PROFIL
 10
6.300000000000181
 20
18.099999999999959
 30
0.0
  0
VERTEX
  5
DCA
  8
SAPA_PROFIL
 10
8.8000000000001801
 20
18.099999999999959
 30
0.0
  0
VERTEX
  5
DCB
  8
SAPA_PROFIL
 10
8.8000000000001801
 20
33.330384757729291
 30
0.0
  0
VERTEX
  5
DCC
  8
SAPA_PROFIL
 10
9.1000000000001364
 20
33.849999999999973
 30
0.0
  0
VERTEX
  5
DCD
  8
SAPA_PROFIL
 10
8.8000000000001801
 20
34.369615242270527
 30
0.0
  0
VERTEX
  5
DCE
  8
SAPA_PROFIL
 10
8.8000000000001801
 20
49.599999999999973
 30
0.0
  0
VERTEX
  5
DCF
  8
SAPA_PROFIL
 10
6.300000000000181
 20
49.599999999999973
 30
0.0
 42
-0.4142135623730951
  0
VERTEX
  5
DD0
  8
SAPA_PROFIL
 10
6.0000000000001128
 20
49.900000000000027
 30
0.0
  0
VERTEX
  5
DD1
  8
SAPA_PROFIL
 10
6.0000000000001128
 20
51.349999999999973
 30
0.0
 42
-0.4142135623730951
  0
VERTEX
  5
DD2
  8
SAPA_PROFIL
 10
7.5000000000001128
 20
52.849999999999959
 30
0.0
  0
VERTEX
  5
DD3
  8
SAPA_PROFIL
 10
8.0000000000001137
 20
52.849999999999959
 30
0.0
  0
VERTEX
  5
DD4
  8
SAPA_PROFIL
 10
8.0000000000001137
 20
51.624999999999943
 30
0.0
  0
VERTEX
  5
DD5
  8
SAPA_PROFIL
 10
9.1000000000001364
 20
51.624999999999943
 30
0.0
  0
VERTEX
  5
DD6
  8
SAPA_PROFIL
 10
9.1000000000001364
 20
52.550000000000011
 30
0.0
 42
-0.4142135623730951
  0
VERTEX
  5
DD7
  8
SAPA_PROFIL
 10
9.4000000000000892
 20
52.849999999999959
 30
0.0
  0
VERTEX
  5
DD8
  8
SAPA_PROFIL
 10
10.400000000000199
 20
52.849999999999959
 30
0.0
  0
VERTEX
  5
DD9
  8
SAPA_PROFIL
 10
10.400000000000199
 20
51.624999999999943
 30
0.0
  0
VERTEX
  5
DDA
  8
SAPA_PROFIL
 10
13.50000000000011
 20
51.624999999999943
 30
0.0
 42
1.0
  0
VERTEX
  5
DDB
  8
SAPA_PROFIL
 10
13.50000000000011
 20
56.824999999999989
 30
0.0
  0
VERTEX
  5
DDC
  8
SAPA_PROFIL
 10
10.400000000000199
 20
56.824999999999989
 30
0.0
  0
VERTEX
  5
DDD
  8
SAPA_PROFIL
 10
10.400000000000199
 20
55.550000000000011
 30
0.0
  0
VERTEX
  5
DDE
  8
SAPA_PROFIL
 10
9.4000000000002046
 20
55.550000000000011
 30
0.0
 42
-0.4142135623730951
  0
VERTEX
  5
DDF
  8
SAPA_PROFIL
 10
9.1000000000001364
 20
55.849999999999973
 30
0.0
  0
VERTEX
  5
DE0
  8
SAPA_PROFIL
 10
9.1000000000001364
 20
56.824999999999989
 30
0.0
  0
VERTEX
  5
DE1
  8
SAPA_PROFIL
 10
8.0000000000001137
 20
56.824999999999989
 30
0.0
  0
VERTEX
  5
DE2
  8
SAPA_PROFIL
 10
8.0000000000001137
 20
55.550000000000011
 30
0.0
  0
VERTEX
  5
DE3
  8
SAPA_PROFIL
 10
7.5000000000001128
 20
55.550000000000011
 30
0.0
 42
-0.4142135623730951
  0
VERTEX
  5
DE4
  8
SAPA_PROFIL
 10
6.0000000000001128
 20
57.050000000000011
 30
0.0
  0
VERTEX
  5
DE5
  8
SAPA_PROFIL
 10
6.0000000000001128
 20
58.550000000000011
 30
0.0
 42
-0.4142135623730951
  0
VERTEX
  5
DE6
  8
SAPA_PROFIL
 10
6.300000000000181
 20
58.849999999999973
 30
0.0
  0
VERTEX
  5
DE7
  8
SAPA_PROFIL
 10
62.000000000000107
 20
58.849999999999973
 30
0.0
  0
VERTEX
  5
DE8
  8
SAPA_PROFIL
 10
62.000000000000107
 20
55.849999999999973
 30
0.0
  0
SEQEND
  5
DE9
  8
SAPA_PROFIL
  0
POLYLINE
  5
93A
  8
SAPA_PROFIL
 66
     1
 10
0.0
 20
0.0
 30
0.0
 70
     1
  0
VERTEX
  5
DEA
  8
SAPA_PROFIL
 10
-78.0
 20
47.64999999999992
 30
0.0
 42
0.4142135623730951
  0
VERTEX
  5
DEB
  8
SAPA_PROFIL
 10
-77.699999999999989
 20
47.349999999999959
 30
0.0
  0
VERTEX
  5
DEC
  8
SAPA_PROFIL
 10
-76.490000000000066
 20
47.349999999999959
 30
0.0
 42
0.4142135623730951
  0
VERTEX
  5
DED
  8
SAPA_PROFIL
 10
-75.500000000000057
 20
48.339999999999968
 30
0.0
  0
VERTEX
  5
DEE
  8
SAPA_PROFIL
 10
-75.500000000000057
 20
48.550000000000011
 30
0.0
  0
VERTEX
  5
DEF
  8
SAPA_PROFIL
 10
-76.750000000000057
 20
48.550000000000011
 30
0.0
  0
VERTEX
  5
DF0
  8
SAPA_PROFIL
 10
-76.750000000000057
 20
49.849999999999959
 30
0.0
 42
-0.4142135623730951
  0
VERTEX
  5
DF1
  8
SAPA_PROFIL
 10
-76.250000000000057
 20
50.349999999999959
 30
0.0
  0
VERTEX
  5
DF2
  8
SAPA_PROFIL
 10
-68.250000000000057
 20
50.349999999999959
 30
0.0
 42
-0.4142135623730951
  0
VERTEX
  5
DF3
  8
SAPA_PROFIL
 10
-67.750000000000057
 20
49.849999999999959
 30
0.0
  0
VERTEX
  5
DF4
  8
SAPA_PROFIL
 10
-67.750000000000057
 20
48.550000000000011
 30
0.0
  0
VERTEX
  5
DF5
  8
SAPA_PROFIL
 10
-69.000000000000057
 20
48.550000000000011
 30
0.0
  0
VERTEX
  5
DF6
  8
SAPA_PROFIL
 10
-69.000000000000057
 20
48.339999999999968
 30
0.0
 42
0.4142135623730867
  0
VERTEX
  5
DF7
  8
SAPA_PROFIL
 10
-68.010000000000048
 20
47.349999999999959
 30
0.0
  0
VERTEX
  5
DF8
  8
SAPA_PROFIL
 10
-67.490000000000066
 20
47.349999999999959
 30
0.0
 42
0.4142135623730951
  0
VERTEX
  5
DF9
  8
SAPA_PROFIL
 10
-66.500000000000057
 20
48.339999999999968
 30
0.0
  0
VERTEX
  5
DFA
  8
SAPA_PROFIL
 10
-66.500000000000057
 20
50.550000000000011
 30
0.0
 42
0.4142135623730951
  0
VERTEX
  5
DFB
  8
SAPA_PROFIL
 10
-68.000000000000057
 20
52.050000000000011
 30
0.0
  0
VERTEX
  5
DFC
  8
SAPA_PROFIL
 10
-76.000000000000057
 20
52.050000000000011
 30
0.0
 42
-0.4142135623730951
  0
VERTEX
  5
DFD
  8
SAPA_PROFIL
 10
-76.500000000000057
 20
52.550000000000011
 30
0.0
  0
VERTEX
  5
DFE
  8
SAPA_PROFIL
 10
-76.500000000000057
 20
56.849999999999959
 30
0.0
 42
-0.4142135623730951
  0
VERTEX
  5
DFF
  8
SAPA_PROFIL
 10
-76.000000000000057
 20
57.349999999999959
 30
0.0
  0
VERTEX
  5
E00
  8
SAPA_PROFIL
 10
-63.258153378746222
 20
57.349999999999959
 30
0.0
 42
-0.493145426031308
  0
VERTEX
  5
E01
  8
SAPA_PROFIL
 10
-62.775190465601668
 20
56.720590477448638
 30
0.0
  0
VERTEX
  5
E02
  8
SAPA_PROFIL
 10
-63.241158122023542
 20
54.98157550899856
 30
0.0
 42
0.9999999999999452
  0
VERTEX
  5
E03
  8
SAPA_PROFIL
 10
-62.27523229573444
 20
54.722756463896019
 30
0.0
  0
VERTEX
  5
E04
  8
SAPA_PROFIL
 10
-61.91430624070199
 20
56.069750839052801
 30
0.0
 42
-0.6613727838043239
  0
VERTEX
  5
E05
  8
SAPA_PROFIL
 10
-59.9804109032927
 20
56.326611530029773
 30
0.0
  0
VERTEX
  5
E06
  8
SAPA_PROFIL
 10
-56.671264511915531
 20
50.59500185048131
 30
0.0
  0
VERTEX
  5
E07
  8
SAPA_PROFIL
 10
-56.671264511915531
 20
46.30692193816531
 30
0.0
  0
VERTEX
  5
E08
  8
SAPA_PROFIL
 10
-53.078483428499169
 20
42.149999999999977
 30
0.0
  0
VERTEX
  5
E09
  8
SAPA_PROFIL
 10
-53.078483428499112
 20
40.150000454912693
 30
0.0
 42
1.0
  0
VERTEX
  5
E0A
  8
SAPA_PROFIL
 10
-52.078483428499169
 20
40.14999999999997
 30
0.0
  0
VERTEX
  5
E0B
  8
SAPA_PROFIL
 10
-52.078483428499169
 20
42.349999999999959
 30
0.0
  0
VERTEX
  5
E0C
  8
SAPA_PROFIL
 10
-55.171264511915517
 20
46.424563148968161
 30
0.0
  0
VERTEX
  5
E0D
  8
SAPA_PROFIL
 10
-55.171264511915517
 20
50.996925639128051
 30
0.0
  0
VERTEX
  5
E0E
  8
SAPA_PROFIL
 10
-55.372226406238887
 20
51.34500185048131
 30
0.0
  0
VERTEX
  5
E0F
  8
SAPA_PROFIL
 10
-56.346953113330869
 20
52.599999999999973
 30
0.0
 42
-0.5773502691896074
  0
VERTEX
  5
E10
  8
SAPA_PROFIL
 10
-55.913940411438709
 20
53.349999999999973
 30
0.0
  0
VERTEX
  5
E11
  8
SAPA_PROFIL
 10
-55.729298545870513
 20
53.349999999999973
 30
0.0
  0
VERTEX
  5
E12
  8
SAPA_PROFIL
 10
-55.729298545870513
 20
54.849999999999959
 30
0.0
  0
VERTEX
  5
E13
  8
SAPA_PROFIL
 10
-57.107162896777822
 20
54.849999999999959
 30
0.0
 42
-0.2679491924311161
  0
VERTEX
  5
E14
  8
SAPA_PROFIL
 10
-57.540175598669983
 20
55.099999999999973
 30
0.0
  0
VERTEX
  5
E15
  8
SAPA_PROFIL
 10
-58.406201002454388
 20
56.599999999999959
 30
0.0
 42
-0.3494280882832233
  0
VERTEX
  5
E16
  8
SAPA_PROFIL
 10
-57.187594325157526
 20
57.349999999999959
 30
0.0
  0
VERTEX
  5
E17
  8
SAPA_PROFIL
 10
-56.928429243660162
 20
57.349999999999959
 30
0.0
  0
VERTEX
  5
E18
  8
SAPA_PROFIL
 10
-56.928429243660162
 20
57.560315061466262
 30
0.0
  0
VERTEX
  5
E19
  8
SAPA_PROFIL
 10
-56.928429243660162
 20
58.849999999999973
 30
0.0
  0
VERTEX
  5
E1A
  8
SAPA_PROFIL
 10
-77.699999999999989
 20
58.849999999999973
 30
0.0
 42
0.4142135623730951
  0
VERTEX
  5
E1B
  8
SAPA_PROFIL
 10
-78.0
 20
58.549999999999891
 30
0.0
  0
SEQEND
  5
E1C
  8
SAPA_PROFIL
  0
POLYLINE
  5
93B
  8
SAPA_PROFIL
 66
     1
 10
0.0
 20
0.0
 30
0.0
 70
     1
  0
VERTEX
  5
E1D
  8
SAPA_PROFIL
 10
-5.2999999999999536
 20
41.64999999999992
 30
0.0
  0
VERTEX
  5
E1E
  8
SAPA_PROFIL
 10
-5.2999999999999536
 20
49.12500000000005
 30
0.0
 42
0.4142135623730951
  0
VERTEX
  5
E1F
  8
SAPA_PROFIL
 10
-5.7999999999999536
 20
49.62500000000005
 30
0.0
  0
VERTEX
  5
E20
  8
SAPA_PROFIL
 10
-7.4999999999998863
 20
49.62499999999995
 30
0.0
 42
-0.4142135623730951
  0
VERTEX
  5
E21
  8
SAPA_PROFIL
 10
-12.099999999999911
 20
54.224999999999959
 30
0.0
  0
VERTEX
  5
E22
  8
SAPA_PROFIL
 10
-12.099999999999911
 20
56.050000000000011
 30
0.0
 42
0.4142135623730951
  0
VERTEX
  5
E23
  8
SAPA_PROFIL
 10
-13.099999999999911
 20
57.050000000000011
 30
0.0
  0
VERTEX
  5
E24
  8
SAPA_PROFIL
 10
-47.500000000000107
 20
57.049999999999898
 30
0.0
 42
0.4142135623730951
  0
VERTEX
  5
E25
  8
SAPA_PROFIL
 10
-48.500000000000121
 20
56.049999999999891
 30
0.0
  0
VERTEX
  5
E26
  8
SAPA_PROFIL
 10
-48.500000000000121
 20
35.949999999999882
 30
0.0
 42
-0.4142135623730951
  0
VERTEX
  5
E27
  8
SAPA_PROFIL
 10
-49.000000000000107
 20
35.449999999999868
 30
0.0
  0
VERTEX
  5
E28
  8
SAPA_PROFIL
 10
-49.700000000000053
 20
35.449999999999868
 30
0.0
 42
-0.4150844288340716
  0
VERTEX
  5
E29
  8
SAPA_PROFIL
 10
-50.199997791198818
 20
35.95148620197989
 30
0.0
 42
0.3121484461588222
  0
VERTEX
  5
E2A
  8
SAPA_PROFIL
 10
-50.522216822930432
 20
36.420299604839776
 30
0.0
 42
0.482358125222547
  0
VERTEX
  5
E2B
  8
SAPA_PROFIL
 10
-54.224395043236093
 20
34.22439504323637
 30
0.0
  0
VERTEX
  5
E2C
  8
SAPA_PROFIL
 10
-53.849999999999568
 20
33.849999999999973
 30
0.0
  0
VERTEX
  5
E2D
  8
SAPA_PROFIL
 10
-54.224395043236093
 20
33.475604956763448
 30
0.0
 42
0.4823574778722663
  0
VERTEX
  5
E2E
  8
SAPA_PROFIL
 10
-50.522222222222346
 20
31.279698341188631
 30
0.0
 42
0.311333703729445
  0
VERTEX
  5
E2F
  8
SAPA_PROFIL
 10
-50.200000000000038
 20
31.747025915517899
 30
0.0
  0
VERTEX
  5
E30
  8
SAPA_PROFIL
 10
-50.200000000000038
 20
31.74999999999994
 30
0.0
 42
-0.4142135623730951
  0
VERTEX
  5
E31
  8
SAPA_PROFIL
 10
-49.700000000000053
 20
32.249999999999943
 30
0.0
  0
VERTEX
  5
E32
  8
SAPA_PROFIL
 10
-49.000000000000107
 20
32.249999999999943
 30
0.0
 42
-0.4142135623731117
  0
VERTEX
  5
E33
  8
SAPA_PROFIL
 10
-48.5
 20
31.74999999999994
 30
0.0
  0
VERTEX
  5
E34
  8
SAPA_PROFIL
 10
-48.5
 20
11.649999999999981
 30
0.0
 42
0.4142135623730951
  0
VERTEX
  5
E35
  8
SAPA_PROFIL
 10
-47.5
 20
10.64999999999997
 30
0.0
  0
VERTEX
  5
E36
  8
SAPA_PROFIL
 10
-13.100000000000019
 20
10.64999999999997
 30
0.0
 42
0.4142135623730951
  0
VERTEX
  5
E37
  8
SAPA_PROFIL
 10
-12.100000000000019
 20
11.649999999999981
 30
0.0
  0
VERTEX
  5
E38
  8
SAPA_PROFIL
 10
-12.100000000000019
 20
13.474999999999961
 30
0.0
 42
-0.4142135623730914
  0
VERTEX
  5
E39
  8
SAPA_PROFIL
 10
-7.5
 20
18.074999999999928
 30
0.0
  0
VERTEX
  5
E3A
  8
SAPA_PROFIL
 10
-5.8000000000000682
 20
18.074999999999871
 30
0.0
 42
0.4142135623730951
  0
VERTEX
  5
E3B
  8
SAPA_PROFIL
 10
-5.3000000000000682
 20
18.574999999999871
 30
0.0
  0
VERTEX
  5
E3C
  8
SAPA_PROFIL
 10
-5.2999999999999536
 20
26.049999999999951
 30
0.0
 42
0.4142135623730951
  0
VERTEX
  5
E3D
  8
SAPA_PROFIL
 10
-5.6000000000000218
 20
26.349999999999859
 30
0.0
  0
VERTEX
  5
E3E
  8
SAPA_PROFIL
 10
-5.7000000000000446
 20
26.349999999999969
 30
0.0
 42
-0.4142135623730951
  0
VERTEX
  5
E3F
  8
SAPA_PROFIL
 10
-6.0
 20
26.64999999999992
 30
0.0
  0
VERTEX
  5
E40
  8
SAPA_PROFIL
 10
-6.0
 20
41.049999999999891
 30
0.0
 42
-0.4142135623730951
  0
VERTEX
  5
E41
  8
SAPA_PROFIL
 10
-5.7000000000000446
 20
41.349999999999852
 30
0.0
  0
VERTEX
  5
E42
  8
SAPA_PROFIL
 10
-5.6000000000000218
 20
41.349999999999973
 30
0.0
 42
0.4142135623730951
  0
SEQEND
  5
E43
  8
SAPA_PROFIL
  0
POLYLINE
  5
93C
  8
SAPA_PROFIL
 66
     1
 10
0.0
 20
0.0
 30
0.0
 70
     1
  0
VERTEX
  5
E44
  8
SAPA_PROFIL
 10
-54.999999999999893
 20
54.849999999999959
 30
0.0
  0
VERTEX
  5
E45
  8
SAPA_PROFIL
 10
-53.999999999999879
 20
54.849999999999959
 30
0.0
  0
VERTEX
  5
E46
  8
SAPA_PROFIL
 10
-53.999999999999879
 20
57.050000000000011
 30
0.0
  0
VERTEX
  5
E47
  8
SAPA_PROFIL
 10
-50.999999999999879
 20
57.050000000000011
 30
0.0
  0
VERTEX
  5
E48
  8
SAPA_PROFIL
 10
-51.0
 20
38.349999999999973
 30
0.0
  0
VERTEX
  5
E49
  8
SAPA_PROFIL
 10
-54.0
 20
38.349999999999973
 30
0.0
  0
VERTEX
  5
E4A
  8
SAPA_PROFIL
 10
-54.0
 20
40.849999999999959
 30
0.0
  0
VERTEX
  5
E4B
  8
SAPA_PROFIL
 10
-55.0
 20
40.849999999999959
 30
0.0
  0
VERTEX
  5
E4C
  8
SAPA_PROFIL
 10
-55.799999999999947
 20
40.049999999999898
 30
0.0
  0
VERTEX
  5
E4D
  8
SAPA_PROFIL
 10
-55.799999999999947
 20
34.36961524227064
 30
0.0
  0
VERTEX
  5
E4E
  8
SAPA_PROFIL
 10
-55.5
 20
33.849999999999973
 30
0.0
  0
VERTEX
  5
E4F
  8
SAPA_PROFIL
 10
-55.799999999999947
 20
33.330384757729291
 30
0.0
  0
VERTEX
  5
E50
  8
SAPA_PROFIL
 10
-55.799999999999947
 20
27.64999999999992
 30
0.0
  0
VERTEX
  5
E51
  8
SAPA_PROFIL
 10
-55.0
 20
26.849999999999969
 30
0.0
  0
VERTEX
  5
E52
  8
SAPA_PROFIL
 10
-54.0
 20
26.849999999999969
 30
0.0
  0
VERTEX
  5
E53
  8
SAPA_PROFIL
 10
-54.0
 20
29.349999999999969
 30
0.0
  0
VERTEX
  5
E54
  8
SAPA_PROFIL
 10
-51.0
 20
29.349999999999969
 30
0.0
  0
VERTEX
  5
E55
  8
SAPA_PROFIL
 10
-51.0
 20
10.64999999999997
 30
0.0
  0
VERTEX
  5
E56
  8
SAPA_PROFIL
 10
-54.0
 20
10.64999999999997
 30
0.0
  0
VERTEX
  5
E57
  8
SAPA_PROFIL
 10
-54.0
 20
12.849999999999961
 30
0.0
  0
VERTEX
  5
E58
  8
SAPA_PROFIL
 10
-55.0
 20
12.849999999999961
 30
0.0
  0
VERTEX
  5
E59
  8
SAPA_PROFIL
 10
-56.0
 20
11.849999999999961
 30
0.0
  0
VERTEX
  5
E5A
  8
SAPA_PROFIL
 10
-56.0
 20
10.64999999999997
 30
0.0
  0
VERTEX
  5
E5B
  8
SAPA_PROFIL
 10
-66.0
 20
10.650000000000031
 30
0.0
 42
-0.4142135623730951
  0
VERTEX
  5
E5C
  8
SAPA_PROFIL
 10
-66.5
 20
11.150000000000031
 30
0.0
  0
VERTEX
  5
E5D
  8
SAPA_PROFIL
 10
-66.5
 20
12.36000000000001
 30
0.0
 42
0.4142135623730951
  0
VERTEX
  5
E5E
  8
SAPA_PROFIL
 10
-67.490000000000009
 20
13.349999999999961
 30
0.0
  0
VERTEX
  5
E5F
  8
SAPA_PROFIL
 10
-68.009999999999991
 20
13.350000000000019
 30
0.0
 42
0.4142135623730951
  0
VERTEX
  5
E60
  8
SAPA_PROFIL
 10
-69.0
 20
12.36000000000001
 30
0.0
  0
VERTEX
  5
E61
  8
SAPA_PROFIL
 10
-69.0
 20
12.350000000000019
 30
0.0
  0
VERTEX
  5
E62
  8
SAPA_PROFIL
 10
-67.75
 20
12.350000000000019
 30
0.0
  0
VERTEX
  5
E63
  8
SAPA_PROFIL
 10
-67.75
 20
10.850000000000019
 30
0.0
 42
-0.4142135623730951
  0
VERTEX
  5
E64
  8
SAPA_PROFIL
 10
-68.25
 20
10.350000000000019
 30
0.0
  0
VERTEX
  5
E65
  8
SAPA_PROFIL
 10
-76.25
 20
10.350000000000019
 30
0.0
 42
-0.4142135623730951
  0
VERTEX
  5
E66
  8
SAPA_PROFIL
 10
-76.75
 20
10.850000000000019
 30
0.0
  0
VERTEX
  5
E67
  8
SAPA_PROFIL
 10
-76.75
 20
12.350000000000019
 30
0.0
  0
VERTEX
  5
E68
  8
SAPA_PROFIL
 10
-75.5
 20
12.350000000000019
 30
0.0
  0
VERTEX
  5
E69
  8
SAPA_PROFIL
 10
-75.5
 20
12.36000000000001
 30
0.0
 42
0.4142135623730951
  0
VERTEX
  5
E6A
  8
SAPA_PROFIL
 10
-76.489999999999995
 20
13.349999999999961
 30
0.0
  0
VERTEX
  5
E6B
  8
SAPA_PROFIL
 10
-77.699999999999932
 20
13.350000000000019
 30
0.0
 42
0.4142135623731229
  0
VERTEX
  5
E6C
  8
SAPA_PROFIL
 10
-78.0
 20
13.05000000000001
 30
0.0
  0
VERTEX
  5
E6D
  8
SAPA_PROFIL
 10
-78.0
 20
9.1500000000000341
 30
0.0
 42
0.4142135623730675
  0
VERTEX
  5
E6E
  8
SAPA_PROFIL
 10
-77.699999999999932
 20
8.8500000000000227
 30
0.0
  0
VERTEX
  5
E6F
  8
SAPA_PROFIL
 10
-0.2999999999999545
 20
8.8499999999999641
 30
0.0
 42
0.4142135623731227
  0
VERTEX
  5
E70
  8
SAPA_PROFIL
 10
0.0
 20
9.1499999999999773
 30
0.0
  0
VERTEX
  5
E71
  8
SAPA_PROFIL
 10
0.0
 20
10.64999999999997
 30
0.0
 42
0.4142135623730951
  0
VERTEX
  5
E72
  8
SAPA_PROFIL
 10
-1.5
 20
12.149999999999981
 30
0.0
  0
VERTEX
  5
E73
  8
SAPA_PROFIL
 10
-2.0
 20
12.149999999999981
 30
0.0
  0
VERTEX
  5
E74
  8
SAPA_PROFIL
 10
-2.0
 20
10.87499999999994
 30
0.0
  0
VERTEX
  5
E75
  8
SAPA_PROFIL
 10
-3.1000000000000218
 20
10.87499999999994
 30
0.0
  0
VERTEX
  5
E76
  8
SAPA_PROFIL
 10
-3.1000000000000218
 20
11.849999999999961
 30
0.0
 42
0.4142135623731227
  0
VERTEX
  5
E77
  8
SAPA_PROFIL
 10
-3.3999999999999768
 20
12.14999999999992
 30
0.0
  0
VERTEX
  5
E78
  8
SAPA_PROFIL
 10
-4.3999999999999773
 20
12.14999999999992
 30
0.0
  0
VERTEX
  5
E79
  8
SAPA_PROFIL
 10
-4.3999999999999773
 20
10.87499999999994
 30
0.0
  0
VERTEX
  5
E7A
  8
SAPA_PROFIL
 10
-7.5
 20
10.87499999999994
 30
0.0
 42
-1.0
  0
VERTEX
  5
E7B
  8
SAPA_PROFIL
 10
-7.5
 20
16.074999999999928
 30
0.0
  0
VERTEX
  5
E7C
  8
SAPA_PROFIL
 10
-4.4000000000000901
 20
16.074999999999989
 30
0.0
  0
VERTEX
  5
E7D
  8
SAPA_PROFIL
 10
-4.4000000000000901
 20
14.849999999999911
 30
0.0
  0
VERTEX
  5
E7E
  8
SAPA_PROFIL
 10
-3.3999999999999768
 20
14.849999999999911
 30
0.0
 42
0.4142135623730673
  0
VERTEX
  5
E7F
  8
SAPA_PROFIL
 10
-3.1000000000000218
 20
15.14999999999992
 30
0.0
  0
VERTEX
  5
E80
  8
SAPA_PROFIL
 10
-3.1000000000000218
 20
16.074999999999989
 30
0.0
  0
VERTEX
  5
E81
  8
SAPA_PROFIL
 10
-2.0
 20
16.074999999999989
 30
0.0
  0
VERTEX
  5
E82
  8
SAPA_PROFIL
 10
-2.0
 20
14.849999999999961
 30
0.0
  0
VERTEX
  5
E83
  8
SAPA_PROFIL
 10
-1.5
 20
14.849999999999961
 30
0.0
 42
0.4142135623730951
  0
VERTEX
  5
E84
  8
SAPA_PROFIL
 10
0.0
 20
16.349999999999959
 30
0.0
  0
VERTEX
  5
E85
  8
SAPA_PROFIL
 10
0.0
 20
17.799999999999951
 30
0.0
 42
0.4142135623731227
  0
VERTEX
  5
E86
  8
SAPA_PROFIL
 10
-0.2999999999999545
 20
18.099999999999959
 30
0.0
  0
VERTEX
  5
E87
  8
SAPA_PROFIL
 10
-2.7999999999999541
 20
18.099999999999959
 30
0.0
  0
VERTEX
  5
E88
  8
SAPA_PROFIL
 10
-2.7999999999999541
 20
33.330384757729291
 30
0.0
  0
VERTEX
  5
E89
  8
SAPA_PROFIL
 10
-3.0999999999999091
 20
33.849999999999973
 30
0.0
  0
VERTEX
  5
E8A
  8
SAPA_PROFIL
 10
-2.7999999999999541
 20
34.369615242270527
 30
0.0
  0
VERTEX
  5
E8B
  8
SAPA_PROFIL
 10
-2.7999999999999541
 20
49.599999999999973
 30
0.0
  0
VERTEX
  5
E8C
  8
SAPA_PROFIL
 10
-0.2999999999999545
 20
49.599999999999973
 30
0.0
 42
0.4142135623730951
  0
VERTEX
  5
E8D
  8
SAPA_PROFIL
 10
0.0000000000001137
 20
49.900000000000027
 30
0.0
  0
VERTEX
  5
E8E
  8
SAPA_PROFIL
 10
0.0000000000001137
 20
51.349999999999973
 30
0.0
 42
0.4142135623730951
  0
VERTEX
  5
E8F
  8
SAPA_PROFIL
 10
-1.4999999999998861
 20
52.849999999999959
 30
0.0
  0
VERTEX
  5
E90
  8
SAPA_PROFIL
 10
-1.9999999999998861
 20
52.849999999999959
 30
0.0
  0
VERTEX
  5
E91
  8
SAPA_PROFIL
 10
-1.9999999999998861
 20
51.624999999999943
 30
0.0
  0
VERTEX
  5
E92
  8
SAPA_PROFIL
 10
-3.0999999999999091
 20
51.624999999999943
 30
0.0
  0
VERTEX
  5
E93
  8
SAPA_PROFIL
 10
-3.0999999999999091
 20
52.550000000000011
 30
0.0
 42
0.4142135623730951
  0
VERTEX
  5
E94
  8
SAPA_PROFIL
 10
-3.3999999999998631
 20
52.849999999999959
 30
0.0
  0
VERTEX
  5
E95
  8
SAPA_PROFIL
 10
-4.3999999999999773
 20
52.849999999999959
 30
0.0
  0
VERTEX
  5
E96
  8
SAPA_PROFIL
 10
-4.3999999999999773
 20
51.624999999999943
 30
0.0
  0
VERTEX
  5
E97
  8
SAPA_PROFIL
 10
-7.4999999999998863
 20
51.624999999999943
 30
0.0
 42
-1.0
  0
VERTEX
  5
E98
  8
SAPA_PROFIL
 10
-7.4999999999998863
 20
56.824999999999989
 30
0.0
  0
VERTEX
  5
E99
  8
SAPA_PROFIL
 10
-4.3999999999999773
 20
56.824999999999989
 30
0.0
  0
VERTEX
  5
E9A
  8
SAPA_PROFIL
 10
-4.3999999999999773
 20
55.550000000000011
 30
0.0
  0
VERTEX
  5
E9B
  8
SAPA_PROFIL
 10
-3.3999999999999768
 20
55.550000000000011
 30
0.0
 42
0.4142135623730951
  0
VERTEX
  5
E9C
  8
SAPA_PROFIL
 10
-3.0999999999999091
 20
55.849999999999973
 30
0.0
  0
VERTEX
  5
E9D
  8
SAPA_PROFIL
 10
-3.0999999999999091
 20
56.824999999999989
 30
0.0
  0
VERTEX
  5
E9E
  8
SAPA_PROFIL
 10
-1.9999999999998861
 20
56.824999999999989
 30
0.0
  0
VERTEX
  5
E9F
  8
SAPA_PROFIL
 10
-1.9999999999998861
 20
55.550000000000011
 30
0.0
  0
VERTEX
  5
EA0
  8
SAPA_PROFIL
 10
-1.4999999999998861
 20
55.550000000000011
 30
0.0
 42
0.4142135623730951
  0
VERTEX
  5
EA1
  8
SAPA_PROFIL
 10
0.0000000000001137
 20
57.050000000000011
 30
0.0
  0
VERTEX
  5
EA2
  8
SAPA_PROFIL
 10
0.0000000000001137
 20
58.550000000000011
 30
0.0
 42
0.4142135623730951
  0
VERTEX
  5
EA3
  8
SAPA_PROFIL
 10
-0.2999999999999545
 20
58.849999999999973
 30
0.0
  0
VERTEX
  5
EA4
  8
SAPA_PROFIL
 10
-55.999999999999879
 20
58.849999999999973
 30
0.0
  0
VERTEX
  5
EA5
  8
SAPA_PROFIL
 10
-55.999999999999879
 20
55.849999999999973
 30
0.0
  0
SEQEND
  5
EA6
  8
SAPA_PROFIL
  0
POLYLINE
  5
962
  8
SAPA_GLAS
 66
     1
 10
0.0
 20
0.0
 30
0.0
  0
VERTEX
  5
ED1
  8
SAPA_GLAS
 10
-89.799999999999983
 20
35.250000000000057
 30
0.0
  0
VERTEX
  5
ED2
  8
SAPA_GLAS
 10
-61.000000000000199
 20
35.250000000000057
 30
0.0
  0
VERTEX
  5
ED3
  8
SAPA_GLAS
 10
-61.000000000000199
 20
41.250000000000057
 30
0.0
  0
VERTEX
  5
ED4
  8
SAPA_GLAS
 10
-89.799999999999983
 20
41.249999999999829
 30
0.0
  0
SEQEND
  5
ED5
  8
SAPA_GLAS
  0
POLYLINE
  5
963
  8
SAPA_GLAS
 66
     1
 10
0.0
 20
0.0
 30
0.0
 70
     1
  0
VERTEX
  5
ED6
  8
SAPA_GLAS
 10
-71.000000000000313
 20
23.25000000000006
 30
0.0
  0
VERTEX
  5
ED7
  8
SAPA_GLAS
 10
-71.000000000000313
 20
35.250000000000057
 30
0.0
  0
VERTEX
  5
ED8
  8
SAPA_GLAS
 10
-61.000000000000199
 20
35.250000000000057
 30
0.0
  0
VERTEX
  5
ED9
  8
SAPA_GLAS
 10
-61.000000000000199
 20
23.25000000000006
 30
0.0
  0
SEQEND
  5
EDA
  8
SAPA_GLAS
  0
POLYLINE
  5
964
  8
SAPA_GLAS
 66
     1
 10
0.0
 20
0.0
 30
0.0
  0
VERTEX
  5
EDB
  8
SAPA_GLAS
 10
-89.799999999999983
 20
17.25000000000006
 30
0.0
  0
VERTEX
  5
EDC
  8
SAPA_GLAS
 10
-61.000000000000199
 20
17.25000000000006
 30
0.0
  0
VERTEX
  5
EDD
  8
SAPA_GLAS
 10
-61.000000000000199
 20
23.25000000000006
 30
0.0
  0
VERTEX
  5
EDE
  8
SAPA_GLAS
 10
-89.799999999999983
 20
23.25000000000006
 30
0.0
  0
SEQEND
  5
EDF
  8
SAPA_GLAS
  0
POLYLINE
  5
965
  8
SAPA_GLAS
 66
     1
 10
0.0
 20
0.0
 30
0.0
  0
VERTEX
  5
EE0
  8
SAPA_GLAS
 10
95.80000000000021
 20
35.250000000000057
 30
0.0
  0
VERTEX
  5
EE1
  8
SAPA_GLAS
 10
67.000000000000426
 20
35.250000000000057
 30
0.0
  0
VERTEX
  5
EE2
  8
SAPA_GLAS
 10
67.000000000000426
 20
41.250000000000057
 30
0.0
  0
VERTEX
  5
EE3
  8
SAPA_GLAS
 10
95.80000000000021
 20
41.249999999999829
 30
0.0
  0
SEQEND
  5
EE4
  8
SAPA_GLAS
  0
POLYLINE
  5
966
  8
SAPA_GLAS
 66
     1
 10
0.0
 20
0.0
 30
0.0
 70
     1
  0
VERTEX
  5
EE5
  8
SAPA_GLAS
 10
77.00000000000054
 20
23.25000000000006
 30
0.0
  0
VERTEX
  5
EE6
  8
SAPA_GLAS
 10
77.00000000000054
 20
35.250000000000057
 30
0.0
  0
VERTEX
  5
EE7
  8
SAPA_GLAS
 10
67.000000000000426
 20
35.250000000000057
 30
0.0
  0
VERTEX
  5
EE8
  8
SAPA_GLAS
 10
67.000000000000426
 20
23.25000000000006
 30
0.0
  0
SEQEND
  5
EE9
  8
SAPA_GLAS
  0
POLYLINE
  5
967
  8
SAPA_GLAS
 66
     1
 10
0.0
 20
0.0
 30
0.0
  0
VERTEX
  5
EEA
  8
SAPA_GLAS
 10
95.80000000000021
 20
17.25000000000006
 30
0.0
  0
VERTEX
  5
EEB
  8
SAPA_GLAS
 10
67.000000000000426
 20
17.25000000000006
 30
0.0
  0
VERTEX
  5
EEC
  8
SAPA_GLAS
 10
67.000000000000426
 20
23.25000000000006
 30
0.0
  0
VERTEX
  5
EED
  8
SAPA_GLAS
 10
95.80000000000021
 20
23.25000000000006
 30
0.0
  0
SEQEND
  5
EEE
  8
SAPA_GLAS
  0
POLYLINE
  5
978
  8
SAPA_FOGBAND
 66
     1
 10
0.0
 20
0.0
 30
0.0
 70
     1
  0
VERTEX
  5
FFD
  8
SAPA_FOGBAND
 10
0.9169627533631513
 20
10.7725824322041
 30
0.0
  0
VERTEX
  5
FFE
  8
SAPA_FOGBAND
 10
0.9169627533631513
 20
16.165622055413682
 30
0.0
 42
-0.4738611492357303
  0
SEQEND
  5
FFF
  8
SAPA_FOGBAND
  0
POLYLINE
  5
979
  8
SAPA_FOGBAND
 66
     1
 10
0.0
 20
0.0
 30
0.0
 70
     1
  0
VERTEX
  5
1000
  8
SAPA_FOGBAND
 10
-0.8648789335867093
 20
12.57255497975984
 30
0.0
  0
VERTEX
  5
1001
  8
SAPA_FOGBAND
 10
-2.0000000000000848
 20
12.57255497975984
 30
0.0
  0
VERTEX
  5
1002
  8
SAPA_FOGBAND
 10
-2.3684164864675661
 20
11.90044382201517
 30
0.0
  0
VERTEX
  5
1003
  8
SAPA_FOGBAND
 10
-2.86129800214698
 20
12.57255497975984
 30
0.0
  0
VERTEX
  5
1004
  8
SAPA_FOGBAND
 10
-4.8378026660334106
 20
12.57255497975984
 30
0.0
  0
VERTEX
  5
1005
  8
SAPA_FOGBAND
 10
-4.8378026660334106
 20
11.3627548958193
 30
0.0
  0
VERTEX
  5
1006
  8
SAPA_FOGBAND
 10
-7.3246139301620303
 20
13.103925829536591
 30
0.0
 42
-0.520586437893792
  0
VERTEX
  5
1007
  8
SAPA_FOGBAND
 10
-7.324613930162144
 20
13.923095371668291
 30
0.0
  0
VERTEX
  5
1008
  8
SAPA_FOGBAND
 10
-4.8378026660334106
 20
15.66426630538569
 30
0.0
  0
VERTEX
  5
1009
  8
SAPA_FOGBAND
 10
-4.8378026660334106
 20
14.454466221445159
 30
0.0
  0
VERTEX
  5
100A
  8
SAPA_FOGBAND
 10
-2.86129800214698
 20
14.454466221445159
 30
0.0
  0
VERTEX
  5
100B
  8
SAPA_FOGBAND
 10
-2.3684164864675661
 20
15.126577379189939
 30
0.0
  0
VERTEX
  5
100C
  8
SAPA_FOGBAND
 10
-2.0000000000000848
 20
14.454466221445159
 30
0.0
  0
VERTEX
  5
100D
  8
SAPA_FOGBAND
 10
-0.8648789335867093
 20
14.454466221445159
 30
0.0
 42
0.2915551853799308
  0
VERTEX
  5
100E
  8
SAPA_FOGBAND
 10
0.2243350116489466
 20
16.061539135131049
 30
0.0
  0
VERTEX
  5
100F
  8
SAPA_FOGBAND
 10
0.2243350116481508
 20
17.498281886609451
 30
0.0
 42
-0.692495361703289
  0
VERTEX
  5
1010
  8
SAPA_FOGBAND
 10
0.224917602965121
 20
9.4401415264836714
 30
0.0
  0
VERTEX
  5
1011
  8
SAPA_FOGBAND
 10
0.224917602965121
 20
10.93682680259405
 30
0.0
 42
0.2958644904018718
  0
SEQEND
  5
1012
  8
SAPA_FOGBAND
  0
POLYLINE
  5
97A
  8
SAPA_FOGBAND
 66
     1
 10
0.0
 20
0.0
 30
0.0
 70
     1
  0
VERTEX
  5
1013
  8
SAPA_FOGBAND
 10
-0.8648789335867093
 20
55.12744502024168
 30
0.0
  0
VERTEX
  5
1014
  8
SAPA_FOGBAND
 10
-2.0000000000000848
 20
55.12744502024168
 30
0.0
  0
VERTEX
  5
1015
  8
SAPA_FOGBAND
 10
-2.3684164864675661
 20
55.799556177986346
 30
0.0
  0
VERTEX
  5
1016
  8
SAPA_FOGBAND
 10
-2.86129800214698
 20
55.12744502024168
 30
0.0
  0
VERTEX
  5
1017
  8
SAPA_FOGBAND
 10
-4.8378026660334106
 20
55.12744502024168
 30
0.0
  0
VERTEX
  5
1018
  8
SAPA_FOGBAND
 10
-4.8378026660334106
 20
56.337245104182223
 30
0.0
  0
VERTEX
  5
1019
  8
SAPA_FOGBAND
 10
-7.3246139301620303
 20
54.596074170464931
 30
0.0
 42
0.520586437893792
  0
VERTEX
  5
101A
  8
SAPA_FOGBAND
 10
-7.324613930162144
 20
53.776904628333227
 30
0.0
  0
VERTEX
  5
101B
  8
SAPA_FOGBAND
 10
-4.8378026660334106
 20
52.035733694615828
 30
0.0
  0
VERTEX
  5
101C
  8
SAPA_FOGBAND
 10
-4.8378026660334106
 20
53.245533778556357
 30
0.0
  0
VERTEX
  5
101D
  8
SAPA_FOGBAND
 10
-2.86129800214698
 20
53.245533778556357
 30
0.0
  0
VERTEX
  5
101E
  8
SAPA_FOGBAND
 10
-2.3684164864675661
 20
52.573422620811577
 30
0.0
  0
VERTEX
  5
101F
  8
SAPA_FOGBAND
 10
-2.0000000000000848
 20
53.245533778556357
 30
0.0
  0
VERTEX
  5
1020
  8
SAPA_FOGBAND
 10
-0.8648789335867093
 20
53.245533778556357
 30
0.0
 42
-0.2915551853799308
  0
VERTEX
  5
1021
  8
SAPA_FOGBAND
 10
0.2243350116489466
 20
51.638460864870467
 30
0.0
  0
VERTEX
  5
1022
  8
SAPA_FOGBAND
 10
0.2243350116481508
 20
50.201718113392069
 30
0.0
 42
0.692495361703289
  0
VERTEX
  5
1023
  8
SAPA_FOGBAND
 10
0.224917602965121
 20
58.259858473517852
 30
0.0
  0
VERTEX
  5
1024
  8
SAPA_FOGBAND
 10
0.224917602965121
 20
56.763173197407461
 30
0.0
 42
-0.2958644904018718
  0
SEQEND
  5
1025
  8
SAPA_FOGBAND
  0
POLYLINE
  5
97B
  8
SAPA_FOGBAND
 66
     1
 10
0.0
 20
0.0
 30
0.0
 70
     1
  0
VERTEX
  5
1026
  8
SAPA_FOGBAND
 10
0.9169627533631513
 20
56.92741756779742
 30
0.0
  0
VERTEX
  5
1027
  8
SAPA_FOGBAND
 10
0.9169627533631513
 20
51.534377944587852
 30
0.0
 42
0.4738611492357303
  0
SEQEND
  5
1028
  8
SAPA_FOGBAND
  0
POLYLINE
  5
97C
  8
SAPA_FOGBAND
 66
     1
 10
0.0
 20
0.0
 30
0.0
 70
     1
  0
VERTEX
  5
1029
  8
SAPA_FOGBAND
 10
-67.497490090368132
 20
47.353752012779118
 30
0.0
  0
VERTEX
  5
102A
  8
SAPA_FOGBAND
 10
-68.697490090368177
 20
47.353752012779118
 30
0.0
 42
-0.4142135623730951
  0
VERTEX
  5
102B
  8
SAPA_FOGBAND
 10
-68.997490090368132
 20
47.653752012779073
 30
0.0
  0
VERTEX
  5
102C
  8
SAPA_FOGBAND
 10
-68.997490090368132
 20
48.553752012779171
 30
0.0
  0
VERTEX
  5
102D
  8
SAPA_FOGBAND
 10
-68.647490090367995
 20
48.553752012779171
 30
0.0
 42
0.6681786379192988
  0
VERTEX
  5
102E
  8
SAPA_FOGBAND
 10
-68.435358056012063
 20
49.065884047134936
 30
0.0
  0
VERTEX
  5
102F
  8
SAPA_FOGBAND
 10
-69.288911446605283
 20
49.919437437728277
 30
0.0
 42
0.1989123673796552
  0
VERTEX
  5
1030
  8
SAPA_FOGBAND
 10
-69.854596871554662
 20
50.15375201277908
 30
0.0
  0
VERTEX
  5
1031
  8
SAPA_FOGBAND
 10
-70.017291993974453
 20
50.15375201277908
 30
0.0
 42
0.3394542588633746
  0
VERTEX
  5
1032
  8
SAPA_FOGBAND
 10
-70.307069741861227
 20
49.931397726309861
 30
0.0
  0
VERTEX
  5
1033
  8
SAPA_FOGBAND
 10
-70.670218985251125
 20
48.576106299248352
 30
0.0
 42
-0.3394542588633746
  0
VERTEX
  5
1034
  8
SAPA_FOGBAND
 10
-70.959996733137899
 20
48.353752012779118
 30
0.0
  0
VERTEX
  5
1035
  8
SAPA_FOGBAND
 10
-73.534983447598364
 20
48.353752012779118
 30
0.0
 42
-0.3394542588633746
  0
VERTEX
  5
1036
  8
SAPA_FOGBAND
 10
-73.824761195485124
 20
48.576106299248352
 30
0.0
  0
VERTEX
  5
1037
  8
SAPA_FOGBAND
 10
-74.187910438875036
 20
49.931397726309861
 30
0.0
 42
0.3394542588633744
  0
VERTEX
  5
1038
  8
SAPA_FOGBAND
 10
-74.47768818676181
 20
50.15375201277908
 30
0.0
  0
VERTEX
  5
1039
  8
SAPA_FOGBAND
 10
-74.640383309181601
 20
50.15375201277908
 30
0.0
 42
0.1989123673796526
  0
VERTEX
  5
103A
  8
SAPA_FOGBAND
 10
-75.206068734130753
 20
49.919437437728277
 30
0.0
  0
VERTEX
  5
103B
  8
SAPA_FOGBAND
 10
-76.059622124724086
 20
49.065884047134936
 30
0.0
 42
0.6681786379193474
  0
VERTEX
  5
103C
  8
SAPA_FOGBAND
 10
-75.847490090368254
 20
48.553752012779171
 30
0.0
  0
VERTEX
  5
103D
  8
SAPA_FOGBAND
 10
-75.497490090368132
 20
48.553752012779171
 30
0.0
  0
VERTEX
  5
103E
  8
SAPA_FOGBAND
 10
-75.497490090368132
 20
47.653752012779073
 30
0.0
 42
-0.4142135623730951
  0
VERTEX
  5
103F
  8
SAPA_FOGBAND
 10
-75.797490090368086
 20
47.353752012779118
 30
0.0
  0
VERTEX
  5
1040
  8
SAPA_FOGBAND
 10
-77.897490090368223
 20
47.353752012779118
 30
0.0
 42
-0.4142135623730951
  0
VERTEX
  5
1041
  8
SAPA_FOGBAND
 10
-78.197490090368177
 20
47.653752012779073
 30
0.0
  0
VERTEX
  5
1042
  8
SAPA_FOGBAND
 10
-78.197490090368177
 20
49.053752012779171
 30
0.0
 42
0.7754026414786132
  0
VERTEX
  5
1043
  8
SAPA_FOGBAND
 10
-78.760282085775856
 20
49.19845988108505
 30
0.0
 42
-0.1137347954614569
  0
VERTEX
  5
1044
  8
SAPA_FOGBAND
 10
-82.910330244366463
 20
41.721972122760292
 30
0.0
 42
0.8680589103334746
  0
VERTEX
  5
1045
  8
SAPA_FOGBAND
 10
-82.435406214602921
 20
41.365132220098587
 30
0.0
  0
VERTEX
  5
1046
  8
SAPA_FOGBAND
 10
-78.465370817451074
 20
43.741337909430342
 30
0.0
 42
-0.1989123673796536
  0
VERTEX
  5
1047
  8
SAPA_FOGBAND
 10
-77.758264036264649
 20
44.034231128243668
 30
0.0
  0
VERTEX
  5
1048
  8
SAPA_FOGBAND
 10
-74.924945071844917
 20
44.034231128243668
 30
0.0
 42
-0.577350269189628
  0
VERTEX
  5
1049
  8
SAPA_FOGBAND
 10
-74.665137450709466
 20
43.58423112824385
 30
0.0
  0
VERTEX
  5
104A
  8
SAPA_FOGBAND
 10
-76.803266147121207
 20
41.731071656701538
 30
0.0
 42
0.8769764629927301
  0
VERTEX
  5
104B
  8
SAPA_FOGBAND
 10
-76.331326491629937
 20
41.368939622345401
 30
0.0
  0
VERTEX
  5
104C
  8
SAPA_FOGBAND
 10
-72.365098496725267
 20
43.741337909430342
 30
0.0
 42
-0.198912367379658
  0
VERTEX
  5
104D
  8
SAPA_FOGBAND
 10
-71.657991715538714
 20
44.034231128243668
 30
0.0
  0
VERTEX
  5
104E
  8
SAPA_FOGBAND
 10
-69.425717353317026
 20
44.034231128243668
 30
0.0
 42
-0.5773502691896441
  0
VERTEX
  5
104F
  8
SAPA_FOGBAND
 10
-69.165909732181802
 20
43.58423112824385
 30
0.0
  0
VERTEX
  5
1050
  8
SAPA_FOGBAND
 10
-71.303536853711051
 20
41.731940409881922
 30
0.0
 42
0.87697646299276
  0
VERTEX
  5
1051
  8
SAPA_FOGBAND
 10
-70.831597198219782
 20
41.369808375525793
 30
0.0
  0
VERTEX
  5
1052
  8
SAPA_FOGBAND
 10
-66.790383309181578
 20
43.817192556744033
 30
0.0
 42
0.198912367379658
  0
VERTEX
  5
1053
  8
SAPA_FOGBAND
 10
-66.497490090368132
 20
44.524299337930472
 30
0.0
  0
VERTEX
  5
1054
  8
SAPA_FOGBAND
 10
-66.497490090368132
 20
46.353752012779118
 30
0.0
  0
VERTEX
  5
1055
  8
SAPA_FOGBAND
 10
-66.497490090368132
 20
46.343820222465922
 30
0.0
  0
SEQEND
  5
1056
  8
SAPA_FOGBAND
  0
POLYLINE
  5
97D
  8
SAPA_FOGBAND
 66
     1
 10
0.0
 20
0.0
 30
0.0
 70
     1
  0
VERTEX
  5
1057
  8
SAPA_FOGBAND
 10
-66.437172509476994
 20
14.2726130127649
 30
0.0
 42
-0.4142135623730951
  0
VERTEX
  5
1058
  8
SAPA_FOGBAND
 10
-67.437172509476994
 20
13.272613012764911
 30
0.0
  0
VERTEX
  5
1059
  8
SAPA_FOGBAND
 10
-68.63717250947704
 20
13.272613012764911
 30
0.0
 42
0.4142135623730951
  0
VERTEX
  5
105A
  8
SAPA_FOGBAND
 10
-68.937172509476994
 20
12.972613012764951
 30
0.0
  0
VERTEX
  5
105B
  8
SAPA_FOGBAND
 10
-68.937172509476994
 20
12.07261301276486
 30
0.0
  0
VERTEX
  5
105C
  8
SAPA_FOGBAND
 10
-68.587172509476858
 20
12.07261301276486
 30
0.0
 42
-0.6681786379193472
  0
VERTEX
  5
105D
  8
SAPA_FOGBAND
 10
-68.37504047512104
 20
11.56048097840886
 30
0.0
  0
VERTEX
  5
105E
  8
SAPA_FOGBAND
 10
-69.228593865714259
 20
10.70692758781553
 30
0.0
 42
-0.1989123673796526
  0
VERTEX
  5
105F
  8
SAPA_FOGBAND
 10
-69.794279290663525
 20
10.472613012764951
 30
0.0
  0
VERTEX
  5
1060
  8
SAPA_FOGBAND
 10
-69.956974413083316
 20
10.472613012764951
 30
0.0
 42
-0.3394542588633746
  0
VERTEX
  5
1061
  8
SAPA_FOGBAND
 10
-70.246752160970075
 20
10.694967299234181
 30
0.0
  0
VERTEX
  5
1062
  8
SAPA_FOGBAND
 10
-70.609901404359988
 20
12.050258726295681
 30
0.0
 42
0.3394542588633744
  0
VERTEX
  5
1063
  8
SAPA_FOGBAND
 10
-70.899679152246762
 20
12.272613012764911
 30
0.0
  0
VERTEX
  5
1064
  8
SAPA_FOGBAND
 10
-73.474665866707227
 20
12.272613012764911
 30
0.0
 42
0.3394542588633746
  0
VERTEX
  5
1065
  8
SAPA_FOGBAND
 10
-73.764443614594001
 20
12.050258726295681
 30
0.0
  0
VERTEX
  5
1066
  8
SAPA_FOGBAND
 10
-74.127592857983899
 20
10.694967299234181
 30
0.0
 42
-0.3394542588633747
  0
VERTEX
  5
1067
  8
SAPA_FOGBAND
 10
-74.417370605870673
 20
10.472613012764951
 30
0.0
  0
VERTEX
  5
1068
  8
SAPA_FOGBAND
 10
-74.580065728290464
 20
10.472613012764951
 30
0.0
 42
-0.1989123673796526
  0
VERTEX
  5
1069
  8
SAPA_FOGBAND
 10
-75.145751153239843
 20
10.70692758781553
 30
0.0
  0
VERTEX
  5
106A
  8
SAPA_FOGBAND
 10
-75.999304543832949
 20
11.56048097840886
 30
0.0
 42
-0.6681786379193474
  0
VERTEX
  5
106B
  8
SAPA_FOGBAND
 10
-75.787172509477131
 20
12.07261301276486
 30
0.0
  0
VERTEX
  5
106C
  8
SAPA_FOGBAND
 10
-75.437172509476994
 20
12.07261301276486
 30
0.0
  0
VERTEX
  5
106D
  8
SAPA_FOGBAND
 10
-75.437172509476994
 20
12.972613012764951
 30
0.0
 42
0.4142135623730951
  0
VERTEX
  5
106E
  8
SAPA_FOGBAND
 10
-75.737172509476935
 20
13.272613012764911
 30
0.0
  0
VERTEX
  5
106F
  8
SAPA_FOGBAND
 10
-77.837172509477085
 20
13.272613012764911
 30
0.0
 42
0.4142135623730951
  0
VERTEX
  5
1070
  8
SAPA_FOGBAND
 10
-78.137172509477026
 20
12.972613012764951
 30
0.0
  0
VERTEX
  5
1071
  8
SAPA_FOGBAND
 10
-78.137172509477026
 20
11.57261301276486
 30
0.0
 42
-0.7754026414785753
  0
VERTEX
  5
1072
  8
SAPA_FOGBAND
 10
-78.699964504884704
 20
11.42790514445897
 30
0.0
  0
VERTEX
  5
1073
  8
SAPA_FOGBAND
 10
-82.219667015430076
 20
16.811010917044818
 30
0.0
 42
-0.8680589103334742
  0
VERTEX
  5
1074
  8
SAPA_FOGBAND
 10
-81.744742985666534
 20
17.16785081970653
 30
0.0
  0
VERTEX
  5
1075
  8
SAPA_FOGBAND
 10
-78.405053236560164
 20
15.06550623157824
 30
0.0
 42
0.198912367379658
  0
VERTEX
  5
1076
  8
SAPA_FOGBAND
 10
-77.697946455373511
 20
14.772613012764911
 30
0.0
  0
VERTEX
  5
1077
  8
SAPA_FOGBAND
 10
-74.864627490953779
 20
14.772613012764911
 30
0.0
 42
0.5773502691896282
  0
VERTEX
  5
1078
  8
SAPA_FOGBAND
 10
-74.604819869818556
 20
15.222613012764951
 30
0.0
  0
VERTEX
  5
1079
  8
SAPA_FOGBAND
 10
-76.112602918184805
 20
16.801911383103569
 30
0.0
 42
-0.8769764629927299
  0
VERTEX
  5
107A
  8
SAPA_FOGBAND
 10
-75.64066326269355
 20
17.164043417459709
 30
0.0
  0
VERTEX
  5
107B
  8
SAPA_FOGBAND
 10
-72.304780915834243
 20
15.06550623157824
 30
0.0
 42
0.198912367379658
  0
VERTEX
  5
107C
  8
SAPA_FOGBAND
 10
-71.597674134647576
 20
14.772613012764911
 30
0.0
  0
VERTEX
  5
107D
  8
SAPA_FOGBAND
 10
-69.365399772426002
 20
14.772613012764911
 30
0.0
 42
0.5773502691896282
  0
VERTEX
  5
107E
  8
SAPA_FOGBAND
 10
-69.105592151290665
 20
15.222613012764951
 30
0.0
  0
VERTEX
  5
107F
  8
SAPA_FOGBAND
 10
-70.612873624774437
 20
16.801042629923192
 30
0.0
 42
-0.8769764629927299
  0
VERTEX
  5
1080
  8
SAPA_FOGBAND
 10
-70.140933969283154
 20
17.163174664279321
 30
0.0
  0
VERTEX
  5
1081
  8
SAPA_FOGBAND
 10
-66.730065728290555
 20
14.98965158426455
 30
0.0
 42
-0.198912367379658
  0
VERTEX
  5
1082
  8
SAPA_FOGBAND
 10
-66.437172509476994
 20
14.28254480307811
 30
0.0
  0
SEQEND
  5
1083
  8
SAPA_FOGBAND
  0
POLYLINE
  5
97E
  8
SAPA_FOGBAND
 66
     1
 10
0.0
 20
0.0
 30
0.0
 70
     1
  0
VERTEX
  5
1084
  8
SAPA_FOGBAND
 10
5.0830372466370761
 20
10.7725824322041
 30
0.0
  0
VERTEX
  5
1085
  8
SAPA_FOGBAND
 10
5.0830372466370761
 20
16.165622055413682
 30
0.0
 42
0.4738611492357303
  0
SEQEND
  5
1086
  8
SAPA_FOGBAND
  0
POLYLINE
  5
97F
  8
SAPA_FOGBAND
 66
     1
 10
0.0
 20
0.0
 30
0.0
 70
     1
  0
VERTEX
  5
1087
  8
SAPA_FOGBAND
 10
6.8648789335869358
 20
12.57255497975984
 30
0.0
  0
VERTEX
  5
1088
  8
SAPA_FOGBAND
 10
8.0000000000003126
 20
12.57255497975984
 30
0.0
  0
VERTEX
  5
1089
  8
SAPA_FOGBAND
 10
8.3684164864677921
 20
11.90044382201517
 30
0.0
  0
VERTEX
  5
108A
  8
SAPA_FOGBAND
 10
8.8612980021472083
 20
12.57255497975984
 30
0.0
  0
VERTEX
  5
108B
  8
SAPA_FOGBAND
 10
10.837802666033641
 20
12.57255497975984
 30
0.0
  0
VERTEX
  5
108C
  8
SAPA_FOGBAND
 10
10.837802666033641
 20
11.3627548958193
 30
0.0
  0
VERTEX
  5
108D
  8
SAPA_FOGBAND
 10
13.324613930162259
 20
13.103925829536591
 30
0.0
 42
0.520586437893792
  0
VERTEX
  5
108E
  8
SAPA_FOGBAND
 10
13.32461393016237
 20
13.923095371668291
 30
0.0
  0
VERTEX
  5
108F
  8
SAPA_FOGBAND
 10
10.837802666033641
 20
15.66426630538569
 30
0.0
  0
VERTEX
  5
1090
  8
SAPA_FOGBAND
 10
10.837802666033641
 20
14.454466221445159
 30
0.0
  0
VERTEX
  5
1091
  8
SAPA_FOGBAND
 10
8.8612980021472083
 20
14.454466221445159
 30
0.0
  0
VERTEX
  5
1092
  8
SAPA_FOGBAND
 10
8.3684164864677921
 20
15.126577379189939
 30
0.0
  0
VERTEX
  5
1093
  8
SAPA_FOGBAND
 10
8.0000000000003126
 20
14.454466221445159
 30
0.0
  0
VERTEX
  5
1094
  8
SAPA_FOGBAND
 10
6.8648789335869358
 20
14.454466221445159
 30
0.0
 42
-0.2915551853799308
  0
VERTEX
  5
1095
  8
SAPA_FOGBAND
 10
5.7756649883512798
 20
16.061539135131049
 30
0.0
  0
VERTEX
  5
1096
  8
SAPA_FOGBAND
 10
5.7756649883520756
 20
17.498281886609451
 30
0.0
 42
0.692495361703289
  0
VERTEX
  5
1097
  8
SAPA_FOGBAND
 10
5.7750823970351064
 20
9.4401415264836714
 30
0.0
  0
VERTEX
  5
1098
  8
SAPA_FOGBAND
 10
5.7750823970351064
 20
10.93682680259405
 30
0.0
 42
-0.2958644904018718
  0
SEQEND
  5
1099
  8
SAPA_FOGBAND
  0
POLYLINE
  5
980
  8
SAPA_FOGBAND
 66
     1
 10
0.0
 20
0.0
 30
0.0
 70
     1
  0
VERTEX
  5
109A
  8
SAPA_FOGBAND
 10
6.8648789335869358
 20
55.12744502024168
 30
0.0
  0
VERTEX
  5
109B
  8
SAPA_FOGBAND
 10
8.0000000000003126
 20
55.12744502024168
 30
0.0
  0
VERTEX
  5
109C
  8
SAPA_FOGBAND
 10
8.3684164864677921
 20
55.799556177986346
 30
0.0
  0
VERTEX
  5
109D
  8
SAPA_FOGBAND
 10
8.8612980021472083
 20
55.12744502024168
 30
0.0
  0
VERTEX
  5
109E
  8
SAPA_FOGBAND
 10
10.837802666033641
 20
55.12744502024168
 30
0.0
  0
VERTEX
  5
109F
  8
SAPA_FOGBAND
 10
10.837802666033641
 20
56.337245104182223
 30
0.0
  0
VERTEX
  5
10A0
  8
SAPA_FOGBAND
 10
13.324613930162259
 20
54.596074170464931
 30
0.0
 42
-0.520586437893792
  0
VERTEX
  5
10A1
  8
SAPA_FOGBAND
 10
13.32461393016237
 20
53.776904628333227
 30
0.0
  0
VERTEX
  5
10A2
  8
SAPA_FOGBAND
 10
10.837802666033641
 20
52.035733694615828
 30
0.0
  0
VERTEX
  5
10A3
  8
SAPA_FOGBAND
 10
10.837802666033641
 20
53.245533778556357
 30
0.0
  0
VERTEX
  5
10A4
  8
SAPA_FOGBAND
 10
8.8612980021472083
 20
53.245533778556357
 30
0.0
  0
VERTEX
  5
10A5
  8
SAPA_FOGBAND
 10
8.3684164864677921
 20
52.573422620811577
 30
0.0
  0
VERTEX
  5
10A6
  8
SAPA_FOGBAND
 10
8.0000000000003126
 20
53.245533778556357
 30
0.0
  0
VERTEX
  5
10A7
  8
SAPA_FOGBAND
 10
6.8648789335869358
 20
53.245533778556357
 30
0.0
 42
0.2915551853799308
  0
VERTEX
  5
10A8
  8
SAPA_FOGBAND
 10
5.7756649883512798
 20
51.638460864870467
 30
0.0
  0
VERTEX
  5
10A9
  8
SAPA_FOGBAND
 10
5.7756649883520756
 20
50.201718113392069
 30
0.0
 42
-0.692495361703289
  0
VERTEX
  5
10AA
  8
SAPA_FOGBAND
 10
5.7750823970351064
 20
58.259858473517852
 30
0.0
  0
VERTEX
  5
10AB
  8
SAPA_FOGBAND
 10
5.7750823970351064
 20
56.763173197407461
 30
0.0
 42
0.2958644904018718
  0
SEQEND
  5
10AC
  8
SAPA_FOGBAND
  0
POLYLINE
  5
981
  8
SAPA_FOGBAND
 66
     1
 10
0.0
 20
0.0
 30
0.0
 70
     1
  0
VERTEX
  5
10AD
  8
SAPA_FOGBAND
 10
5.0830372466370761
 20
56.92741756779742
 30
0.0
  0
VERTEX
  5
10AE
  8
SAPA_FOGBAND
 10
5.0830372466370761
 20
51.534377944587852
 30
0.0
 42
-0.4738611492357303
  0
SEQEND
  5
10AF
  8
SAPA_FOGBAND
  0
POLYLINE
  5
982
  8
SAPA_FOGBAND
 66
     1
 10
0.0
 20
0.0
 30
0.0
 70
     1
  0
VERTEX
  5
10B0
  8
SAPA_FOGBAND
 10
73.497490090368359
 20
47.353752012779118
 30
0.0
  0
VERTEX
  5
10B1
  8
SAPA_FOGBAND
 10
74.697490090368404
 20
47.353752012779118
 30
0.0
 42
0.4142135623730951
  0
VERTEX
  5
10B2
  8
SAPA_FOGBAND
 10
74.997490090368359
 20
47.653752012779073
 30
0.0
  0
VERTEX
  5
10B3
  8
SAPA_FOGBAND
 10
74.997490090368359
 20
48.553752012779171
 30
0.0
  0
VERTEX
  5
10B4
  8
SAPA_FOGBAND
 10
74.647490090368223
 20
48.553752012779171
 30
0.0
 42
-0.6681786379192988
  0
VERTEX
  5
10B5
  8
SAPA_FOGBAND
 10
74.435358056012291
 20
49.065884047134936
 30
0.0
  0
VERTEX
  5
10B6
  8
SAPA_FOGBAND
 10
75.28891144660551
 20
49.919437437728277
 30
0.0
 42
-0.1989123673796552
  0
VERTEX
  5
10B7
  8
SAPA_FOGBAND
 10
75.85459687155489
 20
50.15375201277908
 30
0.0
  0
VERTEX
  5
10B8
  8
SAPA_FOGBAND
 10
76.017291993974681
 20
50.15375201277908
 30
0.0
 42
-0.3394542588633746
  0
VERTEX
  5
10B9
  8
SAPA_FOGBAND
 10
76.307069741861454
 20
49.931397726309861
 30
0.0
  0
VERTEX
  5
10BA
  8
SAPA_FOGBAND
 10
76.670218985251353
 20
48.576106299248352
 30
0.0
 42
0.3394542588633746
  0
VERTEX
  5
10BB
  8
SAPA_FOGBAND
 10
76.959996733138127
 20
48.353752012779118
 30
0.0
  0
VERTEX
  5
10BC
  8
SAPA_FOGBAND
 10
79.534983447598592
 20
48.353752012779118
 30
0.0
 42
0.3394542588633746
  0
VERTEX
  5
10BD
  8
SAPA_FOGBAND
 10
79.824761195485365
 20
48.576106299248352
 30
0.0
  0
VERTEX
  5
10BE
  8
SAPA_FOGBAND
 10
80.187910438875264
 20
49.931397726309861
 30
0.0
 42
-0.3394542588633744
  0
VERTEX
  5
10BF
  8
SAPA_FOGBAND
 10
80.477688186762023
 20
50.15375201277908
 30
0.0
  0
VERTEX
  5
10C0
  8
SAPA_FOGBAND
 10
80.640383309181829
 20
50.15375201277908
 30
0.0
 42
-0.1989123673796526
  0
VERTEX
  5
10C1
  8
SAPA_FOGBAND
 10
81.20606873413098
 20
49.919437437728277
 30
0.0
  0
VERTEX
  5
10C2
  8
SAPA_FOGBAND
 10
82.059622124724314
 20
49.065884047134936
 30
0.0
 42
-0.6681786379193474
  0
VERTEX
  5
10C3
  8
SAPA_FOGBAND
 10
81.847490090368495
 20
48.553752012779171
 30
0.0
  0
VERTEX
  5
10C4
  8
SAPA_FOGBAND
 10
81.497490090368359
 20
48.553752012779171
 30
0.0
  0
VERTEX
  5
10C5
  8
SAPA_FOGBAND
 10
81.497490090368359
 20
47.653752012779073
 30
0.0
 42
0.4142135623730951
  0
VERTEX
  5
10C6
  8
SAPA_FOGBAND
 10
81.797490090368299
 20
47.353752012779118
 30
0.0
  0
VERTEX
  5
10C7
  8
SAPA_FOGBAND
 10
83.897490090368464
 20
47.353752012779118
 30
0.0
 42
0.4142135623730951
  0
VERTEX
  5
10C8
  8
SAPA_FOGBAND
 10
84.197490090368404
 20
47.653752012779073
 30
0.0
  0
VERTEX
  5
10C9
  8
SAPA_FOGBAND
 10
84.197490090368404
 20
49.053752012779171
 30
0.0
 42
-0.7754026414786132
  0
VERTEX
  5
10CA
  8
SAPA_FOGBAND
 10
84.760282085776069
 20
49.19845988108505
 30
0.0
 42
0.1137347954614569
  0
VERTEX
  5
10CB
  8
SAPA_FOGBAND
 10
88.910330244366691
 20
41.721972122760292
 30
0.0
 42
-0.8680589103334746
  0
VERTEX
  5
10CC
  8
SAPA_FOGBAND
 10
88.435406214603148
 20
41.365132220098587
 30
0.0
  0
VERTEX
  5
10CD
  8
SAPA_FOGBAND
 10
84.465370817451316
 20
43.741337909430342
 30
0.0
 42
0.1989123673796536
  0
VERTEX
  5
10CE
  8
SAPA_FOGBAND
 10
83.758264036264876
 20
44.034231128243668
 30
0.0
  0
VERTEX
  5
10CF
  8
SAPA_FOGBAND
 10
80.924945071845144
 20
44.034231128243668
 30
0.0
 42
0.577350269189628
  0
VERTEX
  5
10D0
  8
SAPA_FOGBAND
 10
80.665137450709679
 20
43.58423112824385
 30
0.0
  0
VERTEX
  5
10D1
  8
SAPA_FOGBAND
 10
82.803266147121434
 20
41.731071656701538
 30
0.0
 42
-0.8769764629927301
  0
VERTEX
  5
10D2
  8
SAPA_FOGBAND
 10
82.331326491630165
 20
41.368939622345401
 30
0.0
  0
VERTEX
  5
10D3
  8
SAPA_FOGBAND
 10
78.365098496725494
 20
43.741337909430342
 30
0.0
 42
0.198912367379658
  0
VERTEX
  5
10D4
  8
SAPA_FOGBAND
 10
77.657991715538941
 20
44.034231128243668
 30
0.0
  0
VERTEX
  5
10D5
  8
SAPA_FOGBAND
 10
75.425717353317253
 20
44.034231128243668
 30
0.0
 42
0.5773502691896441
  0
VERTEX
  5
10D6
  8
SAPA_FOGBAND
 10
75.16590973218203
 20
43.58423112824385
 30
0.0
  0
VERTEX
  5
10D7
  8
SAPA_FOGBAND
 10
77.303536853711265
 20
41.731940409881922
 30
0.0
 42
-0.87697646299276
  0
VERTEX
  5
10D8
  8
SAPA_FOGBAND
 10
76.831597198219995
 20
41.369808375525793
 30
0.0
  0
VERTEX
  5
10D9
  8
SAPA_FOGBAND
 10
72.790383309181806
 20
43.817192556744033
 30
0.0
 42
-0.198912367379658
  0
VERTEX
  5
10DA
  8
SAPA_FOGBAND
 10
72.497490090368359
 20
44.524299337930472
 30
0.0
  0
VERTEX
  5
10DB
  8
SAPA_FOGBAND
 10
72.497490090368359
 20
46.353752012779118
 30
0.0
  0
VERTEX
  5
10DC
  8
SAPA_FOGBAND
 10
72.497490090368359
 20
46.343820222465922
 30
0.0
  0
SEQEND
  5
10DD
  8
SAPA_FOGBAND
  0
POLYLINE
  5
983
  8
SAPA_FOGBAND
 66
     1
 10
0.0
 20
0.0
 30
0.0
 70
     1
  0
VERTEX
  5
10DE
  8
SAPA_FOGBAND
 10
72.437172509477222
 20
14.2726130127649
 30
0.0
 42
0.4142135623730951
  0
VERTEX
  5
10DF
  8
SAPA_FOGBAND
 10
73.437172509477222
 20
13.272613012764911
 30
0.0
  0
VERTEX
  5
10E0
  8
SAPA_FOGBAND
 10
74.637172509477267
 20
13.272613012764911
 30
0.0
 42
-0.4142135623730951
  0
VERTEX
  5
10E1
  8
SAPA_FOGBAND
 10
74.937172509477222
 20
12.972613012764951
 30
0.0
  0
VERTEX
  5
10E2
  8
SAPA_FOGBAND
 10
74.937172509477222
 20
12.07261301276486
 30
0.0
  0
VERTEX
  5
10E3
  8
SAPA_FOGBAND
 10
74.587172509477085
 20
12.07261301276486
 30
0.0
 42
0.6681786379193472
  0
VERTEX
  5
10E4
  8
SAPA_FOGBAND
 10
74.375040475121267
 20
11.56048097840886
 30
0.0
  0
VERTEX
  5
10E5
  8
SAPA_FOGBAND
 10
75.228593865714487
 20
10.70692758781553
 30
0.0
 42
0.1989123673796526
  0
VERTEX
  5
10E6
  8
SAPA_FOGBAND
 10
75.794279290663752
 20
10.472613012764951
 30
0.0
  0
VERTEX
  5
10E7
  8
SAPA_FOGBAND
 10
75.956974413083543
 20
10.472613012764951
 30
0.0
 42
0.3394542588633746
  0
VERTEX
  5
10E8
  8
SAPA_FOGBAND
 10
76.246752160970317
 20
10.694967299234181
 30
0.0
  0
VERTEX
  5
10E9
  8
SAPA_FOGBAND
 10
76.609901404360215
 20
12.050258726295681
 30
0.0
 42
-0.3394542588633744
  0
VERTEX
  5
10EA
  8
SAPA_FOGBAND
 10
76.899679152246975
 20
12.272613012764911
 30
0.0
  0
VERTEX
  5
10EB
  8
SAPA_FOGBAND
 10
79.474665866707454
 20
12.272613012764911
 30
0.0
 42
-0.3394542588633746
  0
VERTEX
  5
10EC
  8
SAPA_FOGBAND
 10
79.764443614594228
 20
12.050258726295681
 30
0.0
  0
VERTEX
  5
10ED
  8
SAPA_FOGBAND
 10
80.127592857984126
 20
10.694967299234181
 30
0.0
 42
0.3394542588633747
  0
VERTEX
  5
10EE
  8
SAPA_FOGBAND
 10
80.4173706058709
 20
10.472613012764951
 30
0.0
  0
VERTEX
  5
10EF
  8
SAPA_FOGBAND
 10
80.580065728290705
 20
10.472613012764951
 30
0.0
 42
0.1989123673796526
  0
VERTEX
  5
10F0
  8
SAPA_FOGBAND
 10
81.145751153240056
 20
10.70692758781553
 30
0.0
  0
VERTEX
  5
10F1
  8
SAPA_FOGBAND
 10
81.999304543833176
 20
11.56048097840886
 30
0.0
 42
0.6681786379193474
  0
VERTEX
  5
10F2
  8
SAPA_FOGBAND
 10
81.787172509477358
 20
12.07261301276486
 30
0.0
  0
VERTEX
  5
10F3
  8
SAPA_FOGBAND
 10
81.437172509477207
 20
12.07261301276486
 30
0.0
  0
VERTEX
  5
10F4
  8
SAPA_FOGBAND
 10
81.437172509477207
 20
12.972613012764951
 30
0.0
 42
-0.4142135623730951
  0
VERTEX
  5
10F5
  8
SAPA_FOGBAND
 10
81.737172509477176
 20
13.272613012764911
 30
0.0
  0
VERTEX
  5
10F6
  8
SAPA_FOGBAND
 10
83.837172509477298
 20
13.272613012764911
 30
0.0
 42
-0.4142135623730951
  0
VERTEX
  5
10F7
  8
SAPA_FOGBAND
 10
84.137172509477253
 20
12.972613012764951
 30
0.0
  0
VERTEX
  5
10F8
  8
SAPA_FOGBAND
 10
84.137172509477253
 20
11.57261301276486
 30
0.0
 42
0.7754026414785753
  0
VERTEX
  5
10F9
  8
SAPA_FOGBAND
 10
84.699964504884946
 20
11.42790514445897
 30
0.0
  0
VERTEX
  5
10FA
  8
SAPA_FOGBAND
 10
88.219667015430304
 20
16.811010917044818
 30
0.0
 42
0.8680589103334742
  0
VERTEX
  5
10FB
  8
SAPA_FOGBAND
 10
87.744742985666761
 20
17.16785081970653
 30
0.0
  0
VERTEX
  5
10FC
  8
SAPA_FOGBAND
 10
84.405053236560406
 20
15.06550623157824
 30
0.0
 42
-0.198912367379658
  0
VERTEX
  5
10FD
  8
SAPA_FOGBAND
 10
83.697946455373724
 20
14.772613012764911
 30
0.0
  0
VERTEX
  5
10FE
  8
SAPA_FOGBAND
 10
80.864627490954007
 20
14.772613012764911
 30
0.0
 42
-0.5773502691896282
  0
VERTEX
  5
10FF
  8
SAPA_FOGBAND
 10
80.604819869818783
 20
15.222613012764951
 30
0.0
  0
VERTEX
  5
1100
  8
SAPA_FOGBAND
 10
82.112602918185047
 20
16.801911383103569
 30
0.0
 42
0.8769764629927299
  0
VERTEX
  5
1101
  8
SAPA_FOGBAND
 10
81.640663262693764
 20
17.164043417459709
 30
0.0
  0
VERTEX
  5
1102
  8
SAPA_FOGBAND
 10
78.304780915834471
 20
15.06550623157824
 30
0.0
 42
-0.198912367379658
  0
VERTEX
  5
1103
  8
SAPA_FOGBAND
 10
77.597674134647804
 20
14.772613012764911
 30
0.0
  0
VERTEX
  5
1104
  8
SAPA_FOGBAND
 10
75.36539977242623
 20
14.772613012764911
 30
0.0
 42
-0.5773502691896282
  0
VERTEX
  5
1105
  8
SAPA_FOGBAND
 10
75.105592151290892
 20
15.222613012764951
 30
0.0
  0
VERTEX
  5
1106
  8
SAPA_FOGBAND
 10
76.612873624774664
 20
16.801042629923192
 30
0.0
 42
0.8769764629927299
  0
VERTEX
  5
1107
  8
SAPA_FOGBAND
 10
76.140933969283395
 20
17.163174664279321
 30
0.0
  0
VERTEX
  5
1108
  8
SAPA_FOGBAND
 10
72.730065728290782
 20
14.98965158426455
 30
0.0
 42
0.198912367379658
  0
VERTEX
  5
1109
  8
SAPA_FOGBAND
 10
72.437172509477222
 20
14.28254480307811
 30
0.0
  0
SEQEND
  5
110A
  8
SAPA_FOGBAND
  0
DIMENSION
  5
98B
  8
SAPA_MATT
  2
*D28
 10
84.000000000000114
 20
-10.756005645978901
 30
0.0
 11
45.000000000000107
 21
-8.2560056459789042
 31
0.0
 70
     0
 13
6.0000000000001128
 23
9.1499999999999773
 33
0.0
 14
84.000000000000114
 24
9.1500000000000341
 34
0.0
1001
ACAD
1000
DSTYLE
1002
{
1070
   287
1070
     4
1070
    40
1040
1.0
1070
   279
1070
     1
1002
}
  0
DIMENSION
  5
98C
  8
SAPA_MATT
  2
*D27
 10
6.0000000000001119
 20
-10.756005645978901
 30
0.0
 11
3.0000000000001119
 21
-8.2560056459789042
 31
0.0
 70
     0
 13
0.0000000000001137
 23
9.1499999999999204
 33
0.0
 14
6.0000000000001128
 24
9.1499999999999773
 34
0.0
1001
ACAD
1000
DSTYLE
1002
{
1070
   287
1070
     4
1070
    40
1040
1.0
1070
   279
1070
     1
1002
}
  0
DIMENSION
  5
98D
  8
SAPA_MATT
  2
*D26
 10
0.0000000000001125
 20
-10.756005645978901
 30
0.0
 11
-38.999999999999893
 21
-8.2560056459789042
 31
0.0
 70
     0
 13
-77.999999999999886
 23
9.1500000000000892
 33
0.0
 14
0.0000000000001137
 24
9.1499999999999204
 34
0.0
1001
ACAD
1000
DSTYLE
1002
{
1070
    40
1040
1.0
1002
}
  0
VIEWPORT
  5
C4
 67
     1
  8
0
 10
143.06236603067589
 20
116.00969601843509
 30
0.0
 40
369.98580003443811
 41
256.8421457311839
 68
     1
 69
     1
1001
ACAD
1000
MVIEW
1002
{
1070
    16
1010
0.0
1020
0.0
1030
0.0
1010
0.0
1020
0.0
1030
1.0
1040
0.0
1040
256.8421457311839
1040
99.112914085388169
1040
143.07606935501099
1040
50.0
1040
0.0
1040
0.0
1070
     0
1070
     0
1070
     1
1070
     1
1070
     0
1070
     0
1070
     0
1070
     0
1040
0.0
1040
0.0
1040
0.0
1040
10.0
1040
10.0
1040
10.0
1040
10.0
1070
     0
1002
{
1002
}
1002
}
  0
ENDSEC
  0
EOF
