  0
SECTION
  2
HEADER
  9
$ACADVER
  1
AC1009
  9
$INSBASE
 10
0.0
 20
0.0
 30
0.0
  9
$EXTMIN
 10
-65.637118293873513
 20
-117.3699098731156
 30
0.0
  9
$EXTMAX
 10
61.242184206581271
 20
144.79968575827641
 30
0.0
  9
$LIMMIN
 10
0.0
 20
0.0
  9
$LIMMAX
 10
790.0
 20
790.0
  9
$ORTHOMODE
 70
     1
  9
$REGENMODE
 70
     1
  9
$FILLMODE
 70
     1
  9
$QTEXTMODE
 70
     0
  9
$MIRRTEXT
 70
     1
  9
$DRAGMODE
 70
     2
  9
$LTSCALE
 40
4.0
  9
$OSMODE
 70
   167
  9
$ATTMODE
 70
     1
  9
$TEXTSIZE
 40
3.5
  9
$TRACEWID
 40
0.05
  9
$TEXTSTYLE
  7
ISO
  9
$CLAYER
  8
0
  9
$CELTYPE
  6
BYLAYER
  9
$CECOLOR
 62
   256
  9
$DIMSCALE
 40
0.0
  9
$DIMASZ
 40
3.0
  9
$DIMEXO
 40
1.5
  9
$DIMDLI
 40
10.0
  9
$DIMRND
 40
0.0
  9
$DIMDLE
 40
0.0
  9
$DIMEXE
 40
1.5
  9
$DIMTP
 40
0.0
  9
$DIMTM
 40
0.0
  9
$DIMTXT
 40
3.0
  9
$DIMCEN
 40
-5.0
  9
$DIMTSZ
 40
0.0
  9
$DIMTOL
 70
     0
  9
$DIMLIM
 70
     0
  9
$DIMTIH
 70
     0
  9
$DIMTOH
 70
     0
  9
$DIMSE1
 70
     0
  9
$DIMSE2
 70
     0
  9
$DIMTAD
 70
     1
  9
$DIMZIN
 70
     8
  9
$DIMBLK
  1

  9
$DIMASO
 70
     1
  9
$DIMSHO
 70
     1
  9
$DIMPOST
  1

  9
$DIMAPOST
  1

  9
$DIMALT
 70
     0
  9
$DIMALTD
 70
     0
  9
$DIMALTF
 40
25.399999999999999
  9
$DIMLFAC
 40
-1.0
  9
$DIMTOFL
 70
     1
  9
$DIMTVP
 40
0.0
  9
$DIMTIX
 70
     0
  9
$DIMSOXD
 70
     0
  9
$DIMSAH
 70
     0
  9
$DIMBLK1
  1

  9
$DIMBLK2
  1

  9
$DIMSTYLE
  2
MASKIN
  9
$DIMCLRD
 70
   256
  9
$DIMCLRE
 70
   256
  9
$DIMCLRT
 70
     2
  9
$DIMTFAC
 40
1.0
  9
$DIMGAP
 40
1.0
  9
$LUNITS
 70
     2
  9
$LUPREC
 70
     8
  9
$SKETCHINC
 40
0.1
  9
$FILLETRAD
 40
0.0
  9
$AUNITS
 70
     0
  9
$AUPREC
 70
     8
  9
$MENU
  1
ACAD
  9
$ELEVATION
 40
0.0
  9
$PELEVATION
 40
0.0
  9
$THICKNESS
 40
0.0
  9
$LIMCHECK
 70
     0
  9
$BLIPMODE
 70
     0
  9
$CHAMFERA
 40
0.0
  9
$CHAMFERB
 40
0.0
  9
$SKPOLY
 70
     0
  9
$TDCREATE
 40
2454895.6957025002
  9
$TDUPDATE
 40
2456518.4351867009
  9
$TDINDWG
 40
0.0550674537
  9
$TDUSRTIMER
 40
0.0550674537
  9
$USRTIMER
 70
     1
  9
$ANGBASE
 50
0.0
  9
$ANGDIR
 70
     0
  9
$PDMODE
 70
     0
  9
$PDSIZE
 40
0.0
  9
$PLINEWID
 40
0.0
  9
$COORDS
 70
     1
  9
$SPLFRAME
 70
     0
  9
$SPLINETYPE
 70
     6
  9
$SPLINESEGS
 70
     8
  9
$ATTDIA
 70
     0
  9
$ATTREQ
 70
     1
  9
$HANDLING
 70
     1
  9
$HANDSEED
  5
1E01
  9
$SURFTAB1
 70
     6
  9
$SURFTAB2
 70
     6
  9
$SURFTYPE
 70
     6
  9
$SURFU
 70
     6
  9
$SURFV
 70
     6
  9
$UCSNAME
  2

  9
$UCSORG
 10
0.0
 20
0.0
 30
0.0
  9
$UCSXDIR
 10
1.0
 20
0.0
 30
0.0
  9
$UCSYDIR
 10
0.0
 20
1.0
 30
0.0
  9
$PUCSNAME
  2

  9
$PUCSORG
 10
0.0
 20
0.0
 30
0.0
  9
$PUCSXDIR
 10
1.0
 20
0.0
 30
0.0
  9
$PUCSYDIR
 10
0.0
 20
1.0
 30
0.0
  9
$USERI1
 70
     0
  9
$USERI2
 70
     0
  9
$USERI3
 70
     0
  9
$USERI4
 70
     0
  9
$USERI5
 70
     0
  9
$USERR1
 40
0.0
  9
$USERR2
 40
0.0
  9
$USERR3
 40
0.0
  9
$USERR4
 40
0.0
  9
$USERR5
 40
0.0
  9
$WORLDVIEW
 70
     1
  9
$SHADEDGE
 70
     3
  9
$SHADEDIF
 70
    70
  9
$TILEMODE
 70
     1
  9
$MAXACTVP
 70
    16
  9
$PLIMCHECK
 70
     0
  9
$PEXTMIN
 10
1.0000000000000000E+020
 20
1.0000000000000000E+020
 30
1.0000000000000000E+020
  9
$PEXTMAX
 10
-1.0000000000000000E+020
 20
-1.0000000000000000E+020
 30
-1.0000000000000000E+020
  9
$PLIMMIN
 10
-5.069427490234375
 20
-5.8737497329711914
  9
$PLIMMAX
 10
291.89889526367187
 20
204.0995779037475
  9
$UNITMODE
 70
     0
  9
$VISRETAIN
 70
     1
  9
$PLINEGEN
 70
     0
  9
$PSLTSCALE
 70
     1
  0
ENDSEC
  0
SECTION
  2
TABLES
  0
TABLE
  2
VPORT
 70
     1
  0
VPORT
  2
*ACTIVE
 70
     0
 10
0.0
 20
0.0
 11
1.0
 21
1.0
 12
-2.2026688292557992
 22
82.244972590428915
 13
0.0
 23
0.0
 14
1.0
 24
1.0
 15
0.0
 25
0.0
 16
0.0
 26
0.0
 36
1.0
 17
0.0
 27
0.0
 37
0.0
 40
289.90532828554058
 41
2.112307692307692
 42
50.0
 43
0.0
 44
0.0
 50
0.0
 51
0.0
 71
     0
 72
   100
 73
     1
 74
     1
 75
     0
 76
     0
 77
     0
 78
     0
  0
ENDTAB
  0
TABLE
  2
LTYPE
 70
    21
  0
LTYPE
  2
CONTINUOUS
 70
     0
  3
Solid line
 72
    65
 73
     0
 40
0.0
  0
LTYPE
  2
BYGG-01482201$0$NEWDOT
 70
     0
  3
____ . ____ . ____ . ____ . ____ . ____ . ____
 72
    65
 73
     4
 40
2.0
 49
1.0
 49
-0.5
 49
0.0
 49
-0.5
  0
LTYPE
  2
BYGG-014357$0$NEWDOT
 70
     0
  3
____ . ____ . ____ . ____ . ____ . ____ . ____
 72
    65
 73
     4
 40
2.0
 49
1.0
 49
-0.5
 49
0.0
 49
-0.5
  0
LTYPE
  2
BYGG-014357$0$DASHDOT
 70
     0
  3
__ . __ . __ . __ . __ . __ . __ . __ . __ . __
 72
    65
 73
     4
 40
1.0
 49
0.5
 49
-0.25
 49
0.0
 49
-0.25
  0
LTYPE
  2
BYGG-014357$0$DASHED
 70
     0
  3
__ __ __ __ __ __ __ __ __ __ __ __ __ __ __
 72
    65
 73
     2
 40
0.75
 49
0.5
 49
-0.25
  0
LTYPE
  2
BYGG-014279$0$NEWDOT
 70
     0
  3
____ . ____ . ____ . ____ . ____ . ____ . ____
 72
    65
 73
     4
 40
2.0
 49
1.0
 49
-0.5
 49
0.0
 49
-0.5
  0
LTYPE
  2
BYGG-014495$0$DASHDOT
 70
     0
  3
__ . __ . __ . __ . __ . __ . __ . __ . __ . __
 72
    65
 73
     4
 40
1.0
 49
0.5
 49
-0.25
 49
0.0
 49
-0.25
  0
LTYPE
  2
BYGG-022120$0$NEWDOT
 70
     0
  3
____ . ____ . ____ . ____ . ____ . ____ . ____
 72
    65
 73
     4
 40
2.0
 49
1.0
 49
-0.5
 49
0.0
 49
-0.5
  0
LTYPE
  2
BYGG-022120$0$DASHDOT
 70
     0
  3
__ . __ . __ . __ . __ . __ . __ . __ . __ . __
 72
    65
 73
     4
 40
1.0
 49
0.5
 49
-0.25
 49
0.0
 49
-0.25
  0
LTYPE
  2
BYGG-022120$0$DASHED
 70
     0
  3
__ __ __ __ __ __ __ __ __ __ __ __ __ __ __
 72
    65
 73
     2
 40
0.75
 49
0.5
 49
-0.25
  0
LTYPE
  2
BYGG-022120$0$PHANTOM
 70
     0
  3
Phantom ______  __  __  ______  __  __  ______
 72
    65
 73
     6
 40
63.5
 49
31.75
 49
-6.3499999999999988
 49
6.3499999999999988
 49
-6.3499999999999988
 49
6.3499999999999988
 49
-6.3499999999999988
  0
LTYPE
  2
BYGG-01457801$0$NEWDOT
 70
     0
  3
____ . ____ . ____ . ____ . ____ . ____ . ____
 72
    65
 73
     4
 40
2.0
 49
1.0
 49
-0.5
 49
0.0
 49
-0.5
  0
LTYPE
  2
BYGG-014174$0$NEWDOT
 70
     0
  3
____ . ____ . ____ . ____ . ____ . ____ . ____
 72
    65
 73
     4
 40
2.0
 49
1.0
 49
-0.5
 49
0.0
 49
-0.5
  0
LTYPE
  2
BYGG-01482201$0$ZIGZAG
 70
     0
  3
Zig zag /\/\/\/\/\/\/\/\/\/\/\/\/\/\/\/\/\/\/\/\/\/\/\/
 72
    65
 73
     4
 40
20.32254
 49
0.00254
 49
-5.0800000000000001
 49
-10.16
 49
-5.0800000000000001
  0
LTYPE
  2
BYGG-014279$0$ZIGZAG
 70
     0
  3
Zig zag /\/\/\/\/\/\/\/\/\/\/\/\/\/\/\/\/\/\/\/\/\/\/\/
 72
    65
 73
     4
 40
20.32254
 49
0.00254
 49
-5.0800000000000001
 49
-10.16
 49
-5.0800000000000001
  0
LTYPE
  2
BYGG-01457801$0$ZIGZAG
 70
     0
  3
Zig zag /\/\/\/\/\/\/\/\/\/\/\/\/\/\/\/\/\/\/\/\/\/\/\/
 72
    65
 73
     4
 40
20.32254
 49
0.00254
 49
-5.0800000000000001
 49
-10.16
 49
-5.0800000000000001
  0
LTYPE
  2
BYGG-014174$0$ZIGZAG
 70
     0
  3
Zig zag /\/\/\/\/\/\/\/\/\/\/\/\/\/\/\/\/\/\/\/\/\/\/\/
 72
    65
 73
     4
 40
20.32254
 49
0.00254
 49
-5.0800000000000001
 49
-10.16
 49
-5.0800000000000001
  0
LTYPE
  2
BYGG-014174$0$DASHDOT
 70
     0
  3
__ . __ . __ . __ . __ . __ . __ . __ . __ . __
 72
    65
 73
     4
 40
1.0
 49
0.5
 49
-0.25
 49
0.0
 49
-0.25
  0
LTYPE
  2
BYGG-014198$0$ZIGZAG
 70
     0
  3
Zig zag /\/\/\/\/\/\/\/\/\/\/\/\/\/\/\/\/\/\/\/\/\/\/\/
 72
    65
 73
     4
 40
20.32254
 49
0.00254
 49
-5.0800000000000001
 49
-10.16
 49
-5.0800000000000001
  0
LTYPE
  2
BYGG-014198$0$NEWDOT
 70
     0
  3
____ . ____ . ____ . ____ . ____ . ____ . ____
 72
    65
 73
     4
 40
2.0
 49
1.0
 49
-0.5
 49
0.0
 49
-0.5
  0
LTYPE
  2
BYGG-014174$0$DASHED
 70
     0
  3
__ __ __ __ __ __ __ __ __ __ __ __ __ __ __
 72
    65
 73
     2
 40
0.75
 49
0.5
 49
-0.25
  0
ENDTAB
  0
TABLE
  2
LAYER
 70
   120
  0
LAYER
  2
0
 70
     0
 62
     7
  6
CONTINUOUS
  0
LAYER
  2
DEFPOINTS
 70
     0
 62
     7
  6
CONTINUOUS
  0
LAYER
  2
SAPA_ANSLUTNING
 70
     0
 62
     6
  6
CONTINUOUS
  0
LAYER
  2
SAPA_PROFIL
 70
     0
 62
     7
  6
CONTINUOUS
  0
LAYER
  2
SAPA_ARTIKELNR
 70
     0
 62
     4
  6
CONTINUOUS
  0
LAYER
  2
SAPA_LIGHT
 70
     1
 62
     1
  6
CONTINUOUS
  0
LAYER
  2
SAPA_ISOLATOR
 70
     0
 62
     4
  6
CONTINUOUS
  0
LAYER
  2
SAPA_MATT
 70
     0
 62
     1
  6
CONTINUOUS
  0
LAYER
  2
SAPA_GLAS
 70
     0
 62
     4
  6
CONTINUOUS
  0
LAYER
  2
SAPA_FOGBAND
 70
     0
 62
     2
  6
CONTINUOUS
  0
ENDTAB
  0
TABLE
  2
STYLE
 70
    34
  0
STYLE
  2
STANDARD
 70
     0
 40
0.0
 41
1.0
 50
0.0
 71
     0
 42
0.2
  3
txt
  4

  0
STYLE
  2
ISO
 70
     0
 40
0.0
 41
1.0
 50
0.0
 71
     0
 42
3.5
  3
txt
  4

  0
STYLE
  2

 70
     1
 40
0.0
 41
1.0
 50
0.0
 71
     0
 42
0.2
  3
ltypeshp.shx
  4

  0
STYLE
  2
BYGG-021589$0$STANDARD
 70
     0
 40
0.0
 41
1.0
 50
0.0
 71
     0
 42
0.2
  3
txt
  4

  0
STYLE
  2
BYGG-021589$0$ISO
 70
     0
 40
0.0
 41
1.0
 50
0.0
 71
     0
 42
3.5
  3
isocp3.shx
  4

  0
STYLE
  2
BYGG-01482201$0$STANDARD
 70
     0
 40
0.0
 41
1.0
 50
0.0
 71
     0
 42
0.2
  3
txt
  4

  0
STYLE
  2
BYGG-01482201$0$ISO
 70
     0
 40
0.0
 41
1.0
 50
0.0
 71
     0
 42
3.5
  3
isocp3.shx
  4

  0
STYLE
  2
BYGG-021610$0$STANDARD
 70
     0
 40
0.0
 41
1.0
 50
0.0
 71
     0
 42
0.2
  3
txt
  4

  0
STYLE
  2
BYGG-021610$0$ISO
 70
     0
 40
0.0
 41
1.0
 50
0.0
 71
     0
 42
3.5
  3
isocp3.shx
  4

  0
STYLE
  2
BYGG-014357$0$STANDARD
 70
     0
 40
0.0
 41
1.0
 50
0.0
 71
     0
 42
0.2
  3
txt
  4

  0
STYLE
  2
BYGG-014357$0$ISO
 70
     0
 40
0.0
 41
1.0
 50
0.0
 71
     0
 42
3.5
  3
isocp3.shx
  4

  0
STYLE
  2
BYGG-014062$0$STANDARD
 70
     0
 40
0.0
 41
1.0
 50
0.0
 71
     0
 42
0.2
  3
txt
  4

  0
STYLE
  2
BYGG-014062$0$ISO
 70
     0
 40
0.0
 41
1.0
 50
0.0
 71
     0
 42
3.5
  3
isocp3.shx
  4

  0
STYLE
  2
BYGG-021806$0$STANDARD
 70
     0
 40
0.0
 41
1.0
 50
0.0
 71
     0
 42
0.2
  3
txt
  4

  0
STYLE
  2
BYGG-021806$0$ISO
 70
     0
 40
0.0
 41
1.0
 50
0.0
 71
     0
 42
3.5
  3
txt
  4

  0
STYLE
  2
BYGG-021582$0$STANDARD
 70
     0
 40
0.0
 41
1.0
 50
0.0
 71
     0
 42
0.2
  3
txt
  4

  0
STYLE
  2
BYGG-021582$0$ISO
 70
     0
 40
0.0
 41
1.0
 50
0.0
 71
     0
 42
3.5
  3
isocp3.shx
  4

  0
STYLE
  2
BYGG-014279$0$STANDARD
 70
     0
 40
0.0
 41
1.0
 50
0.0
 71
     0
 42
0.2
  3
TXT.shx
  4

  0
STYLE
  2
BYGG-014279$0$ISO
 70
     0
 40
0.0
 41
1.0
 50
0.0
 71
     0
 42
3.5
  3
iso
  4

  0
STYLE
  2
BYGG-021426$0$STANDARD
 70
     0
 40
0.0
 41
1.0
 50
0.0
 71
     0
 42
0.2
  3
txt
  4

  0
STYLE
  2
BYGG-014495$0$STANDARD
 70
     0
 40
0.0
 41
1.0
 50
0.0
 71
     0
 42
0.2
  3
txt
  4

  0
STYLE
  2
BYGG-014495$0$ISO
 70
     0
 40
0.0
 41
1.0
 50
0.0
 71
     0
 42
3.5
  3
isocp3.shx
  4

  0
STYLE
  2
BYGG-022120$0$STANDARD
 70
     0
 40
0.0
 41
1.0
 50
0.0
 71
     0
 42
0.2
  3
txt
  4

  0
STYLE
  2
BYGG-022120$0$ISO
 70
     0
 40
0.0
 41
1.0
 50
0.0
 71
     0
 42
3.5
  3
txt
  4

  0
STYLE
  2
BYGG-01457801$0$STANDARD
 70
     0
 40
0.0
 41
1.0
 50
0.0
 71
     0
 42
0.2
  3
txt
  4

  0
STYLE
  2
BYGG-01457801$0$ISO
 70
     0
 40
0.0
 41
1.0
 50
0.0
 71
     0
 42
2.5
  3
isocp3.shx
  4

  0
STYLE
  2
BYGG-021355$0$STANDARD
 70
     0
 40
0.0
 41
1.0
 50
0.0
 71
     0
 42
0.2
  3
txt
  4

  0
STYLE
  2
BYGG-021355$0$ISO
 70
     0
 40
0.0
 41
1.0
 50
0.0
 71
     0
 42
3.5
  3
isocp3.shx
  4

  0
STYLE
  2
BYGG-014174$0$STANDARD
 70
     0
 40
0.0
 41
1.0
 50
0.0
 71
     0
 42
0.2
  3
txt
  4

  0
STYLE
  2
BYGG-014174$0$ISO
 70
     0
 40
0.0
 41
1.0
 50
0.0
 71
     0
 42
3.5
  3
isocp3.shx
  4

  0
STYLE
  2
BYGG-022709$0$STANDARD
 70
     0
 40
0.0
 41
1.0
 50
0.0
 71
     0
 42
0.2
  3
txt
  4

  0
STYLE
  2
BYGG-022709$0$ISO
 70
     0
 40
0.0
 41
1.0
 50
0.0
 71
     0
 42
3.5
  3
txt
  4

  0
STYLE
  2
BYGG-014198$0$STANDARD
 70
     0
 40
0.0
 41
1.0
 50
0.0
 71
     0
 42
0.2
  3
txt
  4

  0
STYLE
  2
BYGG-014198$0$ISO
 70
     0
 40
0.0
 41
1.0
 50
0.0
 71
     0
 42
3.5
  3
isocp3.shx
  4

  0
ENDTAB
  0
TABLE
  2
VIEW
 70
     0
  0
ENDTAB
  0
TABLE
  2
UCS
 70
     0
  0
ENDTAB
  0
TABLE
  2
APPID
 70
    22
  0
APPID
  2
ACAD
 70
     0
  0
APPID
  2
ACAD_DSTYLE_DIMTEXT_FILL
 70
     0
  0
APPID
  2
ACAD_DSTYLE_DIMEXT_LENGTH
 70
     0
  0
APPID
  2
ACAD_DSTYLE_DIMEXT_ENABLED
 70
     0
  0
APPID
  2
ACAD_DSTYLE_DIM_LINETYPE
 70
     0
  0
APPID
  2
ACAD_DSTYLE_DIM_EXT1_LINETYPE
 70
     0
  0
APPID
  2
ACAD_DSTYLE_DIM_EXT2_LINETYPE
 70
     0
  0
APPID
  2
ACAD_DSTYLE_DIMJOGGED_JOGA
 70
     0
  0
APPID
  2
ACAD_DSTYLE_DIMARC_LENGTH_
 70
     0
  0
APPID
  2
ACAD_PSEXT
 70
     0
  0
APPID
  2
ACAD_MLEADERVER
 70
     0
  0
APPID
  2
AMG_ARCHIVE11
 70
     0
  0
APPID
  2
ACAD_EXEMPT_FROM_CAD_STANDARDS
 70
     0
  0
APPID
  2
ACADANNOTATIVE
 70
     0
  0
APPID
  2
ACAECLAYERSTANDARD
 70
     0
  0
APPID
  2
ACAD_DSTYLE_DIMJAG
 70
     0
  0
APPID
  2
ACAD_DSTYLE_DIMTALN
 70
     0
  0
APPID
  2
ACAD_NAV_VCDISPLAY
 70
     0
  0
APPID
  2
ACDBDYNAMICBLOCKGUID
 70
     0
  0
APPID
  2
ACDBBLOCKREPETAG
 70
     0
  0
APPID
  2
AEC_XDATA_BOUND_SPACE
 70
     0
  0
APPID
  2
ACCMTRANSPARENCY
 70
     0
  0
ENDTAB
  0
TABLE
  2
DIMSTYLE
 70
    31
  0
DIMSTYLE
  2
MASKIN
 70
     0
  3

  4

  5

  6

  7

 40
0.0
 41
3.0
 42
1.5
 43
10.0
 44
1.5
 45
0.0
 46
0.0
 47
0.0
 48
0.0
140
3.0
141
-5.0
142
0.0
143
25.399999999999999
144
-1.0
145
0.0
146
1.0
147
1.0
 71
     0
 72
     0
 73
     0
 74
     0
 75
     0
 76
     0
 77
     1
 78
     8
170
     0
171
     0
172
     1
173
     0
174
     0
175
     0
176
   256
177
   256
178
     2
  0
DIMSTYLE
  2
BYGG-021589$0$MASKIN
 70
     0
  3

  4

  5

  6

  7

 40
0.0
 41
3.0
 42
1.5
 43
10.0
 44
1.5
 45
0.0
 46
0.0
 47
0.0
 48
0.0
140
3.0
141
-5.0
142
0.0
143
25.399999999999999
144
-1.0
145
0.0
146
1.0
147
1.0
 71
     0
 72
     0
 73
     0
 74
     0
 75
     0
 76
     0
 77
     1
 78
     8
170
     0
171
     0
172
     1
173
     0
174
     0
175
     0
176
   256
177
   256
178
   256
  0
DIMSTYLE
  2
BYGG-01482201$0$STANDARD
 70
     0
  3

  4

  5

  6

  7

 40
1.0
 41
0.18
 42
0.0625
 43
0.38
 44
0.18
 45
0.0
 46
0.0
 47
0.0
 48
0.0
140
0.18
141
0.09
142
0.0
143
25.399999999999999
144
1.0
145
0.0
146
1.0
147
0.09
 71
     0
 72
     0
 73
     1
 74
     1
 75
     0
 76
     0
 77
     0
 78
     0
170
     0
171
     2
172
     0
173
     0
174
     0
175
     0
176
     0
177
     0
178
     0
  0
DIMSTYLE
  2
BYGG-01482201$0$MASKIN
 70
     0
  3

  4

  5

  6

  7

 40
0.0
 41
3.0
 42
1.5
 43
10.0
 44
1.5
 45
0.0
 46
0.0
 47
0.0
 48
0.0
140
3.0
141
-5.0
142
0.0
143
25.399999999999999
144
-1.0
145
0.0
146
1.0
147
1.0
 71
     0
 72
     0
 73
     0
 74
     1
 75
     0
 76
     0
 77
     1
 78
     8
170
     0
171
     0
172
     1
173
     0
174
     0
175
     0
176
   256
177
   256
178
     2
  0
DIMSTYLE
  2
BYGG-021610$0$MASKIN
 70
     0
  3

  4

  5

  6

  7

 40
0.0
 41
3.0
 42
1.5
 43
10.0
 44
1.5
 45
0.0
 46
0.0
 47
0.0
 48
0.0
140
3.0
141
-5.0
142
0.0
143
25.399999999999999
144
-1.0
145
0.0
146
1.0
147
1.0
 71
     0
 72
     0
 73
     0
 74
     0
 75
     0
 76
     0
 77
     1
 78
     8
170
     0
171
     0
172
     1
173
     0
174
     0
175
     0
176
   256
177
   256
178
   256
  0
DIMSTYLE
  2
BYGG-014357$0$MASKIN
 70
     0
  3

  4

  5

  6

  7

 40
0.0
 41
3.0
 42
1.5
 43
10.0
 44
1.5
 45
0.0
 46
0.0
 47
0.0
 48
0.0
140
3.0
141
-5.0
142
0.0
143
25.399999999999999
144
-1.0
145
0.0
146
1.0
147
1.0
 71
     0
 72
     0
 73
     0
 74
     0
 75
     0
 76
     0
 77
     1
 78
     8
170
     0
171
     0
172
     1
173
     0
174
     0
175
     0
176
   256
177
   256
178
   256
  0
DIMSTYLE
  2
BYGG-014357$0$MASKIN1
 70
     0
  3

  4

  5

  6

  7

 40
1.0
 41
3.0
 42
1.5
 43
10.0
 44
1.5
 45
0.0
 46
0.0
 47
0.0
 48
0.0
140
3.0
141
-5.0
142
0.0
143
25.399999999999999
144
1.0
145
0.0
146
1.0
147
0.9
 71
     0
 72
     0
 73
     0
 74
     0
 75
     0
 76
     0
 77
     1
 78
     8
170
     0
171
     0
172
     1
173
     0
174
     0
175
     0
176
   256
177
   256
178
   256
  0
DIMSTYLE
  2
BYGG-014357$0$MASKIN2
 70
     0
  3

  4

  5

  6

  7

 40
1.0
 41
3.0
 42
1.5
 43
10.0
 44
1.5
 45
0.0
 46
0.0
 47
0.0
 48
0.0
140
3.0
141
-5.0
142
0.0
143
25.399999999999999
144
1.0
145
0.0
146
1.0
147
0.9
 71
     0
 72
     0
 73
     0
 74
     0
 75
     0
 76
     0
 77
     1
 78
     8
170
     0
171
     0
172
     1
173
     0
174
     0
175
     0
176
   256
177
   256
178
   256
  0
DIMSTYLE
  2
BYGG-014357$0$MASKIN3
 70
     0
  3

  4

  5

  6

  7

 40
1.0
 41
3.0
 42
1.5
 43
10.0
 44
1.5
 45
0.0
 46
0.0
 47
0.0
 48
0.0
140
3.0
141
-5.0
142
0.0
143
25.399999999999999
144
1.0
145
0.0
146
1.0
147
0.9
 71
     0
 72
     0
 73
     0
 74
     0
 75
     0
 76
     0
 77
     1
 78
     8
170
     0
171
     0
172
     1
173
     0
174
     0
175
     0
176
   256
177
   256
178
   256
  0
DIMSTYLE
  2
BYGG-014357$0$DMST_1
 70
     0
  3

  4

  5

  6

  7

 40
1.0
 41
0.7000000000000002
 42
0.0
 43
7.0
 44
0.4
 45
0.0
 46
0.0
 47
0.15
 48
0.15
140
0.7000000000000002
141
0.0
142
0.0
143
25.399999999999999
144
1.0
145
0.0
146
0.7
147
0.09
 71
     1
 72
     0
 73
     0
 74
     0
 75
     0
 76
     0
 77
     1
 78
     9
170
     0
171
     2
172
     0
173
     0
174
     0
175
     0
176
     1
177
     1
178
     2
  0
DIMSTYLE
  2
BYGG-014062$0$MASKIN
 70
     0
  3

  4

  5

  6

  7

 40
0.0
 41
3.0
 42
1.5
 43
10.0
 44
1.5
 45
0.0
 46
0.0
 47
0.0
 48
0.0
140
3.0
141
-5.0
142
0.0
143
25.399999999999999
144
-1.0
145
0.0
146
1.0
147
1.0
 71
     0
 72
     0
 73
     0
 74
     0
 75
     0
 76
     0
 77
     1
 78
     8
170
     0
171
     0
172
     1
173
     0
174
     0
175
     0
176
   256
177
   256
178
   256
  0
DIMSTYLE
  2
BYGG-014062$0$STANDARD
 70
     0
  3

  4

  5

  6

  7

 40
1.0
 41
0.18
 42
0.0625
 43
0.38
 44
0.18
 45
0.0
 46
0.0
 47
0.0
 48
0.0
140
0.18
141
0.09
142
0.0
143
25.399999999999999
144
1.0
145
0.0
146
1.0
147
0.09
 71
     0
 72
     0
 73
     1
 74
     1
 75
     0
 76
     0
 77
     0
 78
     0
170
     0
171
     2
172
     0
173
     0
174
     0
175
     0
176
     0
177
     0
178
     0
  0
DIMSTYLE
  2
BYGG-021806$0$STANDARD
 70
     0
  3

  4

  5

  6

  7

 40
1.0
 41
0.18
 42
0.0625
 43
0.38
 44
0.18
 45
0.0
 46
0.0
 47
0.0
 48
0.0
140
0.18
141
0.09
142
0.0
143
25.399999999999999
144
1.0
145
0.0
146
1.0
147
0.09
 71
     0
 72
     0
 73
     1
 74
     1
 75
     0
 76
     0
 77
     0
 78
     0
170
     0
171
     2
172
     0
173
     0
174
     0
175
     0
176
     0
177
     0
178
     0
  0
DIMSTYLE
  2
BYGG-021806$0$MASKIN
 70
     0
  3

  4

  5

  6

  7

 40
0.0
 41
3.0
 42
1.5
 43
10.0
 44
1.5
 45
0.0
 46
0.0
 47
0.0
 48
0.0
140
3.0
141
-5.0
142
0.0
143
25.399999999999999
144
-1.0
145
0.0
146
1.0
147
1.0
 71
     0
 72
     0
 73
     0
 74
     0
 75
     0
 76
     0
 77
     1
 78
     8
170
     0
171
     0
172
     1
173
     0
174
     0
175
     0
176
   256
177
   256
178
     2
  0
DIMSTYLE
  2
BYGG-021582$0$MASKIN
 70
     0
  3

  4

  5

  6

  7

 40
0.0
 41
3.0
 42
1.5
 43
10.0
 44
1.5
 45
0.0
 46
0.0
 47
0.0
 48
0.0
140
3.0
141
-5.0
142
0.0
143
25.399999999999999
144
-1.0
145
0.0
146
1.0
147
1.0
 71
     0
 72
     0
 73
     0
 74
     0
 75
     0
 76
     0
 77
     1
 78
     8
170
     0
171
     0
172
     1
173
     0
174
     0
175
     0
176
   256
177
   256
178
   256
  0
DIMSTYLE
  2
BYGG-014279$0$STANDARD
 70
     0
  3

  4

  5

  6

  7

 40
1.0
 41
0.18
 42
0.0625
 43
0.38
 44
0.18
 45
0.0
 46
0.0
 47
0.0
 48
0.0
140
0.18
141
0.09
142
0.0
143
25.399999999999999
144
1.0
145
0.0
146
1.0
147
0.09
 71
     0
 72
     0
 73
     1
 74
     1
 75
     0
 76
     0
 77
     0
 78
     0
170
     0
171
     2
172
     0
173
     0
174
     0
175
     0
176
     0
177
     0
178
     0
  0
DIMSTYLE
  2
BYGG-014279$0$MASKIN
 70
     0
  3

  4

  5

  6

  7

 40
0.0
 41
3.0
 42
1.5
 43
10.0
 44
1.5
 45
0.0
 46
0.0
 47
0.0
 48
0.0
140
3.0
141
-5.0
142
0.0
143
25.399999999999999
144
-1.0
145
0.0
146
1.0
147
1.0
 71
     0
 72
     0
 73
     0
 74
     1
 75
     0
 76
     0
 77
     1
 78
     8
170
     0
171
     0
172
     1
173
     0
174
     0
175
     0
176
   256
177
   256
178
     2
  0
DIMSTYLE
  2
BYGG-021426$0$STANDARD
 70
     0
  3

  4

  5

  6

  7

 40
1.0
 41
0.18
 42
0.0625
 43
0.38
 44
0.18
 45
0.0
 46
0.0
 47
0.0
 48
0.0
140
0.18
141
0.09
142
0.0
143
25.399999999999999
144
1.0
145
0.0
146
1.0
147
0.09
 71
     0
 72
     0
 73
     1
 74
     1
 75
     0
 76
     0
 77
     0
 78
     0
170
     0
171
     2
172
     0
173
     0
174
     0
175
     0
176
     0
177
     0
178
     0
  0
DIMSTYLE
  2
BYGG-014495$0$MASKIN
 70
     0
  3

  4

  5

  6

  7

 40
0.0
 41
3.0
 42
1.5
 43
10.0
 44
1.5
 45
0.0
 46
0.0
 47
0.0
 48
0.0
140
3.0
141
-5.0
142
0.0
143
25.399999999999999
144
-1.0
145
0.0
146
1.0
147
1.0
 71
     0
 72
     0
 73
     0
 74
     0
 75
     0
 76
     0
 77
     1
 78
     8
170
     0
171
     0
172
     1
173
     0
174
     0
175
     0
176
   256
177
   256
178
     2
  0
DIMSTYLE
  2
BYGG-022120$0$STANDARD
 70
     0
  3

  4

  5

  6

  7

 40
1.0
 41
0.18
 42
0.0625
 43
0.38
 44
0.18
 45
0.0
 46
0.0
 47
0.0
 48
0.0
140
0.18
141
0.09
142
0.0
143
25.399999999999999
144
1.0
145
0.0
146
1.0
147
0.09
 71
     0
 72
     0
 73
     1
 74
     1
 75
     0
 76
     0
 77
     0
 78
     0
170
     0
171
     2
172
     0
173
     0
174
     0
175
     0
176
     0
177
     0
178
     0
  0
DIMSTYLE
  2
BYGG-022120$0$MASKIN
 70
     0
  3

  4

  5

  6

  7

 40
0.0
 41
3.0
 42
1.5
 43
10.0
 44
1.5
 45
0.0
 46
0.0
 47
0.0
 48
0.0
140
3.0
141
-5.0
142
0.0
143
25.399999999999999
144
-1.0
145
0.0
146
1.0
147
1.0
 71
     0
 72
     0
 73
     0
 74
     0
 75
     0
 76
     0
 77
     1
 78
     8
170
     0
171
     0
172
     1
173
     0
174
     0
175
     0
176
   256
177
   256
178
     2
  0
DIMSTYLE
  2
BYGG-01457801$0$STANDARD
 70
     0
  3

  4

  5

  6

  7

 40
1.0
 41
0.18
 42
0.0625
 43
0.38
 44
0.18
 45
0.0
 46
0.0
 47
0.0
 48
0.0
140
0.18
141
0.09
142
0.0
143
25.399999999999999
144
1.0
145
0.0
146
1.0
147
0.09
 71
     0
 72
     0
 73
     1
 74
     1
 75
     0
 76
     0
 77
     0
 78
     0
170
     0
171
     2
172
     0
173
     0
174
     0
175
     0
176
     0
177
     0
178
     0
  0
DIMSTYLE
  2
BYGG-01457801$0$MASKIN
 70
     0
  3

  4

  5

  6

  7

 40
0.0
 41
3.0
 42
1.5
 43
10.0
 44
1.5
 45
0.0
 46
0.0
 47
0.0
 48
0.0
140
3.0
141
-5.0
142
0.0
143
25.399999999999999
144
-1.0
145
0.0
146
1.0
147
1.0
 71
     0
 72
     0
 73
     0
 74
     1
 75
     0
 76
     0
 77
     1
 78
     8
170
     0
171
     0
172
     1
173
     0
174
     0
175
     0
176
   256
177
   256
178
     2
  0
DIMSTYLE
  2
BYGG-021355$0$MASKIN
 70
     0
  3

  4

  5

  6

  7

 40
0.0
 41
3.0
 42
1.5
 43
10.0
 44
1.5
 45
0.0
 46
0.0
 47
0.0
 48
0.0
140
3.0
141
-5.0
142
0.0
143
25.399999999999999
144
-1.0
145
0.0
146
1.0
147
1.0
 71
     0
 72
     0
 73
     0
 74
     0
 75
     0
 76
     0
 77
     1
 78
     8
170
     0
171
     0
172
     1
173
     0
174
     0
175
     0
176
   256
177
   256
178
   256
  0
DIMSTYLE
  2
BYGG-021355$0$STANDARD
 70
     0
  3

  4

  5

  6

  7

 40
1.0
 41
0.18
 42
0.0625
 43
0.38
 44
0.18
 45
0.0
 46
0.0
 47
0.0
 48
0.0
140
0.18
141
0.09
142
0.0
143
25.399999999999999
144
1.0
145
0.0
146
1.0
147
0.09
 71
     0
 72
     0
 73
     1
 74
     1
 75
     0
 76
     0
 77
     0
 78
     0
170
     0
171
     2
172
     0
173
     0
174
     0
175
     0
176
     0
177
     0
178
     0
  0
DIMSTYLE
  2
BYGG-014174$0$STANDARD
 70
     0
  3

  4

  5

  6

  7

 40
1.0
 41
0.18
 42
0.0625
 43
0.38
 44
0.18
 45
0.0
 46
0.0
 47
0.0
 48
0.0
140
0.18
141
0.09
142
0.0
143
25.399999999999999
144
1.0
145
0.0
146
1.0
147
0.09
 71
     0
 72
     0
 73
     1
 74
     1
 75
     0
 76
     0
 77
     0
 78
     0
170
     0
171
     2
172
     0
173
     0
174
     0
175
     0
176
     0
177
     0
178
     0
  0
DIMSTYLE
  2
BYGG-014174$0$MASKIN
 70
     0
  3

  4

  5

  6

  7

 40
0.0
 41
3.0
 42
1.5
 43
10.0
 44
1.5
 45
0.0
 46
0.0
 47
0.0
 48
0.0
140
3.0
141
-5.0
142
0.0
143
25.399999999999999
144
-1.0
145
0.0
146
1.0
147
1.0
 71
     0
 72
     0
 73
     0
 74
     0
 75
     0
 76
     0
 77
     1
 78
     8
170
     0
171
     0
172
     1
173
     0
174
     0
175
     0
176
   256
177
   256
178
   256
  0
DIMSTYLE
  2
BYGG-022709$0$STANDARD
 70
     0
  3

  4

  5

  6

  7

 40
1.0
 41
0.18
 42
0.0625
 43
0.38
 44
0.18
 45
0.0
 46
0.0
 47
0.0
 48
0.0
140
0.18
141
0.09
142
0.0
143
25.399999999999999
144
1.0
145
0.0
146
1.0
147
0.09
 71
     0
 72
     0
 73
     1
 74
     1
 75
     0
 76
     0
 77
     0
 78
     0
170
     0
171
     2
172
     0
173
     0
174
     0
175
     0
176
     0
177
     0
178
     0
  0
DIMSTYLE
  2
BYGG-022709$0$MASKIN
 70
     0
  3

  4

  5

  6

  7

 40
0.0
 41
3.0
 42
1.5
 43
10.0
 44
1.5
 45
0.0
 46
0.0
 47
0.0
 48
0.0
140
3.0
141
-5.0
142
0.0
143
25.399999999999999
144
-1.0
145
0.0
146
1.0
147
1.0
 71
     0
 72
     0
 73
     0
 74
     0
 75
     0
 76
     0
 77
     1
 78
     8
170
     0
171
     0
172
     1
173
     0
174
     0
175
     0
176
   256
177
   256
178
     2
  0
DIMSTYLE
  2
BYGG-014198$0$STANDARD
 70
     0
  3

  4

  5

  6

  7

 40
1.0
 41
0.18
 42
0.0625
 43
0.38
 44
0.18
 45
0.0
 46
0.0
 47
0.0
 48
0.0
140
0.18
141
0.09
142
0.0
143
25.399999999999999
144
1.0
145
0.0
146
1.0
147
0.09
 71
     0
 72
     0
 73
     1
 74
     1
 75
     0
 76
     0
 77
     0
 78
     0
170
     0
171
     2
172
     0
173
     0
174
     0
175
     0
176
     0
177
     0
178
     0
  0
DIMSTYLE
  2
BYGG-014198$0$MASKIN
 70
     0
  3

  4

  5

  6

  7

 40
0.0
 41
3.0
 42
1.5
 43
10.0
 44
1.5
 45
0.0
 46
0.0
 47
0.0
 48
0.0
140
3.0
141
-5.0
142
0.0
143
25.399999999999999
144
-1.0
145
0.0
146
1.0
147
1.0
 71
     0
 72
     0
 73
     0
 74
     0
 75
     0
 76
     0
 77
     1
 78
     8
170
     0
171
     0
172
     1
173
     0
174
     0
175
     0
176
   256
177
   256
178
   256
  0
ENDTAB
  0
ENDSEC
  0
SECTION
  2
BLOCKS
  0
BLOCK
  8
0
  2
$MODEL_SPACE
 70
     0
 10
0.0
 20
0.0
 30
0.0
  3
$MODEL_SPACE
  1

  0
ENDBLK
  5
37
  8
0
  0
BLOCK
 67
     1
  8
0
  2
$PAPER_SPACE
 70
     0
 10
0.0
 20
0.0
 30
0.0
  3
$PAPER_SPACE
  1

  0
ENDBLK
  5
35
 67
     1
  8
0
  0
BLOCK
  8
0
  2
*D66
 70
     1
 10
0.0
 20
0.0
 30
0.0
  3
*D66
  1

  0
LINE
  5
1512
  8
SAPA_MATT
 10
24.999999999999659
 20
-97.499999999010583
 30
0.0
 11
24.999999999999659
 21
-117.3699098731156
 31
0.0
  0
LINE
  5
1513
  8
SAPA_MATT
 10
-25.000000000000341
 20
-97.499999999010583
 30
0.0
 11
-25.000000000000341
 21
-117.3699098731156
 31
0.0
  0
LINE
  5
1514
  8
SAPA_MATT
 10
21.999999999999659
 20
-115.8699098731156
 30
0.0
 11
-22.000000000000341
 21
-115.8699098731156
 31
0.0
  0
SOLID
  5
1515
  8
SAPA_MATT
 10
21.999999999999659
 20
-115.3699098731156
 30
0.0
 11
21.999999999999659
 21
-116.3699098731156
 31
0.0
 12
24.999999999999659
 22
-115.8699098731156
 32
0.0
 13
24.999999999999659
 23
-115.8699098731156
 33
0.0
  0
SOLID
  5
1516
  8
SAPA_MATT
 10
-22.000000000000341
 20
-115.3699098731156
 30
0.0
 11
-22.000000000000341
 21
-116.3699098731156
 31
0.0
 12
-25.000000000000341
 22
-115.8699098731156
 32
0.0
 13
-25.000000000000341
 23
-115.8699098731156
 33
0.0
  0
INSERT
  5
1517
  8
0
  2
*U82
 10
0.0
 20
0.0
 30
0.0
  0
POINT
  5
1518
  8
DEFPOINTS
 62
     0
 10
24.999999999999659
 20
-95.999999999010583
 30
0.0
  0
POINT
  5
1519
  8
DEFPOINTS
 62
     0
 10
-25.000000000000341
 20
-95.999999999010583
 30
0.0
  0
POINT
  5
151A
  8
DEFPOINTS
 62
     0
 10
-25.000000000000341
 20
-115.8699098731156
 30
0.0
  0
ENDBLK
  5
14B4
  8
0
  0
BLOCK
  8
0
  2
*D67
 70
     1
 10
0.0
 20
0.0
 30
0.0
  3
*D67
  1

  0
LINE
  5
1D68
  8
SAPA_MATT
 10
-25.000000000000341
 20
-97.499999999010583
 30
0.0
 11
-25.000000000000341
 21
-117.3563963596021
 31
0.0
  0
LINE
  5
1D69
  8
SAPA_MATT
 10
-37.000000000000341
 20
-77.007832962818824
 30
0.0
 11
-37.000000000000341
 21
-117.3563963596021
 31
0.0
  0
LINE
  5
1D6A
  8
SAPA_MATT
 10
-28.000000000000341
 20
-115.8563963596021
 30
0.0
 11
-34.000000000000341
 21
-115.8563963596021
 31
0.0
  0
SOLID
  5
1D6B
  8
SAPA_MATT
 10
-28.000000000000341
 20
-115.3563963596021
 30
0.0
 11
-28.000000000000341
 21
-116.3563963596021
 31
0.0
 12
-25.000000000000341
 22
-115.8563963596021
 32
0.0
 13
-25.000000000000341
 23
-115.8563963596021
 33
0.0
  0
SOLID
  5
1D6C
  8
SAPA_MATT
 10
-34.000000000000341
 20
-115.3563963596021
 30
0.0
 11
-34.000000000000341
 21
-116.3563963596021
 31
0.0
 12
-37.000000000000341
 22
-115.8563963596021
 32
0.0
 13
-37.000000000000341
 23
-115.8563963596021
 33
0.0
  0
TEXT
  8
SAPA_MATT
  40
3
  5
1D7D
  62
2
  72
0
  71
0
 10
-37.0000
 20
-118.666
 30
0.000000
  1
12
  7
ISO
  0
POINT
  5
1D6E
  8
DEFPOINTS
 62
     0
 10
-25.000000000000341
 20
-95.999999999010583
 30
0.0
  0
POINT
  5
1D6F
  8
DEFPOINTS
 62
     0
 10
-37.000000000000341
 20
-75.507832962818838
 30
0.0
  0
POINT
  5
1D70
  8
DEFPOINTS
 62
     0
 10
-37.000000000000341
 20
-115.8563963596021
 30
0.0
  0
ENDBLK
  5
14C0
  8
0
  0
BLOCK
  8
0
  2
*D68
 70
     1
 10
0.0
 20
0.0
 30
0.0
  3
*D68
  1

  0
LINE
  5
1500
  8
SAPA_MATT
 10
41.50000000000022
 20
124.50260124473409
 30
0.0
 11
61.242184206581271
 21
124.50260124473409
 31
0.0
  0
LINE
  5
1501
  8
SAPA_MATT
 10
41.500000000000227
 20
74.502601244734123
 30
0.0
 11
61.242184206581257
 21
74.502601244734123
 31
0.0
  0
LINE
  5
1502
  8
SAPA_MATT
 10
59.742184206581278
 20
121.50260124473409
 30
0.0
 11
59.742184206581257
 21
77.502601244734123
 31
0.0
  0
SOLID
  5
1503
  8
SAPA_MATT
 10
59.242184206581278
 20
121.50260124473409
 30
0.0
 11
60.242184206581278
 21
121.50260124473409
 31
0.0
 12
59.742184206581278
 22
124.50260124473409
 32
0.0
 13
59.742184206581278
 23
124.50260124473409
 33
0.0
  0
SOLID
  5
1504
  8
SAPA_MATT
 10
59.242184206581257
 20
77.502601244734123
 30
0.0
 11
60.242184206581257
 21
77.502601244734123
 31
0.0
 12
59.742184206581257
 22
74.502601244734123
 32
0.0
 13
59.742184206581257
 23
74.502601244734123
 33
0.0
  0
INSERT
  5
1505
  8
0
  2
*U81
 10
0.0
 20
0.0
 30
0.0
  0
POINT
  5
1506
  8
DEFPOINTS
 62
     0
 10
40.000000000000227
 20
124.50260124473409
 30
0.0
  0
POINT
  5
1507
  8
DEFPOINTS
 62
     0
 10
40.000000000000227
 20
74.502601244734123
 30
0.0
  0
POINT
  5
1508
  8
DEFPOINTS
 62
     0
 10
59.742184206581257
 20
74.502601244734123
 30
0.0
  0
ENDBLK
  5
14CC
  8
0
  0
BLOCK
  8
0
  2
*D69
 70
     1
 10
0.0
 20
0.0
 30
0.0
  3
*D69
  1

  0
LINE
  5
14F7
  8
SAPA_MATT
 10
25.000000000000231
 20
62.499999999998863
 30
0.0
 11
25.000000000000231
 21
45.092369856398648
 31
0.0
  0
LINE
  5
14F8
  8
SAPA_MATT
 10
41.000000000000242
 20
74.00260124473418
 30
0.0
 11
41.000000000000242
 21
45.092369856398648
 31
0.0
  0
LINE
  5
14F9
  8
SAPA_MATT
 10
28.000000000000231
 20
46.592369856398641
 30
0.0
 11
38.000000000000242
 21
46.592369856398641
 31
0.0
  0
SOLID
  5
14FA
  8
SAPA_MATT
 10
28.000000000000231
 20
47.092369856398641
 30
0.0
 11
28.000000000000231
 21
46.092369856398641
 31
0.0
 12
25.000000000000231
 22
46.592369856398641
 32
0.0
 13
25.000000000000231
 23
46.592369856398641
 33
0.0
  0
SOLID
  5
14FB
  8
SAPA_MATT
 10
38.000000000000242
 20
47.092369856398641
 30
0.0
 11
38.000000000000242
 21
46.092369856398641
 31
0.0
 12
41.000000000000242
 22
46.592369856398641
 32
0.0
 13
41.000000000000242
 23
46.592369856398641
 33
0.0
  0
INSERT
  5
14FC
  8
0
  2
*U80
 10
0.0
 20
0.0
 30
0.0
  0
POINT
  5
14FD
  8
DEFPOINTS
 62
     0
 10
25.000000000000231
 20
63.999999999998863
 30
0.0
  0
POINT
  5
14FE
  8
DEFPOINTS
 62
     0
 10
41.000000000000242
 20
75.502601244734166
 30
0.0
  0
POINT
  5
14FF
  8
DEFPOINTS
 62
     0
 10
41.000000000000242
 20
46.592369856398641
 30
0.0
  0
ENDBLK
  5
14D8
  8
0
  0
BLOCK
  8
0
  2
*D70
 70
     1
 10
0.0
 20
0.0
 30
0.0
  3
*D70
  1

  0
LINE
  5
1D5F
  8
SAPA_MATT
 10
31.204096385539749
 20
74.499999999998806
 30
0.0
 11
61.214735356083636
 21
74.499999999998792
 31
0.0
  0
LINE
  5
1D60
  8
SAPA_MATT
 10
26.000000000000231
 20
64.499999999998863
 30
0.0
 11
61.214735356083636
 21
64.499999999998849
 31
0.0
  0
LINE
  5
1D61
  8
SAPA_MATT
 10
59.714735356083636
 20
71.499999999998792
 30
0.0
 11
59.714735356083636
 21
67.499999999998849
 31
0.0
  0
SOLID
  5
1D62
  8
SAPA_MATT
 10
59.214735356083636
 20
71.499999999998792
 30
0.0
 11
60.214735356083651
 21
71.499999999998792
 31
0.0
 12
59.714735356083636
 22
74.499999999998792
 32
0.0
 13
59.714735356083636
 23
74.499999999998792
 33
0.0
  0
SOLID
  5
1D63
  8
SAPA_MATT
 10
59.214735356083636
 20
67.499999999998849
 30
0.0
 11
60.214735356083651
 21
67.499999999998849
 31
0.0
 12
59.714735356083636
 22
64.499999999998849
 32
0.0
 13
59.714735356083636
 23
64.499999999998849
 33
0.0
  0
TEXT
  8
SAPA_MATT
  40
3
  5
1D7E
  62
2
  72
0
  71
0
 10
51.2147
 20
64.1900
 30
0.000000
  1
10
  7
ISO
  0
POINT
  5
1D65
  8
DEFPOINTS
 62
     0
 10
29.704096385539739
 20
74.499999999998806
 30
0.0
  0
POINT
  5
1D66
  8
DEFPOINTS
 62
     0
 10
24.500000000000231
 20
64.499999999998863
 30
0.0
  0
POINT
  5
1D67
  8
DEFPOINTS
 62
     0
 10
59.714735356083636
 20
64.499999999998849
 30
0.0
  0
ENDBLK
  5
14E4
  8
0
  0
BLOCK
  8
0
  2
*U71
 70
     1
 10
0.0
 20
0.0
 30
0.0
  3
*U71
  1

  0
TEXT
  5
1551
  8
SAPA_ARTIKELNR
 10
-2.798268816917334
 20
69.31523544370657
 30
0.0
 40
3.5
  1
52070
  7
ISO
  0
ENDBLK
  5
1553
  8
0
  0
BLOCK
  8
0
  2
*U72
 70
     1
 10
0.0
 20
0.0
 30
0.0
  3
*U72
  1

  0
TEXT
  5
1555
  8
SAPA_ARTIKELNR
 10
-5.7130453775140264
 20
56.956789664883672
 30
0.0
 40
3.5
  1
68654
  7
ISO
  0
ENDBLK
  5
1557
  8
0
  0
BLOCK
  8
0
  2
*U73
 70
     1
 10
0.0
 20
0.0
 30
0.0
  3
*U73
  1

  0
TEXT
  5
1559
  8
SAPA_ARTIKELNR
 10
-6.7035930062780604
 20
-90.992051455185447
 30
0.0
 40
3.5
  1
42657
  7
ISO
  0
ENDBLK
  5
155B
  8
0
  0
BLOCK
  8
0
  2
*U74
 70
     1
 10
0.0
 20
0.0
 30
0.0
  3
*U74
  1

  0
TEXT
  5
155D
  8
SAPA_ARTIKELNR
 10
-6.7035930062780604
 20
-103.2960226864522
 30
0.0
 40
3.5
  1
42227
  7
ISO
  0
ENDBLK
  5
155F
  8
0
  0
BLOCK
  8
0
  2
*U75
 70
     1
 10
0.0
 20
0.0
 30
0.0
  3
*U75
  1

  0
TEXT
  5
1561
  8
SAPA_ARTIKELNR
 10
-2.6213634372353218
 20
126.6033319463984
 30
0.0
 40
3.5
  1
68074
  7
ISO
  0
ENDBLK
  5
1563
  8
0
  0
BLOCK
  8
0
  2
*U76
 70
     1
 10
0.0
 20
0.0
 30
0.0
  3
*U76
  1

  0
TEXT
  5
1565
  8
SAPA_ARTIKELNR
 10
-43.295724399636669
 20
126.6033319463984
 30
0.0
 40
3.5
  1
42072
  7
ISO
  0
ENDBLK
  5
1567
  8
0
  0
BLOCK
  8
0
  2
*U77
 70
     1
 10
0.0
 20
0.0
 30
0.0
  3
*U77
  1

  0
TEXT
  5
1569
  8
SAPA_ARTIKELNR
 10
47.0556562388931
 20
92.980583288706754
 30
0.0
 40
3.5
  1
42012
 50
90.0
  7
ISO
  0
ENDBLK
  5
156B
  8
0
  0
BLOCK
  8
0
  2
*U78
 70
     1
 10
0.0
 20
0.0
 30
0.0
  3
*U78
  1

  0
SOLID
  5
1BA2
  8
SAPA_FOGBAND
  6
CONTINUOUS
 10
18.629356795612811
 20
-74.773515879680332
 30
0.0
 11
18.449079231839612
 21
-74.848189291586763
 31
0.0
 12
18.809634359385999
 22
-74.848189291586763
 32
0.0
 13
18.809634359385999
 23
-74.848189291586763
 33
0.0
210
0.0
220
0.0
230
1.0
  0
SOLID
  5
1BA3
  8
SAPA_FOGBAND
  6
CONTINUOUS
 10
18.449079231839612
 20
-74.848189291586763
 30
0.0
 11
18.374405819933159
 21
-75.028466855359966
 31
0.0
 12
18.884307771292448
 22
-75.028466855359966
 32
0.0
 13
18.884307771292448
 23
-75.028466855359966
 33
0.0
210
0.0
220
0.0
230
1.0
  0
SOLID
  5
1BA4
  8
SAPA_FOGBAND
  6
CONTINUOUS
 10
-18.449079231839612
 20
-74.848189291586763
 30
0.0
 11
-18.809634359385999
 21
-74.848189291586763
 31
0.0
 12
-18.884307771292448
 22
-75.028466855359966
 32
0.0
 13
-18.884307771292448
 23
-75.028466855359966
 33
0.0
210
0.0
220
0.0
230
-1.0
  0
SOLID
  5
1BA5
  8
SAPA_FOGBAND
  6
CONTINUOUS
 10
-18.449079231839612
 20
-75.208744419133168
 30
0.0
 11
-18.809634359385999
 21
-75.208744419133168
 31
0.0
 12
-18.629356795612811
 22
-75.2834178310396
 32
0.0
 13
-18.629356795612811
 23
-75.2834178310396
 33
0.0
210
0.0
220
0.0
230
-1.0
  0
SOLID
  5
1BA6
  8
SAPA_FOGBAND
  6
CONTINUOUS
 10
18.374405819933159
 20
-75.028466855359966
 30
0.0
 11
18.449079231839612
 21
-75.208744419133168
 31
0.0
 12
18.809634359385999
 22
-75.208744419133168
 32
0.0
 13
18.809634359385999
 23
-75.208744419133168
 33
0.0
210
0.0
220
0.0
230
1.0
  0
SOLID
  5
1BA7
  8
SAPA_FOGBAND
  6
CONTINUOUS
 10
-18.374405819933159
 20
-75.028466855359966
 30
0.0
 11
-18.884307771292448
 21
-75.028466855359966
 31
0.0
 12
-18.809634359385999
 22
-75.208744419133168
 32
0.0
 13
-18.809634359385999
 23
-75.208744419133168
 33
0.0
210
0.0
220
0.0
230
-1.0
  0
LINE
  5
1BA8
  8
SAPA_FOGBAND
  6
CONTINUOUS
 10
18.629356795612811
 20
-74.773515879680332
 30
0.0
 11
18.449079231839612
 21
-74.848189291586763
 31
0.0
  0
LINE
  5
1BA9
  8
SAPA_FOGBAND
  6
CONTINUOUS
 10
18.809634359385999
 20
-74.848189291586763
 30
0.0
 11
18.629356795612811
 21
-74.773515879680332
 31
0.0
  0
LINE
  5
1BAA
  8
SAPA_FOGBAND
  6
CONTINUOUS
 10
18.449079231839612
 20
-74.848189291586763
 30
0.0
 11
18.374405819933159
 21
-75.028466855359966
 31
0.0
  0
LINE
  5
1BAB
  8
SAPA_FOGBAND
  6
CONTINUOUS
 10
18.809634359385999
 20
-74.848189291586763
 30
0.0
 11
18.884307771292448
 21
-75.028466855359966
 31
0.0
  0
LINE
  5
1BAC
  8
SAPA_FOGBAND
  6
CONTINUOUS
 10
18.809634359385999
 20
-75.208744419133168
 30
0.0
 11
18.629356795612811
 21
-75.2834178310396
 31
0.0
  0
LINE
  5
1BAD
  8
SAPA_FOGBAND
  6
CONTINUOUS
 10
18.629356795612811
 20
-75.2834178310396
 30
0.0
 11
18.449079231839612
 21
-75.208744419133168
 31
0.0
  0
LINE
  5
1BAE
  8
SAPA_FOGBAND
  6
CONTINUOUS
 10
18.374405819933159
 20
-75.028466855359966
 30
0.0
 11
18.449079231839612
 21
-75.208744419133168
 31
0.0
  0
LINE
  5
1BAF
  8
SAPA_FOGBAND
  6
CONTINUOUS
 10
18.884307771292448
 20
-75.028466855359966
 30
0.0
 11
18.809634359385999
 21
-75.208744419133168
 31
0.0
  0
ENDBLK
  5
1BB1
  8
0
  0
BLOCK
  8
0
  2
*U79
 70
     1
 10
0.0
 20
0.0
 30
0.0
  3
*U79
  1

  0
SOLID
  5
1C81
  8
SAPA_FOGBAND
  6
CONTINUOUS
 10
18.629356795612811
 20
-74.773515879680332
 30
0.0
 11
18.449079231839612
 21
-74.848189291586763
 31
0.0
 12
18.809634359385999
 22
-74.848189291586763
 32
0.0
 13
18.809634359385999
 23
-74.848189291586763
 33
0.0
210
0.0
220
0.0
230
1.0
  0
SOLID
  5
1C82
  8
SAPA_FOGBAND
  6
CONTINUOUS
 10
18.449079231839612
 20
-74.848189291586763
 30
0.0
 11
18.374405819933159
 21
-75.028466855359966
 31
0.0
 12
18.884307771292448
 22
-75.028466855359966
 32
0.0
 13
18.884307771292448
 23
-75.028466855359966
 33
0.0
210
0.0
220
0.0
230
1.0
  0
SOLID
  5
1C83
  8
SAPA_FOGBAND
  6
CONTINUOUS
 10
-18.449079231839612
 20
-74.848189291586763
 30
0.0
 11
-18.809634359385999
 21
-74.848189291586763
 31
0.0
 12
-18.884307771292448
 22
-75.028466855359966
 32
0.0
 13
-18.884307771292448
 23
-75.028466855359966
 33
0.0
210
0.0
220
0.0
230
-1.0
  0
SOLID
  5
1C84
  8
SAPA_FOGBAND
  6
CONTINUOUS
 10
-18.449079231839612
 20
-75.208744419133168
 30
0.0
 11
-18.809634359385999
 21
-75.208744419133168
 31
0.0
 12
-18.629356795612811
 22
-75.2834178310396
 32
0.0
 13
-18.629356795612811
 23
-75.2834178310396
 33
0.0
210
0.0
220
0.0
230
-1.0
  0
SOLID
  5
1C85
  8
SAPA_FOGBAND
  6
CONTINUOUS
 10
18.374405819933159
 20
-75.028466855359966
 30
0.0
 11
18.449079231839612
 21
-75.208744419133168
 31
0.0
 12
18.809634359385999
 22
-75.208744419133168
 32
0.0
 13
18.809634359385999
 23
-75.208744419133168
 33
0.0
210
0.0
220
0.0
230
1.0
  0
SOLID
  5
1C86
  8
SAPA_FOGBAND
  6
CONTINUOUS
 10
-18.374405819933159
 20
-75.028466855359966
 30
0.0
 11
-18.884307771292448
 21
-75.028466855359966
 31
0.0
 12
-18.809634359385999
 22
-75.208744419133168
 32
0.0
 13
-18.809634359385999
 23
-75.208744419133168
 33
0.0
210
0.0
220
0.0
230
-1.0
  0
LINE
  5
1C87
  8
SAPA_FOGBAND
  6
CONTINUOUS
 10
18.629356795612811
 20
-74.773515879680332
 30
0.0
 11
18.449079231839612
 21
-74.848189291586763
 31
0.0
  0
LINE
  5
1C88
  8
SAPA_FOGBAND
  6
CONTINUOUS
 10
18.809634359385999
 20
-74.848189291586763
 30
0.0
 11
18.629356795612811
 21
-74.773515879680332
 31
0.0
  0
LINE
  5
1C89
  8
SAPA_FOGBAND
  6
CONTINUOUS
 10
18.449079231839612
 20
-74.848189291586763
 30
0.0
 11
18.374405819933159
 21
-75.028466855359966
 31
0.0
  0
LINE
  5
1C8A
  8
SAPA_FOGBAND
  6
CONTINUOUS
 10
18.809634359385999
 20
-74.848189291586763
 30
0.0
 11
18.884307771292448
 21
-75.028466855359966
 31
0.0
  0
LINE
  5
1C8B
  8
SAPA_FOGBAND
  6
CONTINUOUS
 10
18.809634359385999
 20
-75.208744419133168
 30
0.0
 11
18.629356795612811
 21
-75.2834178310396
 31
0.0
  0
LINE
  5
1C8C
  8
SAPA_FOGBAND
  6
CONTINUOUS
 10
18.629356795612811
 20
-75.2834178310396
 30
0.0
 11
18.449079231839612
 21
-75.208744419133168
 31
0.0
  0
LINE
  5
1C8D
  8
SAPA_FOGBAND
  6
CONTINUOUS
 10
18.374405819933159
 20
-75.028466855359966
 30
0.0
 11
18.449079231839612
 21
-75.208744419133168
 31
0.0
  0
LINE
  5
1C8E
  8
SAPA_FOGBAND
  6
CONTINUOUS
 10
18.884307771292448
 20
-75.028466855359966
 30
0.0
 11
18.809634359385999
 21
-75.208744419133168
 31
0.0
  0
ENDBLK
  5
1C90
  8
0
  0
BLOCK
  8
0
  2
*U80
 70
     1
 10
0.0
 20
0.0
 30
0.0
  3
*U80
  1

  0
TEXT
  5
1D72
  8
SAPA_MATT
 62
     2
 10
31.200000000000241
 20
47.592369856398648
 30
0.0
 40
3.0
  1
16
  7
ISO
  0
ENDBLK
  5
1D74
  8
0
  0
BLOCK
  8
0
  2
*U81
 70
     1
 10
0.0
 20
0.0
 30
0.0
  3
*U81
  1

  0
TEXT
  5
1D76
  8
SAPA_MATT
 62
     2
 10
58.742184206581257
 20
97.402601244734129
 30
0.0
 40
3.0
  1
50
 50
90.0
  7
ISO
  0
ENDBLK
  5
1D78
  8
0
  0
BLOCK
  8
0
  2
*U82
 70
     1
 10
0.0
 20
0.0
 30
0.0
  3
*U82
  1

  0
TEXT
  5
1D7A
  8
SAPA_MATT
 62
     2
 10
-2.1000000000003398
 20
-114.8699098731156
 30
0.0
 40
3.0
  1
50
  7
ISO
  0
ENDBLK
  5
1D7C
  8
0
  0
ENDSEC
  0
SECTION
  2
ENTITIES
  0
POLYLINE
  5
7C7
  8
SAPA_ANSLUTNING
 66
     1
 10
0.0
 20
0.0
 30
0.0
 70
     1
  0
VERTEX
  5
1545
  8
SAPA_ANSLUTNING
 10
-24.953012160544059
 20
-74.507832962818824
 30
0.0
  0
VERTEX
  5
1546
  8
SAPA_ANSLUTNING
 10
-24.953012160544059
 20
-35.500000000001137
 30
0.0
  0
VERTEX
  5
1547
  8
SAPA_ANSLUTNING
 10
-5.8453509327481461
 20
-35.500000000001137
 30
0.0
  0
VERTEX
  5
1548
  8
SAPA_ANSLUTNING
 10
-5.8453509327481461
 20
-74.507832962818824
 30
0.0
  0
SEQEND
  5
1549
  8
SAPA_ANSLUTNING
  0
POLYLINE
  5
7FD
  8
SAPA_ANSLUTNING
 66
     1
 10
0.0
 20
0.0
 30
0.0
  0
VERTEX
  5
154A
  8
SAPA_ANSLUTNING
 10
-24.499999999999769
 20
64.499999999998877
 30
0.0
  0
VERTEX
  5
154B
  8
SAPA_ANSLUTNING
 10
-24.499999999999769
 20
66.578300773496039
 30
0.0
  0
VERTEX
  5
154C
  8
SAPA_ANSLUTNING
 10
-15.830711116164361
 20
66.578300773496039
 30
0.0
  0
VERTEX
  5
154D
  8
SAPA_ANSLUTNING
 10
-15.830711116164361
 20
64.499999999998863
 30
0.0
  0
VERTEX
  5
154E
  8
SAPA_ANSLUTNING
 10
-24.499999999999769
 20
64.499999999998806
 30
0.0
  0
SEQEND
  5
154F
  8
SAPA_ANSLUTNING
  0
INSERT
  5
A81
  8
0
  2
*U71
 10
0.0
 20
0.0
 30
0.0
  0
INSERT
  5
A82
  8
0
  2
*U72
 10
0.0
 20
0.0
 30
0.0
  0
INSERT
  5
A83
  8
0
  2
*U73
 10
0.0
 20
0.0
 30
0.0
  0
INSERT
  5
A84
  8
0
  2
*U74
 10
0.0
 20
0.0
 30
0.0
  0
INSERT
  5
A85
  8
0
  2
*U75
 10
0.0
 20
0.0
 30
0.0
  0
INSERT
  5
A86
  8
0
  2
*U76
 10
0.0
 20
0.0
 30
0.0
  0
INSERT
  5
A87
  8
0
  2
*U77
 10
0.0
 20
0.0
 30
0.0
  0
POLYLINE
  5
B87
  8
SAPA_LIGHT
 66
     1
 10
0.0
 20
0.0
 30
0.0
  0
VERTEX
  5
156C
  8
SAPA_LIGHT
 10
40.999999999995111
 20
-45.499999999010129
 30
0.0
  0
VERTEX
  5
156D
  8
SAPA_LIGHT
 10
10.99999999999511
 20
-45.499999999010129
 30
0.0
  0
VERTEX
  5
156E
  8
SAPA_LIGHT
 10
10.99999999999511
 20
-72.499999999011763
 30
0.0
  0
VERTEX
  5
156F
  8
SAPA_LIGHT
 10
40.999999999995111
 20
-72.49999999901172
 30
0.0
  0
SEQEND
  5
1570
  8
SAPA_LIGHT
  0
POLYLINE
  5
B89
  8
SAPA_LIGHT
 66
     1
 10
0.0
 20
0.0
 30
0.0
  0
VERTEX
  5
1571
  8
SAPA_LIGHT
 10
-37.000000000000661
 20
68.578300773496025
 30
0.0
  0
VERTEX
  5
1572
  8
SAPA_LIGHT
 10
25.000000000000231
 20
68.578300773496025
 30
0.0
  0
VERTEX
  5
1573
  8
SAPA_LIGHT
 10
25.000000000000231
 20
-45.499999999010129
 30
0.0
  0
VERTEX
  5
1574
  8
SAPA_LIGHT
 10
5.0000000000002274
 20
-45.499999999010129
 30
0.0
  0
VERTEX
  5
1575
  8
SAPA_LIGHT
 10
5.0000000000002309
 20
-72.499999999011763
 30
0.0
  0
VERTEX
  5
1576
  8
SAPA_LIGHT
 10
24.999999999999659
 20
-72.499999999011749
 30
0.0
  0
VERTEX
  5
1577
  8
SAPA_LIGHT
 10
24.999999999999659
 20
-96.499999999010569
 30
0.0
  0
VERTEX
  5
1578
  8
SAPA_LIGHT
 10
-25.000000000000352
 20
-96.499999999010484
 30
0.0
  0
VERTEX
  5
1579
  8
SAPA_LIGHT
 10
-25.000000000000352
 20
-76.507832962818838
 30
0.0
  0
VERTEX
  5
157A
  8
SAPA_LIGHT
 10
-37.000000000000341
 20
-76.507832962818924
 30
0.0
  0
VERTEX
  5
157B
  8
SAPA_LIGHT
 10
-37.000000000000661
 20
68.578300773496025
 30
0.0
  0
SEQEND
  5
157C
  8
SAPA_LIGHT
  0
POLYLINE
  5
B91
  8
SAPA_LIGHT
 66
     1
 10
0.0
 20
0.0
 30
0.0
  0
VERTEX
  5
157D
  8
SAPA_LIGHT
 10
-59.795903614460357
 20
106.8999999999986
 30
0.0
  0
VERTEX
  5
157E
  8
SAPA_LIGHT
 10
-30.99590361446058
 20
106.8999999999989
 30
0.0
  0
VERTEX
  5
157F
  8
SAPA_LIGHT
 10
-30.99590361446058
 20
82.899999999998897
 30
0.0
  0
VERTEX
  5
1580
  8
SAPA_LIGHT
 10
-59.795903614460357
 20
82.899999999998897
 30
0.0
  0
SEQEND
  5
1581
  8
SAPA_LIGHT
  0
POLYLINE
  5
B92
  8
SAPA_LIGHT
 66
     1
 10
0.0
 20
0.0
 30
0.0
  0
VERTEX
  5
1582
  8
SAPA_LIGHT
 10
41.00000000000022
 20
124.49999999999881
 30
0.0
  0
VERTEX
  5
1583
  8
SAPA_LIGHT
 10
41.000000000000163
 20
74.499999999998806
 30
0.0
  0
VERTEX
  5
1584
  8
SAPA_LIGHT
 10
-47.995903614460289
 20
74.499999999998806
 30
0.0
  0
VERTEX
  5
1585
  8
SAPA_LIGHT
 10
-47.995903614460289
 20
82.899999999998897
 30
0.0
  0
VERTEX
  5
1586
  8
SAPA_LIGHT
 10
-25.795903614460261
 20
82.899999999998897
 30
0.0
  0
VERTEX
  5
1587
  8
SAPA_LIGHT
 10
-25.795903614460261
 20
106.8999999999989
 30
0.0
  0
VERTEX
  5
1588
  8
SAPA_LIGHT
 10
-47.995903614460417
 20
106.899999999999
 30
0.0
  0
VERTEX
  5
1589
  8
SAPA_LIGHT
 10
-47.995903614460438
 20
124.49999999999881
 30
0.0
  0
VERTEX
  5
158A
  8
SAPA_LIGHT
 10
41.00000000000022
 20
124.49999999999881
 30
0.0
  0
SEQEND
  5
158B
  8
SAPA_LIGHT
  0
POLYLINE
  5
E1C
  8
SAPA_ANSLUTNING
 66
     1
 10
0.0
 20
0.0
 30
0.0
  0
VERTEX
  5
158C
  8
SAPA_ANSLUTNING
 10
-24.953012160543491
 20
-73.636884046168305
 30
0.0
  0
VERTEX
  5
158D
  8
SAPA_ANSLUTNING
 10
-34.962197507005953
 20
-62.627698699705903
 30
0.0
  0
VERTEX
  5
158E
  8
SAPA_ANSLUTNING
 10
-24.953012160543491
 20
-52.6185133532435
 30
0.0
  0
VERTEX
  5
158F
  8
SAPA_ANSLUTNING
 10
-34.962197507005953
 20
-42.609328006781091
 30
0.0
  0
VERTEX
  5
1590
  8
SAPA_ANSLUTNING
 10
-24.962197507013911
 20
-32.609328006789063
 30
0.0
  0
VERTEX
  5
1591
  8
SAPA_ANSLUTNING
 10
-34.962197507005953
 20
-22.609328006797011
 30
0.0
  0
VERTEX
  5
1592
  8
SAPA_ANSLUTNING
 10
-24.953012160543491
 20
-12.60014266033461
 30
0.0
  0
VERTEX
  5
1593
  8
SAPA_ANSLUTNING
 10
-34.962197507005953
 20
-2.5909573138722091
 30
0.0
  0
VERTEX
  5
1594
  8
SAPA_ANSLUTNING
 10
-24.962197507023919
 20
7.4090426861098839
 30
0.0
  0
VERTEX
  5
1595
  8
SAPA_ANSLUTNING
 10
-34.962197507005953
 20
17.409042686091979
 30
0.0
  0
VERTEX
  5
1596
  8
SAPA_ANSLUTNING
 10
-24.953012160543491
 20
27.418228032554389
 30
0.0
  0
VERTEX
  5
1597
  8
SAPA_ANSLUTNING
 10
-34.962197507005953
 20
37.427413379016791
 30
0.0
  0
VERTEX
  5
1598
  8
SAPA_ANSLUTNING
 10
-24.962197507013911
 20
47.427413379008769
 30
0.0
  0
VERTEX
  5
1599
  8
SAPA_ANSLUTNING
 10
-34.962197507005953
 20
57.427413379000832
 30
0.0
  0
VERTEX
  5
159A
  8
SAPA_ANSLUTNING
 10
-24.99999999999979
 20
66.140969735329577
 30
0.0
  0
VERTEX
  5
159B
  8
SAPA_ANSLUTNING
 10
-25.437331038166239
 20
66.578300773496039
 30
0.0
  0
SEQEND
  5
159C
  8
SAPA_ANSLUTNING
  0
POLYLINE
  5
E1D
  8
SAPA_ANSLUTNING
 66
     1
 10
0.0
 20
0.0
 30
0.0
  0
VERTEX
  5
159D
  8
SAPA_ANSLUTNING
 10
-5.8453509327481461
 20
-74.507832962818824
 30
0.0
  0
VERTEX
  5
159E
  8
SAPA_ANSLUTNING
 10
-24.953012160544059
 20
-63.498647616356429
 30
0.0
  0
VERTEX
  5
159F
  8
SAPA_ANSLUTNING
 10
-5.8453509327481461
 20
-53.489462269894027
 30
0.0
  0
VERTEX
  5
15A0
  8
SAPA_ANSLUTNING
 10
-24.953012160544059
 20
-43.480276923431632
 30
0.0
  0
VERTEX
  5
15A1
  8
SAPA_ANSLUTNING
 10
-5.8545362792185642
 20
-35.500000000001137
 30
0.0
  0
SEQEND
  5
15A2
  8
SAPA_ANSLUTNING
  0
LINE
  5
116A
  8
SAPA_PROFIL
 10
-15.00000000000057
 20
66.578300773496039
 30
0.0
 11
-34.000000000000341
 21
66.578300773496039
 31
0.0
  0
ARC
  5
116B
  8
SAPA_PROFIL
 10
-34.000000000000341
 20
65.578300773496039
 30
0.0
 40
1.0
 50
90.0
 51
180.0
  0
LINE
  5
116C
  8
SAPA_PROFIL
 10
-35.000000000000341
 20
65.578300773496039
 30
0.0
 11
-35.000000000000341
 21
-73.507832962818838
 31
0.0
  0
ARC
  5
116D
  8
SAPA_PROFIL
 10
-34.000000000000341
 20
-73.507832962818838
 30
0.0
 40
1.0
 50
180.0
 51
270.0
  0
LINE
  5
116E
  8
SAPA_PROFIL
 10
-34.000000000000341
 20
-74.507832962818824
 30
0.0
 11
-7.3413678820458008
 21
-74.507832962818824
 31
0.0
  0
LINE
  5
116F
  8
SAPA_PROFIL
 10
-7.3413678820458008
 20
-74.507832962818824
 30
0.0
 11
-7.3413678820458008
 21
-76.507832962818838
 31
0.0
  0
LINE
  5
1170
  8
SAPA_PROFIL
 10
-7.3413678820458008
 20
-76.507832962818838
 30
0.0
 11
-36.000000000000341
 21
-76.507832962818838
 31
0.0
  0
ARC
  5
1171
  8
SAPA_PROFIL
 10
-36.000000000000341
 20
-75.507832962818838
 30
0.0
 40
1.0
 50
180.0
 51
270.0
  0
LINE
  5
1172
  8
SAPA_PROFIL
 10
-37.000000000000341
 20
-75.507832962818838
 30
0.0
 11
-37.000000000000661
 21
66.578300773496039
 31
0.0
  0
ARC
  5
1173
  8
SAPA_PROFIL
 10
-35.000000000000611
 20
66.578300773495997
 30
0.0
 40
2.0000000000000488
 50
89.999999999998764
 51
179.99999999999881
  0
LINE
  5
1174
  8
SAPA_PROFIL
 10
-35.000000000000568
 20
68.578300773496025
 30
0.0
 11
-15.00000000000057
 21
68.578300773496025
 31
0.0
  0
LINE
  5
1175
  8
SAPA_PROFIL
 10
-15.00000000000057
 20
68.578300773496025
 30
0.0
 11
-15.00000000000057
 21
66.578300773496039
 31
0.0
  0
POLYLINE
  5
13BD
  8
SAPA_PROFIL
 66
     1
 10
0.0
 20
0.0
 30
0.0
 70
     1
  0
VERTEX
  5
185A
  8
SAPA_PROFIL
 10
-47.995903614460417
 20
113.2999999999987
 30
0.0
 42
0.4142135623730951
  0
VERTEX
  5
185B
  8
SAPA_PROFIL
 10
-47.695903614460413
 20
112.99999999999881
 30
0.0
  0
VERTEX
  5
185C
  8
SAPA_PROFIL
 10
-46.485903614460483
 20
112.99999999999881
 30
0.0
 42
0.4142135623730951
  0
VERTEX
  5
185D
  8
SAPA_PROFIL
 10
-45.495903614460467
 20
113.9899999999988
 30
0.0
  0
VERTEX
  5
185E
  8
SAPA_PROFIL
 10
-45.495903614460467
 20
114.19999999999879
 30
0.0
  0
VERTEX
  5
185F
  8
SAPA_PROFIL
 10
-46.745903614460467
 20
114.19999999999879
 30
0.0
  0
VERTEX
  5
1860
  8
SAPA_PROFIL
 10
-46.745903614460467
 20
115.49999999999881
 30
0.0
 42
-0.4142135623730951
  0
VERTEX
  5
1861
  8
SAPA_PROFIL
 10
-46.245903614460467
 20
115.99999999999881
 30
0.0
  0
VERTEX
  5
1862
  8
SAPA_PROFIL
 10
-38.245903614460467
 20
115.99999999999881
 30
0.0
 42
-0.4142135623730951
  0
VERTEX
  5
1863
  8
SAPA_PROFIL
 10
-37.745903614460481
 20
115.49999999999881
 30
0.0
  0
VERTEX
  5
1864
  8
SAPA_PROFIL
 10
-37.745903614460481
 20
114.19999999999879
 30
0.0
  0
VERTEX
  5
1865
  8
SAPA_PROFIL
 10
-38.995903614460481
 20
114.19999999999879
 30
0.0
  0
VERTEX
  5
1866
  8
SAPA_PROFIL
 10
-38.995903614460481
 20
113.9899999999988
 30
0.0
 42
0.4142135623730867
  0
VERTEX
  5
1867
  8
SAPA_PROFIL
 10
-38.005903614460472
 20
112.99999999999881
 30
0.0
  0
VERTEX
  5
1868
  8
SAPA_PROFIL
 10
-37.485903614460483
 20
112.99999999999881
 30
0.0
 42
0.4142135623730951
  0
VERTEX
  5
1869
  8
SAPA_PROFIL
 10
-36.495903614460481
 20
113.9899999999988
 30
0.0
  0
VERTEX
  5
186A
  8
SAPA_PROFIL
 10
-36.495903614460481
 20
116.19999999999879
 30
0.0
 42
0.4142135623730951
  0
VERTEX
  5
186B
  8
SAPA_PROFIL
 10
-37.995903614460481
 20
117.69999999999879
 30
0.0
  0
VERTEX
  5
186C
  8
SAPA_PROFIL
 10
-45.995903614460467
 20
117.69999999999879
 30
0.0
 42
-0.4142135623730951
  0
VERTEX
  5
186D
  8
SAPA_PROFIL
 10
-46.495903614460467
 20
118.19999999999879
 30
0.0
  0
VERTEX
  5
186E
  8
SAPA_PROFIL
 10
-46.495903614460467
 20
122.49999999999881
 30
0.0
 42
-0.4142135623730951
  0
VERTEX
  5
186F
  8
SAPA_PROFIL
 10
-45.995903614460467
 20
122.99999999999881
 30
0.0
  0
VERTEX
  5
1870
  8
SAPA_PROFIL
 10
-33.254056993206632
 20
122.99999999999881
 30
0.0
 42
-0.493145426031308
  0
VERTEX
  5
1871
  8
SAPA_PROFIL
 10
-32.771094080062092
 20
122.37059047744739
 30
0.0
  0
VERTEX
  5
1872
  8
SAPA_PROFIL
 10
-33.237061736483952
 20
120.6315755089974
 30
0.0
 42
0.9999999999999452
  0
VERTEX
  5
1873
  8
SAPA_PROFIL
 10
-32.271135910194857
 20
120.3727564638948
 30
0.0
  0
VERTEX
  5
1874
  8
SAPA_PROFIL
 10
-31.91020985516241
 20
121.7197508390516
 30
0.0
 42
-0.6613727838043239
  0
VERTEX
  5
1875
  8
SAPA_PROFIL
 10
-29.97631451775311
 20
121.97661153002861
 30
0.0
  0
VERTEX
  5
1876
  8
SAPA_PROFIL
 10
-26.667168126375941
 20
116.24500185048009
 30
0.0
  0
VERTEX
  5
1877
  8
SAPA_PROFIL
 10
-26.667168126375941
 20
111.9569219381641
 30
0.0
  0
VERTEX
  5
1878
  8
SAPA_PROFIL
 10
-23.074387042959589
 20
107.7999999999988
 30
0.0
  0
VERTEX
  5
1879
  8
SAPA_PROFIL
 10
-23.074387042959529
 20
105.8000004549115
 30
0.0
 42
1.0
  0
VERTEX
  5
187A
  8
SAPA_PROFIL
 10
-22.074387042959589
 20
105.7999999999988
 30
0.0
  0
VERTEX
  5
187B
  8
SAPA_PROFIL
 10
-22.074387042959589
 20
107.99999999999881
 30
0.0
  0
VERTEX
  5
187C
  8
SAPA_PROFIL
 10
-25.167168126375941
 20
112.074563148967
 30
0.0
  0
VERTEX
  5
187D
  8
SAPA_PROFIL
 10
-25.167168126375941
 20
116.64692563912691
 30
0.0
  0
VERTEX
  5
187E
  8
SAPA_PROFIL
 10
-25.368130020699311
 20
116.99500185048009
 30
0.0
  0
VERTEX
  5
187F
  8
SAPA_PROFIL
 10
-26.34285672779129
 20
118.24999999999881
 30
0.0
 42
-0.5773502691896074
  0
VERTEX
  5
1880
  8
SAPA_PROFIL
 10
-25.90984402589914
 20
118.99999999999881
 30
0.0
  0
VERTEX
  5
1881
  8
SAPA_PROFIL
 10
-25.72520216033093
 20
118.99999999999881
 30
0.0
  0
VERTEX
  5
1882
  8
SAPA_PROFIL
 10
-25.72520216033093
 20
120.49999999999881
 30
0.0
  0
VERTEX
  5
1883
  8
SAPA_PROFIL
 10
-27.103066511238239
 20
120.49999999999881
 30
0.0
 42
-0.2679491924311161
  0
VERTEX
  5
1884
  8
SAPA_PROFIL
 10
-27.536079213130389
 20
120.74999999999881
 30
0.0
  0
VERTEX
  5
1885
  8
SAPA_PROFIL
 10
-28.402104616914809
 20
122.24999999999881
 30
0.0
 42
-0.3494280882832233
  0
VERTEX
  5
1886
  8
SAPA_PROFIL
 10
-27.183497939617951
 20
122.99999999999881
 30
0.0
  0
VERTEX
  5
1887
  8
SAPA_PROFIL
 10
-26.924332858120579
 20
122.99999999999881
 30
0.0
  0
VERTEX
  5
1888
  8
SAPA_PROFIL
 10
-26.924332858120579
 20
123.2103150614651
 30
0.0
  0
VERTEX
  5
1889
  8
SAPA_PROFIL
 10
-26.924332858120579
 20
124.49999999999881
 30
0.0
  0
VERTEX
  5
188A
  8
SAPA_PROFIL
 10
-47.695903614460413
 20
124.49999999999881
 30
0.0
 42
0.4142135623730951
  0
VERTEX
  5
188B
  8
SAPA_PROFIL
 10
-47.995903614460417
 20
124.1999999999987
 30
0.0
  0
SEQEND
  5
188C
  8
SAPA_PROFIL
  0
POLYLINE
  5
13BE
  8
SAPA_PROFIL
  6
CONTINUOUS
 66
     1
 10
0.0
 20
0.0
 30
0.0
 70
     1
  0
VERTEX
  5
188D
  8
SAPA_PROFIL
  6
CONTINUOUS
 10
39.000000000000249
 20
94.786020106037995
 30
0.0
  0
VERTEX
  5
188E
  8
SAPA_PROFIL
  6
CONTINUOUS
 10
39.000000000000249
 20
98.977729729172495
 30
0.0
  0
VERTEX
  5
188F
  8
SAPA_PROFIL
  6
CONTINUOUS
 10
39.300000000000239
 20
99.497344971443226
 30
0.0
  0
VERTEX
  5
1890
  8
SAPA_PROFIL
  6
CONTINUOUS
 10
39.000000000000249
 20
100.0169602137138
 30
0.0
  0
VERTEX
  5
1891
  8
SAPA_PROFIL
  6
CONTINUOUS
 10
39.000000000000249
 20
104.2086698368483
 30
0.0
  0
VERTEX
  5
1892
  8
SAPA_PROFIL
  6
CONTINUOUS
 10
39.500000000000249
 20
104.4973449714432
 30
0.0
  0
VERTEX
  5
1893
  8
SAPA_PROFIL
  6
CONTINUOUS
 10
39.500000000000263
 20
122.502601244734
 30
0.0
 42
0.4142135623730939
  0
VERTEX
  5
1894
  8
SAPA_PROFIL
  6
CONTINUOUS
 10
39.00000000000027
 20
123.002601244734
 30
0.0
  0
VERTEX
  5
1895
  8
SAPA_PROFIL
  6
CONTINUOUS
 10
32.200000000000237
 20
123.00260124473409
 30
0.0
 42
0.4142135623730868
  0
VERTEX
  5
1896
  8
SAPA_PROFIL
  6
CONTINUOUS
 10
31.70000000000023
 20
122.50260124473409
 30
0.0
  0
VERTEX
  5
1897
  8
SAPA_PROFIL
  6
CONTINUOUS
 10
31.70000000000022
 20
121.20970802592061
 30
0.0
 42
-0.1989123673796266
  0
VERTEX
  5
1898
  8
SAPA_PROFIL
  6
CONTINUOUS
 10
31.55355339059351
 20
120.8561546353274
 30
0.0
  0
VERTEX
  5
1899
  8
SAPA_PROFIL
  6
CONTINUOUS
 10
30.146446609406919
 20
119.4490478541408
 30
0.0
 42
-0.1989123673796465
  0
VERTEX
  5
189A
  8
SAPA_PROFIL
  6
CONTINUOUS
 10
29.792893218813649
 20
119.30260124473411
 30
0.0
  0
VERTEX
  5
189B
  8
SAPA_PROFIL
  6
CONTINUOUS
 10
25.3000000000002
 20
119.30260124473411
 30
0.0
  0
VERTEX
  5
189C
  8
SAPA_PROFIL
  6
CONTINUOUS
 10
25.300000000000221
 20
119.5757334297051
 30
0.0
 42
-0.1989123673796536
  0
VERTEX
  5
189D
  8
SAPA_PROFIL
  6
CONTINUOUS
 10
25.446446609406951
 20
119.9292868202983
 30
0.0
  0
VERTEX
  5
189E
  8
SAPA_PROFIL
  6
CONTINUOUS
 10
26.86025348681353
 20
121.3430936977049
 30
0.0
 42
-0.5801121982773917
  0
VERTEX
  5
189F
  8
SAPA_PROFIL
  6
CONTINUOUS
 10
27.772523515686061
 20
121.0946012215136
 30
0.0
  0
VERTEX
  5
18A0
  8
SAPA_PROFIL
  6
CONTINUOUS
 10
27.900000000000219
 20
120.6026012447341
 30
0.0
  0
VERTEX
  5
18A1
  8
SAPA_PROFIL
  6
CONTINUOUS
 10
29.295836943965941
 20
120.6026012447341
 30
0.0
 42
0.1989123673796401
  0
VERTEX
  5
18A2
  8
SAPA_PROFIL
  6
CONTINUOUS
 10
29.6493903345592
 20
120.7490478541408
 30
0.0
  0
VERTEX
  5
18A3
  8
SAPA_PROFIL
  6
CONTINUOUS
 10
30.35355339059349
 20
121.453210910175
 30
0.0
 42
0.198912367379664
  0
VERTEX
  5
18A4
  8
SAPA_PROFIL
  6
CONTINUOUS
 10
30.500000000000231
 20
121.80676430076829
 30
0.0
  0
VERTEX
  5
18A5
  8
SAPA_PROFIL
  6
CONTINUOUS
 10
30.500000000000231
 20
122.50260124473409
 30
0.0
 42
0.4142135623731033
  0
VERTEX
  5
18A6
  8
SAPA_PROFIL
  6
CONTINUOUS
 10
30.000000000000231
 20
123.00260124473409
 30
0.0
  0
VERTEX
  5
18A7
  8
SAPA_PROFIL
  6
CONTINUOUS
 10
30.000000000000242
 20
124.2026012447341
 30
0.0
 42
-0.414213562373081
  0
VERTEX
  5
18A8
  8
SAPA_PROFIL
  6
CONTINUOUS
 10
30.300000000000232
 20
124.50260124473409
 30
0.0
  0
VERTEX
  5
18A9
  8
SAPA_PROFIL
  6
CONTINUOUS
 10
40.000000000000227
 20
124.50260124473409
 30
0.0
 42
-0.4142135623730951
  0
VERTEX
  5
18AA
  8
SAPA_PROFIL
  6
CONTINUOUS
 10
41.000000000000242
 20
123.50260124473409
 30
0.0
  0
VERTEX
  5
18AB
  8
SAPA_PROFIL
  6
CONTINUOUS
 10
41.000000000000249
 20
75.502601244734095
 30
0.0
 42
-0.4142135623730951
  0
VERTEX
  5
18AC
  8
SAPA_PROFIL
  6
CONTINUOUS
 10
40.000000000000249
 20
74.502601244734109
 30
0.0
  0
VERTEX
  5
18AD
  8
SAPA_PROFIL
  6
CONTINUOUS
 10
30.300000000000239
 20
74.502601244734109
 30
0.0
 42
-0.4142135623730809
  0
VERTEX
  5
18AE
  8
SAPA_PROFIL
  6
CONTINUOUS
 10
30.000000000000249
 20
74.802601244734092
 30
0.0
  0
VERTEX
  5
18AF
  8
SAPA_PROFIL
  6
CONTINUOUS
 10
30.000000000000231
 20
76.002601244734066
 30
0.0
 42
0.4142135623731026
  0
VERTEX
  5
18B0
  8
SAPA_PROFIL
  6
CONTINUOUS
 10
30.500000000000242
 20
76.50260124473408
 30
0.0
  0
VERTEX
  5
18B1
  8
SAPA_PROFIL
  6
CONTINUOUS
 10
30.500000000000242
 20
77.198438188699839
 30
0.0
 42
0.1989123673796647
  0
VERTEX
  5
18B2
  8
SAPA_PROFIL
  6
CONTINUOUS
 10
30.3535533905935
 20
77.551991579293116
 30
0.0
  0
VERTEX
  5
18B3
  8
SAPA_PROFIL
  6
CONTINUOUS
 10
29.649390334559222
 20
78.256154635327391
 30
0.0
 42
0.1989123673796395
  0
VERTEX
  5
18B4
  8
SAPA_PROFIL
  6
CONTINUOUS
 10
29.295836943965941
 20
78.402601244734086
 30
0.0
  0
VERTEX
  5
18B5
  8
SAPA_PROFIL
  6
CONTINUOUS
 10
27.90000000000024
 20
78.402601244734086
 30
0.0
  0
VERTEX
  5
18B6
  8
SAPA_PROFIL
  6
CONTINUOUS
 10
27.772523515686071
 20
77.910601267954604
 30
0.0
 42
-0.5801121982773929
  0
VERTEX
  5
18B7
  8
SAPA_PROFIL
  6
CONTINUOUS
 10
26.860253486813551
 20
77.662108791763245
 30
0.0
  0
VERTEX
  5
18B8
  8
SAPA_PROFIL
  6
CONTINUOUS
 10
25.446446609406959
 20
79.075915669169831
 30
0.0
 42
-0.198912367379654
  0
VERTEX
  5
18B9
  8
SAPA_PROFIL
  6
CONTINUOUS
 10
25.300000000000232
 20
79.429469059763051
 30
0.0
  0
VERTEX
  5
18BA
  8
SAPA_PROFIL
  6
CONTINUOUS
 10
25.30000000000021
 20
79.702601244734069
 30
0.0
  0
VERTEX
  5
18BB
  8
SAPA_PROFIL
  6
CONTINUOUS
 10
29.79289321881366
 20
79.702601244734083
 30
0.0
 42
-0.198912367379647
  0
VERTEX
  5
18BC
  8
SAPA_PROFIL
  6
CONTINUOUS
 10
30.146446609406929
 20
79.556154635327331
 30
0.0
  0
VERTEX
  5
18BD
  8
SAPA_PROFIL
  6
CONTINUOUS
 10
31.553553390593532
 20
78.149047854140761
 30
0.0
 42
-0.1989123673796274
  0
VERTEX
  5
18BE
  8
SAPA_PROFIL
  6
CONTINUOUS
 10
31.70000000000023
 20
77.795494463547556
 30
0.0
  0
VERTEX
  5
18BF
  8
SAPA_PROFIL
  6
CONTINUOUS
 10
31.70000000000023
 20
76.50260124473408
 30
0.0
 42
0.4142135623730875
  0
VERTEX
  5
18C0
  8
SAPA_PROFIL
  6
CONTINUOUS
 10
32.200000000000252
 20
76.002601244734095
 30
0.0
  0
VERTEX
  5
18C1
  8
SAPA_PROFIL
  6
CONTINUOUS
 10
39.000000000000263
 20
76.002601244734123
 30
0.0
 42
0.4142135623730935
  0
VERTEX
  5
18C2
  8
SAPA_PROFIL
  6
CONTINUOUS
 10
39.500000000000263
 20
76.502601244734123
 30
0.0
  0
VERTEX
  5
18C3
  8
SAPA_PROFIL
  6
CONTINUOUS
 10
39.500000000000249
 20
94.497344971443226
 30
0.0
  0
SEQEND
  5
18C4
  8
SAPA_PROFIL
  6
CONTINUOUS
  0
POLYLINE
  5
13BF
  8
SAPA_PROFIL
 66
     1
 10
0.0
 20
0.0
 30
0.0
 70
     1
  0
VERTEX
  5
18C5
  8
SAPA_PROFIL
 10
24.704096385539739
 20
107.2999999999987
 30
0.0
  0
VERTEX
  5
18C6
  8
SAPA_PROFIL
 10
24.704096385539739
 20
114.7749999999989
 30
0.0
 42
0.4142135623730951
  0
VERTEX
  5
18C7
  8
SAPA_PROFIL
 10
24.204096385539739
 20
115.2749999999989
 30
0.0
  0
VERTEX
  5
18C8
  8
SAPA_PROFIL
 10
22.50409638553981
 20
115.2749999999988
 30
0.0
 42
-0.4142135623730951
  0
VERTEX
  5
18C9
  8
SAPA_PROFIL
 10
17.904096385539791
 20
119.87499999999881
 30
0.0
  0
VERTEX
  5
18CA
  8
SAPA_PROFIL
 10
17.904096385539791
 20
121.69999999999879
 30
0.0
 42
0.4142135623730951
  0
VERTEX
  5
18CB
  8
SAPA_PROFIL
 10
16.904096385539791
 20
122.69999999999879
 30
0.0
  0
VERTEX
  5
18CC
  8
SAPA_PROFIL
 10
-17.49590361446041
 20
122.6999999999987
 30
0.0
 42
0.4142135623730951
  0
VERTEX
  5
18CD
  8
SAPA_PROFIL
 10
-18.495903614460421
 20
121.6999999999987
 30
0.0
  0
VERTEX
  5
18CE
  8
SAPA_PROFIL
 10
-18.495903614460421
 20
101.5999999999987
 30
0.0
 42
-0.4142135623730951
  0
VERTEX
  5
18CF
  8
SAPA_PROFIL
 10
-18.995903614460421
 20
101.0999999999987
 30
0.0
  0
VERTEX
  5
18D0
  8
SAPA_PROFIL
 10
-19.695903614460349
 20
101.0999999999987
 30
0.0
 42
-0.4150844288340716
  0
VERTEX
  5
18D1
  8
SAPA_PROFIL
 10
-20.195901405659129
 20
101.6014862019787
 30
0.0
 42
0.3121484461588222
  0
VERTEX
  5
18D2
  8
SAPA_PROFIL
 10
-20.518120437390738
 20
102.0702996048386
 30
0.0
 42
0.482358125222547
  0
VERTEX
  5
18D3
  8
SAPA_PROFIL
 10
-24.220298657696389
 20
99.874395043235211
 30
0.0
  0
VERTEX
  5
18D4
  8
SAPA_PROFIL
 10
-23.845903614459871
 20
99.49999999999882
 30
0.0
  0
VERTEX
  5
18D5
  8
SAPA_PROFIL
 10
-24.220298657696389
 20
99.125604956762288
 30
0.0
 42
0.4823574778722663
  0
VERTEX
  5
18D6
  8
SAPA_PROFIL
 10
-20.51812583668266
 20
96.929698341187475
 30
0.0
 42
0.311333703729445
  0
VERTEX
  5
18D7
  8
SAPA_PROFIL
 10
-20.195903614460349
 20
97.397025915516735
 30
0.0
  0
VERTEX
  5
18D8
  8
SAPA_PROFIL
 10
-20.195903614460349
 20
97.399999999998784
 30
0.0
 42
-0.4142135623730951
  0
VERTEX
  5
18D9
  8
SAPA_PROFIL
 10
-19.695903614460349
 20
97.899999999998784
 30
0.0
  0
VERTEX
  5
18DA
  8
SAPA_PROFIL
 10
-18.995903614460421
 20
97.899999999998784
 30
0.0
 42
-0.4142135623731117
  0
VERTEX
  5
18DB
  8
SAPA_PROFIL
 10
-18.4959036144603
 20
97.399999999998784
 30
0.0
  0
VERTEX
  5
18DC
  8
SAPA_PROFIL
 10
-18.4959036144603
 20
77.299999999998818
 30
0.0
 42
0.4142135623730951
  0
VERTEX
  5
18DD
  8
SAPA_PROFIL
 10
-17.4959036144603
 20
76.299999999998803
 30
0.0
  0
VERTEX
  5
18DE
  8
SAPA_PROFIL
 10
16.90409638553967
 20
76.299999999998803
 30
0.0
 42
0.4142135623730951
  0
VERTEX
  5
18DF
  8
SAPA_PROFIL
 10
17.90409638553967
 20
77.299999999998818
 30
0.0
  0
VERTEX
  5
18E0
  8
SAPA_PROFIL
 10
17.90409638553967
 20
79.124999999998806
 30
0.0
 42
-0.4142135623730914
  0
VERTEX
  5
18E1
  8
SAPA_PROFIL
 10
22.5040963855397
 20
83.724999999998772
 30
0.0
  0
VERTEX
  5
18E2
  8
SAPA_PROFIL
 10
24.204096385539628
 20
83.724999999998715
 30
0.0
 42
0.4142135623730951
  0
VERTEX
  5
18E3
  8
SAPA_PROFIL
 10
24.704096385539628
 20
84.224999999998715
 30
0.0
  0
VERTEX
  5
18E4
  8
SAPA_PROFIL
 10
24.704096385539739
 20
91.699999999998795
 30
0.0
 42
0.4142135623730951
  0
VERTEX
  5
18E5
  8
SAPA_PROFIL
 10
24.404096385539681
 20
91.999999999998693
 30
0.0
  0
VERTEX
  5
18E6
  8
SAPA_PROFIL
 10
24.304096385539651
 20
91.999999999998806
 30
0.0
 42
-0.4142135623730951
  0
VERTEX
  5
18E7
  8
SAPA_PROFIL
 10
24.0040963855397
 20
92.299999999998761
 30
0.0
  0
VERTEX
  5
18E8
  8
SAPA_PROFIL
 10
24.0040963855397
 20
106.6999999999987
 30
0.0
 42
-0.4142135623730951
  0
VERTEX
  5
18E9
  8
SAPA_PROFIL
 10
24.304096385539651
 20
106.99999999999871
 30
0.0
  0
VERTEX
  5
18EA
  8
SAPA_PROFIL
 10
24.404096385539681
 20
106.99999999999881
 30
0.0
 42
0.4142135623730951
  0
SEQEND
  5
18EB
  8
SAPA_PROFIL
  0
POLYLINE
  5
13C0
  8
SAPA_PROFIL
 66
     1
 10
0.0
 20
0.0
 30
0.0
 70
     1
  0
VERTEX
  5
18EC
  8
SAPA_PROFIL
 10
-24.99590361446019
 20
120.49999999999881
 30
0.0
  0
VERTEX
  5
18ED
  8
SAPA_PROFIL
 10
-23.99590361446019
 20
120.49999999999881
 30
0.0
  0
VERTEX
  5
18EE
  8
SAPA_PROFIL
 10
-23.99590361446019
 20
122.69999999999879
 30
0.0
  0
VERTEX
  5
18EF
  8
SAPA_PROFIL
 10
-20.99590361446019
 20
122.69999999999879
 30
0.0
  0
VERTEX
  5
18F0
  8
SAPA_PROFIL
 10
-20.9959036144603
 20
103.99999999999881
 30
0.0
  0
VERTEX
  5
18F1
  8
SAPA_PROFIL
 10
-23.9959036144603
 20
103.99999999999881
 30
0.0
  0
VERTEX
  5
18F2
  8
SAPA_PROFIL
 10
-23.9959036144603
 20
106.49999999999881
 30
0.0
  0
VERTEX
  5
18F3
  8
SAPA_PROFIL
 10
-24.9959036144603
 20
106.49999999999881
 30
0.0
  0
VERTEX
  5
18F4
  8
SAPA_PROFIL
 10
-25.795903614460261
 20
105.6999999999987
 30
0.0
  0
VERTEX
  5
18F5
  8
SAPA_PROFIL
 10
-25.795903614460261
 20
100.0196152422694
 30
0.0
  0
VERTEX
  5
18F6
  8
SAPA_PROFIL
 10
-25.49590361446031
 20
99.49999999999882
 30
0.0
  0
VERTEX
  5
18F7
  8
SAPA_PROFIL
 10
-25.795903614460261
 20
98.980384757728146
 30
0.0
  0
VERTEX
  5
18F8
  8
SAPA_PROFIL
 10
-25.795903614460261
 20
93.299999999998747
 30
0.0
  0
VERTEX
  5
18F9
  8
SAPA_PROFIL
 10
-24.9959036144603
 20
92.499999999998806
 30
0.0
  0
VERTEX
  5
18FA
  8
SAPA_PROFIL
 10
-23.9959036144603
 20
92.499999999998806
 30
0.0
  0
VERTEX
  5
18FB
  8
SAPA_PROFIL
 10
-23.9959036144603
 20
94.999999999998806
 30
0.0
  0
VERTEX
  5
18FC
  8
SAPA_PROFIL
 10
-20.9959036144603
 20
94.999999999998806
 30
0.0
  0
VERTEX
  5
18FD
  8
SAPA_PROFIL
 10
-20.9959036144603
 20
76.299999999998803
 30
0.0
  0
VERTEX
  5
18FE
  8
SAPA_PROFIL
 10
-23.9959036144603
 20
76.299999999998803
 30
0.0
  0
VERTEX
  5
18FF
  8
SAPA_PROFIL
 10
-23.9959036144603
 20
78.499999999998806
 30
0.0
  0
VERTEX
  5
1900
  8
SAPA_PROFIL
 10
-24.9959036144603
 20
78.499999999998806
 30
0.0
  0
VERTEX
  5
1901
  8
SAPA_PROFIL
 10
-25.9959036144603
 20
77.499999999998806
 30
0.0
  0
VERTEX
  5
1902
  8
SAPA_PROFIL
 10
-25.9959036144603
 20
76.299999999998803
 30
0.0
  0
VERTEX
  5
1903
  8
SAPA_PROFIL
 10
-35.995903614460303
 20
76.299999999998875
 30
0.0
 42
-0.4142135623730951
  0
VERTEX
  5
1904
  8
SAPA_PROFIL
 10
-36.495903614460303
 20
76.799999999998875
 30
0.0
  0
VERTEX
  5
1905
  8
SAPA_PROFIL
 10
-36.495903614460303
 20
78.009999999998854
 30
0.0
 42
0.4142135623730951
  0
VERTEX
  5
1906
  8
SAPA_PROFIL
 10
-37.485903614460312
 20
78.999999999998806
 30
0.0
  0
VERTEX
  5
1907
  8
SAPA_PROFIL
 10
-38.005903614460301
 20
78.999999999998863
 30
0.0
 42
0.4142135623730951
  0
VERTEX
  5
1908
  8
SAPA_PROFIL
 10
-38.995903614460303
 20
78.009999999998854
 30
0.0
  0
VERTEX
  5
1909
  8
SAPA_PROFIL
 10
-38.995903614460303
 20
77.999999999998863
 30
0.0
  0
VERTEX
  5
190A
  8
SAPA_PROFIL
 10
-37.745903614460303
 20
77.999999999998863
 30
0.0
  0
VERTEX
  5
190B
  8
SAPA_PROFIL
 10
-37.745903614460303
 20
76.499999999998863
 30
0.0
 42
-0.4142135623730951
  0
VERTEX
  5
190C
  8
SAPA_PROFIL
 10
-38.24590361446031
 20
75.999999999998863
 30
0.0
  0
VERTEX
  5
190D
  8
SAPA_PROFIL
 10
-46.245903614460303
 20
75.999999999998863
 30
0.0
 42
-0.4142135623730951
  0
VERTEX
  5
190E
  8
SAPA_PROFIL
 10
-46.745903614460303
 20
76.499999999998863
 30
0.0
  0
VERTEX
  5
190F
  8
SAPA_PROFIL
 10
-46.745903614460303
 20
77.999999999998863
 30
0.0
  0
VERTEX
  5
1910
  8
SAPA_PROFIL
 10
-45.495903614460303
 20
77.999999999998863
 30
0.0
  0
VERTEX
  5
1911
  8
SAPA_PROFIL
 10
-45.495903614460303
 20
78.009999999998854
 30
0.0
 42
0.4142135623730951
  0
VERTEX
  5
1912
  8
SAPA_PROFIL
 10
-46.485903614460312
 20
78.999999999998806
 30
0.0
  0
VERTEX
  5
1913
  8
SAPA_PROFIL
 10
-47.695903614460228
 20
78.999999999998863
 30
0.0
 42
0.4142135623731229
  0
VERTEX
  5
1914
  8
SAPA_PROFIL
 10
-47.995903614460303
 20
78.699999999998852
 30
0.0
  0
VERTEX
  5
1915
  8
SAPA_PROFIL
 10
-47.995903614460303
 20
74.799999999998875
 30
0.0
 42
0.4142135623730675
  0
VERTEX
  5
1916
  8
SAPA_PROFIL
 10
-47.695903614460228
 20
74.499999999998863
 30
0.0
  0
VERTEX
  5
1917
  8
SAPA_PROFIL
 10
29.704096385539739
 20
74.499999999998806
 30
0.0
 42
0.4142135623731227
  0
VERTEX
  5
1918
  8
SAPA_PROFIL
 10
30.0040963855397
 20
74.799999999998818
 30
0.0
  0
VERTEX
  5
1919
  8
SAPA_PROFIL
 10
30.0040963855397
 20
76.299999999998803
 30
0.0
 42
0.4142135623730951
  0
VERTEX
  5
191A
  8
SAPA_PROFIL
 10
28.5040963855397
 20
77.799999999998818
 30
0.0
  0
VERTEX
  5
191B
  8
SAPA_PROFIL
 10
28.0040963855397
 20
77.799999999998818
 30
0.0
  0
VERTEX
  5
191C
  8
SAPA_PROFIL
 10
28.0040963855397
 20
76.524999999998784
 30
0.0
  0
VERTEX
  5
191D
  8
SAPA_PROFIL
 10
26.904096385539681
 20
76.524999999998784
 30
0.0
  0
VERTEX
  5
191E
  8
SAPA_PROFIL
 10
26.904096385539681
 20
77.499999999998806
 30
0.0
 42
0.4142135623731227
  0
VERTEX
  5
191F
  8
SAPA_PROFIL
 10
26.604096385539719
 20
77.799999999998761
 30
0.0
  0
VERTEX
  5
1920
  8
SAPA_PROFIL
 10
25.604096385539719
 20
77.799999999998761
 30
0.0
  0
VERTEX
  5
1921
  8
SAPA_PROFIL
 10
25.604096385539719
 20
76.524999999998784
 30
0.0
  0
VERTEX
  5
1922
  8
SAPA_PROFIL
 10
22.5040963855397
 20
76.524999999998784
 30
0.0
 42
-1.0
  0
VERTEX
  5
1923
  8
SAPA_PROFIL
 10
22.5040963855397
 20
81.724999999998758
 30
0.0
  0
VERTEX
  5
1924
  8
SAPA_PROFIL
 10
25.604096385539609
 20
81.724999999998829
 30
0.0
  0
VERTEX
  5
1925
  8
SAPA_PROFIL
 10
25.604096385539609
 20
80.499999999998735
 30
0.0
  0
VERTEX
  5
1926
  8
SAPA_PROFIL
 10
26.604096385539719
 20
80.499999999998735
 30
0.0
 42
0.4142135623730673
  0
VERTEX
  5
1927
  8
SAPA_PROFIL
 10
26.904096385539681
 20
80.799999999998747
 30
0.0
  0
VERTEX
  5
1928
  8
SAPA_PROFIL
 10
26.904096385539681
 20
81.724999999998829
 30
0.0
  0
VERTEX
  5
1929
  8
SAPA_PROFIL
 10
28.0040963855397
 20
81.724999999998829
 30
0.0
  0
VERTEX
  5
192A
  8
SAPA_PROFIL
 10
28.0040963855397
 20
80.499999999998806
 30
0.0
  0
VERTEX
  5
192B
  8
SAPA_PROFIL
 10
28.5040963855397
 20
80.499999999998806
 30
0.0
 42
0.4142135623730951
  0
VERTEX
  5
192C
  8
SAPA_PROFIL
 10
30.0040963855397
 20
81.999999999998806
 30
0.0
  0
VERTEX
  5
192D
  8
SAPA_PROFIL
 10
30.0040963855397
 20
83.449999999998795
 30
0.0
 42
0.4142135623731227
  0
VERTEX
  5
192E
  8
SAPA_PROFIL
 10
29.704096385539739
 20
83.749999999998806
 30
0.0
  0
VERTEX
  5
192F
  8
SAPA_PROFIL
 10
27.204096385539739
 20
83.749999999998806
 30
0.0
  0
VERTEX
  5
1930
  8
SAPA_PROFIL
 10
27.204096385539739
 20
98.980384757728146
 30
0.0
  0
VERTEX
  5
1931
  8
SAPA_PROFIL
 10
26.904096385539791
 20
99.49999999999882
 30
0.0
  0
VERTEX
  5
1932
  8
SAPA_PROFIL
 10
27.204096385539739
 20
100.0196152422693
 30
0.0
  0
VERTEX
  5
1933
  8
SAPA_PROFIL
 10
27.204096385539739
 20
115.24999999999881
 30
0.0
  0
VERTEX
  5
1934
  8
SAPA_PROFIL
 10
29.704096385539739
 20
115.24999999999881
 30
0.0
 42
0.4142135623730951
  0
VERTEX
  5
1935
  8
SAPA_PROFIL
 10
30.00409638553981
 20
115.5499999999989
 30
0.0
  0
VERTEX
  5
1936
  8
SAPA_PROFIL
 10
30.00409638553981
 20
116.99999999999881
 30
0.0
 42
0.4142135623730951
  0
VERTEX
  5
1937
  8
SAPA_PROFIL
 10
28.50409638553981
 20
118.49999999999881
 30
0.0
  0
VERTEX
  5
1938
  8
SAPA_PROFIL
 10
28.00409638553981
 20
118.49999999999881
 30
0.0
  0
VERTEX
  5
1939
  8
SAPA_PROFIL
 10
28.00409638553981
 20
117.2749999999988
 30
0.0
  0
VERTEX
  5
193A
  8
SAPA_PROFIL
 10
26.904096385539791
 20
117.2749999999988
 30
0.0
  0
VERTEX
  5
193B
  8
SAPA_PROFIL
 10
26.904096385539791
 20
118.19999999999879
 30
0.0
 42
0.4142135623730951
  0
VERTEX
  5
193C
  8
SAPA_PROFIL
 10
26.60409638553983
 20
118.49999999999881
 30
0.0
  0
VERTEX
  5
193D
  8
SAPA_PROFIL
 10
25.604096385539719
 20
118.49999999999881
 30
0.0
  0
VERTEX
  5
193E
  8
SAPA_PROFIL
 10
25.604096385539719
 20
117.2749999999988
 30
0.0
  0
VERTEX
  5
193F
  8
SAPA_PROFIL
 10
22.50409638553981
 20
117.2749999999988
 30
0.0
 42
-1.0
  0
VERTEX
  5
1940
  8
SAPA_PROFIL
 10
22.50409638553981
 20
122.4749999999988
 30
0.0
  0
VERTEX
  5
1941
  8
SAPA_PROFIL
 10
25.604096385539719
 20
122.4749999999988
 30
0.0
  0
VERTEX
  5
1942
  8
SAPA_PROFIL
 10
25.604096385539719
 20
121.19999999999879
 30
0.0
  0
VERTEX
  5
1943
  8
SAPA_PROFIL
 10
26.604096385539719
 20
121.19999999999879
 30
0.0
 42
0.4142135623730951
  0
VERTEX
  5
1944
  8
SAPA_PROFIL
 10
26.904096385539791
 20
121.49999999999881
 30
0.0
  0
VERTEX
  5
1945
  8
SAPA_PROFIL
 10
26.904096385539791
 20
122.4749999999988
 30
0.0
  0
VERTEX
  5
1946
  8
SAPA_PROFIL
 10
28.00409638553981
 20
122.4749999999988
 30
0.0
  0
VERTEX
  5
1947
  8
SAPA_PROFIL
 10
28.00409638553981
 20
121.19999999999879
 30
0.0
  0
VERTEX
  5
1948
  8
SAPA_PROFIL
 10
28.50409638553981
 20
121.19999999999879
 30
0.0
 42
0.4142135623730951
  0
VERTEX
  5
1949
  8
SAPA_PROFIL
 10
30.00409638553981
 20
122.69999999999879
 30
0.0
  0
VERTEX
  5
194A
  8
SAPA_PROFIL
 10
30.00409638553981
 20
124.19999999999879
 30
0.0
 42
0.4142135623730951
  0
VERTEX
  5
194B
  8
SAPA_PROFIL
 10
29.704096385539739
 20
124.49999999999881
 30
0.0
  0
VERTEX
  5
194C
  8
SAPA_PROFIL
 10
-25.99590361446019
 20
124.49999999999881
 30
0.0
  0
VERTEX
  5
194D
  8
SAPA_PROFIL
 10
-25.99590361446019
 20
121.49999999999881
 30
0.0
  0
SEQEND
  5
194E
  8
SAPA_PROFIL
  0
POLYLINE
  5
13C1
  8
SAPA_PROFIL
 66
     1
 10
0.0
 20
0.0
 30
0.0
 70
     1
  0
VERTEX
  5
194F
  8
SAPA_PROFIL
 10
10.34131210472446
 20
68.494881179556828
 30
0.0
  0
VERTEX
  5
1950
  8
SAPA_PROFIL
 10
9.3413121047244658
 20
67.494881179556813
 30
0.0
  0
VERTEX
  5
1951
  8
SAPA_PROFIL
 10
-1.658687895275534
 20
67.494881179556813
 30
0.0
  0
VERTEX
  5
1952
  8
SAPA_PROFIL
 10
-2.6586878952755342
 20
68.494881179556828
 30
0.0
  0
VERTEX
  5
1953
  8
SAPA_PROFIL
 10
-5.1586871532036858
 20
68.494881179556828
 30
0.0
 42
1.0000014841447959
  0
VERTEX
  5
1954
  8
SAPA_PROFIL
 10
-5.1586871532036858
 20
67.494881179557396
 30
0.0
  0
VERTEX
  5
1955
  8
SAPA_PROFIL
 10
-3.9086878952755342
 20
67.494881179556813
 30
0.0
  0
VERTEX
  5
1956
  8
SAPA_PROFIL
 10
-3.9086878952755342
 20
66.394881179556805
 30
0.0
  0
VERTEX
  5
1957
  8
SAPA_PROFIL
 10
-11.408687895275531
 20
66.394881179556805
 30
0.0
  0
VERTEX
  5
1958
  8
SAPA_PROFIL
 10
-11.408687895275531
 20
67.494881179556813
 30
0.0
  0
VERTEX
  5
1959
  8
SAPA_PROFIL
 10
-10.158685992472551
 20
67.494881179556813
 30
0.0
 42
0.9999967549392536
  0
VERTEX
  5
195A
  8
SAPA_PROFIL
 10
-10.15868655301256
 20
68.494881179555009
 30
0.0
  0
VERTEX
  5
195B
  8
SAPA_PROFIL
 10
-12.19458628013785
 20
68.494881179556828
 30
0.0
  0
VERTEX
  5
195C
  8
SAPA_PROFIL
 10
-14.158687895275531
 20
67.360906583341233
 30
0.0
 42
0.577350269189629
  0
VERTEX
  5
195D
  8
SAPA_PROFIL
 10
-14.158687895275531
 20
65.628855775772351
 30
0.0
  0
VERTEX
  5
195E
  8
SAPA_PROFIL
 10
-12.42663708770681
 20
64.628855775772408
 30
0.0
 42
0.4142135623730394
  0
VERTEX
  5
195F
  8
SAPA_PROFIL
 10
-11.06061168392239
 20
64.994881179556657
 30
0.0
  0
VERTEX
  5
1960
  8
SAPA_PROFIL
 10
18.74323589337132
 20
64.994881179556657
 30
0.0
 42
0.4142135623730394
  0
VERTEX
  5
1961
  8
SAPA_PROFIL
 10
20.10926129715563
 20
64.628855775772408
 30
0.0
  0
VERTEX
  5
1962
  8
SAPA_PROFIL
 10
21.841312104724469
 20
65.628855775772351
 30
0.0
 42
0.5773502691896291
  0
VERTEX
  5
1963
  8
SAPA_PROFIL
 10
21.841312104724469
 20
67.360906583341233
 30
0.0
  0
VERTEX
  5
1964
  8
SAPA_PROFIL
 10
19.87721048958667
 20
68.494881179556828
 30
0.0
  0
VERTEX
  5
1965
  8
SAPA_PROFIL
 10
17.841310762461429
 20
68.494881179555009
 30
0.0
 42
0.9999967549392536
  0
VERTEX
  5
1966
  8
SAPA_PROFIL
 10
17.841310201921431
 20
67.494881179556813
 30
0.0
  0
VERTEX
  5
1967
  8
SAPA_PROFIL
 10
19.091312104724459
 20
67.494881179556813
 30
0.0
  0
VERTEX
  5
1968
  8
SAPA_PROFIL
 10
19.091312104724459
 20
66.394881179556805
 30
0.0
  0
VERTEX
  5
1969
  8
SAPA_PROFIL
 10
11.59131210472446
 20
66.394881179556805
 30
0.0
  0
VERTEX
  5
196A
  8
SAPA_PROFIL
 10
11.59131210472446
 20
67.494881179556813
 30
0.0
  0
VERTEX
  5
196B
  8
SAPA_PROFIL
 10
12.84131136265262
 20
67.494881179557396
 30
0.0
 42
1.0000014841447959
  0
VERTEX
  5
196C
  8
SAPA_PROFIL
 10
12.84131136265262
 20
68.494881179556828
 30
0.0
  0
SEQEND
  5
196D
  8
SAPA_PROFIL
  0
POLYLINE
  5
13C2
  8
SAPA_PROFIL
 66
     1
 10
0.0
 20
0.0
 30
0.0
 70
     1
  0
VERTEX
  5
196E
  8
SAPA_PROFIL
 10
-22.800000000000178
 20
-81.098475071208085
 30
0.0
  0
VERTEX
  5
196F
  8
SAPA_PROFIL
 10
-23.800000000000178
 20
-81.098475071208085
 30
0.0
  0
VERTEX
  5
1970
  8
SAPA_PROFIL
 10
-23.800000000000178
 20
-78.498475071207935
 30
0.0
 42
0.4142135623730951
  0
VERTEX
  5
1971
  8
SAPA_PROFIL
 10
-24.300000000000178
 20
-77.998475071207935
 30
0.0
  0
VERTEX
  5
1972
  8
SAPA_PROFIL
 10
-24.700000000000269
 20
-77.998475071207935
 30
0.0
 42
0.4142135623730951
  0
VERTEX
  5
1973
  8
SAPA_PROFIL
 10
-25.000000000000231
 20
-78.298475071207875
 30
0.0
  0
VERTEX
  5
1974
  8
SAPA_PROFIL
 10
-25.000000000000231
 20
-95.999999999010583
 30
0.0
 42
0.4142135623730951
  0
VERTEX
  5
1975
  8
SAPA_PROFIL
 10
-24.500000000000231
 20
-96.499999999010583
 30
0.0
  0
VERTEX
  5
1976
  8
SAPA_PROFIL
 10
24.499999999999769
 20
-96.499999999010583
 30
0.0
 42
0.4142135623730951
  0
VERTEX
  5
1977
  8
SAPA_PROFIL
 10
24.999999999999769
 20
-95.999999999010583
 30
0.0
  0
VERTEX
  5
1978
  8
SAPA_PROFIL
 10
24.999999999999769
 20
-78.298475071207875
 30
0.0
 42
0.4142135623730951
  0
VERTEX
  5
1979
  8
SAPA_PROFIL
 10
24.699999999999822
 20
-77.998475071207935
 30
0.0
  0
VERTEX
  5
197A
  8
SAPA_PROFIL
 10
24.299999999999731
 20
-77.998475071207935
 30
0.0
 42
0.4142135623730951
  0
VERTEX
  5
197B
  8
SAPA_PROFIL
 10
23.799999999999731
 20
-78.498475071207935
 30
0.0
  0
VERTEX
  5
197C
  8
SAPA_PROFIL
 10
23.799999999999731
 20
-81.098475071208085
 30
0.0
  0
VERTEX
  5
197D
  8
SAPA_PROFIL
 10
22.799999999999731
 20
-81.098475071208085
 30
0.0
  0
VERTEX
  5
197E
  8
SAPA_PROFIL
 10
22.22033922157857
 20
-82.102507830841091
 30
0.0
 42
0.4155392929676362
  0
VERTEX
  5
197F
  8
SAPA_PROFIL
 10
22.51631264788443
 20
-83.197126802633065
 30
0.0
  0
VERTEX
  5
1980
  8
SAPA_PROFIL
 10
23.799999999999731
 20
-83.93826404093204
 30
0.0
  0
VERTEX
  5
1981
  8
SAPA_PROFIL
 10
23.799999999999731
 20
-94.099999999010734
 30
0.0
 42
-0.4142135623730951
  0
VERTEX
  5
1982
  8
SAPA_PROFIL
 10
22.799999999999731
 20
-95.09999999901072
 30
0.0
  0
VERTEX
  5
1983
  8
SAPA_PROFIL
 10
-22.800000000000178
 20
-95.09999999901072
 30
0.0
 42
-0.4142135623730951
  0
VERTEX
  5
1984
  8
SAPA_PROFIL
 10
-23.800000000000178
 20
-94.099999999010734
 30
0.0
  0
VERTEX
  5
1985
  8
SAPA_PROFIL
 10
-23.800000000000178
 20
-83.93826404093204
 30
0.0
  0
VERTEX
  5
1986
  8
SAPA_PROFIL
 10
-22.516312647884892
 20
-83.197126802633065
 30
0.0
 42
0.4155392929676362
  0
VERTEX
  5
1987
  8
SAPA_PROFIL
 10
-22.220339221579032
 20
-82.102507830841091
 30
0.0
  0
SEQEND
  5
1988
  8
SAPA_PROFIL
  0
LINE
  5
13C3
  8
SAPA_PROFIL
 10
23.300000000000072
 20
-76.49999999901047
 30
0.0
 11
20.85000000000025
 21
-76.49999999901047
 31
0.0
  0
ARC
  5
13C4
  8
SAPA_PROFIL
 10
23.300000000000072
 20
-76.99999999901047
 30
0.0
 40
0.5
 50
0.0
 51
90.0
  0
LINE
  5
13C5
  8
SAPA_PROFIL
 10
23.800000000000519
 20
-80.699999999010274
 30
0.0
 11
23.800000000000072
 21
-76.99999999901047
 31
0.0
  0
ARC
  5
13C6
  8
SAPA_PROFIL
 10
23.500000000000341
 20
-80.699999999010274
 30
0.0
 40
0.3000000000001819
 50
270.0
 51
0.0
  0
LINE
  5
13C7
  8
SAPA_PROFIL
 10
22.473205080757339
 20
-80.99999999901047
 30
0.0
 11
23.500000000000341
 21
-80.99999999901047
 31
0.0
  0
ARC
  5
13C8
  8
SAPA_PROFIL
 10
22.473205080757449
 20
-81.299999999010396
 30
0.0
 40
0.2999999999999225
 50
90.000000000021672
 51
150.0000000000278
  0
LINE
  5
13C9
  8
SAPA_PROFIL
 10
21.325961894323768
 20
-82.687083486550804
 30
0.0
 11
22.213397459622112
 21
-81.149999999010575
 31
0.0
  0
ARC
  5
13CA
  8
SAPA_PROFIL
 10
21.585769515458949
 20
-82.837083486550924
 30
0.0
 40
0.2999999999999183
 50
149.9999999999682
 51
239.9999999999803
  0
LINE
  5
13CB
  8
SAPA_PROFIL
 10
21.967911113762401
 20
-83.404123202713436
 30
0.0
 11
21.435769515458901
 21
-83.096891107686133
 31
0.0
  0
ARC
  5
13CC
  8
SAPA_PROFIL
 10
21.46791111376243
 20
-84.270148606497614
 30
0.0
 40
0.9999999999997509
 50
319.9999999999734
 51
59.999999999993548
  0
LINE
  5
13CD
  8
SAPA_PROFIL
 10
18.115270605417091
 20
-89.821393803853425
 30
0.0
 11
22.233955556880911
 21
-84.912936216184335
 31
0.0
  0
ARC
  5
13CE
  8
SAPA_PROFIL
 10
17.732248383857339
 20
-89.499999999010456
 30
0.0
 40
0.5000000000000142
 50
270.00000000005701
 51
320.00000000004599
  0
LINE
  5
13CF
  8
SAPA_PROFIL
 10
9.7002075382096091
 20
-89.999999999010484
 30
0.0
 11
17.732248383857829
 21
-89.999999999010484
 31
0.0
  0
ARC
  5
13D0
  8
SAPA_PROFIL
 10
9.7002075382096837
 20
-88.999999999010342
 30
0.0
 40
1.000000000000131
 50
199.99999999999471
 51
269.99999999999579
  0
LINE
  5
13D1
  8
SAPA_PROFIL
 10
7.4196339112453407
 20
-85.657979855684516
 30
0.0
 11
8.7605149174236203
 21
-89.342020142335954
 31
0.0
  0
ARC
  5
13D2
  8
SAPA_PROFIL
 10
6.4799412904592639
 20
-85.999999999010171
 30
0.0
 40
1.0000000000001561
 50
19.999999999995971
 51
89.999999999995069
  0
LINE
  5
13D3
  8
SAPA_PROFIL
 10
-6.4799412904591227
 20
-84.999999999010015
 30
0.0
 11
6.4799412904593501
 21
-84.999999999010015
 31
0.0
  0
ARC
  5
13D4
  8
SAPA_PROFIL
 10
-6.4799412904590374
 20
-85.999999999010171
 30
0.0
 40
1.000000000000153
 50
90.000000000004917
 51
160.00000000000401
  0
LINE
  5
13D5
  8
SAPA_PROFIL
 10
-8.7605149174238477
 20
-89.342020142335954
 30
0.0
 11
-7.4196339112451142
 21
-85.657979855684516
 31
0.0
  0
ARC
  5
13D6
  8
SAPA_PROFIL
 10
-9.7002075382099111
 20
-88.999999999010342
 30
0.0
 40
1.000000000000127
 50
270.00000000000409
 51
340.00000000000529
  0
LINE
  5
13D7
  8
SAPA_PROFIL
 10
-17.732248383857609
 20
-89.999999999010484
 30
0.0
 11
-9.7002075382098383
 21
-89.999999999010484
 31
0.0
  0
ARC
  5
13D8
  8
SAPA_PROFIL
 10
-17.732248383857339
 20
-89.499999999009972
 30
0.0
 40
0.5000000000004964
 50
219.99999999997971
 51
269.99999999996908
  0
LINE
  5
13D9
  8
SAPA_PROFIL
 10
-22.233955556881138
 20
-84.912936216184335
 30
0.0
 11
-18.115270605417319
 21
-89.821393803853425
 31
0.0
  0
ARC
  5
13DA
  8
SAPA_PROFIL
 10
-21.46791111376243
 20
-84.270148606497798
 30
0.0
 40
0.9999999999998065
 50
119.9999999999895
 51
220.00000000000949
  0
LINE
  5
13DB
  8
SAPA_PROFIL
 10
-21.435769515459128
 20
-83.096891107686133
 30
0.0
 11
-21.96791111376217
 21
-83.404123202713436
 31
0.0
  0
ARC
  5
13DC
  8
SAPA_PROFIL
 10
-21.585769515458939
 20
-82.837083486550696
 30
0.0
 40
0.2999999999999962
 50
299.99999999995862
 51
29.999999999973479
  0
LINE
  5
13DD
  8
SAPA_PROFIL
 10
-22.213397459621891
 20
-81.149999999010575
 30
0.0
 11
-21.325961894323541
 21
-82.687083486550804
 31
0.0
  0
ARC
  5
13DE
  8
SAPA_PROFIL
 10
-22.473205080757229
 20
-81.299999999010396
 30
0.0
 40
0.2999999999999261
 50
29.999999999971521
 51
89.999999999976936
  0
LINE
  5
13DF
  8
SAPA_PROFIL
 10
-23.500000000000568
 20
-80.99999999901047
 30
0.0
 11
-22.473205080757111
 21
-80.99999999901047
 31
0.0
  0
ARC
  5
13E0
  8
SAPA_PROFIL
 10
-23.500000000000341
 20
-80.699999999010515
 30
0.0
 40
0.2999999999999545
 50
179.99999999995649
 51
269.99999999995657
  0
LINE
  5
13E1
  8
SAPA_PROFIL
 10
-23.800000000000299
 20
-76.99999999901047
 30
0.0
 11
-23.800000000000299
 21
-80.699999999010274
 31
0.0
  0
ARC
  5
13E2
  8
SAPA_PROFIL
 10
-23.300000000000299
 20
-76.99999999901047
 30
0.0
 40
0.5
 50
90.0
 51
180.0
  0
LINE
  5
13E3
  8
SAPA_PROFIL
 10
-20.850000000000019
 20
-76.49999999901047
 30
0.0
 11
-23.300000000000299
 21
-76.49999999901047
 31
0.0
  0
ARC
  5
13E4
  8
SAPA_PROFIL
 10
-20.849999999999909
 20
-76.799999999010154
 30
0.0
 40
0.2999999999996829
 50
45.000000000009592
 51
90.000000000021672
  0
LINE
  5
13E5
  8
SAPA_PROFIL
 10
-20.237867965644121
 20
-76.98786796465447
 30
0.0
 11
-20.637867965644201
 21
-76.587867964654379
 31
0.0
  0
ARC
  5
13E6
  8
SAPA_PROFIL
 10
-20.450000000000291
 20
-77.199999999010373
 30
0.0
 40
0.3000000000000966
 50
269.99999999998101
 51
44.999999999963542
  0
LINE
  5
13E7
  8
SAPA_PROFIL
 10
-21.300000000000299
 20
-77.49999999901047
 30
0.0
 11
-20.45000000000039
 21
-77.49999999901047
 31
0.0
  0
ARC
  5
13E8
  8
SAPA_PROFIL
 10
-21.300000000000239
 20
-77.999999999010527
 30
0.0
 40
0.500000000000057
 50
90.000000000006494
 51
179.99999999999349
  0
LINE
  5
13E9
  8
SAPA_PROFIL
 10
-21.799999999999841
 20
-78.390808928730621
 30
0.0
 11
-21.800000000000288
 21
-77.999999999010456
 31
0.0
  0
ARC
  5
13EA
  8
SAPA_PROFIL
 10
-21.500000000000099
 20
-78.390808928730578
 30
0.0
 40
0.2999999999997442
 50
180.0000000000081
 51
220.0000000000046
  0
LINE
  5
13EB
  8
SAPA_PROFIL
 10
-20.211721773134862
 20
-80.392836281916061
 30
0.0
 11
-21.729813332935581
 21
-78.583645211636394
 31
0.0
  0
ARC
  5
13EC
  8
SAPA_PROFIL
 10
-19.981908440199369
 20
-80.199999999010288
 30
0.0
 40
0.2999999999997129
 50
219.99999999999591
 51
269.99999999999591
  0
LINE
  5
13ED
  8
SAPA_PROFIL
 10
-16.450000000000379
 20
-80.499999999010456
 30
0.0
 11
-19.98190844019939
 21
-80.499999999010015
 31
0.0
  0
ARC
  5
13EE
  8
SAPA_PROFIL
 10
-16.450000000000379
 20
-80.199999999010288
 30
0.0
 40
0.3000000000001819
 50
270.0
 51
0.0
  0
LINE
  5
13EF
  8
SAPA_PROFIL
 10
-16.150000000000201
 20
-77.799999999010197
 30
0.0
 11
-16.150000000000201
 21
-80.199999999010288
 31
0.0
  0
ARC
  5
13F0
  8
SAPA_PROFIL
 10
-16.450000000000159
 20
-77.799999999010424
 30
0.0
 40
0.2999999999999545
 50
0.0000000000434252
 51
90.000000000043414
  0
LINE
  5
13F1
  8
SAPA_PROFIL
 10
-16.850000000000019
 20
-77.49999999901047
 30
0.0
 11
-16.450000000000379
 21
-77.49999999901047
 31
0.0
  0
ARC
  5
13F2
  8
SAPA_PROFIL
 10
-16.850000000000179
 20
-77.199999999010373
 30
0.0
 40
0.3000000000000748
 50
135.0000000000268
 51
270.0000000000299
  0
LINE
  5
13F3
  8
SAPA_PROFIL
 10
-16.662132034356201
 20
-76.587867964654379
 30
0.0
 11
-17.062132034356289
 21
-76.98786796465447
 31
0.0
  0
ARC
  5
13F4
  8
SAPA_PROFIL
 10
-16.450000000000468
 20
-76.799999999010225
 30
0.0
 40
0.2999999999997556
 50
89.999999999984396
 51
134.99999999998511
  0
LINE
  5
13F5
  8
SAPA_PROFIL
 10
-14.650000000000199
 20
-76.499999999010015
 30
0.0
 11
-16.450000000000379
 21
-76.49999999901047
 31
0.0
  0
ARC
  5
13F6
  8
SAPA_PROFIL
 10
-14.650000000000171
 20
-76.999999999009987
 30
0.0
 40
0.4999999999999716
 50
359.99999999999682
 51
90.000000000003226
  0
LINE
  5
13F7
  8
SAPA_PROFIL
 10
-14.150000000000199
 20
-81.499999999010925
 30
0.0
 11
-14.150000000000199
 21
-76.999999999010015
 31
0.0
  0
ARC
  5
13F8
  8
SAPA_PROFIL
 10
-14.650000000000199
 20
-81.499999999010925
 30
0.0
 40
0.5
 50
270.0
 51
0.0
  0
LINE
  5
13F9
  8
SAPA_PROFIL
 10
-18.650000000000201
 20
-81.999999999010015
 30
0.0
 11
-14.650000000000199
 21
-81.999999999010925
 31
0.0
  0
ARC
  5
13FA
  8
SAPA_PROFIL
 10
-18.650000000000091
 20
-82.499999999010114
 30
0.0
 40
0.5000000000001137
 50
90.000000000013017
 51
179.99999999998701
  0
LINE
  5
13FB
  8
SAPA_PROFIL
 10
-19.150000000000201
 20
-84.516956646213657
 30
0.0
 11
-19.150000000000201
 21
-82.499999999010015
 31
0.0
  0
ARC
  5
13FC
  8
SAPA_PROFIL
 10
-18.649999999999981
 20
-84.516956646213444
 30
0.0
 40
0.5000000000002222
 50
180.00000000002439
 51
220.00000000003149
  0
LINE
  5
13FD
  8
SAPA_PROFIL
 10
-16.949501460029861
 20
-87.321393803853425
 30
0.0
 11
-19.03302222155946
 21
-84.838350451057053
 31
0.0
  0
ARC
  5
13FE
  8
SAPA_PROFIL
 10
-16.566479238470581
 20
-86.9999999990102
 30
0.0
 40
0.4999999999998153
 50
220.00000000001131
 51
269.99999999999721
  0
LINE
  5
13FF
  8
SAPA_PROFIL
 10
-10.568533728391341
 20
-87.499999999010484
 30
0.0
 11
-16.566479238470599
 21
-87.499999999010015
 31
0.0
  0
ARC
  5
1400
  8
SAPA_PROFIL
 10
-10.568533728391261
 20
-86.999999999010242
 30
0.0
 40
0.5000000000002258
 50
269.99999999999091
 51
339.99999999999199
  0
LINE
  5
1401
  8
SAPA_PROFIL
 10
-8.6380638705314823
 20
-83.157979855684516
 30
0.0
 11
-10.09868741799812
 21
-87.171010070673219
 31
0.0
  0
ARC
  5
1402
  8
SAPA_PROFIL
 10
-7.6983712497453922
 20
-83.499999999010186
 30
0.0
 40
1.0000000000001701
 50
90.000000000005699
 51
160.0000000000035
  0
LINE
  5
1403
  8
SAPA_PROFIL
 10
-6.6500000000002037
 20
-82.499999999010015
 30
0.0
 11
-7.6983712497454908
 21
-82.499999999010015
 31
0.0
  0
ARC
  5
1404
  8
SAPA_PROFIL
 10
-6.6499999999998911
 20
-82.199999999010146
 30
0.0
 40
0.2999999999998692
 50
269.9999999999402
 51
359.99999999997289
  0
LINE
  5
1405
  8
SAPA_PROFIL
 10
-6.3500000000000218
 20
-81.799999999010197
 30
0.0
 11
-6.3500000000000218
 21
-82.199999999010288
 31
0.0
  0
ARC
  5
1406
  8
SAPA_PROFIL
 10
-6.0499999999998693
 20
-81.799999999010168
 30
0.0
 40
0.3000000000001535
 50
89.999999999994586
 51
180.0000000000054
  0
LINE
  5
1407
  8
SAPA_PROFIL
 10
-5.6500000000002037
 20
-81.499999999010015
 30
0.0
 11
-6.04999999999984
 21
-81.499999999010015
 31
0.0
  0
ARC
  5
1408
  8
SAPA_PROFIL
 10
-5.6500000000001762
 20
-81.799999999010168
 30
0.0
 40
0.3000000000001535
 50
359.99999999999449
 51
90.000000000005414
  0
LINE
  5
1409
  8
SAPA_PROFIL
 10
-5.3500000000000218
 20
-82.199999999010288
 30
0.0
 11
-5.3500000000000218
 21
-81.799999999010197
 31
0.0
  0
ARC
  5
140A
  8
SAPA_PROFIL
 10
-5.0500000000001251
 20
-82.199999999010103
 30
0.0
 40
0.2999999999998977
 50
180.00000000003249
 51
270.00000000005417
  0
LINE
  5
140B
  8
SAPA_PROFIL
 10
-0.6242640687120229
 20
-82.499999999010015
 30
0.0
 11
-5.04999999999984
 21
-82.499999999010015
 31
0.0
  0
ARC
  5
140C
  8
SAPA_PROFIL
 10
-0.6242640687125385
 20
-82.799999999010112
 30
0.0
 40
0.3000000000000977
 50
44.999999999918849
 51
89.999999999901533
  0
LINE
  5
140D
  8
SAPA_PROFIL
 10
-0.0000000000001137
 20
-82.999999999010015
 30
0.0
 11
-0.4121320343562048
 21
-82.587867964654379
 31
0.0
  0
LINE
  5
140E
  8
SAPA_PROFIL
 10
0.4121320343559774
 20
-82.587867964654379
 30
0.0
 11
-0.0000000000001137
 21
-82.999999999010015
 31
0.0
  0
ARC
  5
140F
  8
SAPA_PROFIL
 10
0.6242640687123112
 20
-82.799999999010112
 30
0.0
 40
0.3000000000000966
 50
90.000000000098467
 51
135.00000000008109
  0
LINE
  5
1410
  8
SAPA_PROFIL
 10
5.0500000000000682
 20
-82.499999999010015
 30
0.0
 11
0.6242640687117956
 21
-82.499999999010015
 31
0.0
  0
ARC
  5
1411
  8
SAPA_PROFIL
 10
5.0500000000001251
 20
-82.199999999010345
 30
0.0
 40
0.2999999999996703
 50
269.99999999998909
 51
0.0000000000108563
  0
LINE
  5
1412
  8
SAPA_PROFIL
 10
5.3499999999997954
 20
-81.799999999010197
 30
0.0
 11
5.3499999999997954
 21
-82.199999999010288
 31
0.0
  0
ARC
  5
1413
  8
SAPA_PROFIL
 10
5.649999999999948
 20
-81.799999999010168
 30
0.0
 40
0.3000000000001535
 50
89.999999999994586
 51
180.0000000000054
  0
LINE
  5
1414
  8
SAPA_PROFIL
 10
6.0500000000000682
 20
-81.499999999010015
 30
0.0
 11
5.6499999999999773
 21
-81.499999999010015
 31
0.0
  0
ARC
  5
1415
  8
SAPA_PROFIL
 10
6.0499999999998693
 20
-81.799999999009941
 30
0.0
 40
0.2999999999999261
 50
359.99999999995123
 51
89.999999999962014
  0
LINE
  5
1416
  8
SAPA_PROFIL
 10
6.3499999999997954
 20
-82.199999999010288
 30
0.0
 11
6.3499999999997954
 21
-81.799999999010197
 31
0.0
  0
ARC
  5
1417
  8
SAPA_PROFIL
 10
6.6499999999996637
 20
-82.199999999010146
 30
0.0
 40
0.2999999999998692
 50
180.00000000002709
 51
270.00000000005969
  0
LINE
  5
1418
  8
SAPA_PROFIL
 10
7.6983712497457191
 20
-82.499999999010015
 30
0.0
 11
6.6499999999999773
 21
-82.499999999010015
 31
0.0
  0
ARC
  5
1419
  8
SAPA_PROFIL
 10
7.6983712497456187
 20
-83.499999999010186
 30
0.0
 40
1.0000000000001701
 50
19.999999999996469
 51
89.999999999994287
  0
LINE
  5
141A
  8
SAPA_PROFIL
 10
10.098687417998351
 20
-87.171010070673219
 30
0.0
 11
8.6380638705317097
 21
-83.157979855684516
 31
0.0
  0
ARC
  5
141B
  8
SAPA_PROFIL
 10
10.568533728391261
 20
-86.999999999010569
 30
0.0
 40
0.4999999999999006
 50
199.9999999999817
 51
269.99999999998312
  0
LINE
  5
141C
  8
SAPA_PROFIL
 10
16.56647923847083
 20
-87.499999999010015
 30
0.0
 11
10.56853372839111
 21
-87.499999999010484
 31
0.0
  0
ARC
  5
141D
  8
SAPA_PROFIL
 10
16.566479238470809
 20
-86.9999999990102
 30
0.0
 40
0.4999999999998141
 50
270.0000000000029
 51
319.99999999998869
  0
LINE
  5
141E
  8
SAPA_PROFIL
 10
19.033022221559229
 20
-84.838350451057053
 30
0.0
 11
16.949501460030088
 21
-87.321393803853425
 31
0.0
  0
ARC
  5
141F
  8
SAPA_PROFIL
 10
18.64999999999975
 20
-84.516956646213444
 30
0.0
 40
0.5000000000002239
 50
319.9999999999684
 51
359.99999999997561
  0
LINE
  5
1420
  8
SAPA_PROFIL
 10
19.149999999999981
 20
-82.499999999010015
 30
0.0
 11
19.149999999999981
 21
-84.516956646213657
 31
0.0
  0
ARC
  5
1421
  8
SAPA_PROFIL
 10
18.64999999999986
 20
-82.499999999010114
 30
0.0
 40
0.5000000000001137
 50
0.0000000000130276
 51
89.999999999986969
  0
LINE
  5
1422
  8
SAPA_PROFIL
 10
14.649999999999981
 20
-81.999999999010925
 30
0.0
 11
18.649999999999981
 21
-81.999999999010015
 31
0.0
  0
ARC
  5
1423
  8
SAPA_PROFIL
 10
14.649999999999981
 20
-81.499999999010925
 30
0.0
 40
0.5
 50
180.0
 51
270.0
  0
LINE
  5
1424
  8
SAPA_PROFIL
 10
14.15000000000043
 20
-76.999999999010015
 30
0.0
 11
14.149999999999981
 21
-81.499999999010925
 31
0.0
  0
ARC
  5
1425
  8
SAPA_PROFIL
 10
14.6500000000004
 20
-76.999999999009987
 30
0.0
 40
0.4999999999999716
 50
89.999999999996746
 51
180.00000000000321
  0
LINE
  5
1426
  8
SAPA_PROFIL
 10
16.450000000000159
 20
-76.49999999901047
 30
0.0
 11
14.65000000000043
 21
-76.499999999010015
 31
0.0
  0
ARC
  5
1427
  8
SAPA_PROFIL
 10
16.450000000000241
 20
-76.799999999010225
 30
0.0
 40
0.2999999999997557
 50
45.000000000014857
 51
90.000000000015575
  0
LINE
  5
1428
  8
SAPA_PROFIL
 10
17.062132034356068
 20
-76.98786796465447
 30
0.0
 11
16.662132034355981
 21
-76.587867964654379
 31
0.0
  0
ARC
  5
1429
  8
SAPA_PROFIL
 10
16.850000000000179
 20
-77.199999999010487
 30
0.0
 40
0.2999999999999829
 50
270.00000000001347
 51
45.000000000017252
  0
LINE
  5
142A
  8
SAPA_PROFIL
 10
16.450000000000159
 20
-77.49999999901047
 30
0.0
 11
16.85000000000025
 21
-77.49999999901047
 31
0.0
  0
ARC
  5
142B
  8
SAPA_PROFIL
 10
16.450000000000159
 20
-77.799999999010197
 30
0.0
 40
0.2999999999997271
 50
90.0
 51
180.0
  0
LINE
  5
142C
  8
SAPA_PROFIL
 10
16.14999999999997
 20
-80.199999999010288
 30
0.0
 11
16.150000000000428
 21
-77.799999999010197
 31
0.0
  0
ARC
  5
142D
  8
SAPA_PROFIL
 10
16.450000000000159
 20
-80.199999999010288
 30
0.0
 40
0.3000000000001819
 50
180.0
 51
270.0
  0
LINE
  5
142E
  8
SAPA_PROFIL
 10
19.98190844019916
 20
-80.499999999010015
 30
0.0
 11
16.450000000000159
 21
-80.499999999010456
 31
0.0
  0
ARC
  5
142F
  8
SAPA_PROFIL
 10
19.981908440199369
 20
-80.199999999009805
 30
0.0
 40
0.3000000000001951
 50
269.99999999996072
 51
319.99999999996129
  0
LINE
  5
1430
  8
SAPA_PROFIL
 10
21.729813332935809
 20
-78.583645211636394
 30
0.0
 11
20.211721773135078
 21
-80.392836281916061
 31
0.0
  0
ARC
  5
1431
  8
SAPA_PROFIL
 10
21.50000000000032
 20
-78.390808928730578
 30
0.0
 40
0.2999999999997449
 50
319.99999999999528
 51
359.99999999999193
  0
LINE
  5
1432
  8
SAPA_PROFIL
 10
21.800000000000072
 20
-77.999999999010456
 30
0.0
 11
21.800000000000072
 21
-78.390808928730621
 31
0.0
  0
ARC
  5
1433
  8
SAPA_PROFIL
 10
21.300000000000011
 20
-77.999999999010527
 30
0.0
 40
0.500000000000057
 50
0.0000000000065138
 51
89.999999999993491
  0
LINE
  5
1434
  8
SAPA_PROFIL
 10
20.450000000000159
 20
-77.49999999901047
 30
0.0
 11
21.300000000000072
 21
-77.49999999901047
 31
0.0
  0
ARC
  5
1435
  8
SAPA_PROFIL
 10
20.450000000000291
 20
-77.199999999010458
 30
0.0
 40
0.3000000000000044
 50
134.9999999999942
 51
269.9999999999755
  0
LINE
  5
1436
  8
SAPA_PROFIL
 10
20.637867965643981
 20
-76.587867964654379
 30
0.0
 11
20.237867965644341
 21
-76.98786796465447
 31
0.0
  0
ARC
  5
1437
  8
SAPA_PROFIL
 10
20.849999999999909
 20
-76.799999999010694
 30
0.0
 40
0.3000000000002245
 50
89.999999999934857
 51
134.99999999994819
  0
POLYLINE
  5
1438
  8
SAPA_PROFIL
 66
     1
 10
0.0
 20
0.0
 30
0.0
 70
     1
  0
VERTEX
  5
1989
  8
SAPA_PROFIL
 10
20.85000000000025
 20
-76.49999999901047
 30
0.0
 42
0.1989123673797145
  0
VERTEX
  5
198A
  8
SAPA_PROFIL
 10
20.637867965643981
 20
-76.587867964654379
 30
0.0
  0
VERTEX
  5
198B
  8
SAPA_PROFIL
 10
20.237867965644341
 20
-76.98786796465447
 30
0.0
 42
0.668178637919182
  0
VERTEX
  5
198C
  8
SAPA_PROFIL
 10
20.450000000000159
 20
-77.49999999901047
 30
0.0
  0
VERTEX
  5
198D
  8
SAPA_PROFIL
 10
21.300000000000072
 20
-77.49999999901047
 30
0.0
 42
-0.4142135623730284
  0
VERTEX
  5
198E
  8
SAPA_PROFIL
 10
21.800000000000072
 20
-77.999999999010456
 30
0.0
  0
VERTEX
  5
198F
  8
SAPA_PROFIL
 10
21.800000000000072
 20
-78.390808928730621
 30
0.0
 42
-0.17632698070845
  0
VERTEX
  5
1990
  8
SAPA_PROFIL
 10
21.729813332935809
 20
-78.583645211636394
 30
0.0
  0
VERTEX
  5
1991
  8
SAPA_PROFIL
 10
20.211721773135078
 20
-80.392836281916061
 30
0.0
 42
-0.2216946626429421
  0
VERTEX
  5
1992
  8
SAPA_PROFIL
 10
19.98190844019916
 20
-80.499999999010015
 30
0.0
  0
VERTEX
  5
1993
  8
SAPA_PROFIL
 10
16.450000000000159
 20
-80.499999999010456
 30
0.0
 42
-0.4142135623730951
  0
VERTEX
  5
1994
  8
SAPA_PROFIL
 10
16.14999999999997
 20
-80.199999999010288
 30
0.0
  0
VERTEX
  5
1995
  8
SAPA_PROFIL
 10
16.150000000000428
 20
-77.799999999010197
 30
0.0
 42
-0.4142135623730951
  0
VERTEX
  5
1996
  8
SAPA_PROFIL
 10
16.450000000000159
 20
-77.49999999901047
 30
0.0
  0
VERTEX
  5
1997
  8
SAPA_PROFIL
 10
16.85000000000025
 20
-77.49999999901047
 30
0.0
 42
0.6681786379193188
  0
VERTEX
  5
1998
  8
SAPA_PROFIL
 10
17.062132034356068
 20
-76.98786796465447
 30
0.0
  0
VERTEX
  5
1999
  8
SAPA_PROFIL
 10
16.662132034355981
 20
-76.587867964654379
 30
0.0
 42
0.198912367379658
  0
VERTEX
  5
199A
  8
SAPA_PROFIL
 10
16.450000000000159
 20
-76.49999999901047
 30
0.0
  0
VERTEX
  5
199B
  8
SAPA_PROFIL
 10
14.65000000000043
 20
-76.499999999010015
 30
0.0
 42
0.4142135623731284
  0
VERTEX
  5
199C
  8
SAPA_PROFIL
 10
14.15000000000043
 20
-76.999999999010015
 30
0.0
  0
VERTEX
  5
199D
  8
SAPA_PROFIL
 10
14.149999999999981
 20
-81.499999999010925
 30
0.0
 42
0.4142135623730951
  0
VERTEX
  5
199E
  8
SAPA_PROFIL
 10
14.649999999999981
 20
-81.999999999010925
 30
0.0
  0
VERTEX
  5
199F
  8
SAPA_PROFIL
 10
18.649999999999981
 20
-81.999999999010015
 30
0.0
 42
-0.4142135623729619
  0
VERTEX
  5
19A0
  8
SAPA_PROFIL
 10
19.149999999999981
 20
-82.499999999010015
 30
0.0
  0
VERTEX
  5
19A1
  8
SAPA_PROFIL
 10
19.149999999999981
 20
-84.516956646213657
 30
0.0
 42
-0.1763269807084973
  0
VERTEX
  5
19A2
  8
SAPA_PROFIL
 10
19.033022221559229
 20
-84.838350451057053
 30
0.0
  0
VERTEX
  5
19A3
  8
SAPA_PROFIL
 10
16.949501460030088
 20
-87.321393803853425
 30
0.0
 42
-0.2216946626428772
  0
VERTEX
  5
19A4
  8
SAPA_PROFIL
 10
16.56647923847083
 20
-87.499999999010015
 30
0.0
  0
VERTEX
  5
19A5
  8
SAPA_PROFIL
 10
10.56853372839111
 20
-87.499999999010484
 30
0.0
 42
-0.315298788878991
  0
VERTEX
  5
19A6
  8
SAPA_PROFIL
 10
10.098687417998351
 20
-87.171010070673219
 30
0.0
  0
VERTEX
  5
19A7
  8
SAPA_PROFIL
 10
8.6380638705317097
 20
-83.157979855684516
 30
0.0
 42
0.3152987888789731
  0
VERTEX
  5
19A8
  8
SAPA_PROFIL
 10
7.6983712497457191
 20
-82.499999999010015
 30
0.0
  0
VERTEX
  5
19A9
  8
SAPA_PROFIL
 10
6.6499999999999773
 20
-82.499999999010015
 30
0.0
 42
-0.4142135623732616
  0
VERTEX
  5
19AA
  8
SAPA_PROFIL
 10
6.3499999999997954
 20
-82.199999999010288
 30
0.0
  0
VERTEX
  5
19AB
  8
SAPA_PROFIL
 10
6.3499999999997954
 20
-81.799999999010197
 30
0.0
 42
0.4142135623731506
  0
VERTEX
  5
19AC
  8
SAPA_PROFIL
 10
6.0500000000000682
 20
-81.499999999010015
 30
0.0
  0
VERTEX
  5
19AD
  8
SAPA_PROFIL
 10
5.6499999999999773
 20
-81.499999999010015
 30
0.0
 42
0.4142135623731505
  0
VERTEX
  5
19AE
  8
SAPA_PROFIL
 10
5.3499999999997954
 20
-81.799999999010197
 30
0.0
  0
VERTEX
  5
19AF
  8
SAPA_PROFIL
 10
5.3499999999997954
 20
-82.199999999010288
 30
0.0
 42
-0.4142135623732061
  0
VERTEX
  5
19B0
  8
SAPA_PROFIL
 10
5.0500000000000682
 20
-82.499999999010015
 30
0.0
  0
VERTEX
  5
19B1
  8
SAPA_PROFIL
 10
0.6242640687117956
 20
-82.499999999010015
 30
0.0
 42
0.198912367379577
  0
VERTEX
  5
19B2
  8
SAPA_PROFIL
 10
0.4121320343559774
 20
-82.587867964654379
 30
0.0
  0
VERTEX
  5
19B3
  8
SAPA_PROFIL
 10
-0.0000000000001137
 20
-82.999999999010015
 30
0.0
  0
VERTEX
  5
19B4
  8
SAPA_PROFIL
 10
-0.4121320343562048
 20
-82.587867964654379
 30
0.0
 42
0.1989123673795771
  0
VERTEX
  5
19B5
  8
SAPA_PROFIL
 10
-0.6242640687120229
 20
-82.499999999010015
 30
0.0
  0
VERTEX
  5
19B6
  8
SAPA_PROFIL
 10
-5.04999999999984
 20
-82.499999999010015
 30
0.0
 42
-0.4142135623732059
  0
VERTEX
  5
19B7
  8
SAPA_PROFIL
 10
-5.3500000000000218
 20
-82.199999999010288
 30
0.0
  0
VERTEX
  5
19B8
  8
SAPA_PROFIL
 10
-5.3500000000000218
 20
-81.799999999010197
 30
0.0
 42
0.4142135623731506
  0
VERTEX
  5
19B9
  8
SAPA_PROFIL
 10
-5.6500000000002037
 20
-81.499999999010015
 30
0.0
  0
VERTEX
  5
19BA
  8
SAPA_PROFIL
 10
-6.04999999999984
 20
-81.499999999010015
 30
0.0
 42
0.4142135623731505
  0
VERTEX
  5
19BB
  8
SAPA_PROFIL
 10
-6.3500000000000218
 20
-81.799999999010197
 30
0.0
  0
VERTEX
  5
19BC
  8
SAPA_PROFIL
 10
-6.3500000000000218
 20
-82.199999999010288
 30
0.0
 42
-0.4142135623732615
  0
VERTEX
  5
19BD
  8
SAPA_PROFIL
 10
-6.6500000000002037
 20
-82.499999999010015
 30
0.0
  0
VERTEX
  5
19BE
  8
SAPA_PROFIL
 10
-7.6983712497454908
 20
-82.499999999010015
 30
0.0
 42
0.3152987888789731
  0
VERTEX
  5
19BF
  8
SAPA_PROFIL
 10
-8.6380638705314823
 20
-83.157979855684516
 30
0.0
  0
VERTEX
  5
19C0
  8
SAPA_PROFIL
 10
-10.09868741799812
 20
-87.171010070673219
 30
0.0
 42
-0.315298788878991
  0
VERTEX
  5
19C1
  8
SAPA_PROFIL
 10
-10.568533728391341
 20
-87.499999999010484
 30
0.0
  0
VERTEX
  5
19C2
  8
SAPA_PROFIL
 10
-16.566479238470599
 20
-87.499999999010015
 30
0.0
 42
-0.2216946626428772
  0
VERTEX
  5
19C3
  8
SAPA_PROFIL
 10
-16.949501460029861
 20
-87.321393803853425
 30
0.0
  0
VERTEX
  5
19C4
  8
SAPA_PROFIL
 10
-19.03302222155946
 20
-84.838350451057053
 30
0.0
 42
-0.1763269807084973
  0
VERTEX
  5
19C5
  8
SAPA_PROFIL
 10
-19.150000000000201
 20
-84.516956646213657
 30
0.0
  0
VERTEX
  5
19C6
  8
SAPA_PROFIL
 10
-19.150000000000201
 20
-82.499999999010015
 30
0.0
 42
-0.4142135623729619
  0
VERTEX
  5
19C7
  8
SAPA_PROFIL
 10
-18.650000000000201
 20
-81.999999999010015
 30
0.0
  0
VERTEX
  5
19C8
  8
SAPA_PROFIL
 10
-14.650000000000199
 20
-81.999999999010925
 30
0.0
 42
0.4142135623730951
  0
VERTEX
  5
19C9
  8
SAPA_PROFIL
 10
-14.150000000000199
 20
-81.499999999010925
 30
0.0
  0
VERTEX
  5
19CA
  8
SAPA_PROFIL
 10
-14.150000000000199
 20
-76.999999999010015
 30
0.0
 42
0.4142135623731285
  0
VERTEX
  5
19CB
  8
SAPA_PROFIL
 10
-14.650000000000199
 20
-76.499999999010015
 30
0.0
  0
VERTEX
  5
19CC
  8
SAPA_PROFIL
 10
-16.450000000000379
 20
-76.49999999901047
 30
0.0
 42
0.198912367379658
  0
VERTEX
  5
19CD
  8
SAPA_PROFIL
 10
-16.662132034356201
 20
-76.587867964654379
 30
0.0
  0
VERTEX
  5
19CE
  8
SAPA_PROFIL
 10
-17.062132034356289
 20
-76.98786796465447
 30
0.0
 42
0.6681786379193188
  0
VERTEX
  5
19CF
  8
SAPA_PROFIL
 10
-16.850000000000019
 20
-77.49999999901047
 30
0.0
  0
VERTEX
  5
19D0
  8
SAPA_PROFIL
 10
-16.450000000000379
 20
-77.49999999901047
 30
0.0
 42
-0.4142135623730951
  0
VERTEX
  5
19D1
  8
SAPA_PROFIL
 10
-16.150000000000201
 20
-77.799999999010197
 30
0.0
  0
VERTEX
  5
19D2
  8
SAPA_PROFIL
 10
-16.150000000000201
 20
-80.199999999010288
 30
0.0
 42
-0.4142135623730951
  0
VERTEX
  5
19D3
  8
SAPA_PROFIL
 10
-16.450000000000379
 20
-80.499999999010456
 30
0.0
  0
VERTEX
  5
19D4
  8
SAPA_PROFIL
 10
-19.98190844019939
 20
-80.499999999010015
 30
0.0
 42
-0.221694662642942
  0
VERTEX
  5
19D5
  8
SAPA_PROFIL
 10
-20.211721773134862
 20
-80.392836281916061
 30
0.0
  0
VERTEX
  5
19D6
  8
SAPA_PROFIL
 10
-21.729813332935581
 20
-78.583645211636394
 30
0.0
 42
-0.1763269807084499
  0
VERTEX
  5
19D7
  8
SAPA_PROFIL
 10
-21.799999999999841
 20
-78.390808928730621
 30
0.0
  0
VERTEX
  5
19D8
  8
SAPA_PROFIL
 10
-21.800000000000288
 20
-77.999999999010456
 30
0.0
 42
-0.4142135623730284
  0
VERTEX
  5
19D9
  8
SAPA_PROFIL
 10
-21.300000000000299
 20
-77.49999999901047
 30
0.0
  0
VERTEX
  5
19DA
  8
SAPA_PROFIL
 10
-20.45000000000039
 20
-77.49999999901047
 30
0.0
 42
0.668178637919182
  0
VERTEX
  5
19DB
  8
SAPA_PROFIL
 10
-20.237867965644121
 20
-76.98786796465447
 30
0.0
  0
VERTEX
  5
19DC
  8
SAPA_PROFIL
 10
-20.637867965644201
 20
-76.587867964654379
 30
0.0
 42
0.1989123673797144
  0
VERTEX
  5
19DD
  8
SAPA_PROFIL
 10
-20.850000000000019
 20
-76.49999999901047
 30
0.0
  0
VERTEX
  5
19DE
  8
SAPA_PROFIL
 10
-23.300000000000299
 20
-76.49999999901047
 30
0.0
 42
0.4142135623730951
  0
VERTEX
  5
19DF
  8
SAPA_PROFIL
 10
-23.800000000000299
 20
-76.99999999901047
 30
0.0
  0
VERTEX
  5
19E0
  8
SAPA_PROFIL
 10
-23.800000000000299
 20
-80.699999999010274
 30
0.0
 42
0.4142135623730951
  0
VERTEX
  5
19E1
  8
SAPA_PROFIL
 10
-23.500000000000568
 20
-80.99999999901047
 30
0.0
  0
VERTEX
  5
19E2
  8
SAPA_PROFIL
 10
-22.473205080757111
 20
-80.99999999901047
 30
0.0
 42
-0.2679491924311428
  0
VERTEX
  5
19E3
  8
SAPA_PROFIL
 10
-22.213397459621891
 20
-81.149999999010575
 30
0.0
  0
VERTEX
  5
19E4
  8
SAPA_PROFIL
 10
-21.325961894323541
 20
-82.687083486550804
 30
0.0
 42
-0.4142135623731709
  0
VERTEX
  5
19E5
  8
SAPA_PROFIL
 10
-21.435769515459128
 20
-83.096891107686133
 30
0.0
  0
VERTEX
  5
19E6
  8
SAPA_PROFIL
 10
-21.96791111376217
 20
-83.404123202713436
 30
0.0
 42
0.4663076581551056
  0
VERTEX
  5
19E7
  8
SAPA_PROFIL
 10
-22.233955556881138
 20
-84.912936216184335
 30
0.0
  0
VERTEX
  5
19E8
  8
SAPA_PROFIL
 10
-18.115270605417319
 20
-89.821393803853425
 30
0.0
 42
0.2216946626428921
  0
VERTEX
  5
19E9
  8
SAPA_PROFIL
 10
-17.732248383857609
 20
-89.999999999010484
 30
0.0
  0
VERTEX
  5
19EA
  8
SAPA_PROFIL
 10
-9.7002075382098383
 20
-89.999999999010484
 30
0.0
 42
0.3152987888789878
  0
VERTEX
  5
19EB
  8
SAPA_PROFIL
 10
-8.7605149174238477
 20
-89.342020142335954
 30
0.0
  0
VERTEX
  5
19EC
  8
SAPA_PROFIL
 10
-7.4196339112451142
 20
-85.657979855684516
 30
0.0
 42
-0.3152987888789804
  0
VERTEX
  5
19ED
  8
SAPA_PROFIL
 10
-6.4799412904591227
 20
-84.999999999010015
 30
0.0
  0
VERTEX
  5
19EE
  8
SAPA_PROFIL
 10
6.4799412904593501
 20
-84.999999999010015
 30
0.0
 42
-0.3152987888789804
  0
VERTEX
  5
19EF
  8
SAPA_PROFIL
 10
7.4196339112453407
 20
-85.657979855684516
 30
0.0
  0
VERTEX
  5
19F0
  8
SAPA_PROFIL
 10
8.7605149174236203
 20
-89.342020142335954
 30
0.0
 42
0.3152987888789877
  0
VERTEX
  5
19F1
  8
SAPA_PROFIL
 10
9.7002075382096091
 20
-89.999999999010484
 30
0.0
  0
VERTEX
  5
19F2
  8
SAPA_PROFIL
 10
17.732248383857829
 20
-89.999999999010484
 30
0.0
 42
0.2216946626428921
  0
VERTEX
  5
19F3
  8
SAPA_PROFIL
 10
18.115270605417091
 20
-89.821393803853425
 30
0.0
  0
VERTEX
  5
19F4
  8
SAPA_PROFIL
 10
22.233955556880911
 20
-84.912936216184335
 30
0.0
 42
0.4663076581551056
  0
VERTEX
  5
19F5
  8
SAPA_PROFIL
 10
21.967911113762401
 20
-83.404123202713436
 30
0.0
  0
VERTEX
  5
19F6
  8
SAPA_PROFIL
 10
21.435769515458901
 20
-83.096891107686133
 30
0.0
 42
-0.414213562373157
  0
VERTEX
  5
19F7
  8
SAPA_PROFIL
 10
21.325961894323768
 20
-82.687083486550804
 30
0.0
  0
VERTEX
  5
19F8
  8
SAPA_PROFIL
 10
22.213397459622112
 20
-81.149999999010575
 30
0.0
 42
-0.2679491924311554
  0
VERTEX
  5
19F9
  8
SAPA_PROFIL
 10
22.473205080757339
 20
-80.99999999901047
 30
0.0
  0
VERTEX
  5
19FA
  8
SAPA_PROFIL
 10
23.500000000000341
 20
-80.99999999901047
 30
0.0
 42
0.4142135623730951
  0
VERTEX
  5
19FB
  8
SAPA_PROFIL
 10
23.800000000000519
 20
-80.699999999010274
 30
0.0
  0
VERTEX
  5
19FC
  8
SAPA_PROFIL
 10
23.800000000000072
 20
-76.99999999901047
 30
0.0
 42
0.4142135623730951
  0
VERTEX
  5
19FD
  8
SAPA_PROFIL
 10
23.300000000000072
 20
-76.49999999901047
 30
0.0
  0
SEQEND
  5
19FE
  8
SAPA_PROFIL
  0
POLYLINE
  5
1439
  8
SAPA_PROFIL
 66
     1
 10
0.0
 20
0.0
 30
0.0
 70
     1
  0
VERTEX
  5
19FF
  8
SAPA_PROFIL
 10
2.700000000000272
 20
-33.050000000001091
 30
0.0
  0
VERTEX
  5
1A00
  8
SAPA_PROFIL
 10
2.0767196966983188
 20
-31.67376540642476
 30
0.0
 42
-0.5450207798987328
  0
VERTEX
  5
1A01
  8
SAPA_PROFIL
 10
2.350000000000136
 20
-31.25000000000114
 30
0.0
  0
VERTEX
  5
1A02
  8
SAPA_PROFIL
 10
2.700000000000272
 20
-31.25000000000114
 30
0.0
  0
VERTEX
  5
1A03
  8
SAPA_PROFIL
 10
2.700000000000272
 20
-31.00000000000114
 30
0.0
 42
0.4142135623730951
  0
VERTEX
  5
1A04
  8
SAPA_PROFIL
 10
1.700000000000272
 20
-30.00000000000114
 30
0.0
  0
VERTEX
  5
1A05
  8
SAPA_PROFIL
 10
-1.6999999999998181
 20
-30.00000000000114
 30
0.0
 42
0.4142135623730951
  0
VERTEX
  5
1A06
  8
SAPA_PROFIL
 10
-2.6999999999998181
 20
-31.00000000000114
 30
0.0
  0
VERTEX
  5
1A07
  8
SAPA_PROFIL
 10
-2.6999999999998181
 20
-32.150000000001
 30
0.0
  0
VERTEX
  5
1A08
  8
SAPA_PROFIL
 10
-2.3499999999996808
 20
-32.150000000001
 30
0.0
 42
-0.5450200690651551
  0
VERTEX
  5
1A09
  8
SAPA_PROFIL
 10
-2.0767189999999109
 20
-32.573765000001011
 30
0.0
  0
VERTEX
  5
1A0A
  8
SAPA_PROFIL
 10
-2.6999999999998181
 20
-33.950000000000948
 30
0.0
  0
VERTEX
  5
1A0B
  8
SAPA_PROFIL
 10
-2.3499999999996808
 20
-33.950000000000948
 30
0.0
 42
-0.5450200690651692
  0
VERTEX
  5
1A0C
  8
SAPA_PROFIL
 10
-2.0767189999999109
 20
-34.373765000000958
 30
0.0
  0
VERTEX
  5
1A0D
  8
SAPA_PROFIL
 10
-2.6999999999998181
 20
-35.750000000001137
 30
0.0
  0
VERTEX
  5
1A0E
  8
SAPA_PROFIL
 10
-2.3499999999996808
 20
-35.750000000001137
 30
0.0
 42
-0.5450200690651619
  0
VERTEX
  5
1A0F
  8
SAPA_PROFIL
 10
-2.0767189999999109
 20
-36.17376500000114
 30
0.0
  0
VERTEX
  5
1A10
  8
SAPA_PROFIL
 10
-2.6999999999998181
 20
-37.550000000001091
 30
0.0
  0
VERTEX
  5
1A11
  8
SAPA_PROFIL
 10
-2.3499999999996808
 20
-37.550000000001091
 30
0.0
 42
-0.5450200690651619
  0
VERTEX
  5
1A12
  8
SAPA_PROFIL
 10
-2.0767189999999109
 20
-37.973765000001102
 30
0.0
  0
VERTEX
  5
1A13
  8
SAPA_PROFIL
 10
-2.6999999999998181
 20
-39.350000000001053
 30
0.0
  0
VERTEX
  5
1A14
  8
SAPA_PROFIL
 10
-2.3499999999996808
 20
-39.350000000001053
 30
0.0
 42
-0.5450200690651692
  0
VERTEX
  5
1A15
  8
SAPA_PROFIL
 10
-2.0767189999999109
 20
-39.773765000001049
 30
0.0
  0
VERTEX
  5
1A16
  8
SAPA_PROFIL
 10
-2.6999999999998181
 20
-41.150000000001
 30
0.0
  0
VERTEX
  5
1A17
  8
SAPA_PROFIL
 10
-2.6999999999998181
 20
-41.450000000000948
 30
0.0
  0
VERTEX
  5
1A18
  8
SAPA_PROFIL
 10
2.42826763351104
 20
-41.450000000000948
 30
0.0
  0
VERTEX
  5
1A19
  8
SAPA_PROFIL
 10
2.0767196966983188
 20
-40.673765406424756
 30
0.0
 42
-0.5450207798987328
  0
VERTEX
  5
1A1A
  8
SAPA_PROFIL
 10
2.350000000000136
 20
-40.250000000001137
 30
0.0
  0
VERTEX
  5
1A1B
  8
SAPA_PROFIL
 10
2.700000000000272
 20
-40.250000000001137
 30
0.0
  0
VERTEX
  5
1A1C
  8
SAPA_PROFIL
 10
2.0767200000002499
 20
-38.873765000000958
 30
0.0
 42
-0.5450205149791638
  0
VERTEX
  5
1A1D
  8
SAPA_PROFIL
 10
2.350000000000136
 20
-38.450000000000962
 30
0.0
  0
VERTEX
  5
1A1E
  8
SAPA_PROFIL
 10
2.700000000000272
 20
-38.450000000000962
 30
0.0
  0
VERTEX
  5
1A1F
  8
SAPA_PROFIL
 10
2.0767196966983188
 20
-37.073765406424627
 30
0.0
 42
-0.545020779898768
  0
VERTEX
  5
1A20
  8
SAPA_PROFIL
 10
2.350000000000136
 20
-36.650000000001
 30
0.0
  0
VERTEX
  5
1A21
  8
SAPA_PROFIL
 10
2.700000000000272
 20
-36.650000000001
 30
0.0
  0
VERTEX
  5
1A22
  8
SAPA_PROFIL
 10
2.0767196966983188
 20
-35.273765406424673
 30
0.0
 42
-0.54502077989874
  0
VERTEX
  5
1A23
  8
SAPA_PROFIL
 10
2.350000000000136
 20
-34.850000000001053
 30
0.0
  0
VERTEX
  5
1A24
  8
SAPA_PROFIL
 10
2.700000000000272
 20
-34.850000000001053
 30
0.0
  0
VERTEX
  5
1A25
  8
SAPA_PROFIL
 10
2.0767196966983188
 20
-33.473765406424718
 30
0.0
 42
-0.545020779898761
  0
VERTEX
  5
1A26
  8
SAPA_PROFIL
 10
2.350000000000136
 20
-33.050000000001091
 30
0.0
  0
SEQEND
  5
1A27
  8
SAPA_PROFIL
  0
POLYLINE
  5
143A
  8
SAPA_PROFIL
 66
     1
 10
0.0
 20
0.0
 30
0.0
 70
     1
  0
VERTEX
  5
1A28
  8
SAPA_PROFIL
 10
23.000000000000231
 20
58.024264068710863
 30
0.0
 42
-0.1989123673796753
  0
VERTEX
  5
1A29
  8
SAPA_PROFIL
 10
22.912132034356091
 20
57.812132034355052
 30
0.0
  0
VERTEX
  5
1A2A
  8
SAPA_PROFIL
 10
21.187867965644269
 20
56.087867965642999
 30
0.0
 42
0.1989123673796753
  0
VERTEX
  5
1A2B
  8
SAPA_PROFIL
 10
21.10000000000014
 20
55.875735931286947
 30
0.0
  0
VERTEX
  5
1A2C
  8
SAPA_PROFIL
 10
21.10000000000014
 20
55.299999999999052
 30
0.0
 42
0.4142135623730951
  0
VERTEX
  5
1A2D
  8
SAPA_PROFIL
 10
21.400000000000318
 20
54.999999999998863
 30
0.0
  0
VERTEX
  5
1A2E
  8
SAPA_PROFIL
 10
22.700000000000269
 20
54.999999999998863
 30
0.0
 42
-0.4142135623730951
  0
VERTEX
  5
1A2F
  8
SAPA_PROFIL
 10
23.000000000000231
 20
54.699999999998909
 30
0.0
  0
VERTEX
  5
1A30
  8
SAPA_PROFIL
 10
23.000000000000231
 20
29.99999999999886
 30
0.0
 42
-0.4142135623730951
  0
VERTEX
  5
1A31
  8
SAPA_PROFIL
 10
22.000000000000231
 20
28.99999999999887
 30
0.0
  0
VERTEX
  5
1A32
  8
SAPA_PROFIL
 10
17.600000000000129
 20
28.99999999999887
 30
0.0
 42
0.4142135623730951
  0
VERTEX
  5
1A33
  8
SAPA_PROFIL
 10
17.300000000000178
 20
28.699999999998909
 30
0.0
  0
VERTEX
  5
1A34
  8
SAPA_PROFIL
 10
17.300000000000178
 20
26.399999999998961
 30
0.0
 42
0.4142135623730951
  0
VERTEX
  5
1A35
  8
SAPA_PROFIL
 10
17.600000000000129
 20
26.099999999999
 30
0.0
  0
VERTEX
  5
1A36
  8
SAPA_PROFIL
 10
18.100000000000129
 20
26.099999999999
 30
0.0
 42
0.4142135623730951
  0
VERTEX
  5
1A37
  8
SAPA_PROFIL
 10
18.400000000000318
 20
26.399999999998961
 30
0.0
  0
VERTEX
  5
1A38
  8
SAPA_PROFIL
 10
18.400000000000318
 20
26.736626924633359
 30
0.0
 42
-0.5535245743249297
  0
VERTEX
  5
1A39
  8
SAPA_PROFIL
 10
22.71055421153164
 20
24.96410760212348
 30
0.0
  0
VERTEX
  5
1A3A
  8
SAPA_PROFIL
 10
22.42322330470347
 20
24.67677669529553
 30
0.0
 42
0.4142135623729421
  0
VERTEX
  5
1A3B
  8
SAPA_PROFIL
 10
22.42322330470347
 20
24.32322330470242
 30
0.0
  0
VERTEX
  5
1A3C
  8
SAPA_PROFIL
 10
22.71055421153164
 20
24.035892397874481
 30
0.0
 42
-0.5535245743249292
  0
VERTEX
  5
1A3D
  8
SAPA_PROFIL
 10
18.400000000000318
 20
22.26337307536437
 30
0.0
  0
VERTEX
  5
1A3E
  8
SAPA_PROFIL
 10
18.400000000000318
 20
22.599999999999
 30
0.0
 42
0.4142135623730951
  0
VERTEX
  5
1A3F
  8
SAPA_PROFIL
 10
18.100000000000129
 20
22.899999999998961
 30
0.0
  0
VERTEX
  5
1A40
  8
SAPA_PROFIL
 10
17.600000000000129
 20
22.899999999998961
 30
0.0
 42
0.4142135623730951
  0
VERTEX
  5
1A41
  8
SAPA_PROFIL
 10
17.300000000000178
 20
22.599999999999
 30
0.0
  0
VERTEX
  5
1A42
  8
SAPA_PROFIL
 10
17.300000000000178
 20
21.49999999999886
 30
0.0
 42
0.4142135623730951
  0
VERTEX
  5
1A43
  8
SAPA_PROFIL
 10
18.800000000000178
 20
19.99999999999886
 30
0.0
  0
VERTEX
  5
1A44
  8
SAPA_PROFIL
 10
21.63397459621569
 20
19.99999999999886
 30
0.0
 42
0.267949192431143
  0
VERTEX
  5
1A45
  8
SAPA_PROFIL
 10
22.066987298107961
 20
20.24999999999886
 30
0.0
 42
-0.767326987978956
  0
VERTEX
  5
1A46
  8
SAPA_PROFIL
 10
23.000000000000231
 20
19.99999999999886
 30
0.0
  0
VERTEX
  5
1A47
  8
SAPA_PROFIL
 10
23.000000000000231
 20
-15.00000000000113
 30
0.0
 42
-0.4142135623730951
  0
VERTEX
  5
1A48
  8
SAPA_PROFIL
 10
22.000000000000231
 20
-16.00000000000114
 30
0.0
  0
VERTEX
  5
1A49
  8
SAPA_PROFIL
 10
17.600000000000129
 20
-16.00000000000114
 30
0.0
 42
0.4142135623730951
  0
VERTEX
  5
1A4A
  8
SAPA_PROFIL
 10
17.300000000000178
 20
-16.300000000001091
 30
0.0
  0
VERTEX
  5
1A4B
  8
SAPA_PROFIL
 10
17.300000000000178
 20
-18.600000000001039
 30
0.0
 42
0.4142135623730951
  0
VERTEX
  5
1A4C
  8
SAPA_PROFIL
 10
17.600000000000129
 20
-18.900000000001
 30
0.0
  0
VERTEX
  5
1A4D
  8
SAPA_PROFIL
 10
18.100000000000129
 20
-18.900000000001
 30
0.0
 42
0.4142135623730951
  0
VERTEX
  5
1A4E
  8
SAPA_PROFIL
 10
18.400000000000318
 20
-18.600000000001039
 30
0.0
  0
VERTEX
  5
1A4F
  8
SAPA_PROFIL
 10
18.400000000000318
 20
-18.263373075366641
 30
0.0
 42
-0.5535245743249297
  0
VERTEX
  5
1A50
  8
SAPA_PROFIL
 10
22.71055421153164
 20
-20.03589239787652
 30
0.0
  0
VERTEX
  5
1A51
  8
SAPA_PROFIL
 10
22.42322330470347
 20
-20.32322330470447
 30
0.0
 42
0.4142135623730243
  0
VERTEX
  5
1A52
  8
SAPA_PROFIL
 10
22.423223304703701
 20
-20.67677669529758
 30
0.0
  0
VERTEX
  5
1A53
  8
SAPA_PROFIL
 10
22.71055421153164
 20
-20.96410760212553
 30
0.0
 42
-0.5535245743249292
  0
VERTEX
  5
1A54
  8
SAPA_PROFIL
 10
18.400000000000318
 20
-22.73662692463563
 30
0.0
  0
VERTEX
  5
1A55
  8
SAPA_PROFIL
 10
18.400000000000318
 20
-22.400000000001
 30
0.0
 42
0.4142135623730951
  0
VERTEX
  5
1A56
  8
SAPA_PROFIL
 10
18.100000000000129
 20
-22.100000000001049
 30
0.0
  0
VERTEX
  5
1A57
  8
SAPA_PROFIL
 10
17.600000000000129
 20
-22.100000000001049
 30
0.0
 42
0.4142135623730951
  0
VERTEX
  5
1A58
  8
SAPA_PROFIL
 10
17.300000000000178
 20
-22.400000000001
 30
0.0
  0
VERTEX
  5
1A59
  8
SAPA_PROFIL
 10
17.300000000000178
 20
-23.50000000000114
 30
0.0
 42
0.4142135623730951
  0
VERTEX
  5
1A5A
  8
SAPA_PROFIL
 10
18.800000000000178
 20
-25.00000000000114
 30
0.0
  0
VERTEX
  5
1A5B
  8
SAPA_PROFIL
 10
21.780384757729511
 20
-25.00000000000114
 30
0.0
 42
0.2679491924311188
  0
VERTEX
  5
1A5C
  8
SAPA_PROFIL
 10
22.040192378864958
 20
-24.850000000001049
 30
0.0
 42
-0.7673269879789557
  0
VERTEX
  5
1A5D
  8
SAPA_PROFIL
 10
22.600000000000129
 20
-25.00000000000114
 30
0.0
  0
VERTEX
  5
1A5E
  8
SAPA_PROFIL
 10
22.599999999999909
 20
-27.00000000000114
 30
0.0
 42
-0.4142137811865366
  0
VERTEX
  5
1A5F
  8
SAPA_PROFIL
 10
21.600000747075459
 20
-28.00000000000114
 30
0.0
  0
VERTEX
  5
1A60
  8
SAPA_PROFIL
 10
-21.599999999999682
 20
-28.00000000000114
 30
0.0
 42
-0.4142140000000124
  0
VERTEX
  5
1A61
  8
SAPA_PROFIL
 10
-22.599999999999682
 20
-27.00000000000114
 30
0.0
  0
VERTEX
  5
1A62
  8
SAPA_PROFIL
 10
-22.599999999999682
 20
-25.00000000000114
 30
0.0
 42
-0.7673269879789457
  0
VERTEX
  5
1A63
  8
SAPA_PROFIL
 10
-22.0401923788645
 20
-24.850000000001049
 30
0.0
 42
0.2679491924311191
  0
VERTEX
  5
1A64
  8
SAPA_PROFIL
 10
-21.780384757729049
 20
-25.00000000000114
 30
0.0
  0
VERTEX
  5
1A65
  8
SAPA_PROFIL
 10
-18.799999999999731
 20
-25.00000000000114
 30
0.0
 42
0.4142135623730951
  0
VERTEX
  5
1A66
  8
SAPA_PROFIL
 10
-17.299999999999731
 20
-23.50000000000114
 30
0.0
  0
VERTEX
  5
1A67
  8
SAPA_PROFIL
 10
-17.299999999999731
 20
-22.400000000001
 30
0.0
 42
0.4142135623730951
  0
VERTEX
  5
1A68
  8
SAPA_PROFIL
 10
-17.599999999999682
 20
-22.100000000001049
 30
0.0
  0
VERTEX
  5
1A69
  8
SAPA_PROFIL
 10
-18.099999999999682
 20
-22.100000000001049
 30
0.0
 42
0.4142135623730951
  0
VERTEX
  5
1A6A
  8
SAPA_PROFIL
 10
-18.39999999999986
 20
-22.400000000001
 30
0.0
  0
VERTEX
  5
1A6B
  8
SAPA_PROFIL
 10
-18.39999999999986
 20
-22.73662692463563
 30
0.0
 42
-0.5535245743249307
  0
VERTEX
  5
1A6C
  8
SAPA_PROFIL
 10
-22.710554211531189
 20
-20.96410760212553
 30
0.0
  0
VERTEX
  5
1A6D
  8
SAPA_PROFIL
 10
-22.423223304703239
 20
-20.67677669529758
 30
0.0
 42
0.4142135623730951
  0
VERTEX
  5
1A6E
  8
SAPA_PROFIL
 10
-22.423223304703239
 20
-20.32322330470447
 30
0.0
  0
VERTEX
  5
1A6F
  8
SAPA_PROFIL
 10
-22.710554211531189
 20
-20.03589239787652
 30
0.0
 42
-0.553524574324932
  0
VERTEX
  5
1A70
  8
SAPA_PROFIL
 10
-18.39999999999986
 20
-18.263373075366641
 30
0.0
  0
VERTEX
  5
1A71
  8
SAPA_PROFIL
 10
-18.39999999999986
 20
-18.600000000001039
 30
0.0
 42
0.4142135623730951
  0
VERTEX
  5
1A72
  8
SAPA_PROFIL
 10
-18.099999999999682
 20
-18.900000000001
 30
0.0
  0
VERTEX
  5
1A73
  8
SAPA_PROFIL
 10
-17.599999999999682
 20
-18.900000000001
 30
0.0
 42
0.4142135623730951
  0
VERTEX
  5
1A74
  8
SAPA_PROFIL
 10
-17.299999999999731
 20
-18.600000000001039
 30
0.0
  0
VERTEX
  5
1A75
  8
SAPA_PROFIL
 10
-17.299999999999731
 20
-16.300000000001091
 30
0.0
 42
0.4142135623730951
  0
VERTEX
  5
1A76
  8
SAPA_PROFIL
 10
-17.599999999999682
 20
-16.00000000000114
 30
0.0
  0
VERTEX
  5
1A77
  8
SAPA_PROFIL
 10
-21.999999999999769
 20
-16.00000000000114
 30
0.0
 42
-0.4142135623730951
  0
VERTEX
  5
1A78
  8
SAPA_PROFIL
 10
-22.999999999999769
 20
-15.00000000000113
 30
0.0
  0
VERTEX
  5
1A79
  8
SAPA_PROFIL
 10
-22.999999999999769
 20
19.99999999999886
 30
0.0
 42
-0.7673269879789569
  0
VERTEX
  5
1A7A
  8
SAPA_PROFIL
 10
-22.066987298107509
 20
20.24999999999886
 30
0.0
 42
0.2679491924311163
  0
VERTEX
  5
1A7B
  8
SAPA_PROFIL
 10
-21.633974596215239
 20
19.99999999999886
 30
0.0
  0
VERTEX
  5
1A7C
  8
SAPA_PROFIL
 10
-18.799999999999731
 20
19.99999999999886
 30
0.0
 42
0.4142135623730951
  0
VERTEX
  5
1A7D
  8
SAPA_PROFIL
 10
-17.299999999999731
 20
21.49999999999886
 30
0.0
  0
VERTEX
  5
1A7E
  8
SAPA_PROFIL
 10
-17.299999999999731
 20
22.599999999999
 30
0.0
 42
0.4142135623730951
  0
VERTEX
  5
1A7F
  8
SAPA_PROFIL
 10
-17.599999999999682
 20
22.899999999998961
 30
0.0
  0
VERTEX
  5
1A80
  8
SAPA_PROFIL
 10
-18.099999999999682
 20
22.899999999998961
 30
0.0
 42
0.4142135623730951
  0
VERTEX
  5
1A81
  8
SAPA_PROFIL
 10
-18.39999999999986
 20
22.599999999999
 30
0.0
  0
VERTEX
  5
1A82
  8
SAPA_PROFIL
 10
-18.39999999999986
 20
22.26337307536437
 30
0.0
 42
-0.5535245743249307
  0
VERTEX
  5
1A83
  8
SAPA_PROFIL
 10
-22.710554211531189
 20
24.035892397874481
 30
0.0
  0
VERTEX
  5
1A84
  8
SAPA_PROFIL
 10
-22.423223304703239
 20
24.32322330470242
 30
0.0
 42
0.4142135623731068
  0
VERTEX
  5
1A85
  8
SAPA_PROFIL
 10
-22.423223304703011
 20
24.67677669529553
 30
0.0
  0
VERTEX
  5
1A86
  8
SAPA_PROFIL
 10
-22.710554211531189
 20
24.96410760212348
 30
0.0
 42
-0.553524574324932
  0
VERTEX
  5
1A87
  8
SAPA_PROFIL
 10
-18.39999999999986
 20
26.736626924633359
 30
0.0
  0
VERTEX
  5
1A88
  8
SAPA_PROFIL
 10
-18.39999999999986
 20
26.399999999998961
 30
0.0
 42
0.4142135623730951
  0
VERTEX
  5
1A89
  8
SAPA_PROFIL
 10
-18.099999999999682
 20
26.099999999999
 30
0.0
  0
VERTEX
  5
1A8A
  8
SAPA_PROFIL
 10
-17.599999999999682
 20
26.099999999999
 30
0.0
 42
0.4142135623730951
  0
VERTEX
  5
1A8B
  8
SAPA_PROFIL
 10
-17.299999999999731
 20
26.399999999998961
 30
0.0
  0
VERTEX
  5
1A8C
  8
SAPA_PROFIL
 10
-17.299999999999731
 20
28.699999999998909
 30
0.0
 42
0.4142135623730951
  0
VERTEX
  5
1A8D
  8
SAPA_PROFIL
 10
-17.599999999999682
 20
28.99999999999887
 30
0.0
  0
VERTEX
  5
1A8E
  8
SAPA_PROFIL
 10
-21.999999999999769
 20
28.99999999999887
 30
0.0
 42
-0.4142135623730951
  0
VERTEX
  5
1A8F
  8
SAPA_PROFIL
 10
-22.999999999999769
 20
29.99999999999886
 30
0.0
  0
VERTEX
  5
1A90
  8
SAPA_PROFIL
 10
-22.999999999999769
 20
54.699999999998909
 30
0.0
 42
-0.4142135623730951
  0
VERTEX
  5
1A91
  8
SAPA_PROFIL
 10
-22.699999999999822
 20
54.999999999998863
 30
0.0
  0
VERTEX
  5
1A92
  8
SAPA_PROFIL
 10
-21.39999999999986
 20
54.999999999998863
 30
0.0
 42
0.4142135623730951
  0
VERTEX
  5
1A93
  8
SAPA_PROFIL
 10
-21.099999999999682
 20
55.299999999999052
 30
0.0
  0
VERTEX
  5
1A94
  8
SAPA_PROFIL
 10
-21.099999999999682
 20
55.875735931286947
 30
0.0
 42
0.1989123673796752
  0
VERTEX
  5
1A95
  8
SAPA_PROFIL
 10
-21.187867965643822
 20
56.087867965642999
 30
0.0
  0
VERTEX
  5
1A96
  8
SAPA_PROFIL
 10
-22.91213203435586
 20
57.812132034355052
 30
0.0
 42
-0.1989123673796057
  0
VERTEX
  5
1A97
  8
SAPA_PROFIL
 10
-22.999999999999769
 20
58.024264068710863
 30
0.0
  0
VERTEX
  5
1A98
  8
SAPA_PROFIL
 10
-22.999999999999769
 20
61.499999999998863
 30
0.0
 42
-0.4142135623730951
  0
VERTEX
  5
1A99
  8
SAPA_PROFIL
 10
-21.999999999999769
 20
62.499999999998863
 30
0.0
  0
VERTEX
  5
1A9A
  8
SAPA_PROFIL
 10
22.000000000000231
 20
62.499999999998863
 30
0.0
 42
-0.4142135623730951
  0
VERTEX
  5
1A9B
  8
SAPA_PROFIL
 10
23.000000000000231
 20
61.499999999998863
 30
0.0
  0
SEQEND
  5
1A9C
  8
SAPA_PROFIL
  0
POLYLINE
  5
143B
  8
SAPA_PROFIL
 66
     1
 10
0.0
 20
0.0
 30
0.0
 70
     1
  0
VERTEX
  5
1A9D
  8
SAPA_PROFIL
 10
6.0000000000002274
 20
-30.00000000000114
 30
0.0
 42
0.4142135623730951
  0
VERTEX
  5
1A9E
  8
SAPA_PROFIL
 10
5.0000000000002274
 20
-31.00000000000114
 30
0.0
  0
VERTEX
  5
1A9F
  8
SAPA_PROFIL
 10
5.0000000000002274
 20
-52.200000000000948
 30
0.0
 42
-0.4142135623730951
  0
VERTEX
  5
1AA0
  8
SAPA_PROFIL
 10
4.700000000000272
 20
-52.50000000000113
 30
0.0
  0
VERTEX
  5
1AA1
  8
SAPA_PROFIL
 10
3.0757360000002332
 20
-52.50000000000113
 30
0.0
  0
VERTEX
  5
1AA2
  8
SAPA_PROFIL
 10
2.2378679656442269
 20
-51.562132034356871
 30
0.0
 42
-0.668178637919305
  0
VERTEX
  5
1AA3
  8
SAPA_PROFIL
 10
2.450000000000272
 20
-51.050000000001091
 30
0.0
  0
VERTEX
  5
1AA4
  8
SAPA_PROFIL
 10
2.700000000000272
 20
-51.050000000001091
 30
0.0
  0
VERTEX
  5
1AA5
  8
SAPA_PROFIL
 10
2.1767196966982278
 20
-49.673765406424756
 30
0.0
 42
-0.5450207798987201
  0
VERTEX
  5
1AA6
  8
SAPA_PROFIL
 10
2.450000000000272
 20
-49.250000000001137
 30
0.0
  0
VERTEX
  5
1AA7
  8
SAPA_PROFIL
 10
2.700000000000272
 20
-49.250000000001137
 30
0.0
  0
VERTEX
  5
1AA8
  8
SAPA_PROFIL
 10
2.1767196966982278
 20
-47.873765406424567
 30
0.0
 42
-0.5450207798987201
  0
VERTEX
  5
1AA9
  8
SAPA_PROFIL
 10
2.450000000000272
 20
-47.450000000000962
 30
0.0
  0
VERTEX
  5
1AAA
  8
SAPA_PROFIL
 10
2.700000000000272
 20
-47.450000000000962
 30
0.0
  0
VERTEX
  5
1AAB
  8
SAPA_PROFIL
 10
2.1767196966982278
 20
-46.07376540642462
 30
0.0
 42
-0.5450207798987342
  0
VERTEX
  5
1AAC
  8
SAPA_PROFIL
 10
2.450000000000272
 20
-45.650000000000993
 30
0.0
  0
VERTEX
  5
1AAD
  8
SAPA_PROFIL
 10
2.700000000000272
 20
-45.650000000000993
 30
0.0
  0
VERTEX
  5
1AAE
  8
SAPA_PROFIL
 10
2.1767196966982278
 20
-44.273765406424673
 30
0.0
 42
-0.5450207798987201
  0
VERTEX
  5
1AAF
  8
SAPA_PROFIL
 10
2.450000000000272
 20
-43.850000000001039
 30
0.0
  0
VERTEX
  5
1AB0
  8
SAPA_PROFIL
 10
2.700000000000272
 20
-43.850000000001039
 30
0.0
  0
VERTEX
  5
1AB1
  8
SAPA_PROFIL
 10
2.4722372826161059
 20
-43.126282705194853
 30
0.0
 42
0.2945484962563026
  0
VERTEX
  5
1AB2
  8
SAPA_PROFIL
 10
2.1988824689378812
 20
-42.950048040246656
 30
0.0
  0
VERTEX
  5
1AB3
  8
SAPA_PROFIL
 10
1.2642999377483191
 20
-42.950255222213173
 30
0.0
 42
-0.3475954753796591
  0
VERTEX
  5
1AB4
  8
SAPA_PROFIL
 10
0.9723265106783856
 20
-42.719501178044077
 30
0.0
 42
0.790522909611319
  0
VERTEX
  5
1AB5
  8
SAPA_PROFIL
 10
-0.973664089865224
 20
-42.71949097360357
 30
0.0
 42
-0.3476065658631364
  0
VERTEX
  5
1AB6
  8
SAPA_PROFIL
 10
-1.2656518108867649
 20
-42.950241952335773
 30
0.0
  0
VERTEX
  5
1AB7
  8
SAPA_PROFIL
 10
-1.8499926620931999
 20
-42.950095231626847
 30
0.0
 42
0.4102317530969976
  0
VERTEX
  5
1AB8
  8
SAPA_PROFIL
 10
-2.1500282985855388
 20
-43.245946879780369
 30
0.0
 42
-0.0712587206050384
  0
VERTEX
  5
1AB9
  8
SAPA_PROFIL
 10
-2.1632556124550311
 20
-43.329990804708579
 30
0.0
  0
VERTEX
  5
1ABA
  8
SAPA_PROFIL
 10
-2.6999999999998181
 20
-44.750000000001137
 30
0.0
  0
VERTEX
  5
1ABB
  8
SAPA_PROFIL
 10
-2.4499999999998181
 20
-44.750000000001137
 30
0.0
 42
-0.5450200690651619
  0
VERTEX
  5
1ABC
  8
SAPA_PROFIL
 10
-2.17671899999982
 20
-45.173765000001133
 30
0.0
  0
VERTEX
  5
1ABD
  8
SAPA_PROFIL
 10
-2.6999999999998181
 20
-46.550000000001091
 30
0.0
  0
VERTEX
  5
1ABE
  8
SAPA_PROFIL
 10
-2.4499999999998181
 20
-46.550000000000857
 30
0.0
 42
-0.545020069065176
  0
VERTEX
  5
1ABF
  8
SAPA_PROFIL
 10
-2.17671899999982
 20
-46.973765000001087
 30
0.0
  0
VERTEX
  5
1AC0
  8
SAPA_PROFIL
 10
-2.6999999999998181
 20
-48.350000000001039
 30
0.0
  0
VERTEX
  5
1AC1
  8
SAPA_PROFIL
 10
-2.4499999999998181
 20
-48.350000000001039
 30
0.0
 42
-0.5450200690651692
  0
VERTEX
  5
1AC2
  8
SAPA_PROFIL
 10
-2.17671899999982
 20
-48.773765000001049
 30
0.0
  0
VERTEX
  5
1AC3
  8
SAPA_PROFIL
 10
-2.6999999999998181
 20
-50.150000000001
 30
0.0
  0
VERTEX
  5
1AC4
  8
SAPA_PROFIL
 10
-2.1499999999998631
 20
-50.150000000001
 30
0.0
  0
VERTEX
  5
1AC5
  8
SAPA_PROFIL
 10
-2.1499999999998631
 20
-51.350000000001039
 30
0.0
 42
-0.1989123673797004
  0
VERTEX
  5
1AC6
  8
SAPA_PROFIL
 10
-2.2378679999997071
 20
-51.562132000001156
 30
0.0
  0
VERTEX
  5
1AC7
  8
SAPA_PROFIL
 10
-3.075735999999778
 20
-52.50000000000113
 30
0.0
  0
VERTEX
  5
1AC8
  8
SAPA_PROFIL
 10
-4.6999999999998181
 20
-52.50000000000113
 30
0.0
 42
-0.4142135623730951
  0
VERTEX
  5
1AC9
  8
SAPA_PROFIL
 10
-4.9999999999997717
 20
-52.200000000000948
 30
0.0
  0
VERTEX
  5
1ACA
  8
SAPA_PROFIL
 10
-4.9999999999997717
 20
-31.00000000000114
 30
0.0
 42
0.4142135623730951
  0
VERTEX
  5
1ACB
  8
SAPA_PROFIL
 10
-5.9999999999997717
 20
-30.00000000000114
 30
0.0
  0
VERTEX
  5
1ACC
  8
SAPA_PROFIL
 10
-14.19999999999982
 20
-30.00000000000114
 30
0.0
 42
0.4142135623730951
  0
VERTEX
  5
1ACD
  8
SAPA_PROFIL
 10
-14.69999999999982
 20
-30.50000000000114
 30
0.0
  0
VERTEX
  5
1ACE
  8
SAPA_PROFIL
 10
-14.69999999999982
 20
-33.700000000000962
 30
0.0
 42
0.4142135623730951
  0
VERTEX
  5
1ACF
  8
SAPA_PROFIL
 10
-14.19999999999982
 20
-34.200000000000962
 30
0.0
  0
VERTEX
  5
1AD0
  8
SAPA_PROFIL
 10
-11.299999999999731
 20
-34.200000000000962
 30
0.0
 42
-0.4142135623730951
  0
VERTEX
  5
1AD1
  8
SAPA_PROFIL
 10
-10.999999999999771
 20
-34.500000000001137
 30
0.0
  0
VERTEX
  5
1AD2
  8
SAPA_PROFIL
 10
-10.999999999999771
 20
-35.200000000000948
 30
0.0
 42
-0.4142135623730951
  0
VERTEX
  5
1AD3
  8
SAPA_PROFIL
 10
-11.299999999999731
 20
-35.500000000001137
 30
0.0
  0
VERTEX
  5
1AD4
  8
SAPA_PROFIL
 10
-17.999999999999769
 20
-35.500000000001137
 30
0.0
  0
VERTEX
  5
1AD5
  8
SAPA_PROFIL
 10
-18.586384015500471
 20
-35.035076580641999
 30
0.0
 42
-0.7105995019814511
  0
VERTEX
  5
1AD6
  8
SAPA_PROFIL
 10
-18.39999999999986
 20
-34.500000000001137
 30
0.0
  0
VERTEX
  5
1AD7
  8
SAPA_PROFIL
 10
-16.499999999999769
 20
-34.500000000001137
 30
0.0
 42
0.4142135623730951
  0
VERTEX
  5
1AD8
  8
SAPA_PROFIL
 10
-16.199999999999822
 20
-34.200000000000962
 30
0.0
  0
VERTEX
  5
1AD9
  8
SAPA_PROFIL
 10
-16.199999999999822
 20
-30.300000000001091
 30
0.0
 42
0.4142135623730951
  0
VERTEX
  5
1ADA
  8
SAPA_PROFIL
 10
-16.499999999999769
 20
-30.00000000000114
 30
0.0
  0
VERTEX
  5
1ADB
  8
SAPA_PROFIL
 10
-23.199999999999822
 20
-30.00000000000114
 30
0.0
 42
0.4142135623730951
  0
VERTEX
  5
1ADC
  8
SAPA_PROFIL
 10
-23.499999999999769
 20
-30.300000000001091
 30
0.0
  0
VERTEX
  5
1ADD
  8
SAPA_PROFIL
 10
-23.499999999999769
 20
-34.200000000000962
 30
0.0
 42
0.4142135623730951
  0
VERTEX
  5
1ADE
  8
SAPA_PROFIL
 10
-23.199999999999822
 20
-34.500000000001137
 30
0.0
  0
VERTEX
  5
1ADF
  8
SAPA_PROFIL
 10
-21.999999999999769
 20
-34.500000000001137
 30
0.0
 42
-0.7105990647993611
  0
VERTEX
  5
1AE0
  8
SAPA_PROFIL
 10
-21.81361599999968
 20
-35.035076000001027
 30
0.0
  0
VERTEX
  5
1AE1
  8
SAPA_PROFIL
 10
-22.39999999999986
 20
-35.500000000001137
 30
0.0
  0
VERTEX
  5
1AE2
  8
SAPA_PROFIL
 10
-24.699999999999822
 20
-35.500000000001137
 30
0.0
 42
-0.4142135623730951
  0
VERTEX
  5
1AE3
  8
SAPA_PROFIL
 10
-24.999999999999769
 20
-35.200000000000948
 30
0.0
  0
VERTEX
  5
1AE4
  8
SAPA_PROFIL
 10
-24.999999999999769
 20
63.999999999998863
 30
0.0
 42
-0.4142135623730951
  0
VERTEX
  5
1AE5
  8
SAPA_PROFIL
 10
-24.499999999999769
 20
64.499999999998863
 30
0.0
  0
VERTEX
  5
1AE6
  8
SAPA_PROFIL
 10
24.500000000000231
 20
64.499999999998863
 30
0.0
 42
-0.4142135623730951
  0
VERTEX
  5
1AE7
  8
SAPA_PROFIL
 10
25.000000000000231
 20
63.999999999998863
 30
0.0
  0
VERTEX
  5
1AE8
  8
SAPA_PROFIL
 10
25.000000000000231
 20
-35.200000000000948
 30
0.0
 42
-0.4142135623730951
  0
VERTEX
  5
1AE9
  8
SAPA_PROFIL
 10
24.700000000000269
 20
-35.500000000001137
 30
0.0
  0
VERTEX
  5
1AEA
  8
SAPA_PROFIL
 10
22.400000000000318
 20
-35.500000000001137
 30
0.0
  0
VERTEX
  5
1AEB
  8
SAPA_PROFIL
 10
21.81361598449962
 20
-35.035076580641999
 30
0.0
 42
-0.7105995019814511
  0
VERTEX
  5
1AEC
  8
SAPA_PROFIL
 10
22.000000000000231
 20
-34.500000000001137
 30
0.0
  0
VERTEX
  5
1AED
  8
SAPA_PROFIL
 10
23.200000000000269
 20
-34.500000000001137
 30
0.0
 42
0.4142135623730951
  0
VERTEX
  5
1AEE
  8
SAPA_PROFIL
 10
23.500000000000231
 20
-34.200000000000962
 30
0.0
  0
VERTEX
  5
1AEF
  8
SAPA_PROFIL
 10
23.500000000000231
 20
-30.300000000001091
 30
0.0
 42
0.4142135623730951
  0
VERTEX
  5
1AF0
  8
SAPA_PROFIL
 10
23.200000000000269
 20
-30.00000000000114
 30
0.0
  0
VERTEX
  5
1AF1
  8
SAPA_PROFIL
 10
16.500000000000231
 20
-30.00000000000114
 30
0.0
 42
0.4142135623730951
  0
VERTEX
  5
1AF2
  8
SAPA_PROFIL
 10
16.200000000000269
 20
-30.300000000001091
 30
0.0
  0
VERTEX
  5
1AF3
  8
SAPA_PROFIL
 10
16.200000000000269
 20
-34.200000000000962
 30
0.0
 42
0.4142135623730951
  0
VERTEX
  5
1AF4
  8
SAPA_PROFIL
 10
16.500000000000231
 20
-34.500000000001137
 30
0.0
  0
VERTEX
  5
1AF5
  8
SAPA_PROFIL
 10
18.400000000000318
 20
-34.500000000001137
 30
0.0
 42
-0.7105995019814511
  0
VERTEX
  5
1AF6
  8
SAPA_PROFIL
 10
18.586384015500919
 20
-35.035076580641999
 30
0.0
  0
VERTEX
  5
1AF7
  8
SAPA_PROFIL
 10
18.000000000000231
 20
-35.500000000001137
 30
0.0
  0
VERTEX
  5
1AF8
  8
SAPA_PROFIL
 10
11.30000000000018
 20
-35.500000000001137
 30
0.0
 42
-0.4142135623730951
  0
VERTEX
  5
1AF9
  8
SAPA_PROFIL
 10
11.00000000000022
 20
-35.200000000000948
 30
0.0
  0
VERTEX
  5
1AFA
  8
SAPA_PROFIL
 10
11.00000000000022
 20
-34.500000000001137
 30
0.0
 42
-0.4142135623730951
  0
VERTEX
  5
1AFB
  8
SAPA_PROFIL
 10
11.30000000000018
 20
-34.200000000000962
 30
0.0
  0
VERTEX
  5
1AFC
  8
SAPA_PROFIL
 10
14.200000000000269
 20
-34.200000000000962
 30
0.0
 42
0.4142135623730951
  0
VERTEX
  5
1AFD
  8
SAPA_PROFIL
 10
14.700000000000269
 20
-33.700000000000962
 30
0.0
  0
VERTEX
  5
1AFE
  8
SAPA_PROFIL
 10
14.700000000000269
 20
-30.50000000000114
 30
0.0
 42
0.4142135623730951
  0
VERTEX
  5
1AFF
  8
SAPA_PROFIL
 10
14.200000000000269
 20
-30.00000000000114
 30
0.0
  0
SEQEND
  5
1B00
  8
SAPA_PROFIL
  0
LINE
  5
143C
  8
SAPA_PROFIL
 10
40.071362582068438
 20
74.497625189044896
 30
0.0
 11
48.054191160052078
 21
74.497625189044896
 31
0.0
  0
POLYLINE
  5
1462
  8
SAPA_GLAS
 66
     1
 10
0.0
 20
0.0
 30
0.0
  0
VERTEX
  5
1B20
  8
SAPA_GLAS
 10
40.999999999995111
 20
-51.499999999010122
 30
0.0
  0
VERTEX
  5
1B21
  8
SAPA_GLAS
 10
10.99999999999511
 20
-51.499999999010122
 30
0.0
  0
VERTEX
  5
1B22
  8
SAPA_GLAS
 10
10.99999999999511
 20
-45.499999999010129
 30
0.0
  0
VERTEX
  5
1B23
  8
SAPA_GLAS
 10
40.999999999995111
 20
-45.499999999010129
 30
0.0
  0
SEQEND
  5
1B24
  8
SAPA_GLAS
  0
POLYLINE
  5
1463
  8
SAPA_GLAS
 66
     1
 10
0.0
 20
0.0
 30
0.0
  0
VERTEX
  5
1B25
  8
SAPA_GLAS
 10
20.99999999999466
 20
-66.49999999901172
 30
0.0
  0
VERTEX
  5
1B26
  8
SAPA_GLAS
 10
20.99999999999466
 20
-51.499999999010122
 30
0.0
  0
VERTEX
  5
1B27
  8
SAPA_GLAS
 10
10.99999999999511
 20
-51.499999999010122
 30
0.0
  0
VERTEX
  5
1B28
  8
SAPA_GLAS
 10
10.99999999999511
 20
-66.49999999901172
 30
0.0
  0
VERTEX
  5
1B29
  8
SAPA_GLAS
 10
20.99999999999466
 20
-66.49999999901172
 30
0.0
  0
SEQEND
  5
1B2A
  8
SAPA_GLAS
  0
POLYLINE
  5
1464
  8
SAPA_GLAS
 66
     1
 10
0.0
 20
0.0
 30
0.0
  0
VERTEX
  5
1B2B
  8
SAPA_GLAS
 10
40.999999999995111
 20
-72.49999999901172
 30
0.0
  0
VERTEX
  5
1B2C
  8
SAPA_GLAS
 10
10.99999999999511
 20
-72.499999999011763
 30
0.0
  0
VERTEX
  5
1B2D
  8
SAPA_GLAS
 10
10.99999999999511
 20
-66.49999999901172
 30
0.0
  0
VERTEX
  5
1B2E
  8
SAPA_GLAS
 10
40.999999999995111
 20
-66.49999999901172
 30
0.0
  0
SEQEND
  5
1B2F
  8
SAPA_GLAS
  0
POLYLINE
  5
1465
  8
SAPA_GLAS
 66
     1
 10
0.0
 20
0.0
 30
0.0
  0
VERTEX
  5
1B30
  8
SAPA_GLAS
 10
-59.795903614460357
 20
100.8999999999989
 30
0.0
  0
VERTEX
  5
1B31
  8
SAPA_GLAS
 10
-30.99590361446058
 20
100.8999999999989
 30
0.0
  0
VERTEX
  5
1B32
  8
SAPA_GLAS
 10
-30.99590361446058
 20
106.8999999999989
 30
0.0
  0
VERTEX
  5
1B33
  8
SAPA_GLAS
 10
-59.795903614460357
 20
106.8999999999986
 30
0.0
  0
SEQEND
  5
1B34
  8
SAPA_GLAS
  0
POLYLINE
  5
1466
  8
SAPA_GLAS
 66
     1
 10
0.0
 20
0.0
 30
0.0
 70
     1
  0
VERTEX
  5
1B35
  8
SAPA_GLAS
 10
-40.995903614460687
 20
88.899999999998897
 30
0.0
  0
VERTEX
  5
1B36
  8
SAPA_GLAS
 10
-40.995903614460687
 20
100.8999999999989
 30
0.0
  0
VERTEX
  5
1B37
  8
SAPA_GLAS
 10
-30.99590361446058
 20
100.8999999999989
 30
0.0
  0
VERTEX
  5
1B38
  8
SAPA_GLAS
 10
-30.99590361446058
 20
88.899999999998897
 30
0.0
  0
SEQEND
  5
1B39
  8
SAPA_GLAS
  0
POLYLINE
  5
1467
  8
SAPA_GLAS
 66
     1
 10
0.0
 20
0.0
 30
0.0
  0
VERTEX
  5
1B3A
  8
SAPA_GLAS
 10
-59.795903614460357
 20
82.899999999998897
 30
0.0
  0
VERTEX
  5
1B3B
  8
SAPA_GLAS
 10
-30.99590361446058
 20
82.899999999998897
 30
0.0
  0
VERTEX
  5
1B3C
  8
SAPA_GLAS
 10
-30.99590361446058
 20
88.899999999998897
 30
0.0
  0
VERTEX
  5
1B3D
  8
SAPA_GLAS
 10
-59.795903614460357
 20
88.899999999998897
 30
0.0
  0
SEQEND
  5
1B3E
  8
SAPA_GLAS
  0
POLYLINE
  5
146F
  8
SAPA_ISOLATOR
 66
     1
 10
0.0
 20
0.0
 30
0.0
 70
     1
  0
VERTEX
  5
1B70
  8
SAPA_ISOLATOR
 10
-3.0999999999994539
 20
-52.499999999010008
 30
0.0
  0
VERTEX
  5
1B71
  8
SAPA_ISOLATOR
 10
-4.4999999999995453
 20
-52.499999999010008
 30
0.0
 42
0.4142135623730951
  0
VERTEX
  5
1B72
  8
SAPA_ISOLATOR
 10
-4.9999999999995453
 20
-52.999999999010008
 30
0.0
  0
VERTEX
  5
1B73
  8
SAPA_ISOLATOR
 10
-4.9999999999995453
 20
-82.499999999010015
 30
0.0
  0
VERTEX
  5
1B74
  8
SAPA_ISOLATOR
 10
-3.4999999999995448
 20
-82.499999999010015
 30
0.0
  0
VERTEX
  5
1B75
  8
SAPA_ISOLATOR
 10
-0.3535533839701657
 20
-79.353553389603334
 30
0.0
 42
-0.4142135623730951
  0
VERTEX
  5
1B76
  8
SAPA_ISOLATOR
 10
0.3535533972165012
 20
-79.353553389603334
 30
0.0
  0
VERTEX
  5
1B77
  8
SAPA_ISOLATOR
 10
3.5000000000004539
 20
-82.499999999010015
 30
0.0
  0
VERTEX
  5
1B78
  8
SAPA_ISOLATOR
 10
5.0000000000004539
 20
-82.499999999010015
 30
0.0
  0
VERTEX
  5
1B79
  8
SAPA_ISOLATOR
 10
5.0000000000004539
 20
-52.999999999010008
 30
0.0
 42
0.4142135623730951
  0
VERTEX
  5
1B7A
  8
SAPA_ISOLATOR
 10
4.5000000000004539
 20
-52.499999999010008
 30
0.0
  0
VERTEX
  5
1B7B
  8
SAPA_ISOLATOR
 10
3.1000000000003629
 20
-52.499999999010008
 30
0.0
  0
VERTEX
  5
1B7C
  8
SAPA_ISOLATOR
 10
2.2500000000004539
 20
-51.649999999010099
 30
0.0
  0
VERTEX
  5
1B7D
  8
SAPA_ISOLATOR
 10
2.2500000000004539
 20
-47.094967040794927
 30
0.0
 42
0.0912836897734203
  0
VERTEX
  5
1B7E
  8
SAPA_ISOLATOR
 10
1.031358332190393
 20
-44.97541000719275
 30
0.0
 42
0.4609552212306286
  0
VERTEX
  5
1B7F
  8
SAPA_ISOLATOR
 10
-1.0313583321897111
 20
-44.97541000719275
 30
0.0
 42
0.0912836897734202
  0
VERTEX
  5
1B80
  8
SAPA_ISOLATOR
 10
-2.2499999999995448
 20
-47.094967040794927
 30
0.0
  0
VERTEX
  5
1B81
  8
SAPA_ISOLATOR
 10
-2.2499999999995448
 20
-51.649999999010099
 30
0.0
  0
SEQEND
  5
1B82
  8
SAPA_ISOLATOR
  0
POLYLINE
  5
1470
  8
SAPA_ISOLATOR
 66
     1
 10
0.0
 20
0.0
 30
0.0
 70
     1
  0
VERTEX
  5
1B83
  8
SAPA_ISOLATOR
 10
-0.9142135546976533
 20
-78.499999998266048
 30
0.0
 42
-0.1989123671061432
  0
VERTEX
  5
1B84
  8
SAPA_ISOLATOR
 10
-0.2071067742551804
 20
-78.207106780196682
 30
0.0
  0
VERTEX
  5
1B85
  8
SAPA_ISOLATOR
 10
0.2071067742558625
 20
-78.207106780196682
 30
0.0
 42
-0.1989123671061405
  0
VERTEX
  5
1B86
  8
SAPA_ISOLATOR
 10
0.9142135546983354
 20
-78.499999998266048
 30
0.0
  0
VERTEX
  5
1B87
  8
SAPA_ISOLATOR
 10
3.1464466097791042
 20
-80.732233048648368
 30
0.0
 42
0.6681786375387241
  0
VERTEX
  5
1B88
  8
SAPA_ISOLATOR
 10
4.0000000000004539
 20
-80.378679657683037
 30
0.0
  0
VERTEX
  5
1B89
  8
SAPA_ISOLATOR
 10
4.0000000000004539
 20
-67.999999999010015
 30
0.0
 42
0.4142135623730951
  0
VERTEX
  5
1B8A
  8
SAPA_ISOLATOR
 10
3.5000000000004539
 20
-67.499999999010015
 30
0.0
  0
VERTEX
  5
1B8B
  8
SAPA_ISOLATOR
 10
-3.4999999999995448
 20
-67.499999999010015
 30
0.0
 42
0.4142135623730951
  0
VERTEX
  5
1B8C
  8
SAPA_ISOLATOR
 10
-3.9999999999995448
 20
-67.999999999010015
 30
0.0
  0
VERTEX
  5
1B8D
  8
SAPA_ISOLATOR
 10
-3.9999999999995448
 20
-80.378679657683037
 30
0.0
 42
0.6681786375387241
  0
VERTEX
  5
1B8E
  8
SAPA_ISOLATOR
 10
-3.1464466097784221
 20
-80.732233048648368
 30
0.0
  0
SEQEND
  5
1B8F
  8
SAPA_ISOLATOR
  0
POLYLINE
  5
1471
  8
SAPA_ISOLATOR
 66
     1
 10
0.0
 20
0.0
 30
0.0
 70
     1
  0
VERTEX
  5
1B90
  8
SAPA_ISOLATOR
 10
-1.249999999999545
 20
-52.06421356138344
 30
0.0
  0
VERTEX
  5
1B91
  8
SAPA_ISOLATOR
 10
-2.6857864376265752
 20
-53.499999999010008
 30
0.0
  0
VERTEX
  5
1B92
  8
SAPA_ISOLATOR
 10
-3.4999999999995448
 20
-53.499999999010008
 30
0.0
 42
0.4142135623730951
  0
VERTEX
  5
1B93
  8
SAPA_ISOLATOR
 10
-3.9999999999995448
 20
-53.999999999010022
 30
0.0
  0
VERTEX
  5
1B94
  8
SAPA_ISOLATOR
 10
-3.9999999999995448
 20
-65.999999999010015
 30
0.0
 42
0.4142135623730951
  0
VERTEX
  5
1B95
  8
SAPA_ISOLATOR
 10
-3.4999999999995448
 20
-66.499999999010015
 30
0.0
  0
VERTEX
  5
1B96
  8
SAPA_ISOLATOR
 10
3.5000000000004539
 20
-66.499999999010015
 30
0.0
 42
0.4142135623730951
  0
VERTEX
  5
1B97
  8
SAPA_ISOLATOR
 10
4.0000000000004539
 20
-65.999999999010015
 30
0.0
  0
VERTEX
  5
1B98
  8
SAPA_ISOLATOR
 10
4.0000000000004539
 20
-53.999999999010022
 30
0.0
 42
0.4142135623730951
  0
VERTEX
  5
1B99
  8
SAPA_ISOLATOR
 10
3.5000000000004539
 20
-53.499999999010008
 30
0.0
  0
VERTEX
  5
1B9A
  8
SAPA_ISOLATOR
 10
2.6857864376272569
 20
-53.499999999010008
 30
0.0
  0
VERTEX
  5
1B9B
  8
SAPA_ISOLATOR
 10
1.2500000000004541
 20
-52.064213561382992
 30
0.0
  0
VERTEX
  5
1B9C
  8
SAPA_ISOLATOR
 10
1.2500000000004541
 20
-46.769812025297142
 30
0.0
 42
0.065831318015991
  0
VERTEX
  5
1B9D
  8
SAPA_ISOLATOR
 10
0.3962382896033887
 20
-45.463605589831332
 30
0.0
 42
0.3815575211595297
  0
VERTEX
  5
1B9E
  8
SAPA_ISOLATOR
 10
-0.2236312415527664
 20
-45.380762060001857
 30
0.0
 42
0.0681340277693807
  0
VERTEX
  5
1B9F
  8
SAPA_ISOLATOR
 10
-1.249999999999545
 20
-46.769812025297142
 30
0.0
  0
SEQEND
  5
1BA0
  8
SAPA_ISOLATOR
  0
CIRCLE
  5
148D
  8
SAPA_FOGBAND
 10
18.629356795612811
 20
-75.028466855359966
 30
0.0
 40
0.2549509756796394
  0
INSERT
  5
148E
  8
SAPA_FOGBAND
  6
CONTINUOUS
  2
*U79
 10
0.0
 20
0.0
 30
0.0
1001
ACAD
1002
{
1000
R14_HATCH_DATA
1000
148E
1011
1.0
1021
0.0
1031
0.0
1021
0.0
1031
0.0
1011
0.0
1021
0.0
1031
0.0
1021
1.0
1031
0.0
1011
0.0
1021
0.0
1031
0.0
1021
0.0
1031
1.0
1040
0.0
1010
0.0
1020
0.0
1030
1.0
1000
SOLID
1070
     1
1070
     1
1071
        1
1071
        1
1071
        1
1070
     2
1040
18.629356795612811
1040
-75.028466855359966
1040
0.2549509756796394
1040
-3.1415926535897931
1040
3.1415926535897931
1070
     0
1071
        1
1005
148D
1070
     0
1070
     1
1071
        1
1040
18.86609569718291
1040
-74.946615358031067
1040
0.0
1002
}
  0
POLYLINE
  5
148F
  8
SAPA_FOGBAND
 66
     1
 10
0.0
 20
0.0
 30
0.0
 70
     1
  0
VERTEX
  5
1C91
  8
SAPA_FOGBAND
 10
17.729356795612709
 20
-77.599999999010834
 30
0.0
 42
-0.9999999999999998
  0
VERTEX
  5
1C92
  8
SAPA_FOGBAND
 10
19.529356795612671
 20
-77.599999999010834
 30
0.0
  0
VERTEX
  5
1C93
  8
SAPA_FOGBAND
 10
19.529356795612671
 20
-78.199999999010856
 30
0.0
 42
-0.9999999999999998
  0
VERTEX
  5
1C94
  8
SAPA_FOGBAND
 10
17.729356795612709
 20
-78.199999999010856
 30
0.0
  0
SEQEND
  5
1C95
  8
SAPA_FOGBAND
  0
POLYLINE
  5
1490
  8
SAPA_FOGBAND
 66
     1
 10
0.0
 20
0.0
 30
0.0
 70
     1
  0
VERTEX
  5
1C96
  8
SAPA_FOGBAND
 10
14.3793567956128
 20
-74.164228703859635
 30
0.0
  0
VERTEX
  5
1C97
  8
SAPA_FOGBAND
 10
14.37935679561258
 20
-76.299999999010765
 30
0.0
 42
0.4142135623730951
  0
VERTEX
  5
1C98
  8
SAPA_FOGBAND
 10
14.57935679561262
 20
-76.499999999010811
 30
0.0
  0
VERTEX
  5
1C99
  8
SAPA_FOGBAND
 10
16.629356795612811
 20
-76.499999999010811
 30
0.0
 42
-0.4142135623730951
  0
VERTEX
  5
1C9A
  8
SAPA_FOGBAND
 10
17.129356795612811
 20
-76.999999999010811
 30
0.0
  0
VERTEX
  5
1C9B
  8
SAPA_FOGBAND
 10
17.129356795612811
 20
-77.726794918253972
 30
0.0
  0
VERTEX
  5
1C9C
  8
SAPA_FOGBAND
 10
16.877592986592269
 20
-77.794254827564373
 30
0.0
 42
0.4740571810232154
  0
VERTEX
  5
1C9D
  8
SAPA_FOGBAND
 10
16.750299124228711
 20
-78.076537413203027
 30
0.0
  0
VERTEX
  5
1C9E
  8
SAPA_FOGBAND
 10
17.37039962698725
 20
-79.522743549962797
 30
0.0
 42
0.2846003776496056
  0
VERTEX
  5
1C9F
  8
SAPA_FOGBAND
 10
17.81804380544747
 20
-79.799999999010765
 30
0.0
  0
VERTEX
  5
1CA0
  8
SAPA_FOGBAND
 10
19.44066978577791
 20
-79.799999999010765
 30
0.0
 42
0.2846003776496054
  0
VERTEX
  5
1CA1
  8
SAPA_FOGBAND
 10
19.88831396423814
 20
-79.522743549962797
 30
0.0
  0
VERTEX
  5
1CA2
  8
SAPA_FOGBAND
 10
20.508414466996669
 20
-78.076537413203027
 30
0.0
 42
0.4740571810232154
  0
VERTEX
  5
1CA3
  8
SAPA_FOGBAND
 10
20.381120604633111
 20
-77.794254827564373
 30
0.0
  0
VERTEX
  5
1CA4
  8
SAPA_FOGBAND
 10
20.129356795612811
 20
-77.726794918253972
 30
0.0
  0
VERTEX
  5
1CA5
  8
SAPA_FOGBAND
 10
20.129356795612811
 20
-76.999999999010811
 30
0.0
 42
-0.4142135623730951
  0
VERTEX
  5
1CA6
  8
SAPA_FOGBAND
 10
20.629356795612811
 20
-76.499999999010811
 30
0.0
  0
VERTEX
  5
1CA7
  8
SAPA_FOGBAND
 10
23.679356795612762
 20
-76.499999999010811
 30
0.0
 42
-0.4142135623730951
  0
VERTEX
  5
1CA8
  8
SAPA_FOGBAND
 10
23.879356795612811
 20
-76.699999999010856
 30
0.0
  0
VERTEX
  5
1CA9
  8
SAPA_FOGBAND
 10
23.87935679561258
 20
-77.599999999010834
 30
0.0
 42
0.4142135623730951
  0
VERTEX
  5
1CAA
  8
SAPA_FOGBAND
 10
24.079356795612622
 20
-77.799999999010765
 30
0.0
  0
VERTEX
  5
1CAB
  8
SAPA_FOGBAND
 10
24.779356795612671
 20
-77.799999999010879
 30
0.0
 42
0.4142135623730951
  0
VERTEX
  5
1CAC
  8
SAPA_FOGBAND
 10
25.079356795612629
 20
-77.499999999010811
 30
0.0
  0
VERTEX
  5
1CAD
  8
SAPA_FOGBAND
 10
25.079356795612629
 20
-76.689488222359273
 30
0.0
 42
-0.1316524975873982
  0
VERTEX
  5
1CAE
  8
SAPA_FOGBAND
 10
25.347305988043789
 20
-75.689488222359273
 30
0.0
  0
VERTEX
  5
1CAF
  8
SAPA_FOGBAND
 10
29.318018525145931
 20
-73.054121304015098
 30
0.0
 42
0.876976462992761
  0
VERTEX
  5
1CB0
  8
SAPA_FOGBAND
 10
29.215112935235648
 20
-72.53677996789861
 30
0.0
  0
VERTEX
  5
1CB1
  8
SAPA_FOGBAND
 10
23.79045137336345
 20
-73.09062476444285
 30
0.0
 42
-0.1353185728426623
  0
VERTEX
  5
1CB2
  8
SAPA_FOGBAND
 10
23.79045137336345
 20
-73.09062476444285
 30
0.0
  0
VERTEX
  5
1CB3
  8
SAPA_FOGBAND
 10
23.55256188053465
 20
-72.678588072042658
 30
0.0
 42
0.5773502691896196
  0
VERTEX
  5
1CB4
  8
SAPA_FOGBAND
 10
23.206151719020799
 20
-72.678588072042658
 30
0.0
  0
VERTEX
  5
1CB5
  8
SAPA_FOGBAND
 10
22.968104102289889
 20
-73.090898634604514
 30
0.0
  0
VERTEX
  5
1CB6
  8
SAPA_FOGBAND
 10
22.190609492373252
 20
-73.090898634604514
 30
0.0
  0
VERTEX
  5
1CB7
  8
SAPA_FOGBAND
 10
21.952561880534521
 20
-72.678588072042658
 30
0.0
 42
0.5773502691896196
  0
VERTEX
  5
1CB8
  8
SAPA_FOGBAND
 10
21.606151719020879
 20
-72.678588072042658
 30
0.0
  0
VERTEX
  5
1CB9
  8
SAPA_FOGBAND
 10
21.368104102289969
 20
-73.090898634604514
 30
0.0
  0
VERTEX
  5
1CBA
  8
SAPA_FOGBAND
 10
20.59060949237335
 20
-73.090898634604514
 30
0.0
  0
VERTEX
  5
1CBB
  8
SAPA_FOGBAND
 10
20.352561880534608
 20
-72.678588072042658
 30
0.0
 42
0.5773502691896196
  0
VERTEX
  5
1CBC
  8
SAPA_FOGBAND
 10
20.00615171902075
 20
-72.678588072042658
 30
0.0
  0
VERTEX
  5
1CBD
  8
SAPA_FOGBAND
 10
19.76810410229006
 20
-73.090898634604514
 30
0.0
  0
VERTEX
  5
1CBE
  8
SAPA_FOGBAND
 10
18.99060949237321
 20
-73.090898634604514
 30
0.0
  0
VERTEX
  5
1CBF
  8
SAPA_FOGBAND
 10
18.752561880534699
 20
-72.678588072042658
 30
0.0
 42
0.5773502691896196
  0
VERTEX
  5
1CC0
  8
SAPA_FOGBAND
 10
18.406151719020841
 20
-72.678588072042658
 30
0.0
  0
VERTEX
  5
1CC1
  8
SAPA_FOGBAND
 10
18.168104102289931
 20
-73.090898634604514
 30
0.0
  0
VERTEX
  5
1CC2
  8
SAPA_FOGBAND
 10
17.390609492373301
 20
-73.090898634604514
 30
0.0
  0
VERTEX
  5
1CC3
  8
SAPA_FOGBAND
 10
17.152561880534559
 20
-72.678588072042658
 30
0.0
 42
0.5773502691896196
  0
VERTEX
  5
1CC4
  8
SAPA_FOGBAND
 10
16.806151719020701
 20
-72.678588072042658
 30
0.0
  0
VERTEX
  5
1CC5
  8
SAPA_FOGBAND
 10
16.568104102290022
 20
-73.090898634604514
 30
0.0
  0
VERTEX
  5
1CC6
  8
SAPA_FOGBAND
 10
15.790609488208361
 20
-73.090898634604514
 30
0.0
  0
VERTEX
  5
1CC7
  8
SAPA_FOGBAND
 10
15.552561876369619
 20
-72.678588072042658
 30
0.0
 42
0.5773502691896196
  0
VERTEX
  5
1CC8
  8
SAPA_FOGBAND
 10
15.206151714855761
 20
-72.678588072042658
 30
0.0
  0
VERTEX
  5
1CC9
  8
SAPA_FOGBAND
 10
14.40615171530078
 20
-74.064228703088929
 30
0.0
 42
0.1316524987190407
  0
SEQEND
  5
1CCA
  8
SAPA_FOGBAND
  0
POLYLINE
  5
1491
  8
SAPA_FOGBAND
 66
     1
 10
0.0
 20
0.0
 30
0.0
 70
     1
  0
VERTEX
  5
1CCB
  8
SAPA_FOGBAND
 10
19.301327184514889
 20
-33.585369501371019
 30
0.0
  0
VERTEX
  5
1CCC
  8
SAPA_FOGBAND
 10
19.301327184514889
 20
-34.185369501370928
 30
0.0
 42
0.9999999999999998
  0
VERTEX
  5
1CCD
  8
SAPA_FOGBAND
 10
21.101327184515071
 20
-34.185369501370928
 30
0.0
  0
VERTEX
  5
1CCE
  8
SAPA_FOGBAND
 10
21.101327184515071
 20
-33.585369501371019
 30
0.0
 42
0.9999999999999998
  0
SEQEND
  5
1CCF
  8
SAPA_FOGBAND
  0
POLYLINE
  5
1492
  8
SAPA_FOGBAND
 66
     1
 10
0.0
 20
0.0
 30
0.0
  0
VERTEX
  5
1CD0
  8
SAPA_FOGBAND
 10
23.801327184514889
 20
-35.499999999009667
 30
0.0
  0
VERTEX
  5
1CD1
  8
SAPA_FOGBAND
 10
23.801327184514889
 20
-35.799999999009628
 30
0.0
 42
-0.4142135623730951
  0
VERTEX
  5
1CD2
  8
SAPA_FOGBAND
 10
23.301327184514889
 20
-36.299999999009628
 30
0.0
  0
VERTEX
  5
1CD3
  8
SAPA_FOGBAND
 10
16.001327184514711
 20
-36.299999999009628
 30
0.0
 42
-0.4142135623730951
  0
VERTEX
  5
1CD4
  8
SAPA_FOGBAND
 10
15.501327184514709
 20
-35.799999999009628
 30
0.0
  0
VERTEX
  5
1CD5
  8
SAPA_FOGBAND
 10
15.50132718451516
 20
-35.499999999009667
 30
0.0
  0
SEQEND
  5
1CD6
  8
SAPA_FOGBAND
  0
POLYLINE
  5
1493
  8
SAPA_FOGBAND
 10
22.264574318352189
 20
-40.561832548750303
 30
0.0
 66
     1
 70
     8
  0
VERTEX
  8
SAPA_FOGBAND
  5
1D7F
 10
22.2646
 20
-40.5618
 30
0.000000
  70
    32
  0
VERTEX
  8
SAPA_FOGBAND
  5
1D80
 10
22.2598
 20
-40.6446
 30
0.000000
  70
    32
  0
VERTEX
  8
SAPA_FOGBAND
  5
1D81
 10
22.2470
 20
-40.7271
 30
0.000000
  70
    32
  0
VERTEX
  8
SAPA_FOGBAND
  5
1D82
 10
22.2264
 20
-40.8091
 30
0.000000
  70
    32
  0
VERTEX
  8
SAPA_FOGBAND
  5
1D83
 10
22.1979
 20
-40.8904
 30
0.000000
  70
    32
  0
VERTEX
  8
SAPA_FOGBAND
  5
1D84
 10
22.1616
 20
-40.9709
 30
0.000000
  70
    32
  0
VERTEX
  8
SAPA_FOGBAND
  5
1D85
 10
22.1177
 20
-41.0503
 30
0.000000
  70
    32
  0
VERTEX
  8
SAPA_FOGBAND
  5
1D86
 10
22.0661
 20
-41.1285
 30
0.000000
  70
    32
  0
VERTEX
  8
SAPA_FOGBAND
  5
1D87
 10
22.0071
 20
-41.2052
 30
0.000000
  70
    32
  0
VERTEX
  8
SAPA_FOGBAND
  5
1D88
 10
21.9407
 20
-41.2802
 30
0.000000
  70
    32
  0
VERTEX
  8
SAPA_FOGBAND
  5
1D89
 10
21.8672
 20
-41.3535
 30
0.000000
  70
    32
  0
VERTEX
  8
SAPA_FOGBAND
  5
1D8A
 10
21.7867
 20
-41.4248
 30
0.000000
  70
    32
  0
VERTEX
  8
SAPA_FOGBAND
  5
1D8B
 10
21.6994
 20
-41.4939
 30
0.000000
  70
    32
  0
VERTEX
  8
SAPA_FOGBAND
  5
1D8C
 10
21.6055
 20
-41.5607
 30
0.000000
  70
    32
  0
VERTEX
  8
SAPA_FOGBAND
  5
1D8D
 10
21.5052
 20
-41.6250
 30
0.000000
  70
    32
  0
VERTEX
  8
SAPA_FOGBAND
  5
1D8E
 10
21.3989
 20
-41.6867
 30
0.000000
  70
    32
  0
VERTEX
  8
SAPA_FOGBAND
  5
1D8F
 10
21.2867
 20
-41.7455
 30
0.000000
  70
    32
  0
VERTEX
  8
SAPA_FOGBAND
  5
1D90
 10
21.1688
 20
-41.8015
 30
0.000000
  70
    32
  0
VERTEX
  8
SAPA_FOGBAND
  5
1D91
 10
21.0457
 20
-41.8544
 30
0.000000
  70
    32
  0
VERTEX
  8
SAPA_FOGBAND
  5
1D92
 10
20.9176
 20
-41.9041
 30
0.000000
  70
    32
  0
VERTEX
  8
SAPA_FOGBAND
  5
1D93
 10
20.7848
 20
-41.9504
 30
0.000000
  70
    32
  0
VERTEX
  8
SAPA_FOGBAND
  5
1D94
 10
20.6475
 20
-41.9934
 30
0.000000
  70
    32
  0
VERTEX
  8
SAPA_FOGBAND
  5
1D95
 10
20.5063
 20
-42.0328
 30
0.000000
  70
    32
  0
VERTEX
  8
SAPA_FOGBAND
  5
1D96
 10
20.3613
 20
-42.0686
 30
0.000000
  70
    32
  0
VERTEX
  8
SAPA_FOGBAND
  5
1D97
 10
20.2130
 20
-42.1007
 30
0.000000
  70
    32
  0
VERTEX
  8
SAPA_FOGBAND
  5
1D98
 10
20.0616
 20
-42.1290
 30
0.000000
  70
    32
  0
VERTEX
  8
SAPA_FOGBAND
  5
1D99
 10
19.9077
 20
-42.1535
 30
0.000000
  70
    32
  0
VERTEX
  8
SAPA_FOGBAND
  5
1D9A
 10
19.7514
 20
-42.1740
 30
0.000000
  70
    32
  0
VERTEX
  8
SAPA_FOGBAND
  5
1D9B
 10
19.5933
 20
-42.1906
 30
0.000000
  70
    32
  0
VERTEX
  8
SAPA_FOGBAND
  5
1D9C
 10
19.4336
 20
-42.2032
 30
0.000000
  70
    32
  0
VERTEX
  8
SAPA_FOGBAND
  5
1D9D
 10
19.2729
 20
-42.2117
 30
0.000000
  70
    32
  0
VERTEX
  8
SAPA_FOGBAND
  5
1D9E
 10
19.1114
 20
-42.2162
 30
0.000000
  70
    32
  0
VERTEX
  8
SAPA_FOGBAND
  5
1D9F
 10
18.9495
 20
-42.2166
 30
0.000000
  70
    32
  0
VERTEX
  8
SAPA_FOGBAND
  5
1DA0
 10
18.7877
 20
-42.2130
 30
0.000000
  70
    32
  0
VERTEX
  8
SAPA_FOGBAND
  5
1DA1
 10
18.6263
 20
-42.2053
 30
0.000000
  70
    32
  0
VERTEX
  8
SAPA_FOGBAND
  5
1DA2
 10
18.4657
 20
-42.1935
 30
0.000000
  70
    32
  0
VERTEX
  8
SAPA_FOGBAND
  5
1DA3
 10
18.3064
 20
-42.1778
 30
0.000000
  70
    32
  0
VERTEX
  8
SAPA_FOGBAND
  5
1DA4
 10
18.1486
 20
-42.1581
 30
0.000000
  70
    32
  0
VERTEX
  8
SAPA_FOGBAND
  5
1DA5
 10
17.9928
 20
-42.1344
 30
0.000000
  70
    32
  0
VERTEX
  8
SAPA_FOGBAND
  5
1DA6
 10
17.8393
 20
-42.1069
 30
0.000000
  70
    32
  0
VERTEX
  8
SAPA_FOGBAND
  5
1DA7
 10
17.6886
 20
-42.0756
 30
0.000000
  70
    32
  0
VERTEX
  8
SAPA_FOGBAND
  5
1DA8
 10
17.5409
 20
-42.0406
 30
0.000000
  70
    32
  0
VERTEX
  8
SAPA_FOGBAND
  5
1DA9
 10
17.3967
 20
-42.0019
 30
0.000000
  70
    32
  0
VERTEX
  8
SAPA_FOGBAND
  5
1DAA
 10
17.2562
 20
-41.9596
 30
0.000000
  70
    32
  0
VERTEX
  8
SAPA_FOGBAND
  5
1DAB
 10
17.1199
 20
-41.9140
 30
0.000000
  70
    32
  0
VERTEX
  8
SAPA_FOGBAND
  5
1DAC
 10
16.9880
 20
-41.8650
 30
0.000000
  70
    32
  0
VERTEX
  8
SAPA_FOGBAND
  5
1DAD
 10
16.8609
 20
-41.8127
 30
0.000000
  70
    32
  0
VERTEX
  8
SAPA_FOGBAND
  5
1DAE
 10
16.7389
 20
-41.7574
 30
0.000000
  70
    32
  0
VERTEX
  8
SAPA_FOGBAND
  5
1DAF
 10
16.6222
 20
-41.6991
 30
0.000000
  70
    32
  0
VERTEX
  8
SAPA_FOGBAND
  5
1DB0
 10
16.5112
 20
-41.6380
 30
0.000000
  70
    32
  0
VERTEX
  8
SAPA_FOGBAND
  5
1DB1
 10
16.4061
 20
-41.5742
 30
0.000000
  70
    32
  0
VERTEX
  8
SAPA_FOGBAND
  5
1DB2
 10
16.3071
 20
-41.5079
 30
0.000000
  70
    32
  0
VERTEX
  8
SAPA_FOGBAND
  5
1DB3
 10
16.2146
 20
-41.4393
 30
0.000000
  70
    32
  0
VERTEX
  8
SAPA_FOGBAND
  5
1DB4
 10
16.1287
 20
-41.3685
 30
0.000000
  70
    32
  0
VERTEX
  8
SAPA_FOGBAND
  5
1DB5
 10
16.0496
 20
-41.2956
 30
0.000000
  70
    32
  0
VERTEX
  8
SAPA_FOGBAND
  5
1DB6
 10
15.9775
 20
-41.2209
 30
0.000000
  70
    32
  0
VERTEX
  8
SAPA_FOGBAND
  5
1DB7
 10
15.9127
 20
-41.1445
 30
0.000000
  70
    32
  0
VERTEX
  8
SAPA_FOGBAND
  5
1DB8
 10
15.8552
 20
-41.0666
 30
0.000000
  70
    32
  0
VERTEX
  8
SAPA_FOGBAND
  5
1DB9
 10
15.8052
 20
-40.9875
 30
0.000000
  70
    32
  0
VERTEX
  8
SAPA_FOGBAND
  5
1DBA
 10
15.7628
 20
-40.9072
 30
0.000000
  70
    32
  0
VERTEX
  8
SAPA_FOGBAND
  5
1DBB
 10
15.7281
 20
-40.8260
 30
0.000000
  70
    32
  0
VERTEX
  8
SAPA_FOGBAND
  5
1DBC
 10
15.7013
 20
-40.7442
 30
0.000000
  70
    32
  0
VERTEX
  8
SAPA_FOGBAND
  5
1DBD
 10
15.6823
 20
-40.6617
 30
0.000000
  70
    32
  0
VERTEX
  8
SAPA_FOGBAND
  5
1DBE
 10
15.6712
 20
-40.5790
 30
0.000000
  70
    32
  0
VERTEX
  8
SAPA_FOGBAND
  5
1DBF
 10
15.6680
 20
-40.4962
 30
0.000000
  70
    32
  0
VERTEX
  8
SAPA_FOGBAND
  5
1DC0
 10
15.6728
 20
-40.4134
 30
0.000000
  70
    32
  0
VERTEX
  8
SAPA_FOGBAND
  5
1DC1
 10
15.6856
 20
-40.3309
 30
0.000000
  70
    32
  0
VERTEX
  8
SAPA_FOGBAND
  5
1DC2
 10
15.7062
 20
-40.2489
 30
0.000000
  70
    32
  0
VERTEX
  8
SAPA_FOGBAND
  5
1DC3
 10
15.7347
 20
-40.1676
 30
0.000000
  70
    32
  0
VERTEX
  8
SAPA_FOGBAND
  5
1DC4
 10
15.7710
 20
-40.0871
 30
0.000000
  70
    32
  0
VERTEX
  8
SAPA_FOGBAND
  5
1DC5
 10
15.8149
 20
-40.0077
 30
0.000000
  70
    32
  0
VERTEX
  8
SAPA_FOGBAND
  5
1DC6
 10
15.8665
 20
-39.9296
 30
0.000000
  70
    32
  0
VERTEX
  8
SAPA_FOGBAND
  5
1DC7
 10
15.9255
 20
-39.8529
 30
0.000000
  70
    32
  0
VERTEX
  8
SAPA_FOGBAND
  5
1DC8
 10
15.9919
 20
-39.7778
 30
0.000000
  70
    32
  0
VERTEX
  8
SAPA_FOGBAND
  5
1DC9
 10
16.0654
 20
-39.7045
 30
0.000000
  70
    32
  0
VERTEX
  8
SAPA_FOGBAND
  5
1DCA
 10
16.1459
 20
-39.6332
 30
0.000000
  70
    32
  0
VERTEX
  8
SAPA_FOGBAND
  5
1DCB
 10
16.2332
 20
-39.5641
 30
0.000000
  70
    32
  0
VERTEX
  8
SAPA_FOGBAND
  5
1DCC
 10
16.3271
 20
-39.4973
 30
0.000000
  70
    32
  0
VERTEX
  8
SAPA_FOGBAND
  5
1DCD
 10
16.4274
 20
-39.4330
 30
0.000000
  70
    32
  0
VERTEX
  8
SAPA_FOGBAND
  5
1DCE
 10
16.5337
 20
-39.3713
 30
0.000000
  70
    32
  0
VERTEX
  8
SAPA_FOGBAND
  5
1DCF
 10
16.6460
 20
-39.3125
 30
0.000000
  70
    32
  0
VERTEX
  8
SAPA_FOGBAND
  5
1DD0
 10
16.7638
 20
-39.2565
 30
0.000000
  70
    32
  0
VERTEX
  8
SAPA_FOGBAND
  5
1DD1
 10
16.8869
 20
-39.2036
 30
0.000000
  70
    32
  0
VERTEX
  8
SAPA_FOGBAND
  5
1DD2
 10
17.0150
 20
-39.1539
 30
0.000000
  70
    32
  0
VERTEX
  8
SAPA_FOGBAND
  5
1DD3
 10
17.1479
 20
-39.1076
 30
0.000000
  70
    32
  0
VERTEX
  8
SAPA_FOGBAND
  5
1DD4
 10
17.2851
 20
-39.0646
 30
0.000000
  70
    32
  0
VERTEX
  8
SAPA_FOGBAND
  5
1DD5
 10
17.4263
 20
-39.0252
 30
0.000000
  70
    32
  0
VERTEX
  8
SAPA_FOGBAND
  5
1DD6
 10
17.5713
 20
-38.9894
 30
0.000000
  70
    32
  0
VERTEX
  8
SAPA_FOGBAND
  5
1DD7
 10
17.7196
 20
-38.9573
 30
0.000000
  70
    32
  0
VERTEX
  8
SAPA_FOGBAND
  5
1DD8
 10
17.8710
 20
-38.9290
 30
0.000000
  70
    32
  0
VERTEX
  8
SAPA_FOGBAND
  5
1DD9
 10
18.0249
 20
-38.9045
 30
0.000000
  70
    32
  0
VERTEX
  8
SAPA_FOGBAND
  5
1DDA
 10
18.1812
 20
-38.8840
 30
0.000000
  70
    32
  0
VERTEX
  8
SAPA_FOGBAND
  5
1DDB
 10
18.3393
 20
-38.8674
 30
0.000000
  70
    32
  0
VERTEX
  8
SAPA_FOGBAND
  5
1DDC
 10
18.4990
 20
-38.8548
 30
0.000000
  70
    32
  0
VERTEX
  8
SAPA_FOGBAND
  5
1DDD
 10
18.6597
 20
-38.8463
 30
0.000000
  70
    32
  0
VERTEX
  8
SAPA_FOGBAND
  5
1DDE
 10
18.8212
 20
-38.8418
 30
0.000000
  70
    32
  0
VERTEX
  8
SAPA_FOGBAND
  5
1DDF
 10
18.9831
 20
-38.8414
 30
0.000000
  70
    32
  0
VERTEX
  8
SAPA_FOGBAND
  5
1DE0
 10
19.1449
 20
-38.8450
 30
0.000000
  70
    32
  0
VERTEX
  8
SAPA_FOGBAND
  5
1DE1
 10
19.3063
 20
-38.8527
 30
0.000000
  70
    32
  0
VERTEX
  8
SAPA_FOGBAND
  5
1DE2
 10
19.4669
 20
-38.8645
 30
0.000000
  70
    32
  0
VERTEX
  8
SAPA_FOGBAND
  5
1DE3
 10
19.6262
 20
-38.8802
 30
0.000000
  70
    32
  0
VERTEX
  8
SAPA_FOGBAND
  5
1DE4
 10
19.7840
 20
-38.8999
 30
0.000000
  70
    32
  0
VERTEX
  8
SAPA_FOGBAND
  5
1DE5
 10
19.9398
 20
-38.9236
 30
0.000000
  70
    32
  0
VERTEX
  8
SAPA_FOGBAND
  5
1DE6
 10
20.0933
 20
-38.9511
 30
0.000000
  70
    32
  0
VERTEX
  8
SAPA_FOGBAND
  5
1DE7
 10
20.2440
 20
-38.9824
 30
0.000000
  70
    32
  0
VERTEX
  8
SAPA_FOGBAND
  5
1DE8
 10
20.3917
 20
-39.0175
 30
0.000000
  70
    32
  0
VERTEX
  8
SAPA_FOGBAND
  5
1DE9
 10
20.5359
 20
-39.0561
 30
0.000000
  70
    32
  0
VERTEX
  8
SAPA_FOGBAND
  5
1DEA
 10
20.6764
 20
-39.0984
 30
0.000000
  70
    32
  0
VERTEX
  8
SAPA_FOGBAND
  5
1DEB
 10
20.8127
 20
-39.1440
 30
0.000000
  70
    32
  0
VERTEX
  8
SAPA_FOGBAND
  5
1DEC
 10
20.9446
 20
-39.1931
 30
0.000000
  70
    32
  0
VERTEX
  8
SAPA_FOGBAND
  5
1DED
 10
21.0717
 20
-39.2453
 30
0.000000
  70
    32
  0
VERTEX
  8
SAPA_FOGBAND
  5
1DEE
 10
21.1937
 20
-39.3006
 30
0.000000
  70
    32
  0
VERTEX
  8
SAPA_FOGBAND
  5
1DEF
 10
21.3104
 20
-39.3589
 30
0.000000
  70
    32
  0
VERTEX
  8
SAPA_FOGBAND
  5
1DF0
 10
21.4214
 20
-39.4200
 30
0.000000
  70
    32
  0
VERTEX
  8
SAPA_FOGBAND
  5
1DF1
 10
21.5266
 20
-39.4838
 30
0.000000
  70
    32
  0
VERTEX
  8
SAPA_FOGBAND
  5
1DF2
 10
21.6255
 20
-39.5501
 30
0.000000
  70
    32
  0
VERTEX
  8
SAPA_FOGBAND
  5
1DF3
 10
21.7180
 20
-39.6187
 30
0.000000
  70
    32
  0
VERTEX
  8
SAPA_FOGBAND
  5
1DF4
 10
21.8040
 20
-39.6896
 30
0.000000
  70
    32
  0
VERTEX
  8
SAPA_FOGBAND
  5
1DF5
 10
21.8830
 20
-39.7624
 30
0.000000
  70
    32
  0
VERTEX
  8
SAPA_FOGBAND
  5
1DF6
 10
21.9551
 20
-39.8371
 30
0.000000
  70
    32
  0
VERTEX
  8
SAPA_FOGBAND
  5
1DF7
 10
22.0199
 20
-39.9135
 30
0.000000
  70
    32
  0
VERTEX
  8
SAPA_FOGBAND
  5
1DF8
 10
22.0774
 20
-39.9914
 30
0.000000
  70
    32
  0
VERTEX
  8
SAPA_FOGBAND
  5
1DF9
 10
22.1274
 20
-40.0705
 30
0.000000
  70
    32
  0
VERTEX
  8
SAPA_FOGBAND
  5
1DFA
 10
22.1698
 20
-40.1508
 30
0.000000
  70
    32
  0
VERTEX
  8
SAPA_FOGBAND
  5
1DFB
 10
22.2045
 20
-40.2320
 30
0.000000
  70
    32
  0
VERTEX
  8
SAPA_FOGBAND
  5
1DFC
 10
22.2313
 20
-40.3139
 30
0.000000
  70
    32
  0
VERTEX
  8
SAPA_FOGBAND
  5
1DFD
 10
22.2503
 20
-40.3963
 30
0.000000
  70
    32
  0
VERTEX
  8
SAPA_FOGBAND
  5
1DFE
 10
22.2614
 20
-40.4790
 30
0.000000
  70
    32
  0
VERTEX
  8
SAPA_FOGBAND
  5
1DFF
 10
22.2646
 20
-40.5618
 30
0.000000
  70
    32
  0
SEQEND
  8
SAPA_FOGBAND
  5
1E00
  0
POLYLINE
  5
1494
  8
SAPA_FOGBAND
 66
     1
 10
0.0
 20
0.0
 30
0.0
 70
     1
  0
VERTEX
  5
1CD7
  8
SAPA_FOGBAND
 10
8.8913247649944651
 20
-43.953324864972608
 30
0.0
  0
VERTEX
  5
1CD8
  8
SAPA_FOGBAND
 10
11.892651927563859
 20
-44.445277204862691
 30
0.0
 42
0.4464785874932524
  0
VERTEX
  5
1CD9
  8
SAPA_FOGBAND
 10
13.00132718451516
 20
-43.451199899756709
 30
0.0
  0
VERTEX
  5
1CDA
  8
SAPA_FOGBAND
 10
13.00132718451516
 20
-39.850147745599664
 30
0.0
 42
0.622676997742357
  0
VERTEX
  5
1CDB
  8
SAPA_FOGBAND
 10
11.390652697901141
 20
-39.058266017436267
 30
0.0
  0
VERTEX
  5
1CDC
  8
SAPA_FOGBAND
 10
8.3893255353319773
 20
-41.533301339953248
 30
0.0
 42
0.232531183213058
  0
VERTEX
  5
1CDD
  8
SAPA_FOGBAND
 10
8.0000000219455387
 20
-42.325183068116857
 30
0.0
  0
VERTEX
  5
1CDE
  8
SAPA_FOGBAND
 10
8.0000000219457661
 20
-42.95924755986686
 30
0.0
 42
0.3826682380870913
  0
SEQEND
  5
1CDF
  8
SAPA_FOGBAND
  0
POLYLINE
  5
1495
  8
SAPA_FOGBAND
 66
     1
 10
0.0
 20
0.0
 30
0.0
 70
     1
  0
VERTEX
  5
1CE0
  8
SAPA_FOGBAND
 10
21.95309099353528
 20
-33.991114672817389
 30
0.0
 42
0.4740571810231764
  0
VERTEX
  5
1CE1
  8
SAPA_FOGBAND
 10
22.080384855899069
 20
-33.708832087178848
 30
0.0
  0
VERTEX
  5
1CE2
  8
SAPA_FOGBAND
 10
21.46028435314031
 20
-32.262625950418737
 30
0.0
 42
0.2846003776496257
  0
VERTEX
  5
1CE3
  8
SAPA_FOGBAND
 10
21.01264017468031
 20
-31.985369501370879
 30
0.0
  0
VERTEX
  5
1CE4
  8
SAPA_FOGBAND
 10
19.39001419434965
 20
-31.985369501370879
 30
0.0
 42
0.2846003776496159
  0
VERTEX
  5
1CE5
  8
SAPA_FOGBAND
 10
18.942370015889651
 20
-32.262625950418972
 30
0.0
  0
VERTEX
  5
1CE6
  8
SAPA_FOGBAND
 10
18.322269513130891
 20
-33.708832087178848
 30
0.0
 42
0.4740571810232354
  0
VERTEX
  5
1CE7
  8
SAPA_FOGBAND
 10
18.449563375494218
 20
-33.991114672817389
 30
0.0
  0
VERTEX
  5
1CE8
  8
SAPA_FOGBAND
 10
18.70132718451498
 20
-34.05857458212779
 30
0.0
  0
VERTEX
  5
1CE9
  8
SAPA_FOGBAND
 10
18.70132718451498
 20
-34.999999999009901
 30
0.0
 42
-0.4142135623730951
  0
VERTEX
  5
1CEA
  8
SAPA_FOGBAND
 10
18.20132718451498
 20
-35.499999999009901
 30
0.0
  0
VERTEX
  5
1CEB
  8
SAPA_FOGBAND
 10
15.17322763378035
 20
-35.499999999009667
 30
0.0
 42
0.1657205760184635
  0
VERTEX
  5
1CEC
  8
SAPA_FOGBAND
 10
14.562553147166559
 20
-35.708118270846292
 30
0.0
  0
VERTEX
  5
1CED
  8
SAPA_FOGBAND
 10
5.1946627566895813
 20
-41.102703355702147
 30
0.0
 42
0.2325311832130358
  0
VERTEX
  5
1CEE
  8
SAPA_FOGBAND
 10
4.9999999999964748
 20
-41.498644219784062
 30
0.0
  0
VERTEX
  5
1CEF
  8
SAPA_FOGBAND
 10
4.9999999999964748
 20
-43.729387776221643
 30
0.0
 42
0.3826682380870913
  0
VERTEX
  5
1CF0
  8
SAPA_FOGBAND
 10
5.8913247430456286
 20
-44.72346508132739
 30
0.0
  0
VERTEX
  5
1CF1
  8
SAPA_FOGBAND
 10
11.49579350334227
 20
-45.499999999010129
 30
0.0
  0
VERTEX
  5
1CF2
  8
SAPA_FOGBAND
 10
25.20132716256569
 20
-45.499999999010129
 30
0.0
 42
0.4257917699693507
  0
VERTEX
  5
1CF3
  8
SAPA_FOGBAND
 10
25.50109471616372
 20
-45.188192636479357
 30
0.0
  0
VERTEX
  5
1CF4
  8
SAPA_FOGBAND
 10
25.01325490149441
 20
-35.788192636478811
 30
0.0
 42
0.4027293761437475
  0
VERTEX
  5
1CF5
  8
SAPA_FOGBAND
 10
24.713487347896379
 20
-35.499999999009667
 30
0.0
  0
VERTEX
  5
1CF6
  8
SAPA_FOGBAND
 10
22.20132718451498
 20
-35.499999999009901
 30
0.0
 42
-0.4142135623730951
  0
VERTEX
  5
1CF7
  8
SAPA_FOGBAND
 10
21.701327184514749
 20
-34.999999999009901
 30
0.0
  0
VERTEX
  5
1CF8
  8
SAPA_FOGBAND
 10
21.701327184514749
 20
-34.05857458212779
 30
0.0
  0
SEQEND
  5
1CF9
  8
SAPA_FOGBAND
  0
LINE
  5
1496
  8
SAPA_FOGBAND
 10
-7.5881957391652861
 20
67.090467536749429
 30
0.0
 11
-7.5429342960167673
 21
73.066512171656626
 31
0.0
  0
LINE
  5
1497
  8
SAPA_FOGBAND
 10
-7.8029859212173269
 20
67.090467536749429
 30
0.0
 11
-8.2782586647065841
 21
73.089496958713966
 31
0.0
  0
LINE
  5
1498
  8
SAPA_FOGBAND
 10
-8.0934773178283592
 20
67.090467536749458
 30
0.0
 11
-9.2433718986119686
 21
73.089496958713966
 31
0.0
  0
LINE
  5
1499
  8
SAPA_FOGBAND
 10
-7.344527044483641
 20
67.090467536749429
 30
0.0
 11
-6.577821062111382
 21
73.135466532828644
 31
0.0
  0
LINE
  5
149A
  8
SAPA_FOGBAND
 10
-7.1717697535031562
 20
67.090467536749429
 30
0.0
 11
-5.7735600338568807
 21
73.158451319885984
 31
0.0
  0
LINE
  5
149B
  8
SAPA_FOGBAND
 10
15.2582843286892
 20
67.184600719167861
 30
0.0
 11
15.303545771837721
 21
73.160645354075029
 31
0.0
  0
LINE
  5
149C
  8
SAPA_FOGBAND
 10
15.04349414663716
 20
67.184600719167861
 30
0.0
 11
14.5682214031479
 21
73.183630141132369
 31
0.0
  0
LINE
  5
149D
  8
SAPA_FOGBAND
 10
14.75300275002612
 20
67.184600719167861
 30
0.0
 11
13.603108169242519
 21
73.183630141132369
 31
0.0
  0
LINE
  5
149E
  8
SAPA_FOGBAND
 10
15.50195302337084
 20
67.184600719167861
 30
0.0
 11
16.2686590057431
 21
73.229599715247048
 31
0.0
  0
LINE
  5
149F
  8
SAPA_FOGBAND
 10
15.67471031435133
 20
67.184600719167861
 30
0.0
 11
17.072920033997601
 21
73.252584502304387
 31
0.0
  0
POLYLINE
  5
14A0
  8
SAPA_FOGBAND
 66
     1
 10
0.0
 20
0.0
 30
0.0
 70
     1
  0
VERTEX
  5
1CFA
  8
SAPA_FOGBAND
 10
17.555476650950279
 20
66.977737635651835
 30
0.0
  0
VERTEX
  5
1CFB
  8
SAPA_FOGBAND
 10
17.555476650950279
 20
67.184600719167861
 30
0.0
  0
VERTEX
  5
1CFC
  8
SAPA_FOGBAND
 10
12.95969934663893
 20
67.184600719167861
 30
0.0
  0
VERTEX
  5
1CFD
  8
SAPA_FOGBAND
 10
12.95969934663893
 20
66.977737635651835
 30
0.0
  0
SEQEND
  5
1CFE
  8
SAPA_FOGBAND
  0
POLYLINE
  5
14A1
  8
SAPA_FOGBAND
 66
     1
 10
0.0
 20
0.0
 30
0.0
 70
     1
  0
VERTEX
  5
1CFF
  8
SAPA_FOGBAND
 10
-5.2910034169042026
 20
66.883604453233431
 30
0.0
  0
VERTEX
  5
1D00
  8
SAPA_FOGBAND
 10
-5.2910034169042026
 20
67.090467536749458
 30
0.0
  0
VERTEX
  5
1D01
  8
SAPA_FOGBAND
 10
-9.8867807212155583
 20
67.090467536749458
 30
0.0
  0
VERTEX
  5
1D02
  8
SAPA_FOGBAND
 10
-9.8867807212155583
 20
66.883604453233431
 30
0.0
  0
SEQEND
  5
1D03
  8
SAPA_FOGBAND
  0
POLYLINE
  5
14A2
  8
SAPA_FOGBAND
 66
     1
 10
0.0
 20
0.0
 30
0.0
 70
     1
  0
VERTEX
  5
1D04
  8
SAPA_FOGBAND
 10
-37.493393704828513
 20
113.00375201277789
 30
0.0
  0
VERTEX
  5
1D05
  8
SAPA_FOGBAND
 10
-38.693393704828559
 20
113.00375201277789
 30
0.0
 42
-0.4142135623730951
  0
VERTEX
  5
1D06
  8
SAPA_FOGBAND
 10
-38.993393704828513
 20
113.30375201277791
 30
0.0
  0
VERTEX
  5
1D07
  8
SAPA_FOGBAND
 10
-38.993393704828513
 20
114.203752012778
 30
0.0
  0
VERTEX
  5
1D08
  8
SAPA_FOGBAND
 10
-38.643393704828377
 20
114.203752012778
 30
0.0
 42
0.6681786379192988
  0
VERTEX
  5
1D09
  8
SAPA_FOGBAND
 10
-38.431261670472452
 20
114.7158840471337
 30
0.0
  0
VERTEX
  5
1D0A
  8
SAPA_FOGBAND
 10
-39.284815061065657
 20
115.5694374377271
 30
0.0
 42
0.1989123673796552
  0
VERTEX
  5
1D0B
  8
SAPA_FOGBAND
 10
-39.850500486015036
 20
115.80375201277791
 30
0.0
  0
VERTEX
  5
1D0C
  8
SAPA_FOGBAND
 10
-40.013195608434827
 20
115.80375201277791
 30
0.0
 42
0.3394542588633746
  0
VERTEX
  5
1D0D
  8
SAPA_FOGBAND
 10
-40.302973356321608
 20
115.58139772630869
 30
0.0
  0
VERTEX
  5
1D0E
  8
SAPA_FOGBAND
 10
-40.6661225997115
 20
114.22610629924721
 30
0.0
 42
-0.3394542588633746
  0
VERTEX
  5
1D0F
  8
SAPA_FOGBAND
 10
-40.955900347598281
 20
114.00375201277789
 30
0.0
  0
VERTEX
  5
1D10
  8
SAPA_FOGBAND
 10
-43.530887062058738
 20
114.00375201277789
 30
0.0
 42
-0.3394542588633746
  0
VERTEX
  5
1D11
  8
SAPA_FOGBAND
 10
-43.820664809945512
 20
114.22610629924721
 30
0.0
  0
VERTEX
  5
1D12
  8
SAPA_FOGBAND
 10
-44.183814053335411
 20
115.58139772630869
 30
0.0
 42
0.3394542588633744
  0
VERTEX
  5
1D13
  8
SAPA_FOGBAND
 10
-44.473591801222177
 20
115.80375201277791
 30
0.0
  0
VERTEX
  5
1D14
  8
SAPA_FOGBAND
 10
-44.636286923641983
 20
115.80375201277791
 30
0.0
 42
0.1989123673796526
  0
VERTEX
  5
1D15
  8
SAPA_FOGBAND
 10
-45.201972348591127
 20
115.5694374377271
 30
0.0
  0
VERTEX
  5
1D16
  8
SAPA_FOGBAND
 10
-46.055525739184468
 20
114.7158840471337
 30
0.0
 42
0.6681786379193474
  0
VERTEX
  5
1D17
  8
SAPA_FOGBAND
 10
-45.843393704828642
 20
114.203752012778
 30
0.0
  0
VERTEX
  5
1D18
  8
SAPA_FOGBAND
 10
-45.493393704828513
 20
114.203752012778
 30
0.0
  0
VERTEX
  5
1D19
  8
SAPA_FOGBAND
 10
-45.493393704828513
 20
113.30375201277791
 30
0.0
 42
-0.4142135623730951
  0
VERTEX
  5
1D1A
  8
SAPA_FOGBAND
 10
-45.793393704828468
 20
113.00375201277789
 30
0.0
  0
VERTEX
  5
1D1B
  8
SAPA_FOGBAND
 10
-47.893393704828597
 20
113.00375201277789
 30
0.0
 42
-0.4142135623730951
  0
VERTEX
  5
1D1C
  8
SAPA_FOGBAND
 10
-48.193393704828559
 20
113.30375201277791
 30
0.0
  0
VERTEX
  5
1D1D
  8
SAPA_FOGBAND
 10
-48.193393704828559
 20
114.703752012778
 30
0.0
 42
0.7754026414786132
  0
VERTEX
  5
1D1E
  8
SAPA_FOGBAND
 10
-48.756185700236237
 20
114.8484598810839
 30
0.0
 42
-0.1137347954614569
  0
VERTEX
  5
1D1F
  8
SAPA_FOGBAND
 10
-52.906233858826837
 20
107.3719721227591
 30
0.0
 42
0.8680589103334746
  0
VERTEX
  5
1D20
  8
SAPA_FOGBAND
 10
-52.431309829063302
 20
107.0151322200974
 30
0.0
  0
VERTEX
  5
1D21
  8
SAPA_FOGBAND
 10
-48.461274431911463
 20
109.3913379094292
 30
0.0
 42
-0.1989123673796536
  0
VERTEX
  5
1D22
  8
SAPA_FOGBAND
 10
-47.75416765072503
 20
109.6842311282425
 30
0.0
  0
VERTEX
  5
1D23
  8
SAPA_FOGBAND
 10
-44.920848686305298
 20
109.6842311282425
 30
0.0
 42
-0.577350269189628
  0
VERTEX
  5
1D24
  8
SAPA_FOGBAND
 10
-44.661041065169847
 20
109.2342311282427
 30
0.0
  0
VERTEX
  5
1D25
  8
SAPA_FOGBAND
 10
-46.799169761581588
 20
107.3810716567004
 30
0.0
 42
0.8769764629927301
  0
VERTEX
  5
1D26
  8
SAPA_FOGBAND
 10
-46.327230106090319
 20
107.01893962234421
 30
0.0
  0
VERTEX
  5
1D27
  8
SAPA_FOGBAND
 10
-42.361002111185641
 20
109.3913379094292
 30
0.0
 42
-0.198912367379658
  0
VERTEX
  5
1D28
  8
SAPA_FOGBAND
 10
-41.653895329999088
 20
109.6842311282425
 30
0.0
  0
VERTEX
  5
1D29
  8
SAPA_FOGBAND
 10
-39.421620967777407
 20
109.6842311282425
 30
0.0
 42
-0.5773502691896441
  0
VERTEX
  5
1D2A
  8
SAPA_FOGBAND
 10
-39.161813346642177
 20
109.2342311282427
 30
0.0
  0
VERTEX
  5
1D2B
  8
SAPA_FOGBAND
 10
-41.299440468171433
 20
107.3819404098808
 30
0.0
 42
0.87697646299276
  0
VERTEX
  5
1D2C
  8
SAPA_FOGBAND
 10
-40.827500812680157
 20
107.0198083755246
 30
0.0
  0
VERTEX
  5
1D2D
  8
SAPA_FOGBAND
 10
-36.78628692364196
 20
109.4671925567428
 30
0.0
 42
0.198912367379658
  0
VERTEX
  5
1D2E
  8
SAPA_FOGBAND
 10
-36.493393704828513
 20
110.1742993379293
 30
0.0
  0
VERTEX
  5
1D2F
  8
SAPA_FOGBAND
 10
-36.493393704828513
 20
112.00375201277789
 30
0.0
  0
VERTEX
  5
1D30
  8
SAPA_FOGBAND
 10
-36.493393704828513
 20
111.99382022246471
 30
0.0
  0
SEQEND
  5
1D31
  8
SAPA_FOGBAND
  0
POLYLINE
  5
14A3
  8
SAPA_FOGBAND
 66
     1
 10
0.0
 20
0.0
 30
0.0
 70
     1
  0
VERTEX
  5
1D32
  8
SAPA_FOGBAND
 10
-36.433076123937383
 20
79.922613012763748
 30
0.0
 42
-0.4142135623730951
  0
VERTEX
  5
1D33
  8
SAPA_FOGBAND
 10
-37.433076123937383
 20
78.922613012763733
 30
0.0
  0
VERTEX
  5
1D34
  8
SAPA_FOGBAND
 10
-38.633076123937421
 20
78.922613012763733
 30
0.0
 42
0.4142135623730951
  0
VERTEX
  5
1D35
  8
SAPA_FOGBAND
 10
-38.933076123937369
 20
78.622613012763793
 30
0.0
  0
VERTEX
  5
1D36
  8
SAPA_FOGBAND
 10
-38.933076123937369
 20
77.722613012763702
 30
0.0
  0
VERTEX
  5
1D37
  8
SAPA_FOGBAND
 10
-38.583076123937239
 20
77.722613012763702
 30
0.0
 42
-0.6681786379193472
  0
VERTEX
  5
1D38
  8
SAPA_FOGBAND
 10
-38.370944089581421
 20
77.210480978407702
 30
0.0
  0
VERTEX
  5
1D39
  8
SAPA_FOGBAND
 10
-39.224497480174641
 20
76.356927587814369
 30
0.0
 42
-0.1989123673796526
  0
VERTEX
  5
1D3A
  8
SAPA_FOGBAND
 10
-39.790182905123913
 20
76.122613012763793
 30
0.0
  0
VERTEX
  5
1D3B
  8
SAPA_FOGBAND
 10
-39.952878027543697
 20
76.122613012763793
 30
0.0
 42
-0.3394542588633746
  0
VERTEX
  5
1D3C
  8
SAPA_FOGBAND
 10
-40.242655775430457
 20
76.344967299233019
 30
0.0
  0
VERTEX
  5
1D3D
  8
SAPA_FOGBAND
 10
-40.605805018820369
 20
77.700258726294521
 30
0.0
 42
0.3394542588633744
  0
VERTEX
  5
1D3E
  8
SAPA_FOGBAND
 10
-40.895582766707143
 20
77.922613012763748
 30
0.0
  0
VERTEX
  5
1D3F
  8
SAPA_FOGBAND
 10
-43.470569481167608
 20
77.922613012763748
 30
0.0
 42
0.3394542588633746
  0
VERTEX
  5
1D40
  8
SAPA_FOGBAND
 10
-43.760347229054382
 20
77.700258726294521
 30
0.0
  0
VERTEX
  5
1D41
  8
SAPA_FOGBAND
 10
-44.12349647244428
 20
76.344967299233019
 30
0.0
 42
-0.3394542588633747
  0
VERTEX
  5
1D42
  8
SAPA_FOGBAND
 10
-44.413274220331047
 20
76.122613012763793
 30
0.0
  0
VERTEX
  5
1D43
  8
SAPA_FOGBAND
 10
-44.575969342750838
 20
76.122613012763793
 30
0.0
 42
-0.1989123673796526
  0
VERTEX
  5
1D44
  8
SAPA_FOGBAND
 10
-45.141654767700217
 20
76.356927587814369
 30
0.0
  0
VERTEX
  5
1D45
  8
SAPA_FOGBAND
 10
-45.99520815829333
 20
77.210480978407702
 30
0.0
 42
-0.6681786379193474
  0
VERTEX
  5
1D46
  8
SAPA_FOGBAND
 10
-45.783076123937512
 20
77.722613012763702
 30
0.0
  0
VERTEX
  5
1D47
  8
SAPA_FOGBAND
 10
-45.433076123937369
 20
77.722613012763702
 30
0.0
  0
VERTEX
  5
1D48
  8
SAPA_FOGBAND
 10
-45.433076123937369
 20
78.622613012763793
 30
0.0
 42
0.4142135623730951
  0
VERTEX
  5
1D49
  8
SAPA_FOGBAND
 10
-45.733076123937323
 20
78.922613012763733
 30
0.0
  0
VERTEX
  5
1D4A
  8
SAPA_FOGBAND
 10
-47.833076123937467
 20
78.922613012763733
 30
0.0
 42
0.4142135623730951
  0
VERTEX
  5
1D4B
  8
SAPA_FOGBAND
 10
-48.133076123937421
 20
78.622613012763793
 30
0.0
  0
VERTEX
  5
1D4C
  8
SAPA_FOGBAND
 10
-48.133076123937421
 20
77.222613012763702
 30
0.0
 42
-0.7754026414785753
  0
VERTEX
  5
1D4D
  8
SAPA_FOGBAND
 10
-48.6958681193451
 20
77.077905144457816
 30
0.0
  0
VERTEX
  5
1D4E
  8
SAPA_FOGBAND
 10
-52.215570629890451
 20
82.461010917043666
 30
0.0
 42
-0.8680589103334742
  0
VERTEX
  5
1D4F
  8
SAPA_FOGBAND
 10
-51.740646600126922
 20
82.817850819705384
 30
0.0
  0
VERTEX
  5
1D50
  8
SAPA_FOGBAND
 10
-48.40095685102056
 20
80.715506231577081
 30
0.0
 42
0.198912367379658
  0
VERTEX
  5
1D51
  8
SAPA_FOGBAND
 10
-47.693850069833893
 20
80.422613012763733
 30
0.0
  0
VERTEX
  5
1D52
  8
SAPA_FOGBAND
 10
-44.860531105414161
 20
80.422613012763733
 30
0.0
 42
0.5773502691896282
  0
VERTEX
  5
1D53
  8
SAPA_FOGBAND
 10
-44.60072348427893
 20
80.872613012763793
 30
0.0
  0
VERTEX
  5
1D54
  8
SAPA_FOGBAND
 10
-46.108506532645187
 20
82.451911383102413
 30
0.0
 42
-0.8769764629927299
  0
VERTEX
  5
1D55
  8
SAPA_FOGBAND
 10
-45.636566877153932
 20
82.814043417458535
 30
0.0
  0
VERTEX
  5
1D56
  8
SAPA_FOGBAND
 10
-42.300684530294618
 20
80.715506231577081
 30
0.0
 42
0.198912367379658
  0
VERTEX
  5
1D57
  8
SAPA_FOGBAND
 10
-41.593577749107951
 20
80.422613012763733
 30
0.0
  0
VERTEX
  5
1D58
  8
SAPA_FOGBAND
 10
-39.361303386886377
 20
80.422613012763733
 30
0.0
 42
0.5773502691896282
  0
VERTEX
  5
1D59
  8
SAPA_FOGBAND
 10
-39.101495765751046
 20
80.872613012763793
 30
0.0
  0
VERTEX
  5
1D5A
  8
SAPA_FOGBAND
 10
-40.608777239234811
 20
82.451042629922028
 30
0.0
 42
-0.8769764629927299
  0
VERTEX
  5
1D5B
  8
SAPA_FOGBAND
 10
-40.136837583743542
 20
82.813174664278165
 30
0.0
  0
VERTEX
  5
1D5C
  8
SAPA_FOGBAND
 10
-36.725969342750943
 20
80.639651584263405
 30
0.0
 42
-0.198912367379658
  0
VERTEX
  5
1D5D
  8
SAPA_FOGBAND
 10
-36.433076123937383
 20
79.932544803076951
 30
0.0
  0
SEQEND
  5
1D5E
  8
SAPA_FOGBAND
  0
DIMENSION
  5
14AD
  8
SAPA_MATT
  2
*D70
 10
59.714735356083636
 20
64.499999999998849
 30
0.0
 11
57.214735356083636
 21
69.499999999998835
 31
0.0
 70
     0
 13
29.704096385539739
 23
74.499999999998806
 33
0.0
 14
24.500000000000231
 24
64.499999999998863
 34
0.0
 50
90.0
1001
ACAD
1000
DSTYLE
1002
{
1070
   287
1070
     4
1070
    40
1040
1.0
1070
   279
1070
     1
1002
}
  0
DIMENSION
  5
14AE
  8
SAPA_MATT
  2
*D69
 10
41.000000000000242
 20
46.592369856398641
 30
0.0
 11
33.000000000000242
 21
49.092369856398641
 31
0.0
 70
     0
 13
25.000000000000231
 23
63.999999999998863
 33
0.0
 14
41.000000000000242
 24
75.502601244734166
 34
0.0
 50
180.0
1001
ACAD
1000
DSTYLE
1002
{
1070
    40
1040
1.0
1002
}
  0
DIMENSION
  5
14AF
  8
SAPA_MATT
  2
*D68
 10
59.742184206581257
 20
74.502601244734123
 30
0.0
 11
57.24218420658125
 21
99.502601244734123
 31
0.0
 70
     0
 13
40.000000000000227
 23
124.50260124473409
 33
0.0
 14
40.000000000000227
 24
74.502601244734123
 34
0.0
 50
90.0
1001
ACAD
1000
DSTYLE
1002
{
1070
    40
1040
1.0
1002
}
  0
DIMENSION
  5
14B0
  8
SAPA_MATT
  2
*D67
 10
-37.000000000000341
 20
-115.8563963596021
 30
0.0
 11
-31.000000000000341
 21
-113.3563963596021
 31
0.0
 70
     0
 13
-25.000000000000341
 23
-95.999999999010583
 33
0.0
 14
-37.000000000000341
 24
-75.507832962818838
 34
0.0
 50
180.0
1001
ACAD
1000
DSTYLE
1002
{
1070
   287
1070
     4
1070
    40
1040
1.0
1070
   279
1070
     1
1002
}
  0
DIMENSION
  5
14B1
  8
SAPA_MATT
  2
*D66
 10
-25.000000000000341
 20
-115.8699098731156
 30
0.0
 11
-0.0000000000003409
 21
-113.3699098731156
 31
0.0
 70
     0
 13
24.999999999999659
 23
-95.999999999010583
 33
0.0
 14
-25.000000000000341
 24
-95.999999999010583
 34
0.0
 50
180.0
1001
ACAD
1000
DSTYLE
1002
{
1070
    40
1040
1.0
1002
}
  0
VIEWPORT
  5
C4
 67
     1
  8
0
 10
143.06236603067589
 20
116.00969601843509
 30
0.0
 40
369.98580003443811
 41
256.8421457311839
 68
     1
 69
     1
1001
ACAD
1000
MVIEW
1002
{
1070
    16
1010
0.0
1020
0.0
1030
0.0
1010
0.0
1020
0.0
1030
1.0
1040
0.0
1040
256.8421457311839
1040
99.206250190734863
1040
130.70624923706049
1040
50.0
1040
0.0
1040
0.0
1070
     0
1070
     0
1070
     1
1070
     1
1070
     0
1070
     0
1070
     0
1070
     0
1040
0.0
1040
0.0
1040
0.0
1040
10.0
1040
10.0
1040
10.0
1040
10.0
1070
     0
1002
{
1002
}
1002
}
  0
ENDSEC
  0
EOF
