  0
SECTION
  2
HEADER
  9
$ACADVER
  1
AC1009
  9
$INSBASE
 10
0.0
 20
0.0
 30
0.0
  9
$EXTMIN
 10
-63.11240340122675
 20
-127.3699098731156
 30
0.0
  9
$EXTMAX
 10
61.215131157909319
 20
167.85273728745329
 30
0.0
  9
$LIMMIN
 10
0.0
 20
0.0
  9
$LIMMAX
 10
790.0
 20
790.0
  9
$ORTHOMODE
 70
     1
  9
$REGENMODE
 70
     1
  9
$FILLMODE
 70
     1
  9
$QTEXTMODE
 70
     0
  9
$MIRRTEXT
 70
     1
  9
$DRAGMODE
 70
     2
  9
$LTSCALE
 40
4.0
  9
$OSMODE
 70
   167
  9
$ATTMODE
 70
     1
  9
$TEXTSIZE
 40
3.5
  9
$TRACEWID
 40
0.05
  9
$TEXTSTYLE
  7
ISO
  9
$CLAYER
  8
0
  9
$CELTYPE
  6
BYLAYER
  9
$CECOLOR
 62
   256
  9
$DIMSCALE
 40
0.0
  9
$DIMASZ
 40
3.0
  9
$DIMEXO
 40
1.5
  9
$DIMDLI
 40
10.0
  9
$DIMRND
 40
0.0
  9
$DIMDLE
 40
0.0
  9
$DIMEXE
 40
1.5
  9
$DIMTP
 40
0.0
  9
$DIMTM
 40
0.0
  9
$DIMTXT
 40
3.0
  9
$DIMCEN
 40
-5.0
  9
$DIMTSZ
 40
0.0
  9
$DIMTOL
 70
     0
  9
$DIMLIM
 70
     0
  9
$DIMTIH
 70
     0
  9
$DIMTOH
 70
     0
  9
$DIMSE1
 70
     0
  9
$DIMSE2
 70
     0
  9
$DIMTAD
 70
     1
  9
$DIMZIN
 70
     8
  9
$DIMBLK
  1

  9
$DIMASO
 70
     1
  9
$DIMSHO
 70
     1
  9
$DIMPOST
  1

  9
$DIMAPOST
  1

  9
$DIMALT
 70
     0
  9
$DIMALTD
 70
     0
  9
$DIMALTF
 40
25.399999999999999
  9
$DIMLFAC
 40
-1.0
  9
$DIMTOFL
 70
     1
  9
$DIMTVP
 40
0.0
  9
$DIMTIX
 70
     0
  9
$DIMSOXD
 70
     0
  9
$DIMSAH
 70
     0
  9
$DIMBLK1
  1

  9
$DIMBLK2
  1

  9
$DIMSTYLE
  2
MASKIN
  9
$DIMCLRD
 70
   256
  9
$DIMCLRE
 70
   256
  9
$DIMCLRT
 70
     2
  9
$DIMTFAC
 40
1.0
  9
$DIMGAP
 40
1.0
  9
$LUNITS
 70
     2
  9
$LUPREC
 70
     8
  9
$SKETCHINC
 40
0.1
  9
$FILLETRAD
 40
0.0
  9
$AUNITS
 70
     0
  9
$AUPREC
 70
     8
  9
$MENU
  1
ACAD
  9
$ELEVATION
 40
0.0
  9
$PELEVATION
 40
0.0
  9
$THICKNESS
 40
0.0
  9
$LIMCHECK
 70
     0
  9
$BLIPMODE
 70
     0
  9
$CHAMFERA
 40
0.0
  9
$CHAMFERB
 40
0.0
  9
$SKPOLY
 70
     0
  9
$TDCREATE
 40
2454895.6540358332
  9
$TDUPDATE
 40
2457059.6713309609
  9
$TDINDWG
 40
0.0749634838
  9
$TDUSRTIMER
 40
0.0749634838
  9
$USRTIMER
 70
     1
  9
$ANGBASE
 50
0.0
  9
$ANGDIR
 70
     0
  9
$PDMODE
 70
     0
  9
$PDSIZE
 40
0.0
  9
$PLINEWID
 40
0.0
  9
$COORDS
 70
     1
  9
$SPLFRAME
 70
     0
  9
$SPLINETYPE
 70
     6
  9
$SPLINESEGS
 70
     8
  9
$ATTDIA
 70
     0
  9
$ATTREQ
 70
     1
  9
$HANDLING
 70
     1
  9
$HANDSEED
  5
3085
  9
$SURFTAB1
 70
     6
  9
$SURFTAB2
 70
     6
  9
$SURFTYPE
 70
     6
  9
$SURFU
 70
     6
  9
$SURFV
 70
     6
  9
$UCSNAME
  2

  9
$UCSORG
 10
0.0
 20
0.0
 30
0.0
  9
$UCSXDIR
 10
1.0
 20
0.0
 30
0.0
  9
$UCSYDIR
 10
0.0
 20
1.0
 30
0.0
  9
$PUCSNAME
  2

  9
$PUCSORG
 10
0.0
 20
0.0
 30
0.0
  9
$PUCSXDIR
 10
1.0
 20
0.0
 30
0.0
  9
$PUCSYDIR
 10
0.0
 20
1.0
 30
0.0
  9
$USERI1
 70
     0
  9
$USERI2
 70
     0
  9
$USERI3
 70
     0
  9
$USERI4
 70
     0
  9
$USERI5
 70
     0
  9
$USERR1
 40
0.0
  9
$USERR2
 40
0.0
  9
$USERR3
 40
0.0
  9
$USERR4
 40
0.0
  9
$USERR5
 40
0.0
  9
$WORLDVIEW
 70
     1
  9
$SHADEDGE
 70
     3
  9
$SHADEDIF
 70
    70
  9
$TILEMODE
 70
     1
  9
$MAXACTVP
 70
    16
  9
$PLIMCHECK
 70
     0
  9
$PEXTMIN
 10
1.0000000000000000E+020
 20
1.0000000000000000E+020
 30
1.0000000000000000E+020
  9
$PEXTMAX
 10
-1.0000000000000000E+020
 20
-1.0000000000000000E+020
 30
-1.0000000000000000E+020
  9
$PLIMMIN
 10
-5.069427490234375
 20
-5.8737497329711914
  9
$PLIMMAX
 10
291.89889526367187
 20
204.0995779037475
  9
$UNITMODE
 70
     0
  9
$VISRETAIN
 70
     1
  9
$PLINEGEN
 70
     0
  9
$PSLTSCALE
 70
     1
  0
ENDSEC
  0
SECTION
  2
TABLES
  0
TABLE
  2
VPORT
 70
     1
  0
VPORT
  2
*ACTIVE
 70
     0
 10
0.0
 20
0.0
 11
1.0
 21
1.0
 12
-0.9475110547859912
 22
87.200210147726793
 13
0.0
 23
0.0
 14
1.0
 24
1.0
 15
0.0
 25
0.0
 16
0.0
 26
0.0
 36
1.0
 17
0.0
 27
0.0
 37
0.0
 40
242.15363370389969
 41
2.9026915113871632
 42
50.0
 43
0.0
 44
0.0
 50
0.0
 51
0.0
 71
     0
 72
   100
 73
     1
 74
     1
 75
     0
 76
     0
 77
     0
 78
     0
  0
ENDTAB
  0
TABLE
  2
LTYPE
 70
    27
  0
LTYPE
  2
CONTINUOUS
 70
     0
  3
Solid line
 72
    65
 73
     0
 40
0.0
  0
LTYPE
  2
BYGG-01482201$0$NEWDOT
 70
     0
  3
____ . ____ . ____ . ____ . ____ . ____ . ____
 72
    65
 73
     4
 40
2.0
 49
1.0
 49
-0.5
 49
0.0
 49
-0.5
  0
LTYPE
  2
BYGG-014357$0$NEWDOT
 70
     0
  3
____ . ____ . ____ . ____ . ____ . ____ . ____
 72
    65
 73
     4
 40
2.0
 49
1.0
 49
-0.5
 49
0.0
 49
-0.5
  0
LTYPE
  2
BYGG-014357$0$DASHDOT
 70
     0
  3
__ . __ . __ . __ . __ . __ . __ . __ . __ . __
 72
    65
 73
     4
 40
1.0
 49
0.5
 49
-0.25
 49
0.0
 49
-0.25
  0
LTYPE
  2
BYGG-014357$0$DASHED
 70
     0
  3
__ __ __ __ __ __ __ __ __ __ __ __ __ __ __
 72
    65
 73
     2
 40
0.75
 49
0.5
 49
-0.25
  0
LTYPE
  2
BYGG-014279$0$NEWDOT
 70
     0
  3
____ . ____ . ____ . ____ . ____ . ____ . ____
 72
    65
 73
     4
 40
2.0
 49
1.0
 49
-0.5
 49
0.0
 49
-0.5
  0
LTYPE
  2
BYGG-01482201$0$ZIGZAG
 70
     0
  3
Zig zag /\/\/\/\/\/\/\/\/\/\/\/\/\/\/\/\/\/\/\/\/\/\/\/
 72
    65
 73
     4
 40
20.32254
 49
0.00254
 49
-5.0800000000000001
 49
-10.16
 49
-5.0800000000000001
  0
LTYPE
  2
BYGG-014279$0$ZIGZAG
 70
     0
  3
Zig zag /\/\/\/\/\/\/\/\/\/\/\/\/\/\/\/\/\/\/\/\/\/\/\/
 72
    65
 73
     4
 40
20.32254
 49
0.00254
 49
-5.0800000000000001
 49
-10.16
 49
-5.0800000000000001
  0
LTYPE
  2
BYGG-014410$0$NEWDOT
 70
     0
  3
____ . ____ . ____ . ____ . ____ . ____ . ____
 72
    65
 73
     4
 40
2.0
 49
1.0
 49
-0.5
 49
0.0
 49
-0.5
  0
LTYPE
  2
BYGG-014410$0$ZIGZAG
 70
     0
  3
Zig zag /\/\/\/\/\/\/\/\/\/\/\/\/\/\/\/\/\/\/\/\/\/\/\/
 72
    65
 73
     4
 40
20.32254
 49
0.00254
 49
-5.0800000000000001
 49
-10.16
 49
-5.0800000000000001
  0
LTYPE
  2
BYGG-028946$0$NEWDOT
 70
     0
  3
____ . ____ . ____ . ____ . ____ . ____ . ____
 72
    65
 73
     4
 40
2.0
 49
1.0
 49
-0.5
 49
0.0
 49
-0.5
  0
LTYPE
  2
BYGG-028946$0$DASHDOT
 70
     0
  3
__ . __ . __ . __ . __ . __ . __ . __ . __ . __
 72
    65
 73
     4
 40
1.0
 49
0.5
 49
-0.25
 49
0.0
 49
-0.25
  0
LTYPE
  2
BYGG-028946$0$DASHED
 70
     0
  3
__ __ __ __ __ __ __ __ __ __ __ __ __ __ __
 72
    65
 73
     2
 40
0.75
 49
0.5
 49
-0.25
  0
LTYPE
  2
BYGG-028946$0$PHANTOM
 70
     0
  3
Phantom ______  __  __  ______  __  __  ______
 72
    65
 73
     6
 40
63.5
 49
31.75
 49
-6.3499999999999988
 49
6.3499999999999988
 49
-6.3499999999999988
 49
6.3499999999999988
 49
-6.3499999999999988
  0
LTYPE
  2
BYGG-028946$0$ZIGZAG
 70
     0
  3
Zig zag /\/\/\/\/\/\/\/\/\/\/\/\/\/\/\/\/\/\/\/\/\/\/\/
 72
    65
 73
     4
 40
20.32254
 49
0.00254
 49
-5.0800000000000001
 49
-10.16
 49
-5.0800000000000001
  0
LTYPE
  2
BYGG-028947$0$NEWDOT
 70
     0
  3
____ . ____ . ____ . ____ . ____ . ____ . ____
 72
    65
 73
     4
 40
2.0
 49
1.0
 49
-0.5
 49
0.0
 49
-0.5
  0
LTYPE
  2
BYGG-028947$0$DASHDOT
 70
     0
  3
__ . __ . __ . __ . __ . __ . __ . __ . __ . __
 72
    65
 73
     4
 40
1.0
 49
0.5
 49
-0.25
 49
0.0
 49
-0.25
  0
LTYPE
  2
BYGG-028947$0$DASHED
 70
     0
  3
__ __ __ __ __ __ __ __ __ __ __ __ __ __ __
 72
    65
 73
     2
 40
0.75
 49
0.5
 49
-0.25
  0
LTYPE
  2
BYGG-028947$0$PHANTOM
 70
     0
  3
Phantom ______  __  __  ______  __  __  ______
 72
    65
 73
     6
 40
63.5
 49
31.75
 49
-6.3499999999999988
 49
6.3499999999999988
 49
-6.3499999999999988
 49
6.3499999999999988
 49
-6.3499999999999988
  0
LTYPE
  2
BYGG-028947$0$ZIGZAG
 70
     0
  3
Zig zag /\/\/\/\/\/\/\/\/\/\/\/\/\/\/\/\/\/\/\/\/\/\/\/
 72
    65
 73
     4
 40
20.32254
 49
0.00254
 49
-5.0800000000000001
 49
-10.16
 49
-5.0800000000000001
  0
LTYPE
  2
BYGG-029014$0$NEWDOT
 70
     0
  3
____ . ____ . ____ . ____ . ____ . ____ . ____
 72
    65
 73
     4
 40
2.0
 49
1.0
 49
-0.5
 49
0.0
 49
-0.5
  0
LTYPE
  2
BYGG-029014$0$DASHDOT
 70
     0
  3
__ . __ . __ . __ . __ . __ . __ . __ . __ . __
 72
    65
 73
     4
 40
1.0
 49
0.5
 49
-0.25
 49
0.0
 49
-0.25
  0
LTYPE
  2
BYGG-029014$0$DASHED
 70
     0
  3
__ __ __ __ __ __ __ __ __ __ __ __ __ __ __
 72
    65
 73
     2
 40
0.75
 49
0.5
 49
-0.25
  0
LTYPE
  2
BYGG-029014$0$PHANTOM
 70
     0
  3
Phantom ______  __  __  ______  __  __  ______
 72
    65
 73
     6
 40
63.5
 49
31.75
 49
-6.3499999999999988
 49
6.3499999999999988
 49
-6.3499999999999988
 49
6.3499999999999988
 49
-6.3499999999999988
  0
LTYPE
  2
BYGG-014495$0$DASHDOT
 70
     0
  3
__ . __ . __ . __ . __ . __ . __ . __ . __ . __
 72
    65
 73
     4
 40
1.0
 49
0.5
 49
-0.25
 49
0.0
 49
-0.25
  0
LTYPE
  2
BYGG-014410$0$PHANTOM2
 70
     0
  3
Phantom (.5x) ___ _ _ ___ _ _ ___ _ _ ___ _ _
 72
    65
 73
     6
 40
1.25
 49
0.625
 49
-0.125
 49
0.125
 49
-0.125
 49
0.125
 49
-0.125
  0
LTYPE
  2
BYGG-028946$0$PHANTOM2
 70
     0
  3
Phantom (.5x) ___ _ _ ___ _ _ ___ _ _ ___ _ _
 72
    65
 73
     6
 40
1.25
 49
0.625
 49
-0.125
 49
0.125
 49
-0.125
 49
0.125
 49
-0.125
  0
ENDTAB
  0
TABLE
  2
LAYER
 70
   158
  0
LAYER
  2
0
 70
     0
 62
     7
  6
CONTINUOUS
  0
LAYER
  2
DEFPOINTS
 70
     0
 62
     7
  6
CONTINUOUS
  0
LAYER
  2
SAPA_ANSLUTNING
 70
     0
 62
     6
  6
CONTINUOUS
  0
LAYER
  2
SAPA_PROFIL
 70
     0
 62
     7
  6
CONTINUOUS
  0
LAYER
  2
SAPA_ARTIKELNR
 70
     0
 62
     4
  6
CONTINUOUS
  0
LAYER
  2
SAPA_LIGHT
 70
     1
 62
     1
  6
CONTINUOUS
  0
LAYER
  2
BYGG-029014$0$LIST
 70
     0
 62
     2
  6
CONTINUOUS
  0
LAYER
  2
SAPA_ISOLATOR
 70
     0
 62
     4
  6
CONTINUOUS
  0
LAYER
  2
SAPA_MATT
 70
     0
 62
     1
  6
CONTINUOUS
  0
LAYER
  2
SAPA_GLAS
 70
     0
 62
     4
  6
CONTINUOUS
  0
LAYER
  2
SAPA_FOGBAND
 70
     0
 62
     2
  6
CONTINUOUS
  0
ENDTAB
  0
TABLE
  2
STYLE
 70
    38
  0
STYLE
  2
STANDARD
 70
     0
 40
0.0
 41
1.0
 50
0.0
 71
     0
 42
0.2
  3
txt
  4

  0
STYLE
  2
ISO
 70
     0
 40
0.0
 41
1.0
 50
0.0
 71
     0
 42
3.5
  3
txt
  4

  0
STYLE
  2

 70
     1
 40
0.0
 41
1.0
 50
0.0
 71
     0
 42
0.2
  3
ltypeshp.shx
  4

  0
STYLE
  2
BYGG-021589$0$STANDARD
 70
     0
 40
0.0
 41
1.0
 50
0.0
 71
     0
 42
0.2
  3
txt
  4

  0
STYLE
  2
BYGG-021589$0$ISO
 70
     0
 40
0.0
 41
1.0
 50
0.0
 71
     0
 42
3.5
  3
isocp3.shx
  4

  0
STYLE
  2
BYGG-01482201$0$STANDARD
 70
     0
 40
0.0
 41
1.0
 50
0.0
 71
     0
 42
0.2
  3
txt
  4

  0
STYLE
  2
BYGG-01482201$0$ISO
 70
     0
 40
0.0
 41
1.0
 50
0.0
 71
     0
 42
3.5
  3
isocp3.shx
  4

  0
STYLE
  2
BYGG-021582$0$STANDARD
 70
     0
 40
0.0
 41
1.0
 50
0.0
 71
     0
 42
0.2
  3
txt
  4

  0
STYLE
  2
BYGG-021582$0$ISO
 70
     0
 40
0.0
 41
1.0
 50
0.0
 71
     0
 42
3.5
  3
isocp3.shx
  4

  0
STYLE
  2
BYGG-014279$0$STANDARD
 70
     0
 40
0.0
 41
1.0
 50
0.0
 71
     0
 42
0.2
  3
TXT.shx
  4

  0
STYLE
  2
BYGG-014279$0$ISO
 70
     0
 40
0.0
 41
1.0
 50
0.0
 71
     0
 42
3.5
  3
iso
  4

  0
STYLE
  2
BYGG-021802$0$STANDARD
 70
     0
 40
0.0
 41
1.0
 50
0.0
 71
     0
 42
0.2
  3
txt
  4

  0
STYLE
  2
BYGG-021802$0$ISO
 70
     0
 40
0.0
 41
1.0
 50
0.0
 71
     0
 42
3.5
  3
isocp3.shx
  4

  0
STYLE
  2
BYGG-014357$0$STANDARD
 70
     0
 40
0.0
 41
1.0
 50
0.0
 71
     0
 42
0.2
  3
txt
  4

  0
STYLE
  2
BYGG-014357$0$ISO
 70
     0
 40
0.0
 41
1.0
 50
0.0
 71
     0
 42
3.5
  3
isocp3.shx
  4

  0
STYLE
  2
BYGG-014063$0$STANDARD
 70
     0
 40
0.0
 41
1.0
 50
0.0
 71
     0
 42
0.2
  3
txt
  4

  0
STYLE
  2
BYGG-014063$0$ISO
 70
     0
 40
0.0
 41
1.0
 50
0.0
 71
     0
 42
3.5
  3
isocp3.shx
  4

  0
STYLE
  2
BYGG-022668$0$STANDARD
 70
     0
 40
0.0
 41
1.0
 50
0.0
 71
     0
 42
0.2
  3
txt
  4

  0
STYLE
  2
BYGG-022668$0$ISO
 70
     0
 40
0.0
 41
1.0
 50
0.0
 71
     0
 42
3.5
  3
txt
  4

  0
STYLE
  2
BYGG-021809$0$STANDARD
 70
     0
 40
0.0
 41
1.0
 50
0.0
 71
     0
 42
0.2
  3
txt
  4

  0
STYLE
  2
BYGG-021809$0$ISO
 70
     0
 40
0.0
 41
1.0
 50
0.0
 71
     0
 42
3.5
  3
txt
  4

  0
STYLE
  2
BYGG-014410$0$STANDARD
 70
     0
 40
0.0
 41
1.0
 50
0.0
 71
     0
 42
0.2
  3
txt
  4

  0
STYLE
  2
BYGG-014410$0$ISO
 70
     0
 40
0.0
 41
1.0
 50
0.0
 71
     0
 42
3.5
  3
isocp3.shx
  4

  0
STYLE
  2
BYGG-029014$0$STANDARD
 70
     0
 40
0.0
 41
1.0
 50
0.0
 71
     0
 42
0.2
  3
txt
  4

  0
STYLE
  2
BYGG-029014$0$ISO
 70
     0
 40
0.0
 41
1.0
 50
0.0
 71
     0
 42
3.5
  3
txt
  4

  0
STYLE
  2
BYGG-014495$0$STANDARD
 70
     0
 40
0.0
 41
1.0
 50
0.0
 71
     0
 42
0.2
  3
txt
  4

  0
STYLE
  2
BYGG-014495$0$ISO
 70
     0
 40
0.0
 41
1.0
 50
0.0
 71
     0
 42
3.5
  3
isocp3.shx
  4

  0
STYLE
  2
BYGG-028946$0$STANDARD
 70
     0
 40
0.0
 41
1.0
 50
0.0
 71
     0
 42
0.2
  3
txt
  4

  0
STYLE
  2
BYGG-028946$0$ISO
 70
     0
 40
0.0
 41
1.0
 50
0.0
 71
     0
 42
3.5
  3
txt
  4

  0
STYLE
  2
BYGG-028946$0$ANNOTATIVE
 70
     0
 40
0.0
 41
1.0
 50
0.0
 71
     0
 42
0.2
  3
txt
  4

  0
STYLE
  2
BYGG-028947$0$STANDARD
 70
     0
 40
0.0
 41
1.0
 50
0.0
 71
     0
 42
0.2
  3
txt
  4

  0
STYLE
  2
BYGG-028947$0$ISO
 70
     0
 40
0.0
 41
1.0
 50
0.0
 71
     0
 42
3.5
  3
txt
  4

  0
STYLE
  2
BYGG-024973$0$STANDARD
 70
     0
 40
0.0
 41
1.0
 50
0.0
 71
     0
 42
0.2
  3
txt
  4

  0
STYLE
  2
BYGG-024973$0$ISO
 70
     0
 40
0.0
 41
1.0
 50
0.0
 71
     0
 42
3.5
  3
txt
  4

  0
STYLE
  2
BYGG-025081$0$STANDARD
 70
     0
 40
0.0
 41
1.0
 50
0.0
 71
     0
 42
0.2
  3
txt
  4

  0
STYLE
  2
BYGG-025081$0$ISO
 70
     0
 40
0.0
 41
1.0
 50
0.0
 71
     0
 42
3.5
  3
txt
  4

  0
STYLE
  2
BYGG-029000$0$STANDARD
 70
     0
 40
0.0
 41
1.0
 50
0.0
 71
     0
 42
0.2
  3
txt
  4

  0
STYLE
  2
BYGG-029000$0$ISO
 70
     0
 40
0.0
 41
1.0
 50
0.0
 71
     0
 42
3.5
  3
txt
  4

  0
ENDTAB
  0
TABLE
  2
VIEW
 70
     0
  0
ENDTAB
  0
TABLE
  2
UCS
 70
     0
  0
ENDTAB
  0
TABLE
  2
APPID
 70
    23
  0
APPID
  2
ACAD
 70
     0
  0
APPID
  2
ACAD_DSTYLE_DIMTEXT_FILL
 70
     0
  0
APPID
  2
ACAD_DSTYLE_DIMEXT_LENGTH
 70
     0
  0
APPID
  2
ACAD_DSTYLE_DIMEXT_ENABLED
 70
     0
  0
APPID
  2
ACAD_DSTYLE_DIM_LINETYPE
 70
     0
  0
APPID
  2
ACAD_DSTYLE_DIM_EXT1_LINETYPE
 70
     0
  0
APPID
  2
ACAD_DSTYLE_DIM_EXT2_LINETYPE
 70
     0
  0
APPID
  2
ACAD_DSTYLE_DIMJOGGED_JOGA
 70
     0
  0
APPID
  2
ACAD_DSTYLE_DIMARC_LENGTH_
 70
     0
  0
APPID
  2
ACAD_PSEXT
 70
     0
  0
APPID
  2
ACAD_MLEADERVER
 70
     0
  0
APPID
  2
AMG_ARCHIVE11
 70
     0
  0
APPID
  2
ACAD_EXEMPT_FROM_CAD_STANDARDS
 70
     0
  0
APPID
  2
ACADANNOTATIVE
 70
     0
  0
APPID
  2
ACAECLAYERSTANDARD
 70
     0
  0
APPID
  2
ACAD_DSTYLE_DIMJAG
 70
     0
  0
APPID
  2
ACAD_DSTYLE_DIMTALN
 70
     0
  0
APPID
  2
ACAD_NAV_VCDISPLAY
 70
     0
  0
APPID
  2
ACDBDYNAMICBLOCKGUID
 70
     0
  0
APPID
  2
ACDBBLOCKREPETAG
 70
     0
  0
APPID
  2
AEC_XDATA_BOUND_SPACE
 70
     0
  0
APPID
  2
ACCMTRANSPARENCY
 70
     0
  0
APPID
  2
CONTENTBLOCKICON
 70
     0
  0
ENDTAB
  0
TABLE
  2
DIMSTYLE
 70
    35
  0
DIMSTYLE
  2
MASKIN
 70
     0
  3

  4

  5

  6

  7

 40
0.0
 41
3.0
 42
1.5
 43
10.0
 44
1.5
 45
0.0
 46
0.0
 47
0.0
 48
0.0
140
3.0
141
-5.0
142
0.0
143
25.399999999999999
144
-1.0
145
0.0
146
1.0
147
1.0
 71
     0
 72
     0
 73
     0
 74
     0
 75
     0
 76
     0
 77
     1
 78
     8
170
     0
171
     0
172
     1
173
     0
174
     0
175
     0
176
   256
177
   256
178
     2
  0
DIMSTYLE
  2
BYGG-021589$0$MASKIN
 70
     0
  3

  4

  5

  6

  7

 40
0.0
 41
3.0
 42
1.5
 43
10.0
 44
1.5
 45
0.0
 46
0.0
 47
0.0
 48
0.0
140
3.0
141
-5.0
142
0.0
143
25.399999999999999
144
-1.0
145
0.0
146
1.0
147
1.0
 71
     0
 72
     0
 73
     0
 74
     0
 75
     0
 76
     0
 77
     1
 78
     8
170
     0
171
     0
172
     1
173
     0
174
     0
175
     0
176
   256
177
   256
178
   256
  0
DIMSTYLE
  2
BYGG-01482201$0$STANDARD
 70
     0
  3

  4

  5

  6

  7

 40
1.0
 41
0.18
 42
0.0625
 43
0.38
 44
0.18
 45
0.0
 46
0.0
 47
0.0
 48
0.0
140
0.18
141
0.09
142
0.0
143
25.399999999999999
144
1.0
145
0.0
146
1.0
147
0.09
 71
     0
 72
     0
 73
     1
 74
     1
 75
     0
 76
     0
 77
     0
 78
     0
170
     0
171
     2
172
     0
173
     0
174
     0
175
     0
176
     0
177
     0
178
     0
  0
DIMSTYLE
  2
BYGG-01482201$0$MASKIN
 70
     0
  3

  4

  5

  6

  7

 40
0.0
 41
3.0
 42
1.5
 43
10.0
 44
1.5
 45
0.0
 46
0.0
 47
0.0
 48
0.0
140
3.0
141
-5.0
142
0.0
143
25.399999999999999
144
-1.0
145
0.0
146
1.0
147
1.0
 71
     0
 72
     0
 73
     0
 74
     1
 75
     0
 76
     0
 77
     1
 78
     8
170
     0
171
     0
172
     1
173
     0
174
     0
175
     0
176
   256
177
   256
178
     2
  0
DIMSTYLE
  2
BYGG-021582$0$MASKIN
 70
     0
  3

  4

  5

  6

  7

 40
0.0
 41
3.0
 42
1.5
 43
10.0
 44
1.5
 45
0.0
 46
0.0
 47
0.0
 48
0.0
140
3.0
141
-5.0
142
0.0
143
25.399999999999999
144
-1.0
145
0.0
146
1.0
147
1.0
 71
     0
 72
     0
 73
     0
 74
     0
 75
     0
 76
     0
 77
     1
 78
     8
170
     0
171
     0
172
     1
173
     0
174
     0
175
     0
176
   256
177
   256
178
   256
  0
DIMSTYLE
  2
BYGG-014279$0$STANDARD
 70
     0
  3

  4

  5

  6

  7

 40
1.0
 41
0.18
 42
0.0625
 43
0.38
 44
0.18
 45
0.0
 46
0.0
 47
0.0
 48
0.0
140
0.18
141
0.09
142
0.0
143
25.399999999999999
144
1.0
145
0.0
146
1.0
147
0.09
 71
     0
 72
     0
 73
     1
 74
     1
 75
     0
 76
     0
 77
     0
 78
     0
170
     0
171
     2
172
     0
173
     0
174
     0
175
     0
176
     0
177
     0
178
     0
  0
DIMSTYLE
  2
BYGG-014279$0$MASKIN
 70
     0
  3

  4

  5

  6

  7

 40
0.0
 41
3.0
 42
1.5
 43
10.0
 44
1.5
 45
0.0
 46
0.0
 47
0.0
 48
0.0
140
3.0
141
-5.0
142
0.0
143
25.399999999999999
144
-1.0
145
0.0
146
1.0
147
1.0
 71
     0
 72
     0
 73
     0
 74
     1
 75
     0
 76
     0
 77
     1
 78
     8
170
     0
171
     0
172
     1
173
     0
174
     0
175
     0
176
   256
177
   256
178
     2
  0
DIMSTYLE
  2
BYGG-021802$0$MASKIN
 70
     0
  3

  4

  5

  6

  7

 40
0.0
 41
3.0
 42
1.5
 43
10.0
 44
1.5
 45
0.0
 46
0.0
 47
0.0
 48
0.0
140
3.0
141
-5.0
142
0.0
143
25.399999999999999
144
-1.0
145
0.0
146
1.0
147
1.0
 71
     0
 72
     0
 73
     0
 74
     0
 75
     0
 76
     0
 77
     1
 78
     8
170
     0
171
     0
172
     1
173
     0
174
     0
175
     0
176
   256
177
   256
178
   256
  0
DIMSTYLE
  2
BYGG-014357$0$MASKIN
 70
     0
  3

  4

  5

  6

  7

 40
0.0
 41
3.0
 42
1.5
 43
10.0
 44
1.5
 45
0.0
 46
0.0
 47
0.0
 48
0.0
140
3.0
141
-5.0
142
0.0
143
25.399999999999999
144
-1.0
145
0.0
146
1.0
147
1.0
 71
     0
 72
     0
 73
     0
 74
     0
 75
     0
 76
     0
 77
     1
 78
     8
170
     0
171
     0
172
     1
173
     0
174
     0
175
     0
176
   256
177
   256
178
   256
  0
DIMSTYLE
  2
BYGG-014357$0$MASKIN1
 70
     0
  3

  4

  5

  6

  7

 40
1.0
 41
3.0
 42
1.5
 43
10.0
 44
1.5
 45
0.0
 46
0.0
 47
0.0
 48
0.0
140
3.0
141
-5.0
142
0.0
143
25.399999999999999
144
1.0
145
0.0
146
1.0
147
0.9
 71
     0
 72
     0
 73
     0
 74
     0
 75
     0
 76
     0
 77
     1
 78
     8
170
     0
171
     0
172
     1
173
     0
174
     0
175
     0
176
   256
177
   256
178
   256
  0
DIMSTYLE
  2
BYGG-014357$0$MASKIN2
 70
     0
  3

  4

  5

  6

  7

 40
1.0
 41
3.0
 42
1.5
 43
10.0
 44
1.5
 45
0.0
 46
0.0
 47
0.0
 48
0.0
140
3.0
141
-5.0
142
0.0
143
25.399999999999999
144
1.0
145
0.0
146
1.0
147
0.9
 71
     0
 72
     0
 73
     0
 74
     0
 75
     0
 76
     0
 77
     1
 78
     8
170
     0
171
     0
172
     1
173
     0
174
     0
175
     0
176
   256
177
   256
178
   256
  0
DIMSTYLE
  2
BYGG-014357$0$MASKIN3
 70
     0
  3

  4

  5

  6

  7

 40
1.0
 41
3.0
 42
1.5
 43
10.0
 44
1.5
 45
0.0
 46
0.0
 47
0.0
 48
0.0
140
3.0
141
-5.0
142
0.0
143
25.399999999999999
144
1.0
145
0.0
146
1.0
147
0.9
 71
     0
 72
     0
 73
     0
 74
     0
 75
     0
 76
     0
 77
     1
 78
     8
170
     0
171
     0
172
     1
173
     0
174
     0
175
     0
176
   256
177
   256
178
   256
  0
DIMSTYLE
  2
BYGG-014357$0$DMST_1
 70
     0
  3

  4

  5

  6

  7

 40
1.0
 41
0.7000000000000002
 42
0.0
 43
7.0
 44
0.4
 45
0.0
 46
0.0
 47
0.15
 48
0.15
140
0.7000000000000002
141
0.0
142
0.0
143
25.399999999999999
144
1.0
145
0.0
146
0.7
147
0.09
 71
     1
 72
     0
 73
     0
 74
     0
 75
     0
 76
     0
 77
     1
 78
     9
170
     0
171
     2
172
     0
173
     0
174
     0
175
     0
176
     1
177
     1
178
     2
  0
DIMSTYLE
  2
BYGG-014063$0$MASKIN
 70
     0
  3

  4

  5

  6

  7

 40
0.0
 41
3.0
 42
1.5
 43
10.0
 44
1.5
 45
0.0
 46
0.0
 47
0.0
 48
0.0
140
3.0
141
-5.0
142
0.0
143
25.399999999999999
144
-1.0
145
0.0
146
1.0
147
1.0
 71
     0
 72
     0
 73
     0
 74
     0
 75
     0
 76
     0
 77
     1
 78
     8
170
     0
171
     0
172
     1
173
     0
174
     0
175
     0
176
   256
177
   256
178
   256
  0
DIMSTYLE
  2
BYGG-014063$0$STANDARD
 70
     0
  3

  4

  5

  6

  7

 40
1.0
 41
0.18
 42
0.0625
 43
0.38
 44
0.18
 45
0.0
 46
0.0
 47
0.0
 48
0.0
140
0.18
141
0.09
142
0.0
143
25.399999999999999
144
1.0
145
0.0
146
1.0
147
0.09
 71
     0
 72
     0
 73
     1
 74
     1
 75
     0
 76
     0
 77
     0
 78
     0
170
     0
171
     2
172
     0
173
     0
174
     0
175
     0
176
     0
177
     0
178
     0
  0
DIMSTYLE
  2
BYGG-022668$0$STANDARD
 70
     0
  3

  4

  5

  6

  7

 40
1.0
 41
0.18
 42
0.0625
 43
0.38
 44
0.18
 45
0.0
 46
0.0
 47
0.0
 48
0.0
140
0.18
141
0.09
142
0.0
143
25.399999999999999
144
1.0
145
0.0
146
1.0
147
0.09
 71
     0
 72
     0
 73
     1
 74
     1
 75
     0
 76
     0
 77
     0
 78
     0
170
     0
171
     2
172
     0
173
     0
174
     0
175
     0
176
     0
177
     0
178
     0
  0
DIMSTYLE
  2
BYGG-022668$0$MASKIN
 70
     0
  3

  4

  5

  6

  7

 40
0.0
 41
3.0
 42
1.5
 43
10.0
 44
1.5
 45
0.0
 46
0.0
 47
0.0
 48
0.0
140
3.0
141
-5.0
142
0.0
143
25.399999999999999
144
-1.0
145
0.0
146
1.0
147
1.0
 71
     0
 72
     0
 73
     0
 74
     0
 75
     0
 76
     0
 77
     1
 78
     8
170
     0
171
     0
172
     1
173
     0
174
     0
175
     0
176
   256
177
   256
178
     2
  0
DIMSTYLE
  2
BYGG-021809$0$STANDARD
 70
     0
  3

  4

  5

  6

  7

 40
1.0
 41
0.18
 42
0.0625
 43
0.38
 44
0.18
 45
0.0
 46
0.0
 47
0.0
 48
0.0
140
0.18
141
0.09
142
0.0
143
25.399999999999999
144
1.0
145
0.0
146
1.0
147
0.09
 71
     0
 72
     0
 73
     1
 74
     1
 75
     0
 76
     0
 77
     0
 78
     0
170
     0
171
     2
172
     0
173
     0
174
     0
175
     0
176
     0
177
     0
178
     0
  0
DIMSTYLE
  2
BYGG-021809$0$MASKIN
 70
     0
  3

  4

  5

  6

  7

 40
0.0
 41
3.0
 42
1.5
 43
10.0
 44
1.5
 45
0.0
 46
0.0
 47
0.0
 48
0.0
140
3.0
141
-5.0
142
0.0
143
25.399999999999999
144
-1.0
145
0.0
146
1.0
147
1.0
 71
     0
 72
     0
 73
     0
 74
     0
 75
     0
 76
     0
 77
     1
 78
     8
170
     0
171
     0
172
     1
173
     0
174
     0
175
     0
176
   256
177
   256
178
     2
  0
DIMSTYLE
  2
BYGG-014410$0$MASKIN
 70
     0
  3

  4

  5

  6

  7

 40
0.0
 41
3.0
 42
1.5
 43
10.0
 44
1.5
 45
0.0
 46
0.0
 47
0.0
 48
0.0
140
3.0
141
-5.0
142
0.0
143
25.399999999999999
144
-1.0
145
0.0
146
1.0
147
1.0
 71
     0
 72
     0
 73
     0
 74
     0
 75
     0
 76
     0
 77
     1
 78
     8
170
     0
171
     0
172
     1
173
     0
174
     0
175
     0
176
   256
177
   256
178
   256
  0
DIMSTYLE
  2
BYGG-014410$0$STANDARD
 70
     0
  3

  4

  5

  6

  7

 40
1.0
 41
0.18
 42
0.0625
 43
0.38
 44
0.18
 45
0.0
 46
0.0
 47
0.0
 48
0.0
140
0.18
141
0.09
142
0.0
143
25.399999999999999
144
1.0
145
0.0
146
1.0
147
0.09
 71
     0
 72
     0
 73
     1
 74
     1
 75
     0
 76
     0
 77
     0
 78
     0
170
     0
171
     2
172
     0
173
     0
174
     0
175
     0
176
     0
177
     0
178
     0
  0
DIMSTYLE
  2
BYGG-029014$0$STANDARD
 70
     0
  3

  4

  5

  6

  7

 40
1.0
 41
0.18
 42
0.0625
 43
0.38
 44
0.18
 45
0.0
 46
0.0
 47
0.0
 48
0.0
140
0.18
141
0.09
142
0.0
143
25.399999999999999
144
1.0
145
0.0
146
1.0
147
0.09
 71
     0
 72
     0
 73
     1
 74
     1
 75
     0
 76
     0
 77
     0
 78
     0
170
     0
171
     2
172
     0
173
     0
174
     0
175
     0
176
     0
177
     0
178
     0
  0
DIMSTYLE
  2
BYGG-029014$0$MASKIN
 70
     0
  3

  4

  5

  6

  7

 40
0.0
 41
3.0
 42
1.5
 43
10.0
 44
1.5
 45
0.0
 46
0.0
 47
0.0
 48
0.0
140
3.0
141
-5.0
142
0.0
143
25.399999999999999
144
-1.0
145
0.0
146
1.0
147
1.0
 71
     0
 72
     0
 73
     0
 74
     0
 75
     0
 76
     0
 77
     1
 78
     8
170
     0
171
     0
172
     1
173
     0
174
     0
175
     0
176
   256
177
   256
178
     2
  0
DIMSTYLE
  2
BYGG-014495$0$MASKIN
 70
     0
  3

  4

  5

  6

  7

 40
0.0
 41
3.0
 42
1.5
 43
10.0
 44
1.5
 45
0.0
 46
0.0
 47
0.0
 48
0.0
140
3.0
141
-5.0
142
0.0
143
25.399999999999999
144
-1.0
145
0.0
146
1.0
147
1.0
 71
     0
 72
     0
 73
     0
 74
     0
 75
     0
 76
     0
 77
     1
 78
     8
170
     0
171
     0
172
     1
173
     0
174
     0
175
     0
176
   256
177
   256
178
     2
  0
DIMSTYLE
  2
BYGG-028946$0$STANDARD
 70
     0
  3

  4

  5

  6

  7

 40
1.0
 41
0.18
 42
0.0625
 43
0.38
 44
0.18
 45
0.0
 46
0.0
 47
0.0
 48
0.0
140
0.18
141
0.09
142
0.0
143
25.399999999999999
144
1.0
145
0.0
146
1.0
147
0.09
 71
     0
 72
     0
 73
     1
 74
     1
 75
     0
 76
     0
 77
     0
 78
     0
170
     0
171
     2
172
     0
173
     0
174
     0
175
     0
176
     0
177
     0
178
     0
  0
DIMSTYLE
  2
BYGG-028946$0$MASKIN
 70
     0
  3

  4

  5

  6

  7

 40
0.0
 41
3.0
 42
1.5
 43
10.0
 44
1.5
 45
0.0
 46
0.0
 47
0.0
 48
0.0
140
3.0
141
-5.0
142
0.0
143
25.399999999999999
144
-1.0
145
0.0
146
1.0
147
1.0
 71
     0
 72
     0
 73
     0
 74
     0
 75
     0
 76
     0
 77
     1
 78
     8
170
     0
171
     0
172
     1
173
     0
174
     0
175
     0
176
   256
177
   256
178
     2
  0
DIMSTYLE
  2
BYGG-028946$0$ANNOTATIVE
 70
     0
  3

  4

  5

  6

  7

 40
1.0
 41
0.18
 42
0.0625
 43
0.38
 44
0.18
 45
0.0
 46
0.0
 47
0.0
 48
0.0
140
0.18
141
0.09
142
0.0
143
25.399999999999999
144
1.0
145
0.0
146
1.0
147
0.09
 71
     0
 72
     0
 73
     1
 74
     1
 75
     0
 76
     0
 77
     0
 78
     0
170
     0
171
     2
172
     0
173
     0
174
     0
175
     0
176
     0
177
     0
178
     0
  0
DIMSTYLE
  2
BYGG-028947$0$STANDARD
 70
     0
  3

  4

  5

  6

  7

 40
1.0
 41
0.18
 42
0.0625
 43
0.38
 44
0.18
 45
0.0
 46
0.0
 47
0.0
 48
0.0
140
0.18
141
0.09
142
0.0
143
25.399999999999999
144
1.0
145
0.0
146
1.0
147
0.09
 71
     0
 72
     0
 73
     1
 74
     1
 75
     0
 76
     0
 77
     0
 78
     0
170
     0
171
     2
172
     0
173
     0
174
     0
175
     0
176
     0
177
     0
178
     0
  0
DIMSTYLE
  2
BYGG-028947$0$MASKIN
 70
     0
  3

  4

  5

  6

  7

 40
0.0
 41
3.0
 42
1.5
 43
10.0
 44
1.5
 45
0.0
 46
0.0
 47
0.0
 48
0.0
140
3.0
141
-5.0
142
0.0
143
25.399999999999999
144
-1.0
145
0.0
146
1.0
147
1.0
 71
     0
 72
     0
 73
     0
 74
     0
 75
     0
 76
     0
 77
     1
 78
     8
170
     0
171
     0
172
     1
173
     0
174
     0
175
     0
176
   256
177
   256
178
     2
  0
DIMSTYLE
  2
BYGG-024973$0$STANDARD
 70
     0
  3

  4

  5

  6

  7

 40
1.0
 41
0.18
 42
0.0625
 43
0.38
 44
0.18
 45
0.0
 46
0.0
 47
0.0
 48
0.0
140
0.18
141
0.09
142
0.0
143
25.399999999999999
144
1.0
145
0.0
146
1.0
147
0.09
 71
     0
 72
     0
 73
     1
 74
     1
 75
     0
 76
     0
 77
     0
 78
     0
170
     0
171
     2
172
     0
173
     0
174
     0
175
     0
176
     0
177
     0
178
     0
  0
DIMSTYLE
  2
BYGG-024973$0$MASKIN
 70
     0
  3

  4

  5

  6

  7

 40
0.0
 41
3.0
 42
1.5
 43
10.0
 44
1.5
 45
0.0
 46
0.0
 47
0.0
 48
0.0
140
3.0
141
-5.0
142
0.0
143
25.399999999999999
144
-1.0
145
0.0
146
1.0
147
1.0
 71
     0
 72
     0
 73
     0
 74
     0
 75
     0
 76
     0
 77
     1
 78
     8
170
     0
171
     0
172
     1
173
     0
174
     0
175
     0
176
   256
177
   256
178
     2
  0
DIMSTYLE
  2
BYGG-025081$0$STANDARD
 70
     0
  3

  4

  5

  6

  7

 40
1.0
 41
0.18
 42
0.0625
 43
0.38
 44
0.18
 45
0.0
 46
0.0
 47
0.0
 48
0.0
140
0.18
141
0.09
142
0.0
143
25.399999999999999
144
1.0
145
0.0
146
1.0
147
0.09
 71
     0
 72
     0
 73
     1
 74
     1
 75
     0
 76
     0
 77
     0
 78
     0
170
     0
171
     2
172
     0
173
     0
174
     0
175
     0
176
     0
177
     0
178
     0
  0
DIMSTYLE
  2
BYGG-025081$0$MASKIN
 70
     0
  3

  4

  5

  6

  7

 40
0.0
 41
3.0
 42
1.5
 43
10.0
 44
1.5
 45
0.0
 46
0.0
 47
0.0
 48
0.0
140
3.0
141
-5.0
142
0.0
143
25.399999999999999
144
-1.0
145
0.0
146
1.0
147
1.0
 71
     0
 72
     0
 73
     0
 74
     0
 75
     0
 76
     0
 77
     1
 78
     8
170
     0
171
     0
172
     1
173
     0
174
     0
175
     0
176
   256
177
   256
178
     2
  0
DIMSTYLE
  2
BYGG-029000$0$STANDARD
 70
     0
  3

  4

  5

  6

  7

 40
1.0
 41
0.18
 42
0.0625
 43
0.38
 44
0.18
 45
0.0
 46
0.0
 47
0.0
 48
0.0
140
0.18
141
0.09
142
0.0
143
25.399999999999999
144
1.0
145
0.0
146
1.0
147
0.09
 71
     0
 72
     0
 73
     1
 74
     1
 75
     0
 76
     0
 77
     0
 78
     0
170
     0
171
     2
172
     0
173
     0
174
     0
175
     0
176
     0
177
     0
178
     0
  0
DIMSTYLE
  2
BYGG-029000$0$MASKIN
 70
     0
  3

  4

  5

  6

  7

 40
0.0
 41
3.0
 42
1.5
 43
10.0
 44
1.5
 45
0.0
 46
0.0
 47
0.0
 48
0.0
140
3.0
141
-5.0
142
0.0
143
25.399999999999999
144
-1.0
145
0.0
146
1.0
147
1.0
 71
     0
 72
     0
 73
     0
 74
     0
 75
     0
 76
     0
 77
     1
 78
     8
170
     0
171
     0
172
     1
173
     0
174
     0
175
     0
176
   256
177
   256
178
     2
  0
ENDTAB
  0
ENDSEC
  0
SECTION
  2
BLOCKS
  0
BLOCK
  8
0
  2
$MODEL_SPACE
 70
     0
 10
0.0
 20
0.0
 30
0.0
  3
$MODEL_SPACE
  1

  0
ENDBLK
  5
37
  8
0
  0
BLOCK
 67
     1
  8
0
  2
$PAPER_SPACE
 70
     0
 10
0.0
 20
0.0
 30
0.0
  3
$PAPER_SPACE
  1

  0
ENDBLK
  5
35
 67
     1
  8
0
  0
BLOCK
  8
0
  2
BYGG-029014$0$BORST_9
 70
     0
 10
0.0
 20
0.0
 30
0.0
  3
BYGG-029014$0$BORST_9
  1

  0
POLYLINE
  5
1B8D
  8
BYGG-029014$0$LIST
 66
     1
 10
0.0
 20
0.0
 30
0.0
 70
     1
  0
VERTEX
  5
1F52
  8
BYGG-029014$0$LIST
 10
32.117949192431162
 20
1.9000000000000901
 30
0.0
  0
VERTEX
  5
1F53
  8
BYGG-029014$0$LIST
 10
32.117949192431162
 20
2.7000000000000912
 30
0.0
  0
VERTEX
  5
1F54
  8
BYGG-029014$0$LIST
 10
25.417949192431159
 20
2.7000000000000912
 30
0.0
  0
VERTEX
  5
1F55
  8
BYGG-029014$0$LIST
 10
25.417949192431159
 20
1.9000000000000901
 30
0.0
  0
SEQEND
  5
1F56
  8
BYGG-029014$0$LIST
  0
POLYLINE
  5
1B8E
  8
BYGG-029014$0$LIST
 66
     1
 10
0.0
 20
0.0
 30
0.0
  0
VERTEX
  5
1F57
  8
BYGG-029014$0$LIST
 10
28.263363943662679
 20
2.7000000000000912
 30
0.0
  0
VERTEX
  5
1F58
  8
BYGG-029014$0$LIST
 10
26.769574652555221
 20
10.03407417371101
 30
0.0
  0
SEQEND
  5
1F59
  8
BYGG-029014$0$LIST
  0
POLYLINE
  5
1B8F
  8
BYGG-029014$0$LIST
 66
     1
 10
0.0
 20
0.0
 30
0.0
  0
VERTEX
  5
1F5A
  8
BYGG-029014$0$LIST
 10
28.553855340273739
 20
2.7000000000000339
 30
0.0
  0
VERTEX
  5
1F5B
  8
BYGG-029014$0$LIST
 10
27.93644453893258
 20
10.03407417371101
 30
0.0
  0
SEQEND
  5
1F5C
  8
BYGG-029014$0$LIST
  0
POLYLINE
  5
1B90
  8
BYGG-029014$0$LIST
 66
     1
 10
0.0
 20
0.0
 30
0.0
  0
VERTEX
  5
1F5D
  8
BYGG-029014$0$LIST
 10
29.012314217007489
 20
2.7000000000000339
 30
0.0
  0
VERTEX
  5
1F5E
  8
BYGG-029014$0$LIST
 10
30.000741956894529
 20
10.03407417371101
 30
0.0
  0
SEQEND
  5
1F5F
  8
BYGG-029014$0$LIST
  0
POLYLINE
  5
1B91
  8
BYGG-029014$0$LIST
 66
     1
 10
0.0
 20
0.0
 30
0.0
  0
VERTEX
  5
1F60
  8
BYGG-029014$0$LIST
 10
29.18507150798786
 20
2.7000000000000339
 30
0.0
  0
VERTEX
  5
1F61
  8
BYGG-029014$0$LIST
 10
30.980798090752462
 20
10.03407417371101
 30
0.0
  0
SEQEND
  5
1F62
  8
BYGG-029014$0$LIST
  0
LINE
  5
1B92
  8
0
 10
28.667949192431159
 20
10.03407417371101
 30
0.0
 11
28.867949192431169
 21
10.03407417371101
 31
0.0
  0
LINE
  5
1B93
  8
0
 10
28.867949192431158
 20
2.7000000000000912
 30
0.0
 11
28.867949192431169
 21
10.03407417371101
 31
0.0
  0
LINE
  5
1B94
  8
0
 10
28.667949192431159
 20
2.7000000000000912
 30
0.0
 11
28.667949192431159
 21
10.03407417371101
 31
0.0
  0
ENDBLK
  5
1B95
  8
0
  0
BLOCK
  8
0
  2
*D69
 70
     1
 10
0.0
 20
0.0
 30
0.0
  3
*D69
  1

  0
LINE
  5
1ECA
  8
SAPA_MATT
 10
24.999999999999659
 20
-107.4999999990106
 30
0.0
 11
24.999999999999659
 21
-127.3699098731156
 31
0.0
  0
LINE
  5
1ECB
  8
SAPA_MATT
 10
-25.000000000000341
 20
-107.4999999990106
 30
0.0
 11
-25.000000000000341
 21
-127.3699098731156
 31
0.0
  0
LINE
  5
1ECC
  8
SAPA_MATT
 10
21.999999999999659
 20
-125.8699098731156
 30
0.0
 11
-22.000000000000341
 21
-125.8699098731156
 31
0.0
  0
SOLID
  5
1ECD
  8
SAPA_MATT
 10
21.999999999999659
 20
-125.3699098731156
 30
0.0
 11
21.999999999999659
 21
-126.3699098731156
 31
0.0
 12
24.999999999999659
 22
-125.8699098731156
 32
0.0
 13
24.999999999999659
 23
-125.8699098731156
 33
0.0
  0
SOLID
  5
1ECE
  8
SAPA_MATT
 10
-22.000000000000341
 20
-125.3699098731156
 30
0.0
 11
-22.000000000000341
 21
-126.3699098731156
 31
0.0
 12
-25.000000000000341
 22
-125.8699098731156
 32
0.0
 13
-25.000000000000341
 23
-125.8699098731156
 33
0.0
  0
INSERT
  5
1ECF
  8
0
  2
*U88
 10
0.0
 20
0.0
 30
0.0
  0
POINT
  5
1ED0
  8
DEFPOINTS
 62
     0
 10
24.999999999999659
 20
-105.9999999990105
 30
0.0
  0
POINT
  5
1ED1
  8
DEFPOINTS
 62
     0
 10
-25.000000000000341
 20
-105.9999999990105
 30
0.0
  0
POINT
  5
1ED2
  8
DEFPOINTS
 62
     0
 10
-25.000000000000341
 20
-125.8699098731156
 30
0.0
  0
ENDBLK
  5
1E68
  8
0
  0
BLOCK
  8
0
  2
*D70
 70
     1
 10
0.0
 20
0.0
 30
0.0
  3
*D70
  1

  0
LINE
  5
2FEC
  8
SAPA_MATT
 10
-25.000000000000341
 20
-107.4999999990106
 30
0.0
 11
-25.000000000000341
 21
-127.3563963596021
 31
0.0
  0
LINE
  5
2FED
  8
SAPA_MATT
 10
-37.000000000000341
 20
-87.007832962818824
 30
0.0
 11
-37.000000000000341
 21
-127.3563963596021
 31
0.0
  0
LINE
  5
2FEE
  8
SAPA_MATT
 10
-28.000000000000341
 20
-125.8563963596021
 30
0.0
 11
-34.000000000000341
 21
-125.8563963596021
 31
0.0
  0
SOLID
  5
2FEF
  8
SAPA_MATT
 10
-28.000000000000341
 20
-125.3563963596021
 30
0.0
 11
-28.000000000000341
 21
-126.3563963596021
 31
0.0
 12
-25.000000000000341
 22
-125.8563963596021
 32
0.0
 13
-25.000000000000341
 23
-125.8563963596021
 33
0.0
  0
SOLID
  5
2FF0
  8
SAPA_MATT
 10
-34.000000000000341
 20
-125.3563963596021
 30
0.0
 11
-34.000000000000341
 21
-126.3563963596021
 31
0.0
 12
-37.000000000000341
 22
-125.8563963596021
 32
0.0
 13
-37.000000000000341
 23
-125.8563963596021
 33
0.0
  0
TEXT
  8
SAPA_MATT
  40
3
  5
3001
  62
2
  72
0
  71
0
 10
-37.0000
 20
-128.666
 30
0.000000
  1
12
  7
ISO
  0
POINT
  5
2FF2
  8
DEFPOINTS
 62
     0
 10
-25.000000000000341
 20
-105.9999999990105
 30
0.0
  0
POINT
  5
2FF3
  8
DEFPOINTS
 62
     0
 10
-37.000000000000341
 20
-85.507832962818824
 30
0.0
  0
POINT
  5
2FF4
  8
DEFPOINTS
 62
     0
 10
-37.000000000000341
 20
-125.8563963596021
 30
0.0
  0
ENDBLK
  5
1E74
  8
0
  0
BLOCK
  8
0
  2
*D71
 70
     1
 10
0.0
 20
0.0
 30
0.0
  3
*D71
  1

  0
LINE
  5
1EB8
  8
SAPA_MATT
 10
30.89999999999921
 20
148.49999999999889
 30
0.0
 11
61.215131157909319
 21
148.49999999999889
 31
0.0
  0
LINE
  5
1EB9
  8
SAPA_MATT
 10
36.899999999998393
 20
74.499999999999091
 30
0.0
 11
61.21513115790929
 21
74.499999999999091
 31
0.0
  0
LINE
  5
1EBA
  8
SAPA_MATT
 10
59.715131157909319
 20
145.49999999999889
 30
0.0
 11
59.715131157909298
 21
77.499999999999091
 31
0.0
  0
SOLID
  5
1EBB
  8
SAPA_MATT
 10
59.215131157909319
 20
145.49999999999889
 30
0.0
 11
60.215131157909319
 21
145.49999999999889
 31
0.0
 12
59.715131157909319
 22
148.49999999999889
 32
0.0
 13
59.715131157909319
 23
148.49999999999889
 33
0.0
  0
SOLID
  5
1EBC
  8
SAPA_MATT
 10
59.21513115790929
 20
77.499999999999091
 30
0.0
 11
60.215131157909298
 21
77.499999999999091
 31
0.0
 12
59.715131157909298
 22
74.499999999999091
 32
0.0
 13
59.715131157909298
 23
74.499999999999091
 33
0.0
  0
INSERT
  5
1EBD
  8
0
  2
*U87
 10
0.0
 20
0.0
 30
0.0
  0
POINT
  5
1EBE
  8
DEFPOINTS
 62
     0
 10
29.39999999999921
 20
148.49999999999889
 30
0.0
  0
POINT
  5
1EBF
  8
DEFPOINTS
 62
     0
 10
35.399999999998393
 20
74.499999999999091
 30
0.0
  0
POINT
  5
1EC0
  8
DEFPOINTS
 62
     0
 10
59.715131157909298
 20
74.499999999999091
 30
0.0
  0
ENDBLK
  5
1E80
  8
0
  0
BLOCK
  8
0
  2
*D72
 70
     1
 10
0.0
 20
0.0
 30
0.0
  3
*D72
  1

  0
LINE
  5
1EAD
  8
SAPA_MATT
 10
25.000000000000231
 20
62.499999999999091
 30
0.0
 11
25.000000000000231
 21
45.092369856398868
 31
0.0
  0
LINE
  5
1EAE
  8
SAPA_MATT
 10
31.99999999999795
 20
75.599999999994395
 30
0.0
 11
31.99999999999795
 21
45.092369856398868
 31
0.0
  0
LINE
  5
1EAF
  8
SAPA_MATT
 10
22.000000000000231
 20
46.592369856398868
 30
0.0
 11
19.000000000000231
 21
46.592369856398868
 31
0.0
  0
LINE
  5
1EB0
  8
SAPA_MATT
 10
34.999999999997961
 20
46.592369856398868
 30
0.0
 11
37.999999999997947
 21
46.592369856398868
 31
0.0
  0
LINE
  5
1EB1
  8
SAPA_MATT
 10
25.000000000000231
 20
46.592369856398868
 30
0.0
 11
31.99999999999795
 21
46.592369856398868
 31
0.0
  0
SOLID
  5
1EB2
  8
SAPA_MATT
 10
22.000000000000231
 20
47.092369856398868
 30
0.0
 11
22.000000000000231
 21
46.092369856398882
 31
0.0
 12
25.000000000000231
 22
46.592369856398868
 32
0.0
 13
25.000000000000231
 23
46.592369856398868
 33
0.0
  0
SOLID
  5
1EB3
  8
SAPA_MATT
 10
34.999999999997961
 20
47.092369856398868
 30
0.0
 11
34.999999999997961
 21
46.092369856398882
 31
0.0
 12
31.99999999999795
 22
46.592369856398868
 32
0.0
 13
31.99999999999795
 23
46.592369856398868
 33
0.0
  0
INSERT
  5
1EB4
  8
0
  2
*U86
 10
0.0
 20
0.0
 30
0.0
  0
POINT
  5
1EB5
  8
DEFPOINTS
 62
     0
 10
25.000000000000231
 20
63.999999999999091
 30
0.0
  0
POINT
  5
1EB6
  8
DEFPOINTS
 62
     0
 10
31.99999999999795
 20
77.099999999994395
 30
0.0
  0
POINT
  5
1EB7
  8
DEFPOINTS
 62
     0
 10
31.99999999999795
 20
46.592369856398868
 30
0.0
  0
ENDBLK
  5
1E8C
  8
0
  0
BLOCK
  8
0
  2
*D73
 70
     1
 10
0.0
 20
0.0
 30
0.0
  3
*D73
  1

  0
LINE
  5
2FE3
  8
SAPA_MATT
 10
30.899999999997821
 20
74.49999999999892
 30
0.0
 11
61.214735356083622
 21
74.499999999998906
 31
0.0
  0
LINE
  5
2FE4
  8
SAPA_MATT
 10
26.000000000000231
 20
64.499999999999091
 30
0.0
 11
61.214735356083622
 21
64.499999999999076
 31
0.0
  0
LINE
  5
2FE5
  8
SAPA_MATT
 10
59.714735356083622
 20
71.499999999998906
 30
0.0
 11
59.714735356083622
 21
67.499999999999076
 31
0.0
  0
SOLID
  5
2FE6
  8
SAPA_MATT
 10
59.214735356083622
 20
71.499999999998906
 30
0.0
 11
60.214735356083622
 21
71.499999999998906
 31
0.0
 12
59.714735356083622
 22
74.499999999998906
 32
0.0
 13
59.714735356083622
 23
74.499999999998906
 33
0.0
  0
SOLID
  5
2FE7
  8
SAPA_MATT
 10
59.214735356083622
 20
67.499999999999076
 30
0.0
 11
60.214735356083622
 21
67.499999999999076
 31
0.0
 12
59.714735356083622
 22
64.499999999999076
 32
0.0
 13
59.714735356083622
 23
64.499999999999076
 33
0.0
  0
TEXT
  8
SAPA_MATT
  40
3
  5
3002
  62
2
  72
0
  71
0
 10
51.2147
 20
64.1900
 30
0.000000
  1
10
  7
ISO
  0
POINT
  5
2FE9
  8
DEFPOINTS
 62
     0
 10
29.399999999997821
 20
74.49999999999892
 30
0.0
  0
POINT
  5
2FEA
  8
DEFPOINTS
 62
     0
 10
24.500000000000231
 20
64.499999999999091
 30
0.0
  0
POINT
  5
2FEB
  8
DEFPOINTS
 62
     0
 10
59.714735356083622
 20
64.499999999999076
 30
0.0
  0
ENDBLK
  5
1E9A
  8
0
  0
BLOCK
  8
0
  2
*U74
 70
     1
 10
0.0
 20
0.0
 30
0.0
  3
*U74
  1

  0
TEXT
  5
1EFF
  8
SAPA_ARTIKELNR
 10
-6.7035930062780604
 20
-100.9920514551854
 30
0.0
 40
3.5
  1
42657
  7
ISO
  0
ENDBLK
  5
1F01
  8
0
  0
BLOCK
  8
0
  2
*U75
 70
     1
 10
0.0
 20
0.0
 30
0.0
  3
*U75
  1

  0
TEXT
  5
1F03
  8
SAPA_ARTIKELNR
 10
-6.7035930062780604
 20
-113.2960226864522
 30
0.0
 40
3.5
  1
42227
  7
ISO
  0
ENDBLK
  5
1F05
  8
0
  0
BLOCK
  8
0
  2
*U76
 70
     1
 10
0.0
 20
0.0
 30
0.0
  3
*U76
  1

  0
TEXT
  5
1F33
  8
SAPA_ARTIKELNR
 10
-1.849958744790092
 20
150.2177347201077
 30
0.0
 40
3.5
  1
74457
  7
ISO
  0
ENDBLK
  5
1F35
  8
0
  0
BLOCK
  8
0
  2
*U77
 70
     1
 10
0.0
 20
0.0
 30
0.0
  3
*U77
  1

  0
TEXT
  5
1F37
  8
SAPA_ARTIKELNR
 10
-41.109131584418947
 20
150.2177347201077
 30
0.0
 40
3.5
  1
42727
  7
ISO
  0
ENDBLK
  5
1F39
  8
0
  0
BLOCK
  8
0
  2
*U78
 70
     1
 10
0.0
 20
0.0
 30
0.0
  3
*U78
  1

  0
TEXT
  5
1F3B
  8
SAPA_ARTIKELNR
 10
40.186782415020609
 20
105.52964857942121
 30
0.0
 40
3.5
  1
18454
 50
90.0
  7
ISO
  0
ENDBLK
  5
1F3D
  8
0
  0
BLOCK
  8
0
  2
*U79
 70
     1
 10
0.0
 20
0.0
 30
0.0
  3
*U79
  1

  0
TEXT
  5
1F3F
  8
SAPA_ARTIKELNR
 10
0.7450002064460022
 20
68.803235254265175
 30
0.0
 40
3.5
  1
52070
  7
ISO
  0
ENDBLK
  5
1F41
  8
0
  0
BLOCK
  8
0
  2
*X80
 70
     1
 10
0.0
 20
0.0
 30
0.0
  3
*X80
  1

  0
LINE
  5
2794
  8
0
 62
     0
 10
-23.727076015733811
 20
97.611249849184674
 30
0.0
 11
-19.924597928824141
 21
97.611249849184674
 31
0.0
  0
LINE
  5
2795
  8
0
 62
     0
 10
-22.693999804970179
 20
98.722499849184658
 30
0.0
 11
-20.566178415461099
 21
98.722499849184658
 31
0.0
  0
LINE
  5
2796
  8
0
 62
     0
 10
-23.06638245032158
 20
99.833749849184656
 30
0.0
 11
-20.826393202234701
 21
99.833749849184656
 31
0.0
  0
LINE
  5
2797
  8
0
 62
     0
 10
-25.69763330401614
 20
100.9449998491846
 30
0.0
 11
-20.9594410652759
 21
100.9449998491846
 31
0.0
  0
LINE
  5
2798
  8
0
 62
     0
 10
-25.72113292123262
 20
102.0562498491846
 30
0.0
 11
-23.32504221473339
 21
102.0562498491846
 31
0.0
  0
LINE
  5
2799
  8
0
 62
     0
 10
-25.72113292123262
 20
103.16749984918459
 30
0.0
 11
-23.921132921232669
 21
103.16749984918459
 31
0.0
  0
LINE
  5
279A
  8
0
 62
     0
 10
-25.72113292123262
 20
104.27874984918461
 30
0.0
 11
-23.921132921232662
 21
104.27874984918461
 31
0.0
  0
LINE
  5
279B
  8
0
 62
     0
 10
-25.721132921232609
 20
105.3899998491846
 30
0.0
 11
-23.921132921232651
 21
105.3899998491846
 31
0.0
  0
LINE
  5
279C
  8
0
 62
     0
 10
-25.721132921232609
 20
106.5012498491846
 30
0.0
 11
-23.92113292123264
 21
106.5012498491846
 31
0.0
  0
LINE
  5
279D
  8
0
 62
     0
 10
-25.721132921232609
 20
107.6124998491846
 30
0.0
 11
-23.92113292123264
 21
107.6124998491846
 31
0.0
  0
LINE
  5
279E
  8
0
 62
     0
 10
-25.721132921232609
 20
108.7237498491846
 30
0.0
 11
-23.92113292123263
 21
108.7237498491846
 31
0.0
  0
LINE
  5
279F
  8
0
 62
     0
 10
-25.721132921232599
 20
109.8349998491846
 30
0.0
 11
-23.921132921232619
 21
109.8349998491846
 31
0.0
  0
LINE
  5
27A0
  8
0
 62
     0
 10
-25.721132921232599
 20
110.9462498491846
 30
0.0
 11
-23.921132921232619
 21
110.9462498491846
 31
0.0
  0
LINE
  5
27A1
  8
0
 62
     0
 10
-25.721132921232591
 20
112.05749984918459
 30
0.0
 11
-23.921132921232608
 21
112.05749984918459
 31
0.0
  0
LINE
  5
27A2
  8
0
 62
     0
 10
-25.721132921232591
 20
113.16874984918459
 30
0.0
 11
-23.921132921232608
 21
113.16874984918459
 31
0.0
  0
LINE
  5
27A3
  8
0
 62
     0
 10
-25.721132921232581
 20
114.27999984918461
 30
0.0
 11
-23.921132921232608
 21
114.27999984918461
 31
0.0
  0
LINE
  5
27A4
  8
0
 62
     0
 10
-25.72113292123257
 20
115.3912498491846
 30
0.0
 11
-23.921132921232608
 21
115.3912498491846
 31
0.0
  0
LINE
  5
27A5
  8
0
 62
     0
 10
-25.72113292123257
 20
116.5024998491846
 30
0.0
 11
-23.921132921232608
 21
116.5024998491846
 31
0.0
  0
LINE
  5
27A6
  8
0
 62
     0
 10
-25.72113292123257
 20
117.6137498491846
 30
0.0
 11
-23.921132921232608
 21
117.6137498491846
 31
0.0
  0
LINE
  5
27A7
  8
0
 62
     0
 10
-25.721132921232559
 20
118.7249998491846
 30
0.0
 11
-23.921132921232608
 21
118.7249998491846
 31
0.0
  0
LINE
  5
27A8
  8
0
 62
     0
 10
-25.721132921232549
 20
119.8362498491846
 30
0.0
 11
-23.921132921232608
 21
119.8362498491846
 31
0.0
  0
LINE
  5
27A9
  8
0
 62
     0
 10
-25.721132921232542
 20
120.9474998491846
 30
0.0
 11
-23.314740003136372
 21
120.9474998491846
 31
0.0
  0
LINE
  5
27AA
  8
0
 62
     0
 10
-25.6962668116552
 20
122.05874984918469
 30
0.0
 11
-20.95729620970592
 21
122.05874984918469
 31
0.0
  0
LINE
  5
27AB
  8
0
 62
     0
 10
-23.056080238724519
 20
123.16999984918461
 30
0.0
 11
-20.826393202234559
 21
123.16999984918461
 31
0.0
  0
LINE
  5
27AC
  8
0
 62
     0
 10
-22.696627581414159
 20
124.2812498491846
 30
0.0
 11
-20.564013526098709
 21
124.2812498491846
 31
0.0
  0
LINE
  5
27AD
  8
0
 62
     0
 10
-23.730375837199599
 20
125.3924998491846
 30
0.0
 11
-19.922433039461691
 21
125.3924998491846
 31
0.0
  0
ENDBLK
  5
27AF
  8
0
  0
BLOCK
  8
0
  2
*X81
 70
     1
 10
0.0
 20
0.0
 30
0.0
  3
*X81
  1

  0
LINE
  5
27B1
  8
0
 62
     0
 10
1.926393202244282
 20
101.12375
 30
0.0
 11
6.126393202244258
 21
101.12375
 31
0.0
  0
LINE
  5
27B2
  8
0
 62
     0
 10
2.4847202463149021
 20
102.235
 30
0.0
 11
5.5680661581737656
 21
102.235
 31
0.0
  0
LINE
  5
27B3
  8
0
 62
     0
 10
3.0171700490124391
 20
103.34625
 30
0.0
 11
5.0228458344191846
 21
103.34625
 31
0.0
  0
LINE
  5
27B4
  8
0
 62
     0
 10
3.0263932022442921
 20
104.4575
 30
0.0
 11
6.483314575013293
 21
104.4575
 31
0.0
  0
LINE
  5
27B5
  8
0
 62
     0
 10
4.0730201698395048
 20
105.56874999999999
 30
0.0
 11
7.9263932022443848
 21
105.56874999999999
 31
0.0
  0
LINE
  5
27B6
  8
0
 62
     0
 10
6.1085692907887026
 20
106.67999999999989
 30
0.0
 11
7.9263932022443928
 21
106.67999999999989
 31
0.0
  0
LINE
  5
27B7
  8
0
 62
     0
 10
6.1263932022444862
 20
107.79125000000001
 30
0.0
 11
7.9263932022444008
 21
107.79125000000001
 31
0.0
  0
LINE
  5
27B8
  8
0
 62
     0
 10
6.1263932022444862
 20
108.9025
 30
0.0
 11
7.9263932022444088
 21
108.9025
 31
0.0
  0
LINE
  5
27B9
  8
0
 62
     0
 10
6.1263932022444862
 20
110.01375
 30
0.0
 11
7.9263932022444168
 21
110.01375
 31
0.0
  0
LINE
  5
27BA
  8
0
 62
     0
 10
6.1263932022444862
 20
111.125
 30
0.0
 11
7.9263932022444248
 21
111.125
 31
0.0
  0
LINE
  5
27BB
  8
0
 62
     0
 10
6.1263932022444862
 20
112.23625
 30
0.0
 11
7.9263932022444328
 21
112.23625
 31
0.0
  0
LINE
  5
27BC
  8
0
 62
     0
 10
6.1263932022444862
 20
113.3475
 30
0.0
 11
7.9263932022444363
 21
113.3475
 31
0.0
  0
LINE
  5
27BD
  8
0
 62
     0
 10
6.1263932022444862
 20
114.45874999999999
 30
0.0
 11
7.9263932022443928
 21
114.45874999999999
 31
0.0
  0
LINE
  5
27BE
  8
0
 62
     0
 10
6.1263932022444862
 20
115.56999999999989
 30
0.0
 11
7.9263932022443511
 21
115.56999999999989
 31
0.0
  0
LINE
  5
27BF
  8
0
 62
     0
 10
5.7465638492891848
 20
116.68125000000001
 30
0.0
 11
7.9263932022443093
 21
116.68125000000001
 31
0.0
  0
LINE
  5
27C0
  8
0
 62
     0
 10
3.2506554842880551
 20
117.7925
 30
0.0
 11
7.9134033410405209
 21
117.7925
 31
0.0
  0
LINE
  5
27C1
  8
0
 62
     0
 10
3.0263932022442921
 20
118.90375
 30
0.0
 11
5.6719337904353333
 21
118.90375
 31
0.0
  0
LINE
  5
27C2
  8
0
 62
     0
 10
2.912745327759644
 20
120.015
 30
0.0
 11
4.9078500813156607
 21
120.015
 31
0.0
  0
LINE
  5
27C3
  8
0
 62
     0
 10
2.2761524615689188
 20
121.12625
 30
0.0
 11
5.7766339429196583
 21
121.12625
 31
0.0
  0
LINE
  5
27C4
  8
0
 62
     0
 10
1.9507687222108989
 20
122.2374999999999
 30
0.0
 11
6.1020176822767871
 21
122.2374999999999
 31
0.0
  0
ENDBLK
  5
27C6
  8
0
  0
BLOCK
  8
0
  2
*X82
 70
     1
 10
0.0
 20
0.0
 30
0.0
  3
*X82
  1

  0
LINE
  5
27C8
  8
0
 62
     0
 10
-23.727076015733811
 20
97.611249849184674
 30
0.0
 11
-19.924597928824141
 21
97.611249849184674
 31
0.0
  0
LINE
  5
27C9
  8
0
 62
     0
 10
-22.693999804970179
 20
98.722499849184658
 30
0.0
 11
-20.566178415461099
 21
98.722499849184658
 31
0.0
  0
LINE
  5
27CA
  8
0
 62
     0
 10
-23.06638245032158
 20
99.833749849184656
 30
0.0
 11
-20.826393202234701
 21
99.833749849184656
 31
0.0
  0
LINE
  5
27CB
  8
0
 62
     0
 10
-25.69763330401614
 20
100.9449998491846
 30
0.0
 11
-20.9594410652759
 21
100.9449998491846
 31
0.0
  0
LINE
  5
27CC
  8
0
 62
     0
 10
-25.72113292123262
 20
102.0562498491846
 30
0.0
 11
-23.32504221473339
 21
102.0562498491846
 31
0.0
  0
LINE
  5
27CD
  8
0
 62
     0
 10
-25.72113292123262
 20
103.16749984918459
 30
0.0
 11
-23.921132921232669
 21
103.16749984918459
 31
0.0
  0
LINE
  5
27CE
  8
0
 62
     0
 10
-25.72113292123262
 20
104.27874984918461
 30
0.0
 11
-23.921132921232662
 21
104.27874984918461
 31
0.0
  0
LINE
  5
27CF
  8
0
 62
     0
 10
-25.721132921232609
 20
105.3899998491846
 30
0.0
 11
-23.921132921232651
 21
105.3899998491846
 31
0.0
  0
LINE
  5
27D0
  8
0
 62
     0
 10
-25.721132921232609
 20
106.5012498491846
 30
0.0
 11
-23.92113292123264
 21
106.5012498491846
 31
0.0
  0
LINE
  5
27D1
  8
0
 62
     0
 10
-25.721132921232609
 20
107.6124998491846
 30
0.0
 11
-23.92113292123264
 21
107.6124998491846
 31
0.0
  0
LINE
  5
27D2
  8
0
 62
     0
 10
-25.721132921232609
 20
108.7237498491846
 30
0.0
 11
-23.92113292123263
 21
108.7237498491846
 31
0.0
  0
LINE
  5
27D3
  8
0
 62
     0
 10
-25.721132921232599
 20
109.8349998491846
 30
0.0
 11
-23.921132921232619
 21
109.8349998491846
 31
0.0
  0
LINE
  5
27D4
  8
0
 62
     0
 10
-25.721132921232599
 20
110.9462498491846
 30
0.0
 11
-23.921132921232619
 21
110.9462498491846
 31
0.0
  0
LINE
  5
27D5
  8
0
 62
     0
 10
-25.721132921232591
 20
112.05749984918459
 30
0.0
 11
-23.921132921232608
 21
112.05749984918459
 31
0.0
  0
LINE
  5
27D6
  8
0
 62
     0
 10
-25.721132921232591
 20
113.16874984918459
 30
0.0
 11
-23.921132921232608
 21
113.16874984918459
 31
0.0
  0
LINE
  5
27D7
  8
0
 62
     0
 10
-25.721132921232581
 20
114.27999984918461
 30
0.0
 11
-23.921132921232608
 21
114.27999984918461
 31
0.0
  0
LINE
  5
27D8
  8
0
 62
     0
 10
-25.72113292123257
 20
115.3912498491846
 30
0.0
 11
-23.921132921232608
 21
115.3912498491846
 31
0.0
  0
LINE
  5
27D9
  8
0
 62
     0
 10
-25.72113292123257
 20
116.5024998491846
 30
0.0
 11
-23.921132921232608
 21
116.5024998491846
 31
0.0
  0
LINE
  5
27DA
  8
0
 62
     0
 10
-25.72113292123257
 20
117.6137498491846
 30
0.0
 11
-23.921132921232608
 21
117.6137498491846
 31
0.0
  0
LINE
  5
27DB
  8
0
 62
     0
 10
-25.721132921232559
 20
118.7249998491846
 30
0.0
 11
-23.921132921232608
 21
118.7249998491846
 31
0.0
  0
LINE
  5
27DC
  8
0
 62
     0
 10
-25.721132921232549
 20
119.8362498491846
 30
0.0
 11
-23.921132921232608
 21
119.8362498491846
 31
0.0
  0
LINE
  5
27DD
  8
0
 62
     0
 10
-25.721132921232542
 20
120.9474998491846
 30
0.0
 11
-23.314740003136372
 21
120.9474998491846
 31
0.0
  0
LINE
  5
27DE
  8
0
 62
     0
 10
-25.6962668116552
 20
122.05874984918469
 30
0.0
 11
-20.95729620970592
 21
122.05874984918469
 31
0.0
  0
LINE
  5
27DF
  8
0
 62
     0
 10
-23.056080238724519
 20
123.16999984918461
 30
0.0
 11
-20.826393202234559
 21
123.16999984918461
 31
0.0
  0
LINE
  5
27E0
  8
0
 62
     0
 10
-22.696627581414159
 20
124.2812498491846
 30
0.0
 11
-20.564013526098709
 21
124.2812498491846
 31
0.0
  0
LINE
  5
27E1
  8
0
 62
     0
 10
-23.730375837199599
 20
125.3924998491846
 30
0.0
 11
-19.922433039461691
 21
125.3924998491846
 31
0.0
  0
ENDBLK
  5
27E3
  8
0
  0
BLOCK
  8
0
  2
*X83
 70
     1
 10
0.0
 20
0.0
 30
0.0
  3
*X83
  1

  0
LINE
  5
27E5
  8
0
 62
     0
 10
1.926393202244282
 20
101.12375
 30
0.0
 11
6.126393202244258
 21
101.12375
 31
0.0
  0
LINE
  5
27E6
  8
0
 62
     0
 10
2.4847202463149021
 20
102.235
 30
0.0
 11
5.5680661581737656
 21
102.235
 31
0.0
  0
LINE
  5
27E7
  8
0
 62
     0
 10
3.0171700490124391
 20
103.34625
 30
0.0
 11
5.0228458344191846
 21
103.34625
 31
0.0
  0
LINE
  5
27E8
  8
0
 62
     0
 10
3.0263932022442921
 20
104.4575
 30
0.0
 11
6.483314575013293
 21
104.4575
 31
0.0
  0
LINE
  5
27E9
  8
0
 62
     0
 10
4.0730201698395048
 20
105.56874999999999
 30
0.0
 11
7.9263932022443848
 21
105.56874999999999
 31
0.0
  0
LINE
  5
27EA
  8
0
 62
     0
 10
6.1085692907887026
 20
106.67999999999989
 30
0.0
 11
7.9263932022443928
 21
106.67999999999989
 31
0.0
  0
LINE
  5
27EB
  8
0
 62
     0
 10
6.1263932022444862
 20
107.79125000000001
 30
0.0
 11
7.9263932022444008
 21
107.79125000000001
 31
0.0
  0
LINE
  5
27EC
  8
0
 62
     0
 10
6.1263932022444862
 20
108.9025
 30
0.0
 11
7.9263932022444088
 21
108.9025
 31
0.0
  0
LINE
  5
27ED
  8
0
 62
     0
 10
6.1263932022444862
 20
110.01375
 30
0.0
 11
7.9263932022444168
 21
110.01375
 31
0.0
  0
LINE
  5
27EE
  8
0
 62
     0
 10
6.1263932022444862
 20
111.125
 30
0.0
 11
7.9263932022444248
 21
111.125
 31
0.0
  0
LINE
  5
27EF
  8
0
 62
     0
 10
6.1263932022444862
 20
112.23625
 30
0.0
 11
7.9263932022444328
 21
112.23625
 31
0.0
  0
LINE
  5
27F0
  8
0
 62
     0
 10
6.1263932022444862
 20
113.3475
 30
0.0
 11
7.9263932022444363
 21
113.3475
 31
0.0
  0
LINE
  5
27F1
  8
0
 62
     0
 10
6.1263932022444862
 20
114.45874999999999
 30
0.0
 11
7.9263932022443928
 21
114.45874999999999
 31
0.0
  0
LINE
  5
27F2
  8
0
 62
     0
 10
6.1263932022444862
 20
115.56999999999989
 30
0.0
 11
7.9263932022443511
 21
115.56999999999989
 31
0.0
  0
LINE
  5
27F3
  8
0
 62
     0
 10
5.7465638492891848
 20
116.68125000000001
 30
0.0
 11
7.9263932022443093
 21
116.68125000000001
 31
0.0
  0
LINE
  5
27F4
  8
0
 62
     0
 10
3.2506554842880551
 20
117.7925
 30
0.0
 11
7.9134033410405209
 21
117.7925
 31
0.0
  0
LINE
  5
27F5
  8
0
 62
     0
 10
3.0263932022442921
 20
118.90375
 30
0.0
 11
5.6719337904353333
 21
118.90375
 31
0.0
  0
LINE
  5
27F6
  8
0
 62
     0
 10
2.912745327759644
 20
120.015
 30
0.0
 11
4.9078500813156607
 21
120.015
 31
0.0
  0
LINE
  5
27F7
  8
0
 62
     0
 10
2.2761524615689188
 20
121.12625
 30
0.0
 11
5.7766339429196583
 21
121.12625
 31
0.0
  0
LINE
  5
27F8
  8
0
 62
     0
 10
1.9507687222108989
 20
122.2374999999999
 30
0.0
 11
6.1020176822767871
 21
122.2374999999999
 31
0.0
  0
ENDBLK
  5
27FA
  8
0
  0
BLOCK
  8
0
  2
*U84
 70
     1
 10
0.0
 20
0.0
 30
0.0
  3
*U84
  1

  0
SOLID
  5
2B01
  8
SAPA_FOGBAND
  6
CONTINUOUS
 10
18.629356795612921
 20
-84.773515879680204
 30
0.0
 11
18.449079231839718
 21
-84.84818929158665
 31
0.0
 12
18.80963435938612
 22
-84.84818929158665
 32
0.0
 13
18.80963435938612
 23
-84.84818929158665
 33
0.0
210
0.0
220
0.0
230
1.0
  0
SOLID
  5
2B02
  8
SAPA_FOGBAND
  6
CONTINUOUS
 10
18.449079231839718
 20
-84.84818929158665
 30
0.0
 11
18.37440581993328
 21
-85.028466855359852
 31
0.0
 12
18.884307771292558
 22
-85.028466855359852
 32
0.0
 13
18.884307771292558
 23
-85.028466855359852
 33
0.0
210
0.0
220
0.0
230
1.0
  0
SOLID
  5
2B03
  8
SAPA_FOGBAND
  6
CONTINUOUS
 10
-18.449079231839718
 20
-84.84818929158665
 30
0.0
 11
-18.80963435938612
 21
-84.84818929158665
 31
0.0
 12
-18.884307771292558
 22
-85.028466855359852
 32
0.0
 13
-18.884307771292558
 23
-85.028466855359852
 33
0.0
210
0.0
220
0.0
230
-1.0
  0
SOLID
  5
2B04
  8
SAPA_FOGBAND
  6
CONTINUOUS
 10
-18.449079231839718
 20
-85.208744419133055
 30
0.0
 11
-18.80963435938612
 21
-85.208744419133055
 31
0.0
 12
-18.629356795612921
 22
-85.283417831039486
 32
0.0
 13
-18.629356795612921
 23
-85.283417831039486
 33
0.0
210
0.0
220
0.0
230
-1.0
  0
SOLID
  5
2B05
  8
SAPA_FOGBAND
  6
CONTINUOUS
 10
18.37440581993328
 20
-85.028466855359852
 30
0.0
 11
18.449079231839718
 21
-85.208744419133055
 31
0.0
 12
18.80963435938612
 22
-85.208744419133055
 32
0.0
 13
18.80963435938612
 23
-85.208744419133055
 33
0.0
210
0.0
220
0.0
230
1.0
  0
SOLID
  5
2B06
  8
SAPA_FOGBAND
  6
CONTINUOUS
 10
-18.37440581993328
 20
-85.028466855359852
 30
0.0
 11
-18.884307771292558
 21
-85.028466855359852
 31
0.0
 12
-18.80963435938612
 22
-85.208744419133055
 32
0.0
 13
-18.80963435938612
 23
-85.208744419133055
 33
0.0
210
0.0
220
0.0
230
-1.0
  0
LINE
  5
2B07
  8
SAPA_FOGBAND
  6
CONTINUOUS
 10
18.629356795612921
 20
-84.773515879680204
 30
0.0
 11
18.449079231839718
 21
-84.84818929158665
 31
0.0
  0
LINE
  5
2B08
  8
SAPA_FOGBAND
  6
CONTINUOUS
 10
18.80963435938612
 20
-84.84818929158665
 30
0.0
 11
18.629356795612921
 21
-84.773515879680204
 31
0.0
  0
LINE
  5
2B09
  8
SAPA_FOGBAND
  6
CONTINUOUS
 10
18.449079231839718
 20
-84.84818929158665
 30
0.0
 11
18.37440581993328
 21
-85.028466855359852
 31
0.0
  0
LINE
  5
2B0A
  8
SAPA_FOGBAND
  6
CONTINUOUS
 10
18.80963435938612
 20
-84.84818929158665
 30
0.0
 11
18.884307771292558
 21
-85.028466855359852
 31
0.0
  0
LINE
  5
2B0B
  8
SAPA_FOGBAND
  6
CONTINUOUS
 10
18.80963435938612
 20
-85.208744419133055
 30
0.0
 11
18.629356795612921
 21
-85.283417831039486
 31
0.0
  0
LINE
  5
2B0C
  8
SAPA_FOGBAND
  6
CONTINUOUS
 10
18.629356795612921
 20
-85.283417831039486
 30
0.0
 11
18.449079231839718
 21
-85.208744419133055
 31
0.0
  0
LINE
  5
2B0D
  8
SAPA_FOGBAND
  6
CONTINUOUS
 10
18.37440581993328
 20
-85.028466855359852
 30
0.0
 11
18.449079231839718
 21
-85.208744419133055
 31
0.0
  0
LINE
  5
2B0E
  8
SAPA_FOGBAND
  6
CONTINUOUS
 10
18.884307771292558
 20
-85.028466855359852
 30
0.0
 11
18.80963435938612
 21
-85.208744419133055
 31
0.0
  0
ENDBLK
  5
2B10
  8
0
  0
BLOCK
  8
0
  2
*U85
 70
     1
 10
0.0
 20
0.0
 30
0.0
  3
*U85
  1

  0
SOLID
  5
2EF5
  8
SAPA_FOGBAND
  6
CONTINUOUS
 10
18.629356795612921
 20
-84.773515879680204
 30
0.0
 11
18.449079231839718
 21
-84.84818929158665
 31
0.0
 12
18.80963435938612
 22
-84.84818929158665
 32
0.0
 13
18.80963435938612
 23
-84.84818929158665
 33
0.0
210
0.0
220
0.0
230
1.0
  0
SOLID
  5
2EF6
  8
SAPA_FOGBAND
  6
CONTINUOUS
 10
18.449079231839718
 20
-84.84818929158665
 30
0.0
 11
18.37440581993328
 21
-85.028466855359852
 31
0.0
 12
18.884307771292558
 22
-85.028466855359852
 32
0.0
 13
18.884307771292558
 23
-85.028466855359852
 33
0.0
210
0.0
220
0.0
230
1.0
  0
SOLID
  5
2EF7
  8
SAPA_FOGBAND
  6
CONTINUOUS
 10
-18.449079231839718
 20
-84.84818929158665
 30
0.0
 11
-18.80963435938612
 21
-84.84818929158665
 31
0.0
 12
-18.884307771292558
 22
-85.028466855359852
 32
0.0
 13
-18.884307771292558
 23
-85.028466855359852
 33
0.0
210
0.0
220
0.0
230
-1.0
  0
SOLID
  5
2EF8
  8
SAPA_FOGBAND
  6
CONTINUOUS
 10
-18.449079231839718
 20
-85.208744419133055
 30
0.0
 11
-18.80963435938612
 21
-85.208744419133055
 31
0.0
 12
-18.629356795612921
 22
-85.283417831039486
 32
0.0
 13
-18.629356795612921
 23
-85.283417831039486
 33
0.0
210
0.0
220
0.0
230
-1.0
  0
SOLID
  5
2EF9
  8
SAPA_FOGBAND
  6
CONTINUOUS
 10
18.37440581993328
 20
-85.028466855359852
 30
0.0
 11
18.449079231839718
 21
-85.208744419133055
 31
0.0
 12
18.80963435938612
 22
-85.208744419133055
 32
0.0
 13
18.80963435938612
 23
-85.208744419133055
 33
0.0
210
0.0
220
0.0
230
1.0
  0
SOLID
  5
2EFA
  8
SAPA_FOGBAND
  6
CONTINUOUS
 10
-18.37440581993328
 20
-85.028466855359852
 30
0.0
 11
-18.884307771292558
 21
-85.028466855359852
 31
0.0
 12
-18.80963435938612
 22
-85.208744419133055
 32
0.0
 13
-18.80963435938612
 23
-85.208744419133055
 33
0.0
210
0.0
220
0.0
230
-1.0
  0
LINE
  5
2EFB
  8
SAPA_FOGBAND
  6
CONTINUOUS
 10
18.629356795612921
 20
-84.773515879680204
 30
0.0
 11
18.449079231839718
 21
-84.84818929158665
 31
0.0
  0
LINE
  5
2EFC
  8
SAPA_FOGBAND
  6
CONTINUOUS
 10
18.80963435938612
 20
-84.84818929158665
 30
0.0
 11
18.629356795612921
 21
-84.773515879680204
 31
0.0
  0
LINE
  5
2EFD
  8
SAPA_FOGBAND
  6
CONTINUOUS
 10
18.449079231839718
 20
-84.84818929158665
 30
0.0
 11
18.37440581993328
 21
-85.028466855359852
 31
0.0
  0
LINE
  5
2EFE
  8
SAPA_FOGBAND
  6
CONTINUOUS
 10
18.80963435938612
 20
-84.84818929158665
 30
0.0
 11
18.884307771292558
 21
-85.028466855359852
 31
0.0
  0
LINE
  5
2EFF
  8
SAPA_FOGBAND
  6
CONTINUOUS
 10
18.80963435938612
 20
-85.208744419133055
 30
0.0
 11
18.629356795612921
 21
-85.283417831039486
 31
0.0
  0
LINE
  5
2F00
  8
SAPA_FOGBAND
  6
CONTINUOUS
 10
18.629356795612921
 20
-85.283417831039486
 30
0.0
 11
18.449079231839718
 21
-85.208744419133055
 31
0.0
  0
LINE
  5
2F01
  8
SAPA_FOGBAND
  6
CONTINUOUS
 10
18.37440581993328
 20
-85.028466855359852
 30
0.0
 11
18.449079231839718
 21
-85.208744419133055
 31
0.0
  0
LINE
  5
2F02
  8
SAPA_FOGBAND
  6
CONTINUOUS
 10
18.884307771292558
 20
-85.028466855359852
 30
0.0
 11
18.80963435938612
 21
-85.208744419133055
 31
0.0
  0
ENDBLK
  5
2F04
  8
0
  0
BLOCK
  8
0
  2
*U86
 70
     1
 10
0.0
 20
0.0
 30
0.0
  3
*U86
  1

  0
TEXT
  5
2FF6
  8
SAPA_MATT
 62
     2
 10
27.44999999999909
 20
47.592369856398868
 30
0.0
 40
3.0
  1
7
  7
ISO
  0
ENDBLK
  5
2FF8
  8
0
  0
BLOCK
  8
0
  2
*U87
 70
     1
 10
0.0
 20
0.0
 30
0.0
  3
*U87
  1

  0
TEXT
  5
2FFA
  8
SAPA_MATT
 62
     2
 10
58.71513115790929
 20
109.24999999999901
 30
0.0
 40
3.0
  1
74
 50
90.0
  7
ISO
  0
ENDBLK
  5
2FFC
  8
0
  0
BLOCK
  8
0
  2
*U88
 70
     1
 10
0.0
 20
0.0
 30
0.0
  3
*U88
  1

  0
TEXT
  5
2FFE
  8
SAPA_MATT
 62
     2
 10
-2.1000000000003398
 20
-124.8699098731156
 30
0.0
 40
3.0
  1
50
  7
ISO
  0
ENDBLK
  5
3000
  8
0
  0
ENDSEC
  0
SECTION
  2
ENTITIES
  0
INSERT
  5
A83
  8
0
  2
*U74
 10
0.0
 20
0.0
 30
0.0
  0
INSERT
  5
A84
  8
0
  2
*U75
 10
0.0
 20
0.0
 30
0.0
  0
POLYLINE
  5
B89
  8
SAPA_LIGHT
 66
     1
 10
0.0
 20
0.0
 30
0.0
  0
VERTEX
  5
1F06
  8
SAPA_LIGHT
 10
-37.000000000000661
 20
68.578300773496025
 30
0.0
  0
VERTEX
  5
1F07
  8
SAPA_LIGHT
 10
25.000000000000231
 20
68.578300773496025
 30
0.0
  0
VERTEX
  5
1F08
  8
SAPA_LIGHT
 10
25.000000000000231
 20
-44.499999999010349
 30
0.0
  0
VERTEX
  5
1F09
  8
SAPA_LIGHT
 10
5.0000000000002274
 20
-44.499999999010342
 30
0.0
  0
VERTEX
  5
1F0A
  8
SAPA_LIGHT
 10
5.0000000000002229
 20
-82.499999999011948
 30
0.0
  0
VERTEX
  5
1F0B
  8
SAPA_LIGHT
 10
24.999999999999648
 20
-82.499999999011948
 30
0.0
  0
VERTEX
  5
1F0C
  8
SAPA_LIGHT
 10
24.999999999999659
 20
-106.4999999990105
 30
0.0
  0
VERTEX
  5
1F0D
  8
SAPA_LIGHT
 10
-25.000000000000352
 20
-106.4999999990104
 30
0.0
  0
VERTEX
  5
1F0E
  8
SAPA_LIGHT
 10
-25.000000000000352
 20
-86.503916480914654
 30
0.0
  0
VERTEX
  5
1F0F
  8
SAPA_LIGHT
 10
-37.000000000000348
 20
-86.507832962818838
 30
0.0
  0
VERTEX
  5
1F10
  8
SAPA_LIGHT
 10
-37.000000000000661
 20
68.578300773496025
 30
0.0
  0
SEQEND
  5
1F11
  8
SAPA_LIGHT
  0
POLYLINE
  5
B91
  8
SAPA_LIGHT
 66
     1
 10
0.0
 20
0.0
 30
0.0
  0
VERTEX
  5
1F12
  8
SAPA_LIGHT
 10
-59.795903614460357
 20
106.8999999999986
 30
0.0
  0
VERTEX
  5
1F13
  8
SAPA_LIGHT
 10
-30.99590361446058
 20
106.8999999999989
 30
0.0
  0
VERTEX
  5
1F14
  8
SAPA_LIGHT
 10
-30.99590361446058
 20
82.899999999998897
 30
0.0
  0
VERTEX
  5
1F15
  8
SAPA_LIGHT
 10
-59.795903614460357
 20
82.899999999998897
 30
0.0
  0
SEQEND
  5
1F16
  8
SAPA_LIGHT
  0
POLYLINE
  5
B92
  8
SAPA_LIGHT
 66
     1
 10
0.0
 20
0.0
 30
0.0
  0
VERTEX
  5
1F17
  8
SAPA_LIGHT
 10
41.00000000000022
 20
124.49999999999881
 30
0.0
  0
VERTEX
  5
1F18
  8
SAPA_LIGHT
 10
41.000000000000163
 20
74.499999999998806
 30
0.0
  0
VERTEX
  5
1F19
  8
SAPA_LIGHT
 10
-47.995903614460289
 20
74.499999999998806
 30
0.0
  0
VERTEX
  5
1F1A
  8
SAPA_LIGHT
 10
-47.995903614460289
 20
82.899999999998897
 30
0.0
  0
VERTEX
  5
1F1B
  8
SAPA_LIGHT
 10
-25.795903614460261
 20
82.899999999998897
 30
0.0
  0
VERTEX
  5
1F1C
  8
SAPA_LIGHT
 10
-25.795903614460261
 20
106.8999999999989
 30
0.0
  0
VERTEX
  5
1F1D
  8
SAPA_LIGHT
 10
-47.995903614460417
 20
106.899999999999
 30
0.0
  0
VERTEX
  5
1F1E
  8
SAPA_LIGHT
 10
-47.995903614460438
 20
124.49999999999881
 30
0.0
  0
VERTEX
  5
1F1F
  8
SAPA_LIGHT
 10
41.00000000000022
 20
124.49999999999881
 30
0.0
  0
SEQEND
  5
1F20
  8
SAPA_LIGHT
  0
POLYLINE
  5
BE6
  8
SAPA_LIGHT
 66
     1
 10
0.0
 20
0.0
 30
0.0
  0
VERTEX
  5
1F21
  8
SAPA_LIGHT
 10
40.999999999995673
 20
-44.499999999010349
 30
0.0
  0
VERTEX
  5
1F22
  8
SAPA_LIGHT
 10
10.99999999999568
 20
-44.499999999010349
 30
0.0
  0
VERTEX
  5
1F23
  8
SAPA_LIGHT
 10
10.99999999999568
 20
-82.499999999011948
 30
0.0
  0
VERTEX
  5
1F24
  8
SAPA_LIGHT
 10
40.999999999995673
 20
-82.499999999011948
 30
0.0
  0
SEQEND
  5
1F25
  8
SAPA_LIGHT
  0
POLYLINE
  5
16B5
  8
SAPA_ANSLUTNING
 66
     1
 10
0.0
 20
0.0
 30
0.0
 70
     1
  0
VERTEX
  5
1F26
  8
SAPA_ANSLUTNING
 10
-24.999999999999751
 20
-85.007832962818867
 30
0.0
  0
VERTEX
  5
1F27
  8
SAPA_ANSLUTNING
 10
-24.999999999999769
 20
-35.500000000001172
 30
0.0
  0
VERTEX
  5
1F28
  8
SAPA_ANSLUTNING
 10
-5.0
 20
-35.500000000001172
 30
0.0
  0
VERTEX
  5
1F29
  8
SAPA_ANSLUTNING
 10
-5.0
 20
-85.007832962818867
 30
0.0
  0
SEQEND
  5
1F2A
  8
SAPA_ANSLUTNING
  0
POLYLINE
  5
16B6
  8
SAPA_ANSLUTNING
 66
     1
 10
0.0
 20
0.0
 30
0.0
  0
VERTEX
  5
1F2B
  8
SAPA_ANSLUTNING
 10
-24.999999999999719
 20
-85.007832962818895
 30
0.0
  0
VERTEX
  5
1F2C
  8
SAPA_ANSLUTNING
 10
-4.9999999999999432
 20
-73.498647616356465
 30
0.0
  0
VERTEX
  5
1F2D
  8
SAPA_ANSLUTNING
 10
-24.999999999999719
 20
-63.489462269894091
 30
0.0
  0
VERTEX
  5
1F2E
  8
SAPA_ANSLUTNING
 10
-5.0
 20
-53.480276923431653
 30
0.0
  0
VERTEX
  5
1F2F
  8
SAPA_ANSLUTNING
 10
-24.990814653529331
 20
-45.50000000000118
 30
0.0
  0
VERTEX
  5
1F30
  8
SAPA_ANSLUTNING
 10
-5.2530121605442437
 20
-35.500000000001158
 30
0.0
  0
SEQEND
  5
1F31
  8
SAPA_ANSLUTNING
  0
INSERT
  5
16B8
  8
0
  2
*U76
 10
0.0
 20
0.0
 30
0.0
  0
INSERT
  5
16B9
  8
0
  2
*U77
 10
0.0
 20
0.0
 30
0.0
  0
INSERT
  5
16BA
  8
0
  2
*U78
 10
0.0
 20
0.0
 30
0.0
  0
LINE
  5
16C0
  8
SAPA_ANSLUTNING
 10
-24.999999999999769
 20
-74.636884046168348
 30
0.0
 11
-35.50000000000049
 21
-63.627698699705952
 31
0.0
  0
LINE
  5
16C1
  8
SAPA_ANSLUTNING
 10
-35.50000000000049
 20
-63.627698699705952
 30
0.0
 11
-24.999999999999769
 21
-53.618513353243543
 31
0.0
  0
LINE
  5
16C2
  8
SAPA_ANSLUTNING
 10
-24.999999999999769
 20
-53.618513353243543
 30
0.0
 11
-35.50000000000049
 21
-43.609328006781141
 31
0.0
  0
LINE
  5
16C3
  8
SAPA_ANSLUTNING
 10
-35.50000000000049
 20
-43.609328006781141
 30
0.0
 11
-24.999999999999769
 21
-33.609328006789099
 31
0.0
  0
LINE
  5
16C4
  8
SAPA_ANSLUTNING
 10
-24.999999999999769
 20
-33.609328006789099
 30
0.0
 11
-35.50000000000049
 21
-23.60932800679706
 31
0.0
  0
LINE
  5
16C5
  8
SAPA_ANSLUTNING
 10
-35.50000000000049
 20
-23.60932800679706
 30
0.0
 11
-24.990814653529579
 21
-13.600142660334649
 31
0.0
  0
LINE
  5
16C6
  8
SAPA_ANSLUTNING
 10
-24.990814653529579
 20
-13.600142660334649
 30
0.0
 11
-35.50000000000049
 21
-3.5909573138722228
 31
0.0
  0
LINE
  5
16C7
  8
SAPA_ANSLUTNING
 10
-35.50000000000049
 20
-3.5909573138722228
 30
0.0
 11
-25.000000000010001
 21
6.4090426861098422
 31
0.0
  0
LINE
  5
16C8
  8
SAPA_ANSLUTNING
 10
-25.000000000010001
 20
6.4090426861098422
 30
0.0
 11
-35.50000000000049
 21
16.409042686091961
 31
0.0
  0
LINE
  5
16C9
  8
SAPA_ANSLUTNING
 10
-35.50000000000049
 20
16.409042686091961
 30
0.0
 11
-24.990814653529579
 21
26.418228032554339
 31
0.0
  0
LINE
  5
16CA
  8
SAPA_ANSLUTNING
 10
-24.990814653529579
 20
26.418228032554339
 30
0.0
 11
-35.50000000000049
 21
36.42741337901677
 31
0.0
  0
LINE
  5
16CB
  8
SAPA_ANSLUTNING
 10
-35.50000000000049
 20
36.42741337901677
 30
0.0
 11
-25.0
 21
46.427413379008719
 31
0.0
  0
LINE
  5
16CC
  8
SAPA_ANSLUTNING
 10
-25.0
 20
46.427413379008719
 30
0.0
 11
-35.50000000000049
 21
56.427413379000797
 31
0.0
  0
LINE
  5
16CD
  8
SAPA_ANSLUTNING
 10
-35.50000000000049
 20
56.427413379000797
 30
0.0
 11
-25.0
 21
66.42741337899281
 31
0.0
  0
LINE
  5
16CE
  8
SAPA_ANSLUTNING
 10
-25.0
 20
66.42741337899281
 30
0.0
 11
-27.557849360498722
 21
68.999999999998835
 31
0.0
  0
LINE
  5
16D0
  8
SAPA_ANSLUTNING
 10
-24.999999999999769
 20
68.999999999998806
 30
0.0
 11
-24.999999999999769
 21
-37.507832962818902
 31
0.0
  0
LINE
  5
16D1
  8
SAPA_ANSLUTNING
 10
-26.000000000000679
 20
68.999999999998835
 30
0.0
 11
-25.021238481693668
 21
68.999999999998835
 31
0.0
  0
LINE
  5
16D2
  8
SAPA_ANSLUTNING
 10
-24.999999999999769
 20
-74.636884046168348
 30
0.0
 11
-34.891282615187038
 21
-85.007832962818867
 31
0.0
  0
INSERT
  5
1894
  8
0
  2
*U79
 10
0.0
 20
0.0
 30
0.0
  0
LINE
  5
1C0E
  8
SAPA_PROFIL
 10
-35.500000000000568
 20
68.499999999998835
 30
0.0
 11
-35.500000000000227
 21
-85.007832962818867
 31
0.0
  0
LINE
  5
1C0F
  8
SAPA_PROFIL
 10
-35.500000000000227
 20
-85.007832962818867
 30
0.0
 11
-6.0000000000002274
 21
-85.007832962818867
 31
0.0
  0
LINE
  5
1C10
  8
SAPA_PROFIL
 10
-6.0000000000002274
 20
-85.007832962818867
 30
0.0
 11
-6.0000000000002274
 21
-86.507832962818867
 31
0.0
  0
LINE
  5
1C11
  8
SAPA_PROFIL
 10
-6.0000000000002274
 20
-86.507832962818867
 30
0.0
 11
-36.000000000000227
 21
-86.507832962818867
 31
0.0
  0
ARC
  5
1C12
  8
SAPA_PROFIL
 10
-36.000000000000227
 20
-85.507832962818867
 30
0.0
 40
1.0
 50
180.0
 51
270.0
  0
LINE
  5
1C13
  8
SAPA_PROFIL
 10
-37.000000000000227
 20
-85.507832962818867
 30
0.0
 11
-37.000000000000568
 21
68.499999999998835
 31
0.0
  0
ARC
  5
1C14
  8
SAPA_PROFIL
 10
-35.000000000000512
 20
68.499999999998764
 30
0.0
 40
2.000000000000056
 50
89.999999999998366
 51
179.99999999999841
  0
LINE
  5
1C15
  8
SAPA_PROFIL
 10
-35.000000000000462
 20
70.499999999998835
 30
0.0
 11
-26.000000000000679
 21
70.499999999998835
 31
0.0
  0
LINE
  5
1C16
  8
SAPA_PROFIL
 10
-26.000000000000679
 20
70.499999999998835
 30
0.0
 11
-26.000000000000679
 21
68.999999999998835
 31
0.0
  0
LINE
  5
1C17
  8
SAPA_PROFIL
 10
-26.000000000000679
 20
68.999999999998835
 30
0.0
 11
-35.000000000000462
 21
68.999999999998835
 31
0.0
  0
ARC
  5
1C18
  8
SAPA_PROFIL
 10
-35.000000000000497
 20
68.499999999998764
 30
0.0
 40
0.5000000000000711
 50
89.999999999995111
 51
179.99999999999179
  0
POLYLINE
  5
1DA4
  8
SAPA_PROFIL
 66
     1
 10
0.0
 20
0.0
 30
0.0
 70
     1
  0
VERTEX
  5
2346
  8
SAPA_PROFIL
 10
12.99999999999795
 20
68.465925826287886
 30
0.0
  0
VERTEX
  5
2347
  8
SAPA_PROFIL
 10
11.99999999999795
 20
67.465925826287886
 30
0.0
  0
VERTEX
  5
2348
  8
SAPA_PROFIL
 10
0.9999999999979536
 20
67.465925826287886
 30
0.0
  0
VERTEX
  5
2349
  8
SAPA_PROFIL
 10
-0.0000000000020464
 20
68.465925826287886
 30
0.0
  0
VERTEX
  5
234A
  8
SAPA_PROFIL
 10
-2.4999992579301979
 20
68.465925826287886
 30
0.0
 42
1.0000014841447959
  0
VERTEX
  5
234B
  8
SAPA_PROFIL
 10
-2.4999992579301979
 20
67.465925826288455
 30
0.0
  0
VERTEX
  5
234C
  8
SAPA_PROFIL
 10
-1.2500000000020459
 20
67.465925826287886
 30
0.0
  0
VERTEX
  5
234D
  8
SAPA_PROFIL
 10
-1.2500000000020459
 20
66.365925826287864
 30
0.0
  0
VERTEX
  5
234E
  8
SAPA_PROFIL
 10
-8.7500000000020464
 20
66.365925826287864
 30
0.0
  0
VERTEX
  5
234F
  8
SAPA_PROFIL
 10
-8.7500000000020464
 20
67.465925826287886
 30
0.0
  0
VERTEX
  5
2350
  8
SAPA_PROFIL
 10
-7.4999980971990681
 20
67.465925826287886
 30
0.0
 42
0.9999967549392536
  0
VERTEX
  5
2351
  8
SAPA_PROFIL
 10
-7.49999865773907
 20
68.465925826286053
 30
0.0
  0
VERTEX
  5
2352
  8
SAPA_PROFIL
 10
-9.5358983848643675
 20
68.465925826287886
 30
0.0
  0
VERTEX
  5
2353
  8
SAPA_PROFIL
 10
-11.500000000002039
 20
67.331951230072306
 30
0.0
 42
0.577350269189629
  0
VERTEX
  5
2354
  8
SAPA_PROFIL
 10
-11.500000000002039
 20
65.599900422503396
 30
0.0
  0
VERTEX
  5
2355
  8
SAPA_PROFIL
 10
-9.7679491924333206
 20
64.599900422503467
 30
0.0
 42
0.4142135623730394
  0
VERTEX
  5
2356
  8
SAPA_PROFIL
 10
-8.4019237886489009
 20
64.965925826287716
 30
0.0
  0
VERTEX
  5
2357
  8
SAPA_PROFIL
 10
21.401923788644812
 20
64.965925826287716
 30
0.0
 42
0.4142135623730394
  0
VERTEX
  5
2358
  8
SAPA_PROFIL
 10
22.767949192429111
 20
64.599900422503467
 30
0.0
  0
VERTEX
  5
2359
  8
SAPA_PROFIL
 10
24.49999999999795
 20
65.599900422503396
 30
0.0
 42
0.5773502691896291
  0
VERTEX
  5
235A
  8
SAPA_PROFIL
 10
24.49999999999795
 20
67.331951230072306
 30
0.0
  0
VERTEX
  5
235B
  8
SAPA_PROFIL
 10
22.535898384860161
 20
68.465925826287886
 30
0.0
  0
VERTEX
  5
235C
  8
SAPA_PROFIL
 10
20.49999865773492
 20
68.465925826286053
 30
0.0
 42
0.9999967549392536
  0
VERTEX
  5
235D
  8
SAPA_PROFIL
 10
20.499998097194919
 20
67.465925826287886
 30
0.0
  0
VERTEX
  5
235E
  8
SAPA_PROFIL
 10
21.74999999999795
 20
67.465925826287886
 30
0.0
  0
VERTEX
  5
235F
  8
SAPA_PROFIL
 10
21.74999999999795
 20
66.365925826287864
 30
0.0
  0
VERTEX
  5
2360
  8
SAPA_PROFIL
 10
14.24999999999795
 20
66.365925826287864
 30
0.0
  0
VERTEX
  5
2361
  8
SAPA_PROFIL
 10
14.24999999999795
 20
67.465925826287886
 30
0.0
  0
VERTEX
  5
2362
  8
SAPA_PROFIL
 10
15.499999257926101
 20
67.465925826288455
 30
0.0
 42
1.0000014841447959
  0
VERTEX
  5
2363
  8
SAPA_PROFIL
 10
15.499999257926101
 20
68.465925826287886
 30
0.0
  0
SEQEND
  5
2364
  8
SAPA_PROFIL
  0
POLYLINE
  5
1DA5
  8
SAPA_PROFIL
  6
CONTINUOUS
 66
     1
 10
0.0
 20
0.0
 30
0.0
 70
     1
  0
VERTEX
  5
2365
  8
SAPA_PROFIL
  6
CONTINUOUS
 10
-13.799999999998249
 20
78.500000004083802
 30
0.0
 42
0.414213562374094
  0
VERTEX
  5
2366
  8
SAPA_PROFIL
  6
CONTINUOUS
 10
-14.099999999998319
 20
78.800000004082847
 30
0.0
  0
VERTEX
  5
2367
  8
SAPA_PROFIL
  6
CONTINUOUS
 10
-14.999999999998289
 20
78.800000004083756
 30
0.0
 42
0.4142135623730951
  0
VERTEX
  5
2368
  8
SAPA_PROFIL
  6
CONTINUOUS
 10
-15.299999999998249
 20
78.500000004083802
 30
0.0
  0
VERTEX
  5
2369
  8
SAPA_PROFIL
  6
CONTINUOUS
 10
-15.299999999998249
 20
77.000000004083802
 30
0.0
 42
-0.4142135623730951
  0
VERTEX
  5
236A
  8
SAPA_PROFIL
  6
CONTINUOUS
 10
-15.799999999998249
 20
76.500000004083802
 30
0.0
  0
VERTEX
  5
236B
  8
SAPA_PROFIL
  6
CONTINUOUS
 10
-18.799999999984259
 20
76.500000004051856
 30
0.0
 42
-0.4142135623760252
  0
VERTEX
  5
236C
  8
SAPA_PROFIL
  6
CONTINUOUS
 10
-19.299999999989261
 20
77.000000004051856
 30
0.0
  0
VERTEX
  5
236D
  8
SAPA_PROFIL
  6
CONTINUOUS
 10
-19.299999999989261
 20
93.700000000013858
 30
0.0
 42
-0.4142135623760253
  0
VERTEX
  5
236E
  8
SAPA_PROFIL
  6
CONTINUOUS
 10
-18.799999999984259
 20
94.200000000013844
 30
0.0
  0
VERTEX
  5
236F
  8
SAPA_PROFIL
  6
CONTINUOUS
 10
-15.799999999998249
 20
94.199999999981799
 30
0.0
 42
-0.4142135623730951
  0
VERTEX
  5
2370
  8
SAPA_PROFIL
  6
CONTINUOUS
 10
-15.299999999998249
 20
93.699999999981799
 30
0.0
  0
VERTEX
  5
2371
  8
SAPA_PROFIL
  6
CONTINUOUS
 10
-15.29999999999734
 20
92.49999999998289
 30
0.0
 42
0.414213562374094
  0
VERTEX
  5
2372
  8
SAPA_PROFIL
  6
CONTINUOUS
 10
-14.999999999998289
 20
92.199999999982822
 30
0.0
  0
VERTEX
  5
2373
  8
SAPA_PROFIL
  6
CONTINUOUS
 10
-14.099999999998319
 20
92.199999999982822
 30
0.0
 42
0.414213562375093
  0
VERTEX
  5
2374
  8
SAPA_PROFIL
  6
CONTINUOUS
 10
-13.799999999998249
 20
92.49999999998289
 30
0.0
  0
VERTEX
  5
2375
  8
SAPA_PROFIL
  6
CONTINUOUS
 10
-13.799999999999271
 20
93.899999999982853
 30
0.0
 42
-0.414213562374094
  0
VERTEX
  5
2376
  8
SAPA_PROFIL
  6
CONTINUOUS
 10
-13.499999999998289
 20
94.199999999982822
 30
0.0
  0
VERTEX
  5
2377
  8
SAPA_PROFIL
  6
CONTINUOUS
 10
-3.622258092416359
 20
94.199999999998056
 30
0.0
 42
0.267949192430926
  0
VERTEX
  5
2378
  8
SAPA_PROFIL
  6
CONTINUOUS
 10
-1.4571945829583219
 20
95.449999999999875
 30
0.0
  0
VERTEX
  5
2379
  8
SAPA_PROFIL
  6
CONTINUOUS
 10
0.159386170804737
 20
98.250000000059856
 30
0.0
 42
-0.2679491924363432
  0
VERTEX
  5
237A
  8
SAPA_PROFIL
  6
CONTINUOUS
 10
0.592398872705644
 20
98.500000000060879
 30
0.0
  0
VERTEX
  5
237B
  8
SAPA_PROFIL
  6
CONTINUOUS
 10
5.7000000000047057
 20
98.499999999968907
 30
0.0
 42
-0.4142135623682002
  0
VERTEX
  5
237C
  8
SAPA_PROFIL
  6
CONTINUOUS
 10
5.9999999999996581
 20
98.199999999968895
 30
0.0
  0
VERTEX
  5
237D
  8
SAPA_PROFIL
  6
CONTINUOUS
 10
5.9999999999996581
 20
97.799999996326775
 30
0.0
 42
0.4142135623730784
  0
VERTEX
  5
237E
  8
SAPA_PROFIL
  6
CONTINUOUS
 10
6.4999999999996581
 20
97.299999996326846
 30
0.0
  0
VERTEX
  5
237F
  8
SAPA_PROFIL
  6
CONTINUOUS
 10
17.999999999998749
 20
97.299999996326846
 30
0.0
 42
-0.4142135623730951
  0
VERTEX
  5
2380
  8
SAPA_PROFIL
  6
CONTINUOUS
 10
18.299999999998821
 20
96.999999996326835
 30
0.0
  0
VERTEX
  5
2381
  8
SAPA_PROFIL
  6
CONTINUOUS
 10
18.2999999999987
 20
96.799999996326903
 30
0.0
 42
0.4142135623730951
  0
VERTEX
  5
2382
  8
SAPA_PROFIL
  6
CONTINUOUS
 10
18.599999999998658
 20
96.499999996326906
 30
0.0
  0
VERTEX
  5
2383
  8
SAPA_PROFIL
  6
CONTINUOUS
 10
21.000000000014658
 20
96.499999996326835
 30
0.0
 42
-0.4142135623730951
  0
VERTEX
  5
2384
  8
SAPA_PROFIL
  6
CONTINUOUS
 10
21.30000000001473
 20
96.199999996326824
 30
0.0
  0
VERTEX
  5
2385
  8
SAPA_PROFIL
  6
CONTINUOUS
 10
21.299999999945729
 20
94.700000000032844
 30
0.0
 42
0.4142135623730951
  0
VERTEX
  5
2386
  8
SAPA_PROFIL
  6
CONTINUOUS
 10
21.799999999945719
 20
94.200000000032844
 30
0.0
  0
VERTEX
  5
2387
  8
SAPA_PROFIL
  6
CONTINUOUS
 10
29.999999999934751
 20
94.200000000032844
 30
0.0
 42
-0.4142135623730951
  0
VERTEX
  5
2388
  8
SAPA_PROFIL
  6
CONTINUOUS
 10
30.299999999934808
 20
93.900000000032875
 30
0.0
  0
VERTEX
  5
2389
  8
SAPA_PROFIL
  6
CONTINUOUS
 10
30.300000000006658
 20
85.2000000000358
 30
0.0
 42
-0.4142135623711971
  0
VERTEX
  5
238A
  8
SAPA_PROFIL
  6
CONTINUOUS
 10
30.000000000005681
 20
84.900000000032904
 30
0.0
  0
VERTEX
  5
238B
  8
SAPA_PROFIL
  6
CONTINUOUS
 10
25.50000000001376
 20
84.899999999998897
 30
0.0
 42
0.4142135623686664
  0
VERTEX
  5
238C
  8
SAPA_PROFIL
  6
CONTINUOUS
 10
22.800000000034739
 20
82.200000000018875
 30
0.0
  0
VERTEX
  5
238D
  8
SAPA_PROFIL
  6
CONTINUOUS
 10
22.799999999996661
 20
77.099999998220881
 30
0.0
 42
-0.414213562636633
  0
VERTEX
  5
238E
  8
SAPA_PROFIL
  6
CONTINUOUS
 10
22.499999999723741
 20
76.799999998223882
 30
0.0
  0
VERTEX
  5
238F
  8
SAPA_PROFIL
  6
CONTINUOUS
 10
17.924264068847599
 20
76.800000001680985
 30
0.0
 42
0.1989123675764697
  0
VERTEX
  5
2390
  8
SAPA_PROFIL
  6
CONTINUOUS
 10
17.712132034264641
 20
76.712132036036508
 30
0.0
  0
VERTEX
  5
2391
  8
SAPA_PROFIL
  6
CONTINUOUS
 10
17.58786796795982
 20
76.587867969731235
 30
0.0
 42
-0.1989123673801594
  0
VERTEX
  5
2392
  8
SAPA_PROFIL
  6
CONTINUOUS
 10
17.37573593360344
 20
76.500000004086758
 30
0.0
  0
VERTEX
  5
2393
  8
SAPA_PROFIL
  6
CONTINUOUS
 10
-6.3757359313132147
 20
76.500000004085905
 30
0.0
 42
-0.1989123673800758
  0
VERTEX
  5
2394
  8
SAPA_PROFIL
  6
CONTINUOUS
 10
-6.5878679656694876
 20
76.587867969730269
 30
0.0
  0
VERTEX
  5
2395
  8
SAPA_PROFIL
  6
CONTINUOUS
 10
-6.712132034346836
 20
76.712132038407958
 30
0.0
 42
0.1989123673789671
  0
VERTEX
  5
2396
  8
SAPA_PROFIL
  6
CONTINUOUS
 10
-6.9242640687017447
 20
76.800000004052436
 30
0.0
  0
VERTEX
  5
2397
  8
SAPA_PROFIL
  6
CONTINUOUS
 10
-13.499999999998289
 20
76.800000004082847
 30
0.0
 42
-0.414213562374094
  0
VERTEX
  5
2398
  8
SAPA_PROFIL
  6
CONTINUOUS
 10
-13.799999999999271
 20
77.100000004082801
 30
0.0
  0
SEQEND
  5
2399
  8
SAPA_PROFIL
  6
CONTINUOUS
  0
ARC
  5
1DA6
  8
SAPA_PROFIL
  6
CONTINUOUS
 62
     7
 10
-25.749999999989289
 20
77.36077053565883
 30
0.0
 40
0.2500000000000284
 50
121.7715704994708
 51
179.9999999999967
  0
LINE
  5
1DA7
  8
SAPA_PROFIL
  6
CONTINUOUS
 62
     7
 10
-25.999999999989321
 20
76.588083210163916
 30
0.0
 11
-25.999999999989321
 21
77.360770535658844
 31
0.0
  0
POLYLINE
  5
1DA8
  8
SAPA_PROFIL
  6
CONTINUOUS
 66
     1
 10
0.0
 20
0.0
 30
0.0
 70
     1
  0
VERTEX
  5
239A
  8
SAPA_PROFIL
  6
CONTINUOUS
 10
-23.757620842458241
 20
96.499999999966803
 30
0.0
 42
0.2134217652834428
  0
VERTEX
  5
239B
  8
SAPA_PROFIL
  6
CONTINUOUS
 10
-23.981227640208321
 20
96.399999999966695
 30
0.0
 42
-0.7625858545243283
  0
VERTEX
  5
239C
  8
SAPA_PROFIL
  6
CONTINUOUS
 10
-24.311553721225351
 20
96.584579202164178
 30
0.0
  0
VERTEX
  5
239D
  8
SAPA_PROFIL
  6
CONTINUOUS
 10
-24.253480084236259
 20
96.775962202157885
 30
0.0
  0
VERTEX
  5
239E
  8
SAPA_PROFIL
  6
CONTINUOUS
 10
-23.168915637264519
 20
98.661805894018954
 30
0.0
  0
VERTEX
  5
239F
  8
SAPA_PROFIL
  6
CONTINUOUS
 10
-22.847157909046249
 20
98.651244527791974
 30
0.0
 42
0.577350269189743
  0
VERTEX
  5
23A0
  8
SAPA_PROFIL
  6
CONTINUOUS
 10
-22.664204168936092
 20
98.945400828046814
 30
0.0
  0
VERTEX
  5
23A1
  8
SAPA_PROFIL
  6
CONTINUOUS
 10
-22.816338080044861
 20
99.230083111278446
 30
0.0
 42
0.2216946626430171
  0
VERTEX
  5
23A2
  8
SAPA_PROFIL
  6
CONTINUOUS
 10
-23.357217911521651
 20
99.635892016433246
 30
0.0
  0
VERTEX
  5
23A3
  8
SAPA_PROFIL
  6
CONTINUOUS
 10
-25.17044838217987
 20
100.01733861256091
 30
0.0
 42
0.4769755326981872
  0
VERTEX
  5
23A4
  8
SAPA_PROFIL
  6
CONTINUOUS
 10
-25.542105257125769
 20
99.715085788054495
 30
0.0
  0
VERTEX
  5
23A5
  8
SAPA_PROFIL
  6
CONTINUOUS
 10
-25.54202164924212
 20
98.211984707292501
 30
0.0
  0
VERTEX
  5
23A6
  8
SAPA_PROFIL
  6
CONTINUOUS
 10
-25.494175899243629
 20
98.197466298045384
 30
0.0
 42
-0.4142135623730953
  0
VERTEX
  5
23A7
  8
SAPA_PROFIL
  6
CONTINUOUS
 10
-25.294211854736229
 20
97.823281342569572
 30
0.0
  0
VERTEX
  5
23A8
  8
SAPA_PROFIL
  6
CONTINUOUS
 10
-25.799999999989272
 20
96.514672366230286
 30
0.0
  0
VERTEX
  5
23A9
  8
SAPA_PROFIL
  6
CONTINUOUS
 10
-25.799999999989272
 20
93.515361556166852
 30
0.0
 42
0.259681233730092
  0
VERTEX
  5
23AA
  8
SAPA_PROFIL
  6
CONTINUOUS
 10
-25.681633505929089
 20
93.302823041741803
 30
0.0
  0
VERTEX
  5
23AB
  8
SAPA_PROFIL
  6
CONTINUOUS
 10
-24.457960207117139
 20
92.544953782688879
 30
0.0
 42
0.5877032589253041
  0
VERTEX
  5
23AC
  8
SAPA_PROFIL
  6
CONTINUOUS
 10
-23.99999999998931
 20
92.799999999998875
 30
0.0
  0
VERTEX
  5
23AD
  8
SAPA_PROFIL
  6
CONTINUOUS
 10
-23.999999999985221
 20
94.234178786389904
 30
0.0
 42
-0.4683749459836498
  0
VERTEX
  5
23AE
  8
SAPA_PROFIL
  6
CONTINUOUS
 10
-23.699999999985149
 20
94.499999999998636
 30
0.0
  0
VERTEX
  5
23AF
  8
SAPA_PROFIL
  6
CONTINUOUS
 10
-21.299999999986309
 20
94.49999999999892
 30
0.0
 42
-0.4683749459834663
  0
VERTEX
  5
23B0
  8
SAPA_PROFIL
  6
CONTINUOUS
 10
-20.99999999998613
 20
94.234178786389862
 30
0.0
  0
VERTEX
  5
23B1
  8
SAPA_PROFIL
  6
CONTINUOUS
 10
-20.999999999989321
 20
76.799999999998875
 30
0.0
 42
-0.4142135623730951
  0
VERTEX
  5
23B2
  8
SAPA_PROFIL
  6
CONTINUOUS
 10
-21.299999999989272
 20
76.499999999998906
 30
0.0
  0
VERTEX
  5
23B3
  8
SAPA_PROFIL
  6
CONTINUOUS
 10
-23.699999999989132
 20
76.499999999998863
 30
0.0
 42
-0.4142135623712111
  0
VERTEX
  5
23B4
  8
SAPA_PROFIL
  6
CONTINUOUS
 10
-23.99999999998931
 20
76.799999999998875
 30
0.0
  0
VERTEX
  5
23B5
  8
SAPA_PROFIL
  6
CONTINUOUS
 10
-23.99999999998931
 20
78.199999999998965
 30
0.0
 42
0.5877032589253028
  0
VERTEX
  5
23B6
  8
SAPA_PROFIL
  6
CONTINUOUS
 10
-24.457960207117249
 20
78.455046217308961
 30
0.0
  0
VERTEX
  5
23B7
  8
SAPA_PROFIL
  6
CONTINUOUS
 10
-25.88163350592902
 20
77.573309050083992
 30
0.0
 42
0.2596812337301845
  0
VERTEX
  5
23B8
  8
SAPA_PROFIL
  6
CONTINUOUS
 10
-25.999999999989321
 20
77.360770535658901
 30
0.0
  0
VERTEX
  5
23B9
  8
SAPA_PROFIL
  6
CONTINUOUS
 10
-25.999999999989321
 20
76.588083210163916
 30
0.0
 42
-0.4023941304328035
  0
VERTEX
  5
23BA
  8
SAPA_PROFIL
  6
CONTINUOUS
 10
-26.287846721313262
 20
76.288329481550932
 30
0.0
  0
VERTEX
  5
23BB
  8
SAPA_PROFIL
  6
CONTINUOUS
 10
-40.760905542704222
 20
75.701530718547929
 30
0.0
 42
-0.4373282586278326
  0
VERTEX
  5
23BC
  8
SAPA_PROFIL
  6
CONTINUOUS
 10
-41.300000000026209
 20
76.199999998852888
 30
0.0
  0
VERTEX
  5
23BD
  8
SAPA_PROFIL
  6
CONTINUOUS
 10
-41.300000000025307
 20
77.031400236762863
 30
0.0
 42
-0.3639702342660269
  0
VERTEX
  5
23BE
  8
SAPA_PROFIL
  6
CONTINUOUS
 10
-40.886824088857111
 20
77.523804113267261
 30
0.0
  0
VERTEX
  5
23BF
  8
SAPA_PROFIL
  6
CONTINUOUS
 10
-39.713175911190319
 20
77.730749952848896
 30
0.0
 42
0.8390996311771544
  0
VERTEX
  5
23C0
  8
SAPA_PROFIL
  6
CONTINUOUS
 10
-39.713175911189303
 20
78.715557705859851
 30
0.0
  0
VERTEX
  5
23C1
  8
SAPA_PROFIL
  6
CONTINUOUS
 10
-41.283248567173217
 20
78.992403876785886
 30
0.0
 42
0.04366094290841
  0
VERTEX
  5
23C2
  8
SAPA_PROFIL
  6
CONTINUOUS
 10
-41.3700726560063
 20
79.000000000278874
 30
0.0
  0
VERTEX
  5
23C3
  8
SAPA_PROFIL
  6
CONTINUOUS
 10
-42.367544468070257
 20
79.00000000027984
 30
0.0
 42
0.2896898633204923
  0
VERTEX
  5
23C4
  8
SAPA_PROFIL
  6
CONTINUOUS
 10
-43.271052371004323
 20
78.428571428793873
 30
0.0
 42
0.5507604245835917
  0
VERTEX
  5
23C5
  8
SAPA_PROFIL
  6
CONTINUOUS
 10
-43.00000000010732
 20
78.000000000240902
 30
0.0
  0
VERTEX
  5
23C6
  8
SAPA_PROFIL
  6
CONTINUOUS
 10
-42.80000000013024
 20
78.000000000251873
 30
0.0
 42
-0.4142135623779357
  0
VERTEX
  5
23C7
  8
SAPA_PROFIL
  6
CONTINUOUS
 10
-42.500000000113232
 20
77.700000000263913
 30
0.0
  0
VERTEX
  5
23C8
  8
SAPA_PROFIL
  6
CONTINUOUS
 10
-42.500000000055252
 20
76.199999998873921
 30
0.0
 42
-0.414213562384816
  0
VERTEX
  5
23C9
  8
SAPA_PROFIL
  6
CONTINUOUS
 10
-43.000000000056268
 20
75.699999998854935
 30
0.0
  0
VERTEX
  5
23CA
  8
SAPA_PROFIL
  6
CONTINUOUS
 10
-46.300000000047248
 20
75.699999998859937
 30
0.0
 42
-0.4142135623613409
  0
VERTEX
  5
23CB
  8
SAPA_PROFIL
  6
CONTINUOUS
 10
-46.800000000056222
 20
76.199999998850899
 30
0.0
  0
VERTEX
  5
23CC
  8
SAPA_PROFIL
  6
CONTINUOUS
 10
-46.8000000001133
 20
77.700000000030911
 30
0.0
 42
-0.4142135623672138
  0
VERTEX
  5
23CD
  8
SAPA_PROFIL
  6
CONTINUOUS
 10
-46.500000000130292
 20
78.00000000004195
 30
0.0
  0
VERTEX
  5
23CE
  8
SAPA_PROFIL
  6
CONTINUOUS
 10
-46.300000000108298
 20
78.000000000053603
 30
0.0
 42
0.5507604245886322
  0
VERTEX
  5
23CF
  8
SAPA_PROFIL
  6
CONTINUOUS
 10
-46.028947629259619
 20
78.428571428642144
 30
0.0
 42
0.2896898632851459
  0
VERTEX
  5
23D0
  8
SAPA_PROFIL
  6
CONTINUOUS
 10
-46.932455532138299
 20
79.00000000001387
 30
0.0
  0
VERTEX
  5
23D1
  8
SAPA_PROFIL
  6
CONTINUOUS
 10
-47.700000000165232
 20
79.000000000013927
 30
0.0
 42
0.4142135623906921
  0
VERTEX
  5
23D2
  8
SAPA_PROFIL
  6
CONTINUOUS
 10
-48.000000000165301
 20
78.699999999997885
 30
0.0
  0
VERTEX
  5
23D3
  8
SAPA_PROFIL
  6
CONTINUOUS
 10
-47.999999999974413
 20
74.999999999985775
 30
0.0
 42
0.4142135623566291
  0
VERTEX
  5
23D4
  8
SAPA_PROFIL
  6
CONTINUOUS
 10
-47.499999999959307
 20
74.499999999998835
 30
0.0
  0
VERTEX
  5
23D5
  8
SAPA_PROFIL
  6
CONTINUOUS
 10
29.399999999997821
 20
74.49999999999892
 30
0.0
 42
0.4142135623725956
  0
VERTEX
  5
23D6
  8
SAPA_PROFIL
  6
CONTINUOUS
 10
31.99999999999795
 20
77.099999999994395
 30
0.0
  0
VERTEX
  5
23D7
  8
SAPA_PROFIL
  6
CONTINUOUS
 10
31.99999999999989
 20
77.599999999997863
 30
0.0
 42
0.4142135623728287
  0
VERTEX
  5
23D8
  8
SAPA_PROFIL
  6
CONTINUOUS
 10
30.999999999999769
 20
78.599999999998943
 30
0.0
  0
VERTEX
  5
23D9
  8
SAPA_PROFIL
  6
CONTINUOUS
 10
30.799999999998821
 20
78.599999999998829
 30
0.0
 42
0.4142135623730951
  0
VERTEX
  5
23DA
  8
SAPA_PROFIL
  6
CONTINUOUS
 10
30.49999999999887
 20
78.299999999998875
 30
0.0
  0
VERTEX
  5
23DB
  8
SAPA_PROFIL
  6
CONTINUOUS
 10
30.499999999998749
 20
76.799999996782901
 30
0.0
 42
-0.4142135623722084
  0
VERTEX
  5
23DC
  8
SAPA_PROFIL
  6
CONTINUOUS
 10
30.199999999999712
 20
76.500000004086871
 30
0.0
  0
VERTEX
  5
23DD
  8
SAPA_PROFIL
  6
CONTINUOUS
 10
29.499999999999659
 20
76.500000004086871
 30
0.0
 42
-0.4142135623731094
  0
VERTEX
  5
23DE
  8
SAPA_PROFIL
  6
CONTINUOUS
 10
29.199999999999712
 20
76.799999996782901
 30
0.0
  0
VERTEX
  5
23DF
  8
SAPA_PROFIL
  6
CONTINUOUS
 10
29.199999999998798
 20
78.299999999998875
 30
0.0
 42
0.4142135623720961
  0
VERTEX
  5
23E0
  8
SAPA_PROFIL
  6
CONTINUOUS
 10
28.89999999999986
 20
78.599999999998943
 30
0.0
  0
VERTEX
  5
23E1
  8
SAPA_PROFIL
  6
CONTINUOUS
 10
28.199999999998681
 20
78.599999999998829
 30
0.0
 42
0.4142135623730951
  0
VERTEX
  5
23E2
  8
SAPA_PROFIL
  6
CONTINUOUS
 10
27.89999999999873
 20
78.299999999998875
 30
0.0
  0
VERTEX
  5
23E3
  8
SAPA_PROFIL
  6
CONTINUOUS
 10
27.89999999999873
 20
76.800000004086939
 30
0.0
 42
-0.4142135623740939
  0
VERTEX
  5
23E4
  8
SAPA_PROFIL
  6
CONTINUOUS
 10
27.599999999998769
 20
76.500000004086871
 30
0.0
  0
VERTEX
  5
23E5
  8
SAPA_PROFIL
  6
CONTINUOUS
 10
25.49999999999773
 20
76.500000004086871
 30
0.0
 42
-0.4142135623730951
  0
VERTEX
  5
23E6
  8
SAPA_PROFIL
  6
CONTINUOUS
 10
24.49999999999773
 20
77.500000004086871
 30
0.0
  0
VERTEX
  5
23E7
  8
SAPA_PROFIL
  6
CONTINUOUS
 10
24.49999999999784
 20
82.199999999998965
 30
0.0
 42
-0.4142135623619735
  0
VERTEX
  5
23E8
  8
SAPA_PROFIL
  6
CONTINUOUS
 10
25.49999999999682
 20
83.199999999998965
 30
0.0
  0
VERTEX
  5
23E9
  8
SAPA_PROFIL
  6
CONTINUOUS
 10
27.599999999998769
 20
83.199999999999932
 30
0.0
 42
-0.4142135623730951
  0
VERTEX
  5
23EA
  8
SAPA_PROFIL
  6
CONTINUOUS
 10
27.89999999999873
 20
82.89999999999992
 30
0.0
  0
VERTEX
  5
23EB
  8
SAPA_PROFIL
  6
CONTINUOUS
 10
27.899999999998609
 20
82.099999999998943
 30
0.0
 42
0.4142135623730951
  0
VERTEX
  5
23EC
  8
SAPA_PROFIL
  6
CONTINUOUS
 10
28.199999999998681
 20
81.799999999998875
 30
0.0
  0
VERTEX
  5
23ED
  8
SAPA_PROFIL
  6
CONTINUOUS
 10
28.89999999999873
 20
81.799999999998974
 30
0.0
 42
0.4142135623730951
  0
VERTEX
  5
23EE
  8
SAPA_PROFIL
  6
CONTINUOUS
 10
29.199999999998681
 20
82.099999999998943
 30
0.0
  0
VERTEX
  5
23EF
  8
SAPA_PROFIL
  6
CONTINUOUS
 10
29.199999999999822
 20
82.900000000001896
 30
0.0
 42
-0.4142135623721503
  0
VERTEX
  5
23F0
  8
SAPA_PROFIL
  6
CONTINUOUS
 10
29.499999999999769
 20
83.200000000000898
 30
0.0
  0
VERTEX
  5
23F1
  8
SAPA_PROFIL
  6
CONTINUOUS
 10
30.199999999999712
 20
83.200000000000955
 30
0.0
 42
-0.4142135623740942
  0
VERTEX
  5
23F2
  8
SAPA_PROFIL
  6
CONTINUOUS
 10
30.49999999999978
 20
82.89999999999992
 30
0.0
  0
VERTEX
  5
23F3
  8
SAPA_PROFIL
  6
CONTINUOUS
 10
30.499999999998749
 20
82.099999999998943
 30
0.0
 42
0.4142135623730951
  0
VERTEX
  5
23F4
  8
SAPA_PROFIL
  6
CONTINUOUS
 10
30.799999999998821
 20
81.799999999998875
 30
0.0
  0
VERTEX
  5
23F5
  8
SAPA_PROFIL
  6
CONTINUOUS
 10
30.999999999999769
 20
81.799999999998875
 30
0.0
 42
0.4142135623728287
  0
VERTEX
  5
23F6
  8
SAPA_PROFIL
  6
CONTINUOUS
 10
31.99999999999886
 20
82.799999999998875
 30
0.0
  0
VERTEX
  5
23F7
  8
SAPA_PROFIL
  6
CONTINUOUS
 10
31.999999999999769
 20
98.199999996326881
 30
0.0
 42
0.4142135623730951
  0
VERTEX
  5
23F8
  8
SAPA_PROFIL
  6
CONTINUOUS
 10
31.699999999999712
 20
98.499999996326949
 30
0.0
  0
VERTEX
  5
23F9
  8
SAPA_PROFIL
  6
CONTINUOUS
 10
27.629411436795859
 20
98.499999996326835
 30
0.0
 42
0.5486187866264207
  0
VERTEX
  5
23FA
  8
SAPA_PROFIL
  6
CONTINUOUS
 10
27.35751910068473
 20
98.073214517804956
 30
0.0
  0
VERTEX
  5
23FB
  8
SAPA_PROFIL
  6
CONTINUOUS
 10
28.171892336110769
 20
96.326785478555976
 30
0.0
 42
-0.5486187866274888
  0
VERTEX
  5
23FC
  8
SAPA_PROFIL
  6
CONTINUOUS
 10
27.899999999999871
 20
95.900000000032946
 30
0.0
  0
VERTEX
  5
23FD
  8
SAPA_PROFIL
  6
CONTINUOUS
 10
23.499999999999769
 20
95.900000000032946
 30
0.0
 42
-0.5486187866274777
  0
VERTEX
  5
23FE
  8
SAPA_PROFIL
  6
CONTINUOUS
 10
23.228107663888871
 20
96.326785478555905
 30
0.0
  0
VERTEX
  5
23FF
  8
SAPA_PROFIL
  6
CONTINUOUS
 10
24.04248089931491
 20
98.073214517804843
 30
0.0
 42
0.5486187866264464
  0
VERTEX
  5
2400
  8
SAPA_PROFIL
  6
CONTINUOUS
 10
23.770588563203781
 20
98.499999996326949
 30
0.0
  0
VERTEX
  5
2401
  8
SAPA_PROFIL
  6
CONTINUOUS
 10
20.599999999998769
 20
98.499999996326892
 30
0.0
 42
-0.4142135623730953
  0
VERTEX
  5
2402
  8
SAPA_PROFIL
  6
CONTINUOUS
 10
20.299999999998821
 20
98.799999996326903
 30
0.0
  0
VERTEX
  5
2403
  8
SAPA_PROFIL
  6
CONTINUOUS
 10
20.299999999998931
 20
98.999999996326906
 30
0.0
 42
0.4142135623730951
  0
VERTEX
  5
2404
  8
SAPA_PROFIL
  6
CONTINUOUS
 10
19.99999999999886
 20
99.299999996326903
 30
0.0
  0
VERTEX
  5
2405
  8
SAPA_PROFIL
  6
CONTINUOUS
 10
8.2999999999997272
 20
99.299999996326903
 30
0.0
 42
-0.4142135623730948
  0
VERTEX
  5
2406
  8
SAPA_PROFIL
  6
CONTINUOUS
 10
7.9999999999996581
 20
99.599999996326915
 30
0.0
  0
VERTEX
  5
2407
  8
SAPA_PROFIL
  6
CONTINUOUS
 10
7.9999999999997149
 20
100.50216438463229
 30
0.0
  0
VERTEX
  5
2408
  8
SAPA_PROFIL
  6
CONTINUOUS
 10
7.4893774168617142
 20
101.8232813425667
 30
0.0
 42
-0.4142135623730951
  0
VERTEX
  5
2409
  8
SAPA_PROFIL
  6
CONTINUOUS
 10
7.6893414613691098
 20
102.1974662980425
 30
0.0
  0
VERTEX
  5
240A
  8
SAPA_PROFIL
  6
CONTINUOUS
 10
7.7371872113675968
 20
102.2119847072896
 30
0.0
  0
VERTEX
  5
240B
  8
SAPA_PROFIL
  6
CONTINUOUS
 10
7.7372708192512221
 20
103.7150857880516
 30
0.0
 42
0.4769755326981695
  0
VERTEX
  5
240C
  8
SAPA_PROFIL
  6
CONTINUOUS
 10
7.3656139443053803
 20
104.01733861255801
 30
0.0
  0
VERTEX
  5
240D
  8
SAPA_PROFIL
  6
CONTINUOUS
 10
5.5523834736471249
 20
103.6358920164303
 30
0.0
 42
0.22169466264302
  0
VERTEX
  5
240E
  8
SAPA_PROFIL
  6
CONTINUOUS
 10
5.0115036421703421
 20
103.2300831112755
 30
0.0
  0
VERTEX
  5
240F
  8
SAPA_PROFIL
  6
CONTINUOUS
 10
4.8593697310615758
 20
102.9454008280439
 30
0.0
 42
0.5773502691897348
  0
VERTEX
  5
2410
  8
SAPA_PROFIL
  6
CONTINUOUS
 10
5.0423234711717546
 20
102.651244527789
 30
0.0
  0
VERTEX
  5
2411
  8
SAPA_PROFIL
  6
CONTINUOUS
 10
5.3640811993900002
 20
102.661805894016
 30
0.0
  0
VERTEX
  5
2412
  8
SAPA_PROFIL
  6
CONTINUOUS
 10
6.4486456463617401
 20
100.775962202155
 30
0.0
  0
VERTEX
  5
2413
  8
SAPA_PROFIL
  6
CONTINUOUS
 10
6.5067192833508321
 20
100.58457920216129
 30
0.0
 42
-0.7625858545243229
  0
VERTEX
  5
2414
  8
SAPA_PROFIL
  6
CONTINUOUS
 10
6.1763932023338342
 20
100.3999999999637
 30
0.0
 42
0.2134217652834286
  0
VERTEX
  5
2415
  8
SAPA_PROFIL
  6
CONTINUOUS
 10
5.9527864044997614
 20
100.4999999999639
 30
0.0
  0
VERTEX
  5
2416
  8
SAPA_PROFIL
  6
CONTINUOUS
 10
2.0999999999927459
 20
100.50000000003391
 30
0.0
 42
-0.4142135623643546
  0
VERTEX
  5
2417
  8
SAPA_PROFIL
  6
CONTINUOUS
 10
1.7999999999987031
 20
100.80000000003091
 30
0.0
  0
VERTEX
  5
2418
  8
SAPA_PROFIL
  6
CONTINUOUS
 10
1.7999999999958609
 20
101.0916265078269
 30
0.0
  0
VERTEX
  5
2419
  8
SAPA_PROFIL
  6
CONTINUOUS
 10
2.728594868677646
 20
102.7000000000329
 30
0.0
 42
0.5773502691895335
  0
VERTEX
  5
241A
  8
SAPA_PROFIL
  6
CONTINUOUS
 10
2.555389787920717
 20
103.0000000000328
 30
0.0
  0
VERTEX
  5
241B
  8
SAPA_PROFIL
  6
CONTINUOUS
 10
1.1697491418667589
 20
103.0000000000329
 30
0.0
 42
0.267949192431441
  0
VERTEX
  5
241C
  8
SAPA_PROFIL
  6
CONTINUOUS
 10
0.303723738081775
 20
102.5000000000329
 30
0.0
  0
VERTEX
  5
241D
  8
SAPA_PROFIL
  6
CONTINUOUS
 10
-3.1892453905272751
 20
96.449999999998965
 30
0.0
 42
-0.2679491924318235
  0
VERTEX
  5
241E
  8
SAPA_PROFIL
  6
CONTINUOUS
 10
-3.6222580924202239
 20
96.199999999997715
 30
0.0
  0
VERTEX
  5
241F
  8
SAPA_PROFIL
  6
CONTINUOUS
 10
-16.487142984323331
 20
96.199999999998965
 30
0.0
 42
-0.2679491924310522
  0
VERTEX
  5
2420
  8
SAPA_PROFIL
  6
CONTINUOUS
 10
-16.92015568621548
 20
96.449999999998852
 30
0.0
  0
VERTEX
  5
2421
  8
SAPA_PROFIL
  6
CONTINUOUS
 10
-18.103723738072169
 20
98.500000000033936
 30
0.0
 42
0.2679491924312968
  0
VERTEX
  5
2422
  8
SAPA_PROFIL
  6
CONTINUOUS
 10
-18.969749141856251
 20
99.000000000034902
 30
0.0
  0
VERTEX
  5
2423
  8
SAPA_PROFIL
  6
CONTINUOUS
 10
-20.355389787910209
 20
99.000000000034959
 30
0.0
 42
0.5773502691895323
  0
VERTEX
  5
2424
  8
SAPA_PROFIL
  6
CONTINUOUS
 10
-20.528594868667131
 20
98.70000000003489
 30
0.0
  0
VERTEX
  5
2425
  8
SAPA_PROFIL
  6
CONTINUOUS
 10
-19.59999999998513
 20
97.091626507827925
 30
0.0
  0
VERTEX
  5
2426
  8
SAPA_PROFIL
  6
CONTINUOUS
 10
-19.599999999988309
 20
96.800000000032867
 30
0.0
 42
-0.4142135623662692
  0
VERTEX
  5
2427
  8
SAPA_PROFIL
  6
CONTINUOUS
 10
-19.899999999983152
 20
96.500000000034902
 30
0.0
  0
VERTEX
  5
2428
  8
SAPA_PROFIL
  6
CONTINUOUS
 10
-23.75278640449028
 20
96.499999999965951
 30
0.0
  0
SEQEND
  5
2429
  8
SAPA_PROFIL
  6
CONTINUOUS
  0
POLYLINE
  5
1DA9
  8
SAPA_PROFIL
  6
CONTINUOUS
 66
     1
 10
0.0
 20
0.0
 30
0.0
 70
     1
  0
VERTEX
  5
242A
  8
SAPA_PROFIL
  6
CONTINUOUS
 10
-14.93678112369728
 20
145.99999999591401
 30
0.0
 42
0.4142135623730951
  0
VERTEX
  5
242B
  8
SAPA_PROFIL
  6
CONTINUOUS
 10
-15.43678112369728
 20
146.49999999591401
 30
0.0
  0
VERTEX
  5
242C
  8
SAPA_PROFIL
  6
CONTINUOUS
 10
-18.436781123683421
 20
146.49999999594601
 30
0.0
 42
0.4142135623760252
  0
VERTEX
  5
242D
  8
SAPA_PROFIL
  6
CONTINUOUS
 10
-18.936781123688419
 20
145.99999999594601
 30
0.0
  0
VERTEX
  5
242E
  8
SAPA_PROFIL
  6
CONTINUOUS
 10
-18.936781123688419
 20
129.29999999998401
 30
0.0
 42
0.4142135623760253
  0
VERTEX
  5
242F
  8
SAPA_PROFIL
  6
CONTINUOUS
 10
-18.4367811236833
 20
128.79999999998401
 30
0.0
  0
VERTEX
  5
2430
  8
SAPA_PROFIL
  6
CONTINUOUS
 10
-15.43678112369728
 20
128.8000000000159
 30
0.0
 42
0.4142135623730951
  0
VERTEX
  5
2431
  8
SAPA_PROFIL
  6
CONTINUOUS
 10
-14.93678112369728
 20
129.3000000000159
 30
0.0
  0
VERTEX
  5
2432
  8
SAPA_PROFIL
  6
CONTINUOUS
 10
-14.936781123696379
 20
130.50000000001501
 30
0.0
 42
-0.414213562374094
  0
VERTEX
  5
2433
  8
SAPA_PROFIL
  6
CONTINUOUS
 10
-14.636781123697331
 20
130.8000000000149
 30
0.0
  0
VERTEX
  5
2434
  8
SAPA_PROFIL
  6
CONTINUOUS
 10
-13.73678112369735
 20
130.80000000001499
 30
0.0
 42
-0.414213562375093
  0
VERTEX
  5
2435
  8
SAPA_PROFIL
  6
CONTINUOUS
 10
-13.43678112369729
 20
130.50000000001489
 30
0.0
  0
VERTEX
  5
2436
  8
SAPA_PROFIL
  6
CONTINUOUS
 10
-13.43678112369831
 20
129.100000000015
 30
0.0
 42
0.414213562374094
  0
VERTEX
  5
2437
  8
SAPA_PROFIL
  6
CONTINUOUS
 10
-13.136781123697331
 20
128.8000000000149
 30
0.0
  0
VERTEX
  5
2438
  8
SAPA_PROFIL
  6
CONTINUOUS
 10
-3.259039216115283
 20
128.7999999999997
 30
0.0
 42
-0.2679491924309108
  0
VERTEX
  5
2439
  8
SAPA_PROFIL
  6
CONTINUOUS
 10
-1.093975706657488
 20
127.54999999999799
 30
0.0
  0
VERTEX
  5
243A
  8
SAPA_PROFIL
  6
CONTINUOUS
 10
0.5226050471056852
 20
124.749999999938
 30
0.0
 42
0.2679491924363356
  0
VERTEX
  5
243B
  8
SAPA_PROFIL
  6
CONTINUOUS
 10
0.9556177490064783
 20
124.499999999937
 30
0.0
  0
VERTEX
  5
243C
  8
SAPA_PROFIL
  6
CONTINUOUS
 10
6.0632188763056609
 20
124.5000000000289
 30
0.0
 42
0.4142135623682168
  0
VERTEX
  5
243D
  8
SAPA_PROFIL
  6
CONTINUOUS
 10
6.3632188763006141
 20
124.8000000000289
 30
0.0
  0
VERTEX
  5
243E
  8
SAPA_PROFIL
  6
CONTINUOUS
 10
6.3632188763006141
 20
125.20000000367099
 30
0.0
 42
-0.4142135623730784
  0
VERTEX
  5
243F
  8
SAPA_PROFIL
  6
CONTINUOUS
 10
6.8632188763006141
 20
125.70000000367089
 30
0.0
  0
VERTEX
  5
2440
  8
SAPA_PROFIL
  6
CONTINUOUS
 10
18.363218876299701
 20
125.70000000367089
 30
0.0
 42
0.4142135623730951
  0
VERTEX
  5
2441
  8
SAPA_PROFIL
  6
CONTINUOUS
 10
18.663218876299659
 20
126.00000000367091
 30
0.0
  0
VERTEX
  5
2442
  8
SAPA_PROFIL
  6
CONTINUOUS
 10
18.663218876299538
 20
126.20000000367089
 30
0.0
 42
-0.4142135623730951
  0
VERTEX
  5
2443
  8
SAPA_PROFIL
  6
CONTINUOUS
 10
18.96321887629961
 20
126.50000000367091
 30
0.0
  0
VERTEX
  5
2444
  8
SAPA_PROFIL
  6
CONTINUOUS
 10
21.363218876315621
 20
126.50000000367091
 30
0.0
 42
0.4142135623730951
  0
VERTEX
  5
2445
  8
SAPA_PROFIL
  6
CONTINUOUS
 10
21.663218876315689
 20
126.800000003671
 30
0.0
  0
VERTEX
  5
2446
  8
SAPA_PROFIL
  6
CONTINUOUS
 10
21.663218876246681
 20
128.29999999996491
 30
0.0
 42
-0.4142135623730951
  0
VERTEX
  5
2447
  8
SAPA_PROFIL
  6
CONTINUOUS
 10
22.163218876246681
 20
128.79999999996491
 30
0.0
  0
VERTEX
  5
2448
  8
SAPA_PROFIL
  6
CONTINUOUS
 10
30.363218876235589
 20
128.79999999996491
 30
0.0
 42
0.4142135623730951
  0
VERTEX
  5
2449
  8
SAPA_PROFIL
  6
CONTINUOUS
 10
30.663218876235661
 20
129.09999999996489
 30
0.0
  0
VERTEX
  5
244A
  8
SAPA_PROFIL
  6
CONTINUOUS
 10
30.663218876307621
 20
137.79999999996201
 30
0.0
 42
0.4142135623712137
  0
VERTEX
  5
244B
  8
SAPA_PROFIL
  6
CONTINUOUS
 10
30.36321887630664
 20
138.09999999996489
 30
0.0
  0
VERTEX
  5
244C
  8
SAPA_PROFIL
  6
CONTINUOUS
 10
25.863218876314711
 20
138.099999999999
 30
0.0
 42
-0.4142135623686664
  0
VERTEX
  5
244D
  8
SAPA_PROFIL
  6
CONTINUOUS
 10
23.163218876335701
 20
140.79999999997889
 30
0.0
  0
VERTEX
  5
244E
  8
SAPA_PROFIL
  6
CONTINUOUS
 10
23.163218876297499
 20
145.9000000017769
 30
0.0
 42
0.414213562636633
  0
VERTEX
  5
244F
  8
SAPA_PROFIL
  6
CONTINUOUS
 10
22.8632188760247
 20
146.20000000177379
 30
0.0
  0
VERTEX
  5
2450
  8
SAPA_PROFIL
  6
CONTINUOUS
 10
18.287482945148451
 20
146.1999999983168
 30
0.0
 42
-0.1989123675764549
  0
VERTEX
  5
2451
  8
SAPA_PROFIL
  6
CONTINUOUS
 10
18.075350910565479
 20
146.28786796396119
 30
0.0
  0
VERTEX
  5
2452
  8
SAPA_PROFIL
  6
CONTINUOUS
 10
17.951086844260779
 20
146.41213203026649
 30
0.0
 42
0.198912367380149
  0
VERTEX
  5
2453
  8
SAPA_PROFIL
  6
CONTINUOUS
 10
17.738954809904278
 20
146.49999999591091
 30
0.0
  0
VERTEX
  5
2454
  8
SAPA_PROFIL
  6
CONTINUOUS
 10
-6.0125170550123661
 20
146.49999999591191
 30
0.0
 42
0.1989123673800758
  0
VERTEX
  5
2455
  8
SAPA_PROFIL
  6
CONTINUOUS
 10
-6.224649089368639
 20
146.4121320302676
 30
0.0
  0
VERTEX
  5
2456
  8
SAPA_PROFIL
  6
CONTINUOUS
 10
-6.3489131580458738
 20
146.2878679615898
 30
0.0
 42
-0.1989123673789567
  0
VERTEX
  5
2457
  8
SAPA_PROFIL
  6
CONTINUOUS
 10
-6.5610451924007833
 20
146.1999999959454
 30
0.0
  0
VERTEX
  5
2458
  8
SAPA_PROFIL
  6
CONTINUOUS
 10
-13.136781123697331
 20
146.19999999591491
 30
0.0
 42
0.414213562374094
  0
VERTEX
  5
2459
  8
SAPA_PROFIL
  6
CONTINUOUS
 10
-13.43678112369831
 20
145.8999999959149
 30
0.0
  0
VERTEX
  5
245A
  8
SAPA_PROFIL
  6
CONTINUOUS
 10
-13.43678112369729
 20
144.49999999591401
 30
0.0
 42
-0.414213562374094
  0
VERTEX
  5
245B
  8
SAPA_PROFIL
  6
CONTINUOUS
 10
-13.73678112369735
 20
144.19999999591499
 30
0.0
  0
VERTEX
  5
245C
  8
SAPA_PROFIL
  6
CONTINUOUS
 10
-14.636781123697331
 20
144.19999999591491
 30
0.0
 42
-0.4142135623730951
  0
VERTEX
  5
245D
  8
SAPA_PROFIL
  6
CONTINUOUS
 10
-14.93678112369728
 20
144.49999999591401
 30
0.0
  0
SEQEND
  5
245E
  8
SAPA_PROFIL
  6
CONTINUOUS
  0
POLYLINE
  5
1DAA
  8
SAPA_PROFIL
  6
CONTINUOUS
 66
     1
 10
0.0
 20
0.0
 30
0.0
 70
     1
  0
VERTEX
  5
245F
  8
SAPA_PROFIL
  6
CONTINUOUS
 10
-23.75762084245687
 20
126.50000000003099
 30
0.0
 42
-0.2134217652834423
  0
VERTEX
  5
2460
  8
SAPA_PROFIL
  6
CONTINUOUS
 10
-23.981227640206949
 20
126.6000000000311
 30
0.0
 42
0.7625858545243283
  0
VERTEX
  5
2461
  8
SAPA_PROFIL
  6
CONTINUOUS
 10
-24.311553721223991
 20
126.4154207978337
 30
0.0
  0
VERTEX
  5
2462
  8
SAPA_PROFIL
  6
CONTINUOUS
 10
-24.253480084234891
 20
126.2240377978399
 30
0.0
  0
VERTEX
  5
2463
  8
SAPA_PROFIL
  6
CONTINUOUS
 10
-23.168915637263151
 20
124.3381941059789
 30
0.0
  0
VERTEX
  5
2464
  8
SAPA_PROFIL
  6
CONTINUOUS
 10
-22.847157909044881
 20
124.34875547220589
 30
0.0
 42
-0.577350269189743
  0
VERTEX
  5
2465
  8
SAPA_PROFIL
  6
CONTINUOUS
 10
-22.664204168934731
 20
124.054599171951
 30
0.0
  0
VERTEX
  5
2466
  8
SAPA_PROFIL
  6
CONTINUOUS
 10
-22.81633808004349
 20
123.76991688871939
 30
0.0
 42
-0.2216946626430171
  0
VERTEX
  5
2467
  8
SAPA_PROFIL
  6
CONTINUOUS
 10
-23.35721791152028
 20
123.36410798356459
 30
0.0
  0
VERTEX
  5
2468
  8
SAPA_PROFIL
  6
CONTINUOUS
 10
-25.17044838217851
 20
122.98266138743691
 30
0.0
 42
-0.4769755326981872
  0
VERTEX
  5
2469
  8
SAPA_PROFIL
  6
CONTINUOUS
 10
-25.542105257124408
 20
123.2849142119434
 30
0.0
  0
VERTEX
  5
246A
  8
SAPA_PROFIL
  6
CONTINUOUS
 10
-25.542021649240748
 20
124.7880152927054
 30
0.0
  0
VERTEX
  5
246B
  8
SAPA_PROFIL
  6
CONTINUOUS
 10
-25.494175899242268
 20
124.8025337019525
 30
0.0
 42
0.4142135623730953
  0
VERTEX
  5
246C
  8
SAPA_PROFIL
  6
CONTINUOUS
 10
-25.294211854734868
 20
125.1767186574283
 30
0.0
  0
VERTEX
  5
246D
  8
SAPA_PROFIL
  6
CONTINUOUS
 10
-25.7999999999879
 20
126.4853276337676
 30
0.0
  0
VERTEX
  5
246E
  8
SAPA_PROFIL
  6
CONTINUOUS
 10
-25.79999999998789
 20
129.48463844383099
 30
0.0
 42
-0.259681233730092
  0
VERTEX
  5
246F
  8
SAPA_PROFIL
  6
CONTINUOUS
 10
-25.68163350592771
 20
129.69717695825599
 30
0.0
  0
VERTEX
  5
2470
  8
SAPA_PROFIL
  6
CONTINUOUS
 10
-24.457960207115761
 20
130.45504621730899
 30
0.0
 42
-0.5877032589253041
  0
VERTEX
  5
2471
  8
SAPA_PROFIL
  6
CONTINUOUS
 10
-23.999999999987939
 20
130.19999999999899
 30
0.0
  0
VERTEX
  5
2472
  8
SAPA_PROFIL
  6
CONTINUOUS
 10
-23.999999999983839
 20
128.76582121360789
 30
0.0
 42
0.4683749459836498
  0
VERTEX
  5
2473
  8
SAPA_PROFIL
  6
CONTINUOUS
 10
-23.69999999998377
 20
128.4999999999992
 30
0.0
  0
VERTEX
  5
2474
  8
SAPA_PROFIL
  6
CONTINUOUS
 10
-21.29999999998493
 20
128.49999999999889
 30
0.0
 42
0.4683749459834663
  0
VERTEX
  5
2475
  8
SAPA_PROFIL
  6
CONTINUOUS
 10
-20.999999999984752
 20
128.76582121360801
 30
0.0
  0
VERTEX
  5
2476
  8
SAPA_PROFIL
  6
CONTINUOUS
 10
-20.999999999987931
 20
146.19999999999899
 30
0.0
 42
0.4142135623730951
  0
VERTEX
  5
2477
  8
SAPA_PROFIL
  6
CONTINUOUS
 10
-21.29999999998789
 20
146.49999999999889
 30
0.0
  0
VERTEX
  5
2478
  8
SAPA_PROFIL
  6
CONTINUOUS
 10
-23.69999999998775
 20
146.49999999999901
 30
0.0
 42
0.4142135623712111
  0
VERTEX
  5
2479
  8
SAPA_PROFIL
  6
CONTINUOUS
 10
-23.999999999987939
 20
146.19999999999899
 30
0.0
  0
VERTEX
  5
247A
  8
SAPA_PROFIL
  6
CONTINUOUS
 10
-23.999999999987939
 20
144.7999999999989
 30
0.0
 42
-0.5877032589253028
  0
VERTEX
  5
247B
  8
SAPA_PROFIL
  6
CONTINUOUS
 10
-24.457960207115882
 20
144.54495378268891
 30
0.0
  0
VERTEX
  5
247C
  8
SAPA_PROFIL
  6
CONTINUOUS
 10
-25.881633505927638
 20
145.42669094991379
 30
0.0
 42
-0.2596812337301845
  0
VERTEX
  5
247D
  8
SAPA_PROFIL
  6
CONTINUOUS
 10
-25.999999999987931
 20
145.63922946433891
 30
0.0
  0
VERTEX
  5
247E
  8
SAPA_PROFIL
  6
CONTINUOUS
 10
-25.999999999987821
 20
148.1999999999999
 30
0.0
 42
-0.4142135623721487
  0
VERTEX
  5
247F
  8
SAPA_PROFIL
  6
CONTINUOUS
 10
-25.69999999998775
 20
148.49999999999901
 30
0.0
  0
VERTEX
  5
2480
  8
SAPA_PROFIL
  6
CONTINUOUS
 10
29.399999999999189
 20
148.49999999999889
 30
0.0
 42
-0.4142135623725956
  0
VERTEX
  5
2481
  8
SAPA_PROFIL
  6
CONTINUOUS
 10
31.999999999999329
 20
145.90000000000339
 30
0.0
  0
VERTEX
  5
2482
  8
SAPA_PROFIL
  6
CONTINUOUS
 10
32.000000000001258
 20
145.40000000000001
 30
0.0
 42
-0.4142135623728287
  0
VERTEX
  5
2483
  8
SAPA_PROFIL
  6
CONTINUOUS
 10
31.000000000001151
 20
144.3999999999989
 30
0.0
  0
VERTEX
  5
2484
  8
SAPA_PROFIL
  6
CONTINUOUS
 10
30.800000000000189
 20
144.39999999999901
 30
0.0
 42
-0.4142135623730951
  0
VERTEX
  5
2485
  8
SAPA_PROFIL
  6
CONTINUOUS
 10
30.500000000000242
 20
144.69999999999899
 30
0.0
  0
VERTEX
  5
2486
  8
SAPA_PROFIL
  6
CONTINUOUS
 10
30.500000000000121
 20
146.200000003215
 30
0.0
 42
0.41421356237221
  0
VERTEX
  5
2487
  8
SAPA_PROFIL
  6
CONTINUOUS
 10
30.200000000001079
 20
146.499999995911
 30
0.0
  0
VERTEX
  5
2488
  8
SAPA_PROFIL
  6
CONTINUOUS
 10
29.50000000000103
 20
146.499999995911
 30
0.0
 42
0.4142135623731102
  0
VERTEX
  5
2489
  8
SAPA_PROFIL
  6
CONTINUOUS
 10
29.200000000001079
 20
146.200000003215
 30
0.0
  0
VERTEX
  5
248A
  8
SAPA_PROFIL
  6
CONTINUOUS
 10
29.20000000000017
 20
144.69999999999899
 30
0.0
 42
-0.4142135623720961
  0
VERTEX
  5
248B
  8
SAPA_PROFIL
  6
CONTINUOUS
 10
28.900000000001238
 20
144.3999999999989
 30
0.0
  0
VERTEX
  5
248C
  8
SAPA_PROFIL
  6
CONTINUOUS
 10
28.200000000000049
 20
144.39999999999901
 30
0.0
 42
-0.4142135623730951
  0
VERTEX
  5
248D
  8
SAPA_PROFIL
  6
CONTINUOUS
 10
27.900000000000102
 20
144.69999999999899
 30
0.0
  0
VERTEX
  5
248E
  8
SAPA_PROFIL
  6
CONTINUOUS
 10
27.900000000000102
 20
146.1999999959109
 30
0.0
 42
0.4142135623740939
  0
VERTEX
  5
248F
  8
SAPA_PROFIL
  6
CONTINUOUS
 10
27.60000000000014
 20
146.499999995911
 30
0.0
  0
VERTEX
  5
2490
  8
SAPA_PROFIL
  6
CONTINUOUS
 10
25.499999999999101
 20
146.499999995911
 30
0.0
 42
0.4142135623730951
  0
VERTEX
  5
2491
  8
SAPA_PROFIL
  6
CONTINUOUS
 10
24.499999999999101
 20
145.499999995911
 30
0.0
  0
VERTEX
  5
2492
  8
SAPA_PROFIL
  6
CONTINUOUS
 10
24.499999999999211
 20
140.7999999999989
 30
0.0
 42
0.4142135623619735
  0
VERTEX
  5
2493
  8
SAPA_PROFIL
  6
CONTINUOUS
 10
25.499999999998192
 20
139.7999999999989
 30
0.0
  0
VERTEX
  5
2494
  8
SAPA_PROFIL
  6
CONTINUOUS
 10
27.60000000000014
 20
139.79999999999791
 30
0.0
 42
0.4142135623730951
  0
VERTEX
  5
2495
  8
SAPA_PROFIL
  6
CONTINUOUS
 10
27.900000000000102
 20
140.09999999999789
 30
0.0
  0
VERTEX
  5
2496
  8
SAPA_PROFIL
  6
CONTINUOUS
 10
27.899999999999991
 20
140.8999999999989
 30
0.0
 42
-0.4142135623730951
  0
VERTEX
  5
2497
  8
SAPA_PROFIL
  6
CONTINUOUS
 10
28.200000000000049
 20
141.19999999999899
 30
0.0
  0
VERTEX
  5
2498
  8
SAPA_PROFIL
  6
CONTINUOUS
 10
28.900000000000102
 20
141.19999999999891
 30
0.0
 42
-0.4142135623730951
  0
VERTEX
  5
2499
  8
SAPA_PROFIL
  6
CONTINUOUS
 10
29.200000000000049
 20
140.8999999999989
 30
0.0
  0
VERTEX
  5
249A
  8
SAPA_PROFIL
  6
CONTINUOUS
 10
29.200000000001189
 20
140.0999999999959
 30
0.0
 42
0.414213562372149
  0
VERTEX
  5
249B
  8
SAPA_PROFIL
  6
CONTINUOUS
 10
29.500000000001151
 20
139.79999999999691
 30
0.0
  0
VERTEX
  5
249C
  8
SAPA_PROFIL
  6
CONTINUOUS
 10
30.200000000001079
 20
139.79999999999691
 30
0.0
 42
0.4142135623740942
  0
VERTEX
  5
249D
  8
SAPA_PROFIL
  6
CONTINUOUS
 10
30.50000000000114
 20
140.09999999999789
 30
0.0
  0
VERTEX
  5
249E
  8
SAPA_PROFIL
  6
CONTINUOUS
 10
30.500000000000121
 20
140.8999999999989
 30
0.0
 42
-0.4142135623730951
  0
VERTEX
  5
249F
  8
SAPA_PROFIL
  6
CONTINUOUS
 10
30.800000000000189
 20
141.19999999999899
 30
0.0
  0
VERTEX
  5
24A0
  8
SAPA_PROFIL
  6
CONTINUOUS
 10
31.000000000001151
 20
141.19999999999899
 30
0.0
 42
-0.4142135623728287
  0
VERTEX
  5
24A1
  8
SAPA_PROFIL
  6
CONTINUOUS
 10
32.000000000000242
 20
140.19999999999899
 30
0.0
  0
VERTEX
  5
24A2
  8
SAPA_PROFIL
  6
CONTINUOUS
 10
32.000000000001151
 20
124.800000003671
 30
0.0
 42
-0.4142135623730951
  0
VERTEX
  5
24A3
  8
SAPA_PROFIL
  6
CONTINUOUS
 10
31.700000000001079
 20
124.50000000367091
 30
0.0
  0
VERTEX
  5
24A4
  8
SAPA_PROFIL
  6
CONTINUOUS
 10
27.629411436797241
 20
124.500000003671
 30
0.0
 42
-0.5486187866264242
  0
VERTEX
  5
24A5
  8
SAPA_PROFIL
  6
CONTINUOUS
 10
27.357519100686101
 20
124.9267854821929
 30
0.0
  0
VERTEX
  5
24A6
  8
SAPA_PROFIL
  6
CONTINUOUS
 10
28.171892336112151
 20
126.67321452144191
 30
0.0
 42
0.5486187866274858
  0
VERTEX
  5
24A7
  8
SAPA_PROFIL
  6
CONTINUOUS
 10
27.900000000001231
 20
127.09999999996489
 30
0.0
  0
VERTEX
  5
24A8
  8
SAPA_PROFIL
  6
CONTINUOUS
 10
23.500000000001151
 20
127.09999999996489
 30
0.0
 42
0.5486187866274797
  0
VERTEX
  5
24A9
  8
SAPA_PROFIL
  6
CONTINUOUS
 10
23.228107663890231
 20
126.67321452144191
 30
0.0
  0
VERTEX
  5
24AA
  8
SAPA_PROFIL
  6
CONTINUOUS
 10
24.042480899316281
 20
124.926785482193
 30
0.0
 42
-0.5486187866264408
  0
VERTEX
  5
24AB
  8
SAPA_PROFIL
  6
CONTINUOUS
 10
23.770588563205141
 20
124.50000000367091
 30
0.0
  0
VERTEX
  5
24AC
  8
SAPA_PROFIL
  6
CONTINUOUS
 10
20.60000000000014
 20
124.500000003671
 30
0.0
 42
0.4142135623730953
  0
VERTEX
  5
24AD
  8
SAPA_PROFIL
  6
CONTINUOUS
 10
20.300000000000189
 20
124.20000000367089
 30
0.0
  0
VERTEX
  5
24AE
  8
SAPA_PROFIL
  6
CONTINUOUS
 10
20.300000000000299
 20
124.00000000367091
 30
0.0
 42
-0.4142135623730951
  0
VERTEX
  5
24AF
  8
SAPA_PROFIL
  6
CONTINUOUS
 10
20.000000000000231
 20
123.70000000367089
 30
0.0
  0
VERTEX
  5
24B0
  8
SAPA_PROFIL
  6
CONTINUOUS
 10
8.3000000000010985
 20
123.70000000367089
 30
0.0
 42
0.4142135623730948
  0
VERTEX
  5
24B1
  8
SAPA_PROFIL
  6
CONTINUOUS
 10
8.0000000000010303
 20
123.4000000036709
 30
0.0
  0
VERTEX
  5
24B2
  8
SAPA_PROFIL
  6
CONTINUOUS
 10
8.0000000000010871
 20
122.4978356153655
 30
0.0
  0
VERTEX
  5
24B3
  8
SAPA_PROFIL
  6
CONTINUOUS
 10
7.4893774168630847
 20
121.17671865743119
 30
0.0
 42
0.4142135623730953
  0
VERTEX
  5
24B4
  8
SAPA_PROFIL
  6
CONTINUOUS
 10
7.689341461370482
 20
120.8025337019554
 30
0.0
  0
VERTEX
  5
24B5
  8
SAPA_PROFIL
  6
CONTINUOUS
 10
7.737187211368969
 20
120.78801529270829
 30
0.0
  0
VERTEX
  5
24B6
  8
SAPA_PROFIL
  6
CONTINUOUS
 10
7.7372708192525934
 20
119.2849142119463
 30
0.0
 42
-0.4769755326981663
  0
VERTEX
  5
24B7
  8
SAPA_PROFIL
  6
CONTINUOUS
 10
7.3656139443067508
 20
118.9826613874398
 30
0.0
  0
VERTEX
  5
24B8
  8
SAPA_PROFIL
  6
CONTINUOUS
 10
5.5523834736484972
 20
119.36410798356749
 30
0.0
 42
-0.2216946626430184
  0
VERTEX
  5
24B9
  8
SAPA_PROFIL
  6
CONTINUOUS
 10
5.0115036421717098
 20
119.76991688872231
 30
0.0
  0
VERTEX
  5
24BA
  8
SAPA_PROFIL
  6
CONTINUOUS
 10
4.859369731062948
 20
120.054599171954
 30
0.0
 42
-0.5773502691897339
  0
VERTEX
  5
24BB
  8
SAPA_PROFIL
  6
CONTINUOUS
 10
5.042323471173126
 20
120.34875547220879
 30
0.0
  0
VERTEX
  5
24BC
  8
SAPA_PROFIL
  6
CONTINUOUS
 10
5.3640811993913706
 20
120.3381941059818
 30
0.0
  0
VERTEX
  5
24BD
  8
SAPA_PROFIL
  6
CONTINUOUS
 10
6.4486456463631114
 20
122.2240377978428
 30
0.0
  0
VERTEX
  5
24BE
  8
SAPA_PROFIL
  6
CONTINUOUS
 10
6.5067192833522043
 20
122.4154207978366
 30
0.0
 42
0.7625858545243346
  0
VERTEX
  5
24BF
  8
SAPA_PROFIL
  6
CONTINUOUS
 10
6.1763932023352046
 20
122.6000000000341
 30
0.0
 42
-0.2134217652834345
  0
VERTEX
  5
24C0
  8
SAPA_PROFIL
  6
CONTINUOUS
 10
5.9527864045011318
 20
122.50000000003391
 30
0.0
  0
VERTEX
  5
24C1
  8
SAPA_PROFIL
  6
CONTINUOUS
 10
2.099999999994111
 20
122.4999999999639
 30
0.0
 42
0.4142135623643546
  0
VERTEX
  5
24C2
  8
SAPA_PROFIL
  6
CONTINUOUS
 10
1.800000000000068
 20
122.19999999996691
 30
0.0
  0
VERTEX
  5
24C3
  8
SAPA_PROFIL
  6
CONTINUOUS
 10
1.799999999997226
 20
121.9083734921709
 30
0.0
  0
VERTEX
  5
24C4
  8
SAPA_PROFIL
  6
CONTINUOUS
 10
2.7285948686790169
 20
120.2999999999649
 30
0.0
 42
-0.5773502691895283
  0
VERTEX
  5
24C5
  8
SAPA_PROFIL
  6
CONTINUOUS
 10
2.5553897879220879
 20
119.999999999965
 30
0.0
  0
VERTEX
  5
24C6
  8
SAPA_PROFIL
  6
CONTINUOUS
 10
1.169749141868123
 20
119.999999999965
 30
0.0
 42
-0.267949192431441
  0
VERTEX
  5
24C7
  8
SAPA_PROFIL
  6
CONTINUOUS
 10
0.3037237380831357
 20
120.4999999999649
 30
0.0
  0
VERTEX
  5
24C8
  8
SAPA_PROFIL
  6
CONTINUOUS
 10
-3.1892453905259108
 20
126.5499999999989
 30
0.0
 42
0.2679491924318217
  0
VERTEX
  5
24C9
  8
SAPA_PROFIL
  6
CONTINUOUS
 10
-3.6222580924188601
 20
126.8000000000001
 30
0.0
  0
VERTEX
  5
24CA
  8
SAPA_PROFIL
  6
CONTINUOUS
 10
-16.487142984321959
 20
126.7999999999989
 30
0.0
 42
0.2679491924310522
  0
VERTEX
  5
24CB
  8
SAPA_PROFIL
  6
CONTINUOUS
 10
-16.920155686214109
 20
126.549999999999
 30
0.0
  0
VERTEX
  5
24CC
  8
SAPA_PROFIL
  6
CONTINUOUS
 10
-18.103723738070808
 20
124.4999999999639
 30
0.0
 42
-0.267949192431297
  0
VERTEX
  5
24CD
  8
SAPA_PROFIL
  6
CONTINUOUS
 10
-18.969749141854891
 20
123.9999999999629
 30
0.0
  0
VERTEX
  5
24CE
  8
SAPA_PROFIL
  6
CONTINUOUS
 10
-20.355389787908852
 20
123.9999999999629
 30
0.0
 42
-0.5773502691895273
  0
VERTEX
  5
24CF
  8
SAPA_PROFIL
  6
CONTINUOUS
 10
-20.528594868665781
 20
124.29999999996291
 30
0.0
  0
VERTEX
  5
24D0
  8
SAPA_PROFIL
  6
CONTINUOUS
 10
-19.599999999983758
 20
125.9083734921699
 30
0.0
  0
VERTEX
  5
24D1
  8
SAPA_PROFIL
  6
CONTINUOUS
 10
-19.599999999986949
 20
126.199999999965
 30
0.0
 42
0.4142135623662692
  0
VERTEX
  5
24D2
  8
SAPA_PROFIL
  6
CONTINUOUS
 10
-19.899999999981791
 20
126.4999999999629
 30
0.0
  0
VERTEX
  5
24D3
  8
SAPA_PROFIL
  6
CONTINUOUS
 10
-23.752786404488909
 20
126.5000000000319
 30
0.0
  0
SEQEND
  5
24D4
  8
SAPA_PROFIL
  6
CONTINUOUS
  0
POLYLINE
  5
1DAB
  8
SAPA_PROFIL
 62
     4
 66
     1
 10
0.0
 20
0.0
 30
0.0
 70
     1
  0
VERTEX
  5
24D5
  8
SAPA_PROFIL
 62
     4
 10
-22.827485331485459
 20
99.537778470552468
 30
0.0
 42
0.3137019356282051
  0
VERTEX
  5
24D6
  8
SAPA_PROFIL
 62
     4
 10
-23.025110957018882
 20
99.818728254098787
 30
0.0
  0
VERTEX
  5
24D7
  8
SAPA_PROFIL
 62
     4
 10
-25.457940978562899
 20
100.70420596696989
 30
0.0
 42
-0.3152987888779321
  0
VERTEX
  5
24D8
  8
SAPA_PROFIL
 62
     4
 10
-25.72113292123262
 20
101.08008301528631
 30
0.0
  0
VERTEX
  5
24D9
  8
SAPA_PROFIL
 62
     4
 10
-25.721132921232599
 20
111.5000000000005
 30
0.0
  0
VERTEX
  5
24DA
  8
SAPA_PROFIL
 62
     4
 10
-25.721132921232542
 20
121.9199169847186
 30
0.0
 42
-0.3152987888779395
  0
VERTEX
  5
24DB
  8
SAPA_PROFIL
 62
     4
 10
-25.457940978562821
 20
122.2957940330309
 30
0.0
  0
VERTEX
  5
24DC
  8
SAPA_PROFIL
 62
     4
 10
-23.02511095702712
 20
123.1812717458991
 30
0.0
 42
0.3138982169096283
  0
VERTEX
  5
24DD
  8
SAPA_PROFIL
 62
     4
 10
-22.82748533148677
 20
123.4622215294133
 30
0.0
 42
0.0157923906855865
  0
VERTEX
  5
24DE
  8
SAPA_PROFIL
 62
     4
 10
-22.82408220184718
 20
123.81368006175209
 30
0.0
  0
VERTEX
  5
24DF
  8
SAPA_PROFIL
 62
     4
 10
-22.685412444740649
 20
124.0538631265344
 30
0.0
 42
0.5773502691889272
  0
VERTEX
  5
24E0
  8
SAPA_PROFIL
 62
     4
 10
-22.867277779535438
 20
124.36886312653409
 30
0.0
  0
VERTEX
  5
24E1
  8
SAPA_PROFIL
 62
     4
 10
-23.13439230774836
 20
124.36886312653429
 30
0.0
  0
VERTEX
  5
24E2
  8
SAPA_PROFIL
 62
     4
 10
-23.330614373532651
 20
124.7000000000004
 30
0.0
  0
VERTEX
  5
24E3
  8
SAPA_PROFIL
 62
     4
 10
-23.898258537030099
 20
125.683320137981
 30
0.0
 42
-0.1316524975869703
  0
VERTEX
  5
24E4
  8
SAPA_PROFIL
 62
     4
 10
-23.92639320223466
 20
125.7883201379798
 30
0.0
  0
VERTEX
  5
24E5
  8
SAPA_PROFIL
 62
     4
 10
-23.926393202234781
 20
126.1000000000024
 30
0.0
 42
-0.4142135623775584
  0
VERTEX
  5
24E6
  8
SAPA_PROFIL
 62
     4
 10
-23.526393202234459
 20
126.5000000000004
 30
0.0
  0
VERTEX
  5
24E7
  8
SAPA_PROFIL
 62
     4
 10
-20.126393202234709
 20
126.5000000000005
 30
0.0
 42
-0.4142135623773978
  0
VERTEX
  5
24E8
  8
SAPA_PROFIL
 62
     4
 10
-19.726393202234728
 20
126.10000000000041
 30
0.0
  0
VERTEX
  5
24E9
  8
SAPA_PROFIL
 62
     4
 10
-19.726393202234728
 20
125.7883201379768
 30
0.0
 42
-0.1316524975869708
  0
VERTEX
  5
24EA
  8
SAPA_PROFIL
 62
     4
 10
-19.754527867439968
 20
125.68332013797981
 30
0.0
  0
VERTEX
  5
24EB
  8
SAPA_PROFIL
 62
     4
 10
-20.32224801380201
 20
124.7000000000004
 30
0.0
  0
VERTEX
  5
24EC
  8
SAPA_PROFIL
 62
     4
 10
-20.665623686774129
 20
124.10525588832959
 30
0.0
 42
0.1316524975869772
  0
VERTEX
  5
24ED
  8
SAPA_PROFIL
 62
     4
 10
-20.826393202234641
 20
123.5052558883262
 30
0.0
  0
VERTEX
  5
24EE
  8
SAPA_PROFIL
 62
     4
 10
-20.82639320223441
 20
122.5533915554398
 30
0.0
 42
-0.3152987888780149
  0
VERTEX
  5
24EF
  8
SAPA_PROFIL
 62
     4
 10
-21.484373058908801
 20
121.61369893466831
 30
0.0
  0
VERTEX
  5
24F0
  8
SAPA_PROFIL
 62
     4
 10
-23.65794097856249
 20
120.8225849097584
 30
0.0
 42
0.3152987888779391
  0
VERTEX
  5
24F1
  8
SAPA_PROFIL
 62
     4
 10
-23.921132921232608
 20
120.4467078614439
 30
0.0
  0
VERTEX
  5
24F2
  8
SAPA_PROFIL
 62
     4
 10
-23.921132921232608
 20
111.5000000000005
 30
0.0
  0
VERTEX
  5
24F3
  8
SAPA_PROFIL
 62
     4
 10
-23.921132921232669
 20
102.553292138557
 30
0.0
 42
0.3152987888779318
  0
VERTEX
  5
24F4
  8
SAPA_PROFIL
 62
     4
 10
-23.657940978566248
 20
102.1774150902438
 30
0.0
  0
VERTEX
  5
24F5
  8
SAPA_PROFIL
 62
     4
 10
-21.484373058909028
 20
101.3863010653327
 30
0.0
 42
-0.3152987888779361
  0
VERTEX
  5
24F6
  8
SAPA_PROFIL
 62
     4
 10
-20.826393202234701
 20
100.4466084445321
 30
0.0
  0
VERTEX
  5
24F7
  8
SAPA_PROFIL
 62
     4
 10
-20.826393202234701
 20
99.494744111674635
 30
0.0
 42
0.1316524975869766
  0
VERTEX
  5
24F8
  8
SAPA_PROFIL
 62
     4
 10
-20.665623686779981
 20
98.894744111681433
 30
0.0
  0
VERTEX
  5
24F9
  8
SAPA_PROFIL
 62
     4
 10
-20.326393202234751
 20
98.307179676972936
 30
0.0
  0
VERTEX
  5
24FA
  8
SAPA_PROFIL
 62
     4
 10
-19.754527867440029
 20
97.316679862021005
 30
0.0
 42
-0.1316524975869832
  0
VERTEX
  5
24FB
  8
SAPA_PROFIL
 62
     4
 10
-19.726393202234789
 20
97.211679862017917
 30
0.0
  0
VERTEX
  5
24FC
  8
SAPA_PROFIL
 62
     4
 10
-19.726393202234728
 20
96.900000000000404
 30
0.0
 42
-0.414213562371655
  0
VERTEX
  5
24FD
  8
SAPA_PROFIL
 62
     4
 10
-20.126393202238692
 20
96.500000000000426
 30
0.0
  0
VERTEX
  5
24FE
  8
SAPA_PROFIL
 62
     4
 10
-23.52639320223474
 20
96.500000000000426
 30
0.0
 42
-0.4142135623716633
  0
VERTEX
  5
24FF
  8
SAPA_PROFIL
 62
     4
 10
-23.926393202234721
 20
96.900000000002464
 30
0.0
  0
VERTEX
  5
2500
  8
SAPA_PROFIL
 62
     4
 10
-23.926393202234721
 20
97.211679862021114
 30
0.0
 42
-0.1316524975869709
  0
VERTEX
  5
2501
  8
SAPA_PROFIL
 62
     4
 10
-23.89825853702914
 20
97.316679862021687
 30
0.0
  0
VERTEX
  5
2502
  8
SAPA_PROFIL
 62
     4
 10
-23.13439230774836
 20
98.631136873466673
 30
0.0
  0
VERTEX
  5
2503
  8
SAPA_PROFIL
 62
     4
 10
-22.867277779535438
 20
98.631136873466815
 30
0.0
 42
0.5773502691889269
  0
VERTEX
  5
2504
  8
SAPA_PROFIL
 62
     4
 10
-22.685412444740649
 20
98.946136873466514
 30
0.0
  0
VERTEX
  5
2505
  8
SAPA_PROFIL
 62
     4
 10
-22.824082201847169
 20
99.186319938248815
 30
0.0
 42
0.015792390685586
  0
SEQEND
  5
2506
  8
SAPA_PROFIL
 62
     4
  0
POLYLINE
  5
1DAC
  8
SAPA_PROFIL
 62
     4
 66
     1
 10
0.0
 20
0.0
 30
0.0
 70
     1
  0
VERTEX
  5
2507
  8
SAPA_PROFIL
 62
     4
 10
5.0263932022442921
 20
103.49474411165551
 30
0.0
 42
0.0158087792519252
  0
VERTEX
  5
2508
  8
SAPA_PROFIL
 62
     4
 10
5.024082201856884
 20
103.18631993824729
 30
0.0
  0
VERTEX
  5
2509
  8
SAPA_PROFIL
 62
     4
 10
4.8854124447503571
 20
102.94613687346499
 30
0.0
 42
0.5773502691889283
  0
VERTEX
  5
250A
  8
SAPA_PROFIL
 62
     4
 10
5.06727777954515
 20
102.63113687346529
 30
0.0
  0
VERTEX
  5
250B
  8
SAPA_PROFIL
 62
     4
 10
5.338115397671543
 20
102.6332864004289
 30
0.0
  0
VERTEX
  5
250C
  8
SAPA_PROFIL
 62
     4
 10
6.08620082337913
 20
101.3375644347016
 30
0.0
 42
-0.1316524975870228
  0
VERTEX
  5
250D
  8
SAPA_PROFIL
 62
     4
 10
6.126393202244258
 20
101.1875644347007
 30
0.0
  0
VERTEX
  5
250E
  8
SAPA_PROFIL
 62
     4
 10
6.126393202244258
 20
100.9000000000009
 30
0.0
 42
-0.4142135623716466
  0
VERTEX
  5
250F
  8
SAPA_PROFIL
 62
     4
 10
5.7263932022442807
 20
100.49999999999891
 30
0.0
  0
VERTEX
  5
2510
  8
SAPA_PROFIL
 62
     4
 10
2.3263932022482261
 20
100.49999999999891
 30
0.0
 42
-0.4142135623716799
  0
VERTEX
  5
2511
  8
SAPA_PROFIL
 62
     4
 10
1.9263932022443271
 20
100.8999999999989
 30
0.0
  0
VERTEX
  5
2512
  8
SAPA_PROFIL
 62
     4
 10
1.92639320224427
 20
101.1875644346963
 30
0.0
 42
-0.1316524975869177
  0
VERTEX
  5
2513
  8
SAPA_PROFIL
 62
     4
 10
1.9665855811090009
 20
101.3375644347006
 30
0.0
  0
VERTEX
  5
2514
  8
SAPA_PROFIL
 62
     4
 10
2.8656236867895748
 20
102.8947441116799
 30
0.0
 42
0.1316524975869702
  0
VERTEX
  5
2515
  8
SAPA_PROFIL
 62
     4
 10
3.0263932022442921
 20
103.4947441116731
 30
0.0
  0
VERTEX
  5
2516
  8
SAPA_PROFIL
 62
     4
 10
3.0263932022442921
 20
104.9056465456206
 30
0.0
 42
-0.2956153501796054
  0
VERTEX
  5
2517
  8
SAPA_PROFIL
 62
     4
 10
3.203769581379361
 20
105.1794410810087
 30
0.0
  0
VERTEX
  5
2518
  8
SAPA_PROFIL
 62
     4
 10
5.8307659036898647
 20
106.3559868458432
 30
0.0
 42
0.2956153501796242
  0
VERTEX
  5
2519
  8
SAPA_PROFIL
 62
     4
 10
6.1263932022444862
 20
106.81231107148101
 30
0.0
  0
VERTEX
  5
251A
  8
SAPA_PROFIL
 62
     4
 10
6.1263932022444862
 20
116.1874352799433
 30
0.0
 42
0.2962134949611152
  0
VERTEX
  5
251B
  8
SAPA_PROFIL
 62
     4
 10
5.829761523781797
 20
116.64420800876491
 30
0.0
  0
VERTEX
  5
251C
  8
SAPA_PROFIL
 62
     4
 10
3.2043722093216331
 20
117.813106641665
 30
0.0
 42
-0.2962134949611341
  0
VERTEX
  5
251D
  8
SAPA_PROFIL
 62
     4
 10
3.0263932022442921
 20
118.08717027895339
 30
0.0
  0
VERTEX
  5
251E
  8
SAPA_PROFIL
 62
     4
 10
3.0263932022442921
 20
119.5052558883247
 30
0.0
 42
0.1316524975869708
  0
VERTEX
  5
251F
  8
SAPA_PROFIL
 62
     4
 10
2.8656236867836071
 20
120.105255888328
 30
0.0
  0
VERTEX
  5
2520
  8
SAPA_PROFIL
 62
     4
 10
2.522248013811605
 20
120.69999999999889
 30
0.0
  0
VERTEX
  5
2521
  8
SAPA_PROFIL
 62
     4
 10
1.9665855811090009
 20
121.6624355652971
 30
0.0
 42
-0.1316524975870234
  0
VERTEX
  5
2522
  8
SAPA_PROFIL
 62
     4
 10
1.92639320224427
 20
121.8124355652928
 30
0.0
  0
VERTEX
  5
2523
  8
SAPA_PROFIL
 62
     4
 10
1.9263932022443271
 20
122.0999999999989
 30
0.0
 42
-0.4142135623773905
  0
VERTEX
  5
2524
  8
SAPA_PROFIL
 62
     4
 10
2.3263932022443039
 20
122.49999999999901
 30
0.0
  0
VERTEX
  5
2525
  8
SAPA_PROFIL
 62
     4
 10
5.7263932022442807
 20
122.49999999999891
 30
0.0
 42
-0.4142135623716633
  0
VERTEX
  5
2526
  8
SAPA_PROFIL
 62
     4
 10
6.126393202244258
 20
122.1000000000008
 30
0.0
  0
VERTEX
  5
2527
  8
SAPA_PROFIL
 62
     4
 10
6.126393202244258
 20
121.81243556529709
 30
0.0
 42
-0.1316524975870223
  0
VERTEX
  5
2528
  8
SAPA_PROFIL
 62
     4
 10
6.0862008233805511
 20
121.66243556529879
 30
0.0
  0
VERTEX
  5
2529
  8
SAPA_PROFIL
 62
     4
 10
5.5305383906769796
 20
120.69999999999889
 30
0.0
  0
VERTEX
  5
252A
  8
SAPA_PROFIL
 62
     4
 10
5.3381153976715723
 20
120.366713599569
 30
0.0
  0
VERTEX
  5
252B
  8
SAPA_PROFIL
 62
     4
 10
5.06727777954515
 20
120.3688631265326
 30
0.0
 42
0.577350269188929
  0
VERTEX
  5
252C
  8
SAPA_PROFIL
 62
     4
 10
4.8854124447503571
 20
120.0538631265329
 30
0.0
  0
VERTEX
  5
252D
  8
SAPA_PROFIL
 62
     4
 10
5.024082201856884
 20
119.8136800617506
 30
0.0
 42
0.0126854278206095
  0
VERTEX
  5
252E
  8
SAPA_PROFIL
 62
     4
 10
5.0263932022442566
 20
119.46222152941181
 30
0.0
  0
VERTEX
  5
252F
  8
SAPA_PROFIL
 62
     4
 10
5.0263932022442921
 20
119.3859854653528
 30
0.0
 42
0.2962134949611687
  0
VERTEX
  5
2530
  8
SAPA_PROFIL
 62
     4
 10
5.2043722093246449
 20
119.1119218280586
 30
0.0
  0
VERTEX
  5
2531
  8
SAPA_PROFIL
 62
     4
 10
7.748414195166986
 20
117.97924135933241
 30
0.0
 42
-0.2962134949611357
  0
VERTEX
  5
2532
  8
SAPA_PROFIL
 62
     4
 10
7.9263932022442702
 20
117.7051777220411
 30
0.0
  0
VERTEX
  5
2533
  8
SAPA_PROFIL
 62
     4
 10
7.9263932022444399
 20
113.23005594144961
 30
0.0
  0
VERTEX
  5
2534
  8
SAPA_PROFIL
 62
     4
 10
7.926393202244383
 20
105.2948222779596
 30
0.0
 42
-0.2962134949611373
  0
VERTEX
  5
2535
  8
SAPA_PROFIL
 62
     4
 10
7.7484141951670997
 20
105.02075864066531
 30
0.0
  0
VERTEX
  5
2536
  8
SAPA_PROFIL
 62
     4
 10
5.2043722093165741
 20
103.8880781719355
 30
0.0
 42
0.2962134949611043
  0
VERTEX
  5
2537
  8
SAPA_PROFIL
 62
     4
 10
5.0263932022442921
 20
103.61401453464489
 30
0.0
  0
SEQEND
  5
2538
  8
SAPA_PROFIL
 62
     4
  0
POLYLINE
  5
1DAD
  8
SAPA_PROFIL
 66
     1
 10
0.0
 20
0.0
 30
0.0
 70
     1
  0
VERTEX
  5
2539
  8
SAPA_PROFIL
 10
-28.114092851608291
 20
145.38207524575711
 30
0.0
 42
0.2038501166358089
  0
VERTEX
  5
253A
  8
SAPA_PROFIL
 10
-28.4783996310261
 20
145.5252581023631
 30
0.0
  0
VERTEX
  5
253B
  8
SAPA_PROFIL
 10
-43.58311288362659
 20
145.10663199307399
 30
0.0
 42
0.4061212134722958
  0
VERTEX
  5
253C
  8
SAPA_PROFIL
 10
-46.500000000018588
 20
142.10778350597479
 30
0.0
  0
VERTEX
  5
253D
  8
SAPA_PROFIL
 10
-46.500000000018588
 20
134.30000000482991
 30
0.0
 42
0.4142135623730951
  0
VERTEX
  5
253E
  8
SAPA_PROFIL
 10
-46.000000000018581
 20
133.8000000048298
 30
0.0
  0
VERTEX
  5
253F
  8
SAPA_PROFIL
 10
-34.289949493672282
 20
133.8000000048298
 30
0.0
 42
-0.1989123673796573
  0
VERTEX
  5
2540
  8
SAPA_PROFIL
 10
-32.875735931298948
 20
133.21421356720319
 30
0.0
  0
VERTEX
  5
2541
  8
SAPA_PROFIL
 10
-31.25897756943726
 20
131.59745520534099
 30
0.0
 42
0.1989123673796573
  0
VERTEX
  5
2542
  8
SAPA_PROFIL
 10
-30.5518707882506
 20
131.30456198652769
 30
0.0
  0
VERTEX
  5
2543
  8
SAPA_PROFIL
 10
-21.601768170272809
 20
131.80217752378871
 30
0.0
 42
-0.6681786379236462
  0
VERTEX
  5
2544
  8
SAPA_PROFIL
 10
-21.388385850739208
 20
131.28702703399969
 30
0.0
  0
VERTEX
  5
2545
  8
SAPA_PROFIL
 10
-23.387867965661769
 20
129.28754491907719
 30
0.0
 42
-0.7332303362587975
  0
VERTEX
  5
2546
  8
SAPA_PROFIL
 10
-23.895442325921469
 20
129.55177140673439
 30
0.0
  0
VERTEX
  5
2547
  8
SAPA_PROFIL
 10
-23.7868582151354
 20
130.1675825001328
 30
0.0
 42
0.4663076581593609
  0
VERTEX
  5
2548
  8
SAPA_PROFIL
 10
-24.082300541038819
 20
130.51967695343299
 30
0.0
  0
VERTEX
  5
2549
  8
SAPA_PROFIL
 10
-30.69363428660694
 20
130.02206141617199
 30
0.0
 42
-0.1989123673796569
  0
VERTEX
  5
254A
  8
SAPA_PROFIL
 10
-32.107847848980271
 20
130.60784785379909
 30
0.0
  0
VERTEX
  5
254B
  8
SAPA_PROFIL
 10
-33.707106781197979
 20
132.20710678601631
 30
0.0
 42
0.1989123673796555
  0
VERTEX
  5
254C
  8
SAPA_PROFIL
 10
-34.414213562384191
 20
132.5000000048301
 30
0.0
  0
VERTEX
  5
254D
  8
SAPA_PROFIL
 10
-45.700000000022037
 20
132.5000000048301
 30
0.0
 42
0.4142135623732283
  0
VERTEX
  5
254E
  8
SAPA_PROFIL
 10
-46.200000000022037
 20
132.0000000048297
 30
0.0
  0
VERTEX
  5
254F
  8
SAPA_PROFIL
 10
-46.200000000021127
 20
130.80000000483031
 30
0.0
 42
-0.4142135623732616
  0
VERTEX
  5
2550
  8
SAPA_PROFIL
 10
-46.500000000021309
 20
130.5000000048301
 30
0.0
  0
VERTEX
  5
2551
  8
SAPA_PROFIL
 10
-47.700000000006582
 20
130.5000000048301
 30
0.0
 42
-0.4142135623716522
  0
VERTEX
  5
2552
  8
SAPA_PROFIL
 10
-48.000000000008583
 20
130.80000000483079
 30
0.0
  0
VERTEX
  5
2553
  8
SAPA_PROFIL
 10
-48.000000000031768
 20
146.70000000482949
 30
0.0
 42
-0.4142135623735277
  0
VERTEX
  5
2554
  8
SAPA_PROFIL
 10
-47.700000000032048
 20
147.0000000048301
 30
0.0
  0
VERTEX
  5
2555
  8
SAPA_PROFIL
 10
-26.20462388633991
 20
147.0000000048301
 30
0.0
 42
-0.4210020197690798
  0
VERTEX
  5
2556
  8
SAPA_PROFIL
 10
-26.000000000018591
 20
146.80005346278611
 30
0.0
  0
VERTEX
  5
2557
  8
SAPA_PROFIL
 10
-26.000000000018591
 20
146.00475999413291
 30
0.0
  0
VERTEX
  5
2558
  8
SAPA_PROFIL
 10
-26.30000000001877
 20
146.00475999413291
 30
0.0
 42
0.4142135623730951
  0
VERTEX
  5
2559
  8
SAPA_PROFIL
 10
-26.500000000018591
 20
145.80475999413309
 30
0.0
  0
VERTEX
  5
255A
  8
SAPA_PROFIL
 10
-26.500000000018591
 20
145.56221605628599
 30
0.0
 42
0.2011813370902619
  0
VERTEX
  5
255B
  8
SAPA_PROFIL
 10
-26.440181852878538
 20
145.41956596645539
 30
0.0
  0
VERTEX
  5
255C
  8
SAPA_PROFIL
 10
-25.513434494148839
 20
144.50885387343149
 30
0.0
  0
VERTEX
  5
255D
  8
SAPA_PROFIL
 10
-24.000000000016769
 20
144.52206141617469
 30
0.0
 42
-0.4931454260355948
  0
VERTEX
  5
255E
  8
SAPA_PROFIL
 10
-22.428735039778928
 20
144.74288830522229
 30
0.0
  0
VERTEX
  5
255F
  8
SAPA_PROFIL
 10
-21.361085202954602
 20
143.6937117326095
 30
0.0
 42
-0.6681786379164273
  0
VERTEX
  5
2560
  8
SAPA_PROFIL
 10
-21.502454083408281
 20
143.3438114751246
 30
0.0
  0
VERTEX
  5
2561
  8
SAPA_PROFIL
 10
-26.000000000018591
 20
143.30456198652729
 30
0.0
  0
SEQEND
  5
2562
  8
SAPA_PROFIL
  0
POLYLINE
  5
1DAE
  8
SAPA_PROFIL
 66
     1
 10
0.0
 20
0.0
 30
0.0
 70
     1
  0
VERTEX
  5
2563
  8
SAPA_PROFIL
 10
20.85000000000036
 20
-86.499999999010456
 30
0.0
 42
0.1989123673797145
  0
VERTEX
  5
2564
  8
SAPA_PROFIL
 10
20.637867965644091
 20
-86.587867964654379
 30
0.0
  0
VERTEX
  5
2565
  8
SAPA_PROFIL
 10
20.237867965644451
 20
-86.987867964654455
 30
0.0
 42
0.668178637919182
  0
VERTEX
  5
2566
  8
SAPA_PROFIL
 10
20.450000000000269
 20
-87.499999999010484
 30
0.0
  0
VERTEX
  5
2567
  8
SAPA_PROFIL
 10
21.300000000000178
 20
-87.499999999010484
 30
0.0
 42
-0.4142135623730284
  0
VERTEX
  5
2568
  8
SAPA_PROFIL
 10
21.800000000000178
 20
-87.999999999010456
 30
0.0
  0
VERTEX
  5
2569
  8
SAPA_PROFIL
 10
21.800000000000178
 20
-88.390808928730607
 30
0.0
 42
-0.17632698070845
  0
VERTEX
  5
256A
  8
SAPA_PROFIL
 10
21.729813332935919
 20
-88.583645211636394
 30
0.0
  0
VERTEX
  5
256B
  8
SAPA_PROFIL
 10
20.211721773135199
 20
-90.392836281916061
 30
0.0
 42
-0.2216946626429421
  0
VERTEX
  5
256C
  8
SAPA_PROFIL
 10
19.98190844019928
 20
-90.499999999010015
 30
0.0
  0
VERTEX
  5
256D
  8
SAPA_PROFIL
 10
16.450000000000269
 20
-90.499999999010456
 30
0.0
 42
-0.4142135623730951
  0
VERTEX
  5
256E
  8
SAPA_PROFIL
 10
16.150000000000091
 20
-90.199999999010288
 30
0.0
  0
VERTEX
  5
256F
  8
SAPA_PROFIL
 10
16.150000000000539
 20
-87.799999999010197
 30
0.0
 42
-0.4142135623730951
  0
VERTEX
  5
2570
  8
SAPA_PROFIL
 10
16.450000000000269
 20
-87.499999999010484
 30
0.0
  0
VERTEX
  5
2571
  8
SAPA_PROFIL
 10
16.85000000000036
 20
-87.499999999010484
 30
0.0
 42
0.6681786379193188
  0
VERTEX
  5
2572
  8
SAPA_PROFIL
 10
17.062132034356178
 20
-86.987867964654455
 30
0.0
  0
VERTEX
  5
2573
  8
SAPA_PROFIL
 10
16.662132034356091
 20
-86.587867964654379
 30
0.0
 42
0.198912367379658
  0
VERTEX
  5
2574
  8
SAPA_PROFIL
 10
16.450000000000269
 20
-86.499999999010456
 30
0.0
  0
VERTEX
  5
2575
  8
SAPA_PROFIL
 10
14.65000000000054
 20
-86.499999999010015
 30
0.0
 42
0.4142135623731284
  0
VERTEX
  5
2576
  8
SAPA_PROFIL
 10
14.15000000000054
 20
-86.999999999010015
 30
0.0
  0
VERTEX
  5
2577
  8
SAPA_PROFIL
 10
14.150000000000089
 20
-91.499999999010925
 30
0.0
 42
0.4142135623730951
  0
VERTEX
  5
2578
  8
SAPA_PROFIL
 10
14.650000000000089
 20
-91.999999999010925
 30
0.0
  0
VERTEX
  5
2579
  8
SAPA_PROFIL
 10
18.650000000000091
 20
-91.999999999010015
 30
0.0
 42
-0.4142135623729619
  0
VERTEX
  5
257A
  8
SAPA_PROFIL
 10
19.150000000000091
 20
-92.499999999010015
 30
0.0
  0
VERTEX
  5
257B
  8
SAPA_PROFIL
 10
19.150000000000091
 20
-94.516956646213657
 30
0.0
 42
-0.1763269807084973
  0
VERTEX
  5
257C
  8
SAPA_PROFIL
 10
19.033022221559349
 20
-94.838350451057053
 30
0.0
  0
VERTEX
  5
257D
  8
SAPA_PROFIL
 10
16.949501460030199
 20
-97.321393803853425
 30
0.0
 42
-0.2216946626428772
  0
VERTEX
  5
257E
  8
SAPA_PROFIL
 10
16.566479238470951
 20
-97.499999999010015
 30
0.0
  0
VERTEX
  5
257F
  8
SAPA_PROFIL
 10
10.56853372839123
 20
-97.499999999010484
 30
0.0
 42
-0.315298788878991
  0
VERTEX
  5
2580
  8
SAPA_PROFIL
 10
10.098687417998461
 20
-97.171010070673219
 30
0.0
  0
VERTEX
  5
2581
  8
SAPA_PROFIL
 10
8.6380638705318233
 20
-93.157979855684516
 30
0.0
 42
0.3152987888789731
  0
VERTEX
  5
2582
  8
SAPA_PROFIL
 10
7.6983712497458319
 20
-92.499999999010015
 30
0.0
  0
VERTEX
  5
2583
  8
SAPA_PROFIL
 10
6.6500000000000901
 20
-92.499999999010015
 30
0.0
 42
-0.4142135623732616
  0
VERTEX
  5
2584
  8
SAPA_PROFIL
 10
6.3499999999999091
 20
-92.199999999010288
 30
0.0
  0
VERTEX
  5
2585
  8
SAPA_PROFIL
 10
6.3499999999999091
 20
-91.799999999010197
 30
0.0
 42
0.4142135623731506
  0
VERTEX
  5
2586
  8
SAPA_PROFIL
 10
6.050000000000181
 20
-91.499999999010015
 30
0.0
  0
VERTEX
  5
2587
  8
SAPA_PROFIL
 10
5.6500000000000901
 20
-91.499999999010015
 30
0.0
 42
0.4142135623731505
  0
VERTEX
  5
2588
  8
SAPA_PROFIL
 10
5.3499999999999091
 20
-91.799999999010197
 30
0.0
  0
VERTEX
  5
2589
  8
SAPA_PROFIL
 10
5.3499999999999091
 20
-92.199999999010288
 30
0.0
 42
-0.4142135623732061
  0
VERTEX
  5
258A
  8
SAPA_PROFIL
 10
5.050000000000181
 20
-92.499999999010015
 30
0.0
  0
VERTEX
  5
258B
  8
SAPA_PROFIL
 10
0.6242640687119092
 20
-92.499999999010015
 30
0.0
 42
0.198912367379577
  0
VERTEX
  5
258C
  8
SAPA_PROFIL
 10
0.4121320343560911
 20
-92.587867964654379
 30
0.0
  0
VERTEX
  5
258D
  8
SAPA_PROFIL
 10
0.0
 20
-92.999999999010015
 30
0.0
  0
VERTEX
  5
258E
  8
SAPA_PROFIL
 10
-0.4121320343560911
 20
-92.587867964654379
 30
0.0
 42
0.1989123673795771
  0
VERTEX
  5
258F
  8
SAPA_PROFIL
 10
-0.6242640687119092
 20
-92.499999999010015
 30
0.0
  0
VERTEX
  5
2590
  8
SAPA_PROFIL
 10
-5.0499999999997272
 20
-92.499999999010015
 30
0.0
 42
-0.4142135623732059
  0
VERTEX
  5
2591
  8
SAPA_PROFIL
 10
-5.3499999999999091
 20
-92.199999999010288
 30
0.0
  0
VERTEX
  5
2592
  8
SAPA_PROFIL
 10
-5.3499999999999091
 20
-91.799999999010197
 30
0.0
 42
0.4142135623731506
  0
VERTEX
  5
2593
  8
SAPA_PROFIL
 10
-5.6500000000000901
 20
-91.499999999010015
 30
0.0
  0
VERTEX
  5
2594
  8
SAPA_PROFIL
 10
-6.0499999999997272
 20
-91.499999999010015
 30
0.0
 42
0.4142135623731505
  0
VERTEX
  5
2595
  8
SAPA_PROFIL
 10
-6.3499999999999091
 20
-91.799999999010197
 30
0.0
  0
VERTEX
  5
2596
  8
SAPA_PROFIL
 10
-6.3499999999999091
 20
-92.199999999010288
 30
0.0
 42
-0.4142135623732615
  0
VERTEX
  5
2597
  8
SAPA_PROFIL
 10
-6.6500000000000901
 20
-92.499999999010015
 30
0.0
  0
VERTEX
  5
2598
  8
SAPA_PROFIL
 10
-7.698371249745378
 20
-92.499999999010015
 30
0.0
 42
0.3152987888789731
  0
VERTEX
  5
2599
  8
SAPA_PROFIL
 10
-8.6380638705313686
 20
-93.157979855684516
 30
0.0
  0
VERTEX
  5
259A
  8
SAPA_PROFIL
 10
-10.09868741799801
 20
-97.171010070673219
 30
0.0
 42
-0.315298788878991
  0
VERTEX
  5
259B
  8
SAPA_PROFIL
 10
-10.56853372839123
 20
-97.499999999010484
 30
0.0
  0
VERTEX
  5
259C
  8
SAPA_PROFIL
 10
-16.566479238470489
 20
-97.499999999010015
 30
0.0
 42
-0.2216946626428772
  0
VERTEX
  5
259D
  8
SAPA_PROFIL
 10
-16.949501460029751
 20
-97.321393803853425
 30
0.0
  0
VERTEX
  5
259E
  8
SAPA_PROFIL
 10
-19.033022221559349
 20
-94.838350451057053
 30
0.0
 42
-0.1763269807084973
  0
VERTEX
  5
259F
  8
SAPA_PROFIL
 10
-19.150000000000091
 20
-94.516956646213657
 30
0.0
  0
VERTEX
  5
25A0
  8
SAPA_PROFIL
 10
-19.150000000000091
 20
-92.499999999010015
 30
0.0
 42
-0.4142135623729619
  0
VERTEX
  5
25A1
  8
SAPA_PROFIL
 10
-18.650000000000091
 20
-91.999999999010015
 30
0.0
  0
VERTEX
  5
25A2
  8
SAPA_PROFIL
 10
-14.650000000000089
 20
-91.999999999010925
 30
0.0
 42
0.4142135623730951
  0
VERTEX
  5
25A3
  8
SAPA_PROFIL
 10
-14.150000000000089
 20
-91.499999999010925
 30
0.0
  0
VERTEX
  5
25A4
  8
SAPA_PROFIL
 10
-14.150000000000089
 20
-86.999999999010015
 30
0.0
 42
0.4142135623731285
  0
VERTEX
  5
25A5
  8
SAPA_PROFIL
 10
-14.650000000000089
 20
-86.499999999010015
 30
0.0
  0
VERTEX
  5
25A6
  8
SAPA_PROFIL
 10
-16.450000000000269
 20
-86.499999999010456
 30
0.0
 42
0.198912367379658
  0
VERTEX
  5
25A7
  8
SAPA_PROFIL
 10
-16.662132034356091
 20
-86.587867964654379
 30
0.0
  0
VERTEX
  5
25A8
  8
SAPA_PROFIL
 10
-17.062132034356178
 20
-86.987867964654455
 30
0.0
 42
0.6681786379193188
  0
VERTEX
  5
25A9
  8
SAPA_PROFIL
 10
-16.849999999999909
 20
-87.499999999010484
 30
0.0
  0
VERTEX
  5
25AA
  8
SAPA_PROFIL
 10
-16.450000000000269
 20
-87.499999999010484
 30
0.0
 42
-0.4142135623730951
  0
VERTEX
  5
25AB
  8
SAPA_PROFIL
 10
-16.150000000000091
 20
-87.799999999010197
 30
0.0
  0
VERTEX
  5
25AC
  8
SAPA_PROFIL
 10
-16.150000000000091
 20
-90.199999999010288
 30
0.0
 42
-0.4142135623730951
  0
VERTEX
  5
25AD
  8
SAPA_PROFIL
 10
-16.450000000000269
 20
-90.499999999010456
 30
0.0
  0
VERTEX
  5
25AE
  8
SAPA_PROFIL
 10
-19.98190844019928
 20
-90.499999999010015
 30
0.0
 42
-0.221694662642942
  0
VERTEX
  5
25AF
  8
SAPA_PROFIL
 10
-20.211721773134741
 20
-90.392836281916061
 30
0.0
  0
VERTEX
  5
25B0
  8
SAPA_PROFIL
 10
-21.729813332935471
 20
-88.583645211636394
 30
0.0
 42
-0.1763269807084499
  0
VERTEX
  5
25B1
  8
SAPA_PROFIL
 10
-21.799999999999731
 20
-88.390808928730607
 30
0.0
  0
VERTEX
  5
25B2
  8
SAPA_PROFIL
 10
-21.800000000000178
 20
-87.999999999010456
 30
0.0
 42
-0.4142135623730284
  0
VERTEX
  5
25B3
  8
SAPA_PROFIL
 10
-21.300000000000178
 20
-87.499999999010484
 30
0.0
  0
VERTEX
  5
25B4
  8
SAPA_PROFIL
 10
-20.450000000000269
 20
-87.499999999010484
 30
0.0
 42
0.668178637919182
  0
VERTEX
  5
25B5
  8
SAPA_PROFIL
 10
-20.237867965644
 20
-86.987867964654455
 30
0.0
  0
VERTEX
  5
25B6
  8
SAPA_PROFIL
 10
-20.637867965644091
 20
-86.587867964654379
 30
0.0
 42
0.1989123673797144
  0
VERTEX
  5
25B7
  8
SAPA_PROFIL
 10
-20.849999999999909
 20
-86.499999999010456
 30
0.0
  0
VERTEX
  5
25B8
  8
SAPA_PROFIL
 10
-23.300000000000178
 20
-86.499999999010456
 30
0.0
 42
0.4142135623730951
  0
VERTEX
  5
25B9
  8
SAPA_PROFIL
 10
-23.800000000000178
 20
-86.99999999901047
 30
0.0
  0
VERTEX
  5
25BA
  8
SAPA_PROFIL
 10
-23.800000000000178
 20
-90.699999999010274
 30
0.0
 42
0.4142135623730951
  0
VERTEX
  5
25BB
  8
SAPA_PROFIL
 10
-23.500000000000451
 20
-90.99999999901047
 30
0.0
  0
VERTEX
  5
25BC
  8
SAPA_PROFIL
 10
-22.473205080757001
 20
-90.99999999901047
 30
0.0
 42
-0.2679491924311428
  0
VERTEX
  5
25BD
  8
SAPA_PROFIL
 10
-22.21339745962177
 20
-91.149999999010575
 30
0.0
  0
VERTEX
  5
25BE
  8
SAPA_PROFIL
 10
-21.325961894323431
 20
-92.687083486550804
 30
0.0
 42
-0.4142135623731709
  0
VERTEX
  5
25BF
  8
SAPA_PROFIL
 10
-21.435769515459011
 20
-93.096891107686133
 30
0.0
  0
VERTEX
  5
25C0
  8
SAPA_PROFIL
 10
-21.96791111376206
 20
-93.404123202713436
 30
0.0
 42
0.4663076581551056
  0
VERTEX
  5
25C1
  8
SAPA_PROFIL
 10
-22.233955556881028
 20
-94.912936216184335
 30
0.0
  0
VERTEX
  5
25C2
  8
SAPA_PROFIL
 10
-18.115270605417209
 20
-99.821393803853425
 30
0.0
 42
0.2216946626428921
  0
VERTEX
  5
25C3
  8
SAPA_PROFIL
 10
-17.732248383857488
 20
-99.999999999010484
 30
0.0
  0
VERTEX
  5
25C4
  8
SAPA_PROFIL
 10
-9.7002075382097246
 20
-99.999999999010484
 30
0.0
 42
0.3152987888789878
  0
VERTEX
  5
25C5
  8
SAPA_PROFIL
 10
-8.760514917423734
 20
-99.342020142335983
 30
0.0
  0
VERTEX
  5
25C6
  8
SAPA_PROFIL
 10
-7.4196339112449996
 20
-95.657979855684516
 30
0.0
 42
-0.3152987888789804
  0
VERTEX
  5
25C7
  8
SAPA_PROFIL
 10
-6.479941290459009
 20
-94.999999999010015
 30
0.0
  0
VERTEX
  5
25C8
  8
SAPA_PROFIL
 10
6.4799412904594638
 20
-94.999999999010015
 30
0.0
 42
-0.3152987888789804
  0
VERTEX
  5
25C9
  8
SAPA_PROFIL
 10
7.4196339112454552
 20
-95.657979855684516
 30
0.0
  0
VERTEX
  5
25CA
  8
SAPA_PROFIL
 10
8.760514917423734
 20
-99.342020142335983
 30
0.0
 42
0.3152987888789877
  0
VERTEX
  5
25CB
  8
SAPA_PROFIL
 10
9.7002075382097246
 20
-99.999999999010484
 30
0.0
  0
VERTEX
  5
25CC
  8
SAPA_PROFIL
 10
17.73224838385795
 20
-99.999999999010484
 30
0.0
 42
0.2216946626428921
  0
VERTEX
  5
25CD
  8
SAPA_PROFIL
 10
18.115270605417209
 20
-99.821393803853425
 30
0.0
  0
VERTEX
  5
25CE
  8
SAPA_PROFIL
 10
22.233955556881028
 20
-94.912936216184335
 30
0.0
 42
0.4663076581551056
  0
VERTEX
  5
25CF
  8
SAPA_PROFIL
 10
21.967911113762511
 20
-93.404123202713436
 30
0.0
  0
VERTEX
  5
25D0
  8
SAPA_PROFIL
 10
21.435769515459011
 20
-93.096891107686133
 30
0.0
 42
-0.414213562373157
  0
VERTEX
  5
25D1
  8
SAPA_PROFIL
 10
21.325961894323878
 20
-92.687083486550804
 30
0.0
  0
VERTEX
  5
25D2
  8
SAPA_PROFIL
 10
22.213397459622229
 20
-91.149999999010575
 30
0.0
 42
-0.2679491924311554
  0
VERTEX
  5
25D3
  8
SAPA_PROFIL
 10
22.473205080757449
 20
-90.99999999901047
 30
0.0
  0
VERTEX
  5
25D4
  8
SAPA_PROFIL
 10
23.500000000000451
 20
-90.99999999901047
 30
0.0
 42
0.4142135623730951
  0
VERTEX
  5
25D5
  8
SAPA_PROFIL
 10
23.80000000000064
 20
-90.699999999010274
 30
0.0
  0
VERTEX
  5
25D6
  8
SAPA_PROFIL
 10
23.800000000000178
 20
-86.99999999901047
 30
0.0
 42
0.4142135623730951
  0
VERTEX
  5
25D7
  8
SAPA_PROFIL
 10
23.300000000000178
 20
-86.499999999010456
 30
0.0
  0
SEQEND
  5
25D8
  8
SAPA_PROFIL
  0
POLYLINE
  5
1DAF
  8
SAPA_PROFIL
 62
     4
 66
     1
 10
0.0
 20
0.0
 30
0.0
 70
     1
  0
VERTEX
  5
25D9
  8
SAPA_PROFIL
 62
     4
 10
-1.055634910786466
 20
-88.358578641879717
 30
0.0
 42
-0.1989123671061458
  0
VERTEX
  5
25DA
  8
SAPA_PROFIL
 62
     4
 10
-0.2071067742556352
 20
-88.00710678019658
 30
0.0
  0
VERTEX
  5
25DB
  8
SAPA_PROFIL
 62
     4
 10
0.2071067742555215
 20
-88.00710678019658
 30
0.0
 42
-0.1989123671061505
  0
VERTEX
  5
25DC
  8
SAPA_PROFIL
 62
     4
 10
1.0556349107863521
 20
-88.358578641879717
 30
0.0
  0
VERTEX
  5
25DD
  8
SAPA_PROFIL
 62
     4
 10
3.287867965867235
 20
-90.590811692262079
 30
0.0
 42
0.6681786375387371
  0
VERTEX
  5
25DE
  8
SAPA_PROFIL
 62
     4
 10
3.7999999999999541
 20
-90.378679657682881
 30
0.0
  0
VERTEX
  5
25DF
  8
SAPA_PROFIL
 62
     4
 10
3.7999999999999541
 20
-73.799999999010083
 30
0.0
 42
0.4142135623731034
  0
VERTEX
  5
25E0
  8
SAPA_PROFIL
 62
     4
 10
3.4999999999999432
 20
-73.499999999010072
 30
0.0
  0
VERTEX
  5
25E1
  8
SAPA_PROFIL
 62
     4
 10
-3.4999999999999432
 20
-73.499999999010072
 30
0.0
 42
0.4142135623731034
  0
VERTEX
  5
25E2
  8
SAPA_PROFIL
 62
     4
 10
-3.8000000000000109
 20
-73.799999999010083
 30
0.0
  0
VERTEX
  5
25E3
  8
SAPA_PROFIL
 62
     4
 10
-3.8000000000000682
 20
-90.378679657682881
 30
0.0
 42
0.6681786375387019
  0
VERTEX
  5
25E4
  8
SAPA_PROFIL
 62
     4
 10
-3.2878679658673491
 20
-90.590811692262079
 30
0.0
  0
SEQEND
  5
25E5
  8
SAPA_PROFIL
 62
     4
  0
POLYLINE
  5
1DB0
  8
SAPA_PROFIL
 62
     4
 66
     1
 10
0.0
 20
0.0
 30
0.0
 70
     1
  0
VERTEX
  5
25E6
  8
SAPA_PROFIL
 62
     4
 10
3.7999999999999541
 20
-72.19999999901006
 30
0.0
  0
VERTEX
  5
25E7
  8
SAPA_PROFIL
 62
     4
 10
3.7999999999999541
 20
-53.999999999010022
 30
0.0
 42
0.4142135623730951
  0
VERTEX
  5
25E8
  8
SAPA_PROFIL
 62
     4
 10
3.5
 20
-53.699999999010011
 30
0.0
  0
VERTEX
  5
25E9
  8
SAPA_PROFIL
 62
     4
 10
2.6029437251521581
 20
-53.69999999901006
 30
0.0
  0
VERTEX
  5
25EA
  8
SAPA_PROFIL
 62
     4
 10
1.0499999999999541
 20
-52.147056273857629
 30
0.0
  0
VERTEX
  5
25EB
  8
SAPA_PROFIL
 62
     4
 10
1.0499999999999541
 20
-46.568653346957198
 30
0.0
  0
VERTEX
  5
25EC
  8
SAPA_PROFIL
 62
     4
 10
0.4763139720814138
 20
-45.57499999901006
 30
0.0
 42
0.5773502691896344
  0
VERTEX
  5
25ED
  8
SAPA_PROFIL
 62
     4
 10
-0.4763139720814707
 20
-45.574999999009997
 30
0.0
  0
VERTEX
  5
25EE
  8
SAPA_PROFIL
 62
     4
 10
-1.050000000000068
 20
-46.568653346957369
 30
0.0
  0
VERTEX
  5
25EF
  8
SAPA_PROFIL
 62
     4
 10
-1.050000000000068
 20
-52.1470562738578
 30
0.0
  0
VERTEX
  5
25F0
  8
SAPA_PROFIL
 62
     4
 10
-2.6029437251522718
 20
-53.69999999901006
 30
0.0
  0
VERTEX
  5
25F1
  8
SAPA_PROFIL
 62
     4
 10
-3.5000000000001128
 20
-53.699999999010011
 30
0.0
 42
0.4142135623730951
  0
VERTEX
  5
25F2
  8
SAPA_PROFIL
 62
     4
 10
-3.8000000000000682
 20
-53.999999999010022
 30
0.0
  0
VERTEX
  5
25F3
  8
SAPA_PROFIL
 62
     4
 10
-3.8000000000000109
 20
-72.19999999901006
 30
0.0
 42
0.4142135623730951
  0
VERTEX
  5
25F4
  8
SAPA_PROFIL
 62
     4
 10
-3.500000000000056
 20
-72.499999999010015
 30
0.0
  0
VERTEX
  5
25F5
  8
SAPA_PROFIL
 62
     4
 10
3.500000000000056
 20
-72.499999999010072
 30
0.0
 42
0.4142135623730951
  0
SEQEND
  5
25F6
  8
SAPA_PROFIL
 62
     4
  0
POLYLINE
  5
1DB1
  8
SAPA_PROFIL
 62
     4
 66
     1
 10
0.0
 20
0.0
 30
0.0
 70
     1
  0
VERTEX
  5
25F7
  8
SAPA_PROFIL
 62
     4
 10
-0.3535533839706204
 20
-89.353553389603292
 30
0.0
 42
-0.4142135623730951
  0
VERTEX
  5
25F8
  8
SAPA_PROFIL
 62
     4
 10
0.3535533972159328
 20
-89.353553389603292
 30
0.0
  0
VERTEX
  5
25F9
  8
SAPA_PROFIL
 62
     4
 10
3.5
 20
-92.499999999010015
 30
0.0
  0
VERTEX
  5
25FA
  8
SAPA_PROFIL
 62
     4
 10
5.0
 20
-92.499999999010015
 30
0.0
  0
VERTEX
  5
25FB
  8
SAPA_PROFIL
 62
     4
 10
5.0
 20
-52.999999999010008
 30
0.0
 42
0.4142135623730951
  0
VERTEX
  5
25FC
  8
SAPA_PROFIL
 62
     4
 10
4.5
 20
-52.499999999010008
 30
0.0
  0
VERTEX
  5
25FD
  8
SAPA_PROFIL
 62
     4
 10
3.0999999999999091
 20
-52.499999999010008
 30
0.0
  0
VERTEX
  5
25FE
  8
SAPA_PROFIL
 62
     4
 10
2.25
 20
-51.649999999010049
 30
0.0
  0
VERTEX
  5
25FF
  8
SAPA_PROFIL
 62
     4
 10
2.25
 20
-47.047114316039988
 30
0.0
  0
VERTEX
  5
2600
  8
SAPA_PROFIL
 62
     4
 10
1.1691342951090169
 20
-45.174999999010019
 30
0.0
 42
0.5773502691896344
  0
VERTEX
  5
2601
  8
SAPA_PROFIL
 62
     4
 10
-1.169134295109074
 20
-45.174999999010019
 30
0.0
  0
VERTEX
  5
2602
  8
SAPA_PROFIL
 62
     4
 10
-2.2500000000001128
 20
-47.047114316040172
 30
0.0
  0
VERTEX
  5
2603
  8
SAPA_PROFIL
 62
     4
 10
-2.2500000000001128
 20
-51.649999999010049
 30
0.0
  0
VERTEX
  5
2604
  8
SAPA_PROFIL
 62
     4
 10
-3.1000000000000218
 20
-52.499999999010008
 30
0.0
  0
VERTEX
  5
2605
  8
SAPA_PROFIL
 62
     4
 10
-4.5
 20
-52.499999999010008
 30
0.0
 42
0.4142135623730951
  0
VERTEX
  5
2606
  8
SAPA_PROFIL
 62
     4
 10
-5.0
 20
-52.999999999010008
 30
0.0
  0
VERTEX
  5
2607
  8
SAPA_PROFIL
 62
     4
 10
-5.0
 20
-92.499999999010015
 30
0.0
  0
VERTEX
  5
2608
  8
SAPA_PROFIL
 62
     4
 10
-3.5
 20
-92.499999999010015
 30
0.0
  0
SEQEND
  5
2609
  8
SAPA_PROFIL
 62
     4
  0
POLYLINE
  5
1DB2
  8
SAPA_PROFIL
 66
     1
 10
0.0
 20
0.0
 30
0.0
 70
     1
  0
VERTEX
  5
260A
  8
SAPA_PROFIL
 10
-22.800000000000178
 20
-91.098475071208085
 30
0.0
  0
VERTEX
  5
260B
  8
SAPA_PROFIL
 10
-23.800000000000178
 20
-91.098475071208085
 30
0.0
  0
VERTEX
  5
260C
  8
SAPA_PROFIL
 10
-23.800000000000178
 20
-88.498475071207935
 30
0.0
 42
0.4142135623730951
  0
VERTEX
  5
260D
  8
SAPA_PROFIL
 10
-24.300000000000178
 20
-87.998475071207935
 30
0.0
  0
VERTEX
  5
260E
  8
SAPA_PROFIL
 10
-24.700000000000269
 20
-87.998475071207935
 30
0.0
 42
0.4142135623730951
  0
VERTEX
  5
260F
  8
SAPA_PROFIL
 10
-25.000000000000231
 20
-88.298475071207875
 30
0.0
  0
VERTEX
  5
2610
  8
SAPA_PROFIL
 10
-25.000000000000231
 20
-105.9999999990105
 30
0.0
 42
0.4142135623730951
  0
VERTEX
  5
2611
  8
SAPA_PROFIL
 10
-24.500000000000231
 20
-106.4999999990106
 30
0.0
  0
VERTEX
  5
2612
  8
SAPA_PROFIL
 10
24.499999999999769
 20
-106.4999999990106
 30
0.0
 42
0.4142135623730951
  0
VERTEX
  5
2613
  8
SAPA_PROFIL
 10
24.999999999999769
 20
-105.9999999990105
 30
0.0
  0
VERTEX
  5
2614
  8
SAPA_PROFIL
 10
24.999999999999769
 20
-88.298475071207875
 30
0.0
 42
0.4142135623730951
  0
VERTEX
  5
2615
  8
SAPA_PROFIL
 10
24.699999999999822
 20
-87.998475071207935
 30
0.0
  0
VERTEX
  5
2616
  8
SAPA_PROFIL
 10
24.299999999999731
 20
-87.998475071207935
 30
0.0
 42
0.4142135623730951
  0
VERTEX
  5
2617
  8
SAPA_PROFIL
 10
23.799999999999731
 20
-88.498475071207935
 30
0.0
  0
VERTEX
  5
2618
  8
SAPA_PROFIL
 10
23.799999999999731
 20
-91.098475071208085
 30
0.0
  0
VERTEX
  5
2619
  8
SAPA_PROFIL
 10
22.799999999999731
 20
-91.098475071208085
 30
0.0
  0
VERTEX
  5
261A
  8
SAPA_PROFIL
 10
22.22033922157857
 20
-92.102507830841091
 30
0.0
 42
0.4155392929676362
  0
VERTEX
  5
261B
  8
SAPA_PROFIL
 10
22.51631264788443
 20
-93.197126802633065
 30
0.0
  0
VERTEX
  5
261C
  8
SAPA_PROFIL
 10
23.799999999999731
 20
-93.93826404093204
 30
0.0
  0
VERTEX
  5
261D
  8
SAPA_PROFIL
 10
23.799999999999731
 20
-104.09999999901071
 30
0.0
 42
-0.4142135623730951
  0
VERTEX
  5
261E
  8
SAPA_PROFIL
 10
22.799999999999731
 20
-105.09999999901071
 30
0.0
  0
VERTEX
  5
261F
  8
SAPA_PROFIL
 10
-22.800000000000178
 20
-105.09999999901071
 30
0.0
 42
-0.4142135623730951
  0
VERTEX
  5
2620
  8
SAPA_PROFIL
 10
-23.800000000000178
 20
-104.09999999901071
 30
0.0
  0
VERTEX
  5
2621
  8
SAPA_PROFIL
 10
-23.800000000000178
 20
-93.93826404093204
 30
0.0
  0
VERTEX
  5
2622
  8
SAPA_PROFIL
 10
-22.516312647884892
 20
-93.197126802633065
 30
0.0
 42
0.4155392929676362
  0
VERTEX
  5
2623
  8
SAPA_PROFIL
 10
-22.220339221579032
 20
-92.102507830841091
 30
0.0
  0
SEQEND
  5
2624
  8
SAPA_PROFIL
  0
POLYLINE
  5
1DB3
  8
SAPA_PROFIL
 66
     1
 10
0.0
 20
0.0
 30
0.0
 70
     1
  0
VERTEX
  5
2625
  8
SAPA_PROFIL
 10
2.700000000000272
 20
-33.050000000001091
 30
0.0
  0
VERTEX
  5
2626
  8
SAPA_PROFIL
 10
2.0767196966983188
 20
-31.67376540642476
 30
0.0
 42
-0.5450207798987328
  0
VERTEX
  5
2627
  8
SAPA_PROFIL
 10
2.350000000000136
 20
-31.25000000000114
 30
0.0
  0
VERTEX
  5
2628
  8
SAPA_PROFIL
 10
2.700000000000272
 20
-31.25000000000114
 30
0.0
  0
VERTEX
  5
2629
  8
SAPA_PROFIL
 10
2.700000000000272
 20
-31.00000000000114
 30
0.0
 42
0.4142135623730951
  0
VERTEX
  5
262A
  8
SAPA_PROFIL
 10
1.700000000000272
 20
-30.00000000000114
 30
0.0
  0
VERTEX
  5
262B
  8
SAPA_PROFIL
 10
-1.6999999999998181
 20
-30.00000000000114
 30
0.0
 42
0.4142135623730951
  0
VERTEX
  5
262C
  8
SAPA_PROFIL
 10
-2.6999999999998181
 20
-31.00000000000114
 30
0.0
  0
VERTEX
  5
262D
  8
SAPA_PROFIL
 10
-2.6999999999998181
 20
-32.150000000001
 30
0.0
  0
VERTEX
  5
262E
  8
SAPA_PROFIL
 10
-2.3499999999996808
 20
-32.150000000001
 30
0.0
 42
-0.5450200690651551
  0
VERTEX
  5
262F
  8
SAPA_PROFIL
 10
-2.0767189999999109
 20
-32.573765000001011
 30
0.0
  0
VERTEX
  5
2630
  8
SAPA_PROFIL
 10
-2.6999999999998181
 20
-33.950000000000948
 30
0.0
  0
VERTEX
  5
2631
  8
SAPA_PROFIL
 10
-2.3499999999996808
 20
-33.950000000000948
 30
0.0
 42
-0.5450200690651692
  0
VERTEX
  5
2632
  8
SAPA_PROFIL
 10
-2.0767189999999109
 20
-34.373765000000958
 30
0.0
  0
VERTEX
  5
2633
  8
SAPA_PROFIL
 10
-2.6999999999998181
 20
-35.750000000001137
 30
0.0
  0
VERTEX
  5
2634
  8
SAPA_PROFIL
 10
-2.3499999999996808
 20
-35.750000000001137
 30
0.0
 42
-0.5450200690651619
  0
VERTEX
  5
2635
  8
SAPA_PROFIL
 10
-2.0767189999999109
 20
-36.17376500000114
 30
0.0
  0
VERTEX
  5
2636
  8
SAPA_PROFIL
 10
-2.6999999999998181
 20
-37.550000000001091
 30
0.0
  0
VERTEX
  5
2637
  8
SAPA_PROFIL
 10
-2.3499999999996808
 20
-37.550000000001091
 30
0.0
 42
-0.5450200690651619
  0
VERTEX
  5
2638
  8
SAPA_PROFIL
 10
-2.0767189999999109
 20
-37.973765000001102
 30
0.0
  0
VERTEX
  5
2639
  8
SAPA_PROFIL
 10
-2.6999999999998181
 20
-39.350000000001053
 30
0.0
  0
VERTEX
  5
263A
  8
SAPA_PROFIL
 10
-2.3499999999996808
 20
-39.350000000001053
 30
0.0
 42
-0.5450200690651692
  0
VERTEX
  5
263B
  8
SAPA_PROFIL
 10
-2.0767189999999109
 20
-39.773765000001049
 30
0.0
  0
VERTEX
  5
263C
  8
SAPA_PROFIL
 10
-2.6999999999998181
 20
-41.150000000001
 30
0.0
  0
VERTEX
  5
263D
  8
SAPA_PROFIL
 10
-2.6999999999998181
 20
-41.450000000000948
 30
0.0
  0
VERTEX
  5
263E
  8
SAPA_PROFIL
 10
2.42826763351104
 20
-41.450000000000948
 30
0.0
  0
VERTEX
  5
263F
  8
SAPA_PROFIL
 10
2.0767196966983188
 20
-40.673765406424756
 30
0.0
 42
-0.5450207798987328
  0
VERTEX
  5
2640
  8
SAPA_PROFIL
 10
2.350000000000136
 20
-40.250000000001137
 30
0.0
  0
VERTEX
  5
2641
  8
SAPA_PROFIL
 10
2.700000000000272
 20
-40.250000000001137
 30
0.0
  0
VERTEX
  5
2642
  8
SAPA_PROFIL
 10
2.0767200000002499
 20
-38.873765000000958
 30
0.0
 42
-0.5450205149791638
  0
VERTEX
  5
2643
  8
SAPA_PROFIL
 10
2.350000000000136
 20
-38.450000000000962
 30
0.0
  0
VERTEX
  5
2644
  8
SAPA_PROFIL
 10
2.700000000000272
 20
-38.450000000000962
 30
0.0
  0
VERTEX
  5
2645
  8
SAPA_PROFIL
 10
2.0767196966983188
 20
-37.073765406424627
 30
0.0
 42
-0.545020779898768
  0
VERTEX
  5
2646
  8
SAPA_PROFIL
 10
2.350000000000136
 20
-36.650000000001
 30
0.0
  0
VERTEX
  5
2647
  8
SAPA_PROFIL
 10
2.700000000000272
 20
-36.650000000001
 30
0.0
  0
VERTEX
  5
2648
  8
SAPA_PROFIL
 10
2.0767196966983188
 20
-35.273765406424673
 30
0.0
 42
-0.54502077989874
  0
VERTEX
  5
2649
  8
SAPA_PROFIL
 10
2.350000000000136
 20
-34.850000000001053
 30
0.0
  0
VERTEX
  5
264A
  8
SAPA_PROFIL
 10
2.700000000000272
 20
-34.850000000001053
 30
0.0
  0
VERTEX
  5
264B
  8
SAPA_PROFIL
 10
2.0767196966983188
 20
-33.473765406424718
 30
0.0
 42
-0.545020779898761
  0
VERTEX
  5
264C
  8
SAPA_PROFIL
 10
2.350000000000136
 20
-33.050000000001091
 30
0.0
  0
SEQEND
  5
264D
  8
SAPA_PROFIL
  0
POLYLINE
  5
1DB4
  8
SAPA_PROFIL
 66
     1
 10
0.0
 20
0.0
 30
0.0
 70
     1
  0
VERTEX
  5
264E
  8
SAPA_PROFIL
 10
23.000000000000231
 20
58.024264068710863
 30
0.0
 42
-0.1989123673796753
  0
VERTEX
  5
264F
  8
SAPA_PROFIL
 10
22.912132034356091
 20
57.812132034355052
 30
0.0
  0
VERTEX
  5
2650
  8
SAPA_PROFIL
 10
21.187867965644269
 20
56.087867965642999
 30
0.0
 42
0.1989123673796753
  0
VERTEX
  5
2651
  8
SAPA_PROFIL
 10
21.10000000000014
 20
55.875735931286947
 30
0.0
  0
VERTEX
  5
2652
  8
SAPA_PROFIL
 10
21.10000000000014
 20
55.299999999999052
 30
0.0
 42
0.4142135623730951
  0
VERTEX
  5
2653
  8
SAPA_PROFIL
 10
21.400000000000318
 20
54.999999999998863
 30
0.0
  0
VERTEX
  5
2654
  8
SAPA_PROFIL
 10
22.700000000000269
 20
54.999999999998863
 30
0.0
 42
-0.4142135623730951
  0
VERTEX
  5
2655
  8
SAPA_PROFIL
 10
23.000000000000231
 20
54.699999999998909
 30
0.0
  0
VERTEX
  5
2656
  8
SAPA_PROFIL
 10
23.000000000000231
 20
29.99999999999886
 30
0.0
 42
-0.4142135623730951
  0
VERTEX
  5
2657
  8
SAPA_PROFIL
 10
22.000000000000231
 20
28.99999999999887
 30
0.0
  0
VERTEX
  5
2658
  8
SAPA_PROFIL
 10
17.600000000000129
 20
28.99999999999887
 30
0.0
 42
0.4142135623730951
  0
VERTEX
  5
2659
  8
SAPA_PROFIL
 10
17.300000000000178
 20
28.699999999998909
 30
0.0
  0
VERTEX
  5
265A
  8
SAPA_PROFIL
 10
17.300000000000178
 20
26.399999999998961
 30
0.0
 42
0.4142135623730951
  0
VERTEX
  5
265B
  8
SAPA_PROFIL
 10
17.600000000000129
 20
26.099999999999
 30
0.0
  0
VERTEX
  5
265C
  8
SAPA_PROFIL
 10
18.100000000000129
 20
26.099999999999
 30
0.0
 42
0.4142135623730951
  0
VERTEX
  5
265D
  8
SAPA_PROFIL
 10
18.400000000000318
 20
26.399999999998961
 30
0.0
  0
VERTEX
  5
265E
  8
SAPA_PROFIL
 10
18.400000000000318
 20
26.736626924633359
 30
0.0
 42
-0.5535245743249297
  0
VERTEX
  5
265F
  8
SAPA_PROFIL
 10
22.71055421153164
 20
24.96410760212348
 30
0.0
  0
VERTEX
  5
2660
  8
SAPA_PROFIL
 10
22.42322330470347
 20
24.67677669529553
 30
0.0
 42
0.4142135623729421
  0
VERTEX
  5
2661
  8
SAPA_PROFIL
 10
22.42322330470347
 20
24.32322330470242
 30
0.0
  0
VERTEX
  5
2662
  8
SAPA_PROFIL
 10
22.71055421153164
 20
24.035892397874481
 30
0.0
 42
-0.5535245743249292
  0
VERTEX
  5
2663
  8
SAPA_PROFIL
 10
18.400000000000318
 20
22.26337307536437
 30
0.0
  0
VERTEX
  5
2664
  8
SAPA_PROFIL
 10
18.400000000000318
 20
22.599999999999
 30
0.0
 42
0.4142135623730951
  0
VERTEX
  5
2665
  8
SAPA_PROFIL
 10
18.100000000000129
 20
22.899999999998961
 30
0.0
  0
VERTEX
  5
2666
  8
SAPA_PROFIL
 10
17.600000000000129
 20
22.899999999998961
 30
0.0
 42
0.4142135623730951
  0
VERTEX
  5
2667
  8
SAPA_PROFIL
 10
17.300000000000178
 20
22.599999999999
 30
0.0
  0
VERTEX
  5
2668
  8
SAPA_PROFIL
 10
17.300000000000178
 20
21.49999999999886
 30
0.0
 42
0.4142135623730951
  0
VERTEX
  5
2669
  8
SAPA_PROFIL
 10
18.800000000000178
 20
19.99999999999886
 30
0.0
  0
VERTEX
  5
266A
  8
SAPA_PROFIL
 10
21.63397459621569
 20
19.99999999999886
 30
0.0
 42
0.267949192431143
  0
VERTEX
  5
266B
  8
SAPA_PROFIL
 10
22.066987298107961
 20
20.24999999999886
 30
0.0
 42
-0.767326987978956
  0
VERTEX
  5
266C
  8
SAPA_PROFIL
 10
23.000000000000231
 20
19.99999999999886
 30
0.0
  0
VERTEX
  5
266D
  8
SAPA_PROFIL
 10
23.000000000000231
 20
-15.00000000000113
 30
0.0
 42
-0.4142135623730951
  0
VERTEX
  5
266E
  8
SAPA_PROFIL
 10
22.000000000000231
 20
-16.00000000000114
 30
0.0
  0
VERTEX
  5
266F
  8
SAPA_PROFIL
 10
17.600000000000129
 20
-16.00000000000114
 30
0.0
 42
0.4142135623730951
  0
VERTEX
  5
2670
  8
SAPA_PROFIL
 10
17.300000000000178
 20
-16.300000000001091
 30
0.0
  0
VERTEX
  5
2671
  8
SAPA_PROFIL
 10
17.300000000000178
 20
-18.600000000001039
 30
0.0
 42
0.4142135623730951
  0
VERTEX
  5
2672
  8
SAPA_PROFIL
 10
17.600000000000129
 20
-18.900000000001
 30
0.0
  0
VERTEX
  5
2673
  8
SAPA_PROFIL
 10
18.100000000000129
 20
-18.900000000001
 30
0.0
 42
0.4142135623730951
  0
VERTEX
  5
2674
  8
SAPA_PROFIL
 10
18.400000000000318
 20
-18.600000000001039
 30
0.0
  0
VERTEX
  5
2675
  8
SAPA_PROFIL
 10
18.400000000000318
 20
-18.263373075366641
 30
0.0
 42
-0.5535245743249297
  0
VERTEX
  5
2676
  8
SAPA_PROFIL
 10
22.71055421153164
 20
-20.03589239787652
 30
0.0
  0
VERTEX
  5
2677
  8
SAPA_PROFIL
 10
22.42322330470347
 20
-20.32322330470447
 30
0.0
 42
0.4142135623730243
  0
VERTEX
  5
2678
  8
SAPA_PROFIL
 10
22.423223304703701
 20
-20.67677669529758
 30
0.0
  0
VERTEX
  5
2679
  8
SAPA_PROFIL
 10
22.71055421153164
 20
-20.96410760212553
 30
0.0
 42
-0.5535245743249292
  0
VERTEX
  5
267A
  8
SAPA_PROFIL
 10
18.400000000000318
 20
-22.73662692463563
 30
0.0
  0
VERTEX
  5
267B
  8
SAPA_PROFIL
 10
18.400000000000318
 20
-22.400000000001
 30
0.0
 42
0.4142135623730951
  0
VERTEX
  5
267C
  8
SAPA_PROFIL
 10
18.100000000000129
 20
-22.100000000001049
 30
0.0
  0
VERTEX
  5
267D
  8
SAPA_PROFIL
 10
17.600000000000129
 20
-22.100000000001049
 30
0.0
 42
0.4142135623730951
  0
VERTEX
  5
267E
  8
SAPA_PROFIL
 10
17.300000000000178
 20
-22.400000000001
 30
0.0
  0
VERTEX
  5
267F
  8
SAPA_PROFIL
 10
17.300000000000178
 20
-23.50000000000114
 30
0.0
 42
0.4142135623730951
  0
VERTEX
  5
2680
  8
SAPA_PROFIL
 10
18.800000000000178
 20
-25.00000000000114
 30
0.0
  0
VERTEX
  5
2681
  8
SAPA_PROFIL
 10
21.780384757729511
 20
-25.00000000000114
 30
0.0
 42
0.2679491924311188
  0
VERTEX
  5
2682
  8
SAPA_PROFIL
 10
22.040192378864958
 20
-24.850000000001049
 30
0.0
 42
-0.7673269879789557
  0
VERTEX
  5
2683
  8
SAPA_PROFIL
 10
22.600000000000129
 20
-25.00000000000114
 30
0.0
  0
VERTEX
  5
2684
  8
SAPA_PROFIL
 10
22.599999999999909
 20
-27.00000000000114
 30
0.0
 42
-0.4142137811865366
  0
VERTEX
  5
2685
  8
SAPA_PROFIL
 10
21.600000747075459
 20
-28.00000000000114
 30
0.0
  0
VERTEX
  5
2686
  8
SAPA_PROFIL
 10
-21.599999999999682
 20
-28.00000000000114
 30
0.0
 42
-0.4142140000000124
  0
VERTEX
  5
2687
  8
SAPA_PROFIL
 10
-22.599999999999682
 20
-27.00000000000114
 30
0.0
  0
VERTEX
  5
2688
  8
SAPA_PROFIL
 10
-22.599999999999682
 20
-25.00000000000114
 30
0.0
 42
-0.7673269879789457
  0
VERTEX
  5
2689
  8
SAPA_PROFIL
 10
-22.0401923788645
 20
-24.850000000001049
 30
0.0
 42
0.2679491924311191
  0
VERTEX
  5
268A
  8
SAPA_PROFIL
 10
-21.780384757729049
 20
-25.00000000000114
 30
0.0
  0
VERTEX
  5
268B
  8
SAPA_PROFIL
 10
-18.799999999999731
 20
-25.00000000000114
 30
0.0
 42
0.4142135623730951
  0
VERTEX
  5
268C
  8
SAPA_PROFIL
 10
-17.299999999999731
 20
-23.50000000000114
 30
0.0
  0
VERTEX
  5
268D
  8
SAPA_PROFIL
 10
-17.299999999999731
 20
-22.400000000001
 30
0.0
 42
0.4142135623730951
  0
VERTEX
  5
268E
  8
SAPA_PROFIL
 10
-17.599999999999682
 20
-22.100000000001049
 30
0.0
  0
VERTEX
  5
268F
  8
SAPA_PROFIL
 10
-18.099999999999682
 20
-22.100000000001049
 30
0.0
 42
0.4142135623730951
  0
VERTEX
  5
2690
  8
SAPA_PROFIL
 10
-18.39999999999986
 20
-22.400000000001
 30
0.0
  0
VERTEX
  5
2691
  8
SAPA_PROFIL
 10
-18.39999999999986
 20
-22.73662692463563
 30
0.0
 42
-0.5535245743249307
  0
VERTEX
  5
2692
  8
SAPA_PROFIL
 10
-22.710554211531189
 20
-20.96410760212553
 30
0.0
  0
VERTEX
  5
2693
  8
SAPA_PROFIL
 10
-22.423223304703239
 20
-20.67677669529758
 30
0.0
 42
0.4142135623730951
  0
VERTEX
  5
2694
  8
SAPA_PROFIL
 10
-22.423223304703239
 20
-20.32322330470447
 30
0.0
  0
VERTEX
  5
2695
  8
SAPA_PROFIL
 10
-22.710554211531189
 20
-20.03589239787652
 30
0.0
 42
-0.553524574324932
  0
VERTEX
  5
2696
  8
SAPA_PROFIL
 10
-18.39999999999986
 20
-18.263373075366641
 30
0.0
  0
VERTEX
  5
2697
  8
SAPA_PROFIL
 10
-18.39999999999986
 20
-18.600000000001039
 30
0.0
 42
0.4142135623730951
  0
VERTEX
  5
2698
  8
SAPA_PROFIL
 10
-18.099999999999682
 20
-18.900000000001
 30
0.0
  0
VERTEX
  5
2699
  8
SAPA_PROFIL
 10
-17.599999999999682
 20
-18.900000000001
 30
0.0
 42
0.4142135623730951
  0
VERTEX
  5
269A
  8
SAPA_PROFIL
 10
-17.299999999999731
 20
-18.600000000001039
 30
0.0
  0
VERTEX
  5
269B
  8
SAPA_PROFIL
 10
-17.299999999999731
 20
-16.300000000001091
 30
0.0
 42
0.4142135623730951
  0
VERTEX
  5
269C
  8
SAPA_PROFIL
 10
-17.599999999999682
 20
-16.00000000000114
 30
0.0
  0
VERTEX
  5
269D
  8
SAPA_PROFIL
 10
-21.999999999999769
 20
-16.00000000000114
 30
0.0
 42
-0.4142135623730951
  0
VERTEX
  5
269E
  8
SAPA_PROFIL
 10
-22.999999999999769
 20
-15.00000000000113
 30
0.0
  0
VERTEX
  5
269F
  8
SAPA_PROFIL
 10
-22.999999999999769
 20
19.99999999999886
 30
0.0
 42
-0.7673269879789569
  0
VERTEX
  5
26A0
  8
SAPA_PROFIL
 10
-22.066987298107509
 20
20.24999999999886
 30
0.0
 42
0.2679491924311163
  0
VERTEX
  5
26A1
  8
SAPA_PROFIL
 10
-21.633974596215239
 20
19.99999999999886
 30
0.0
  0
VERTEX
  5
26A2
  8
SAPA_PROFIL
 10
-18.799999999999731
 20
19.99999999999886
 30
0.0
 42
0.4142135623730951
  0
VERTEX
  5
26A3
  8
SAPA_PROFIL
 10
-17.299999999999731
 20
21.49999999999886
 30
0.0
  0
VERTEX
  5
26A4
  8
SAPA_PROFIL
 10
-17.299999999999731
 20
22.599999999999
 30
0.0
 42
0.4142135623730951
  0
VERTEX
  5
26A5
  8
SAPA_PROFIL
 10
-17.599999999999682
 20
22.899999999998961
 30
0.0
  0
VERTEX
  5
26A6
  8
SAPA_PROFIL
 10
-18.099999999999682
 20
22.899999999998961
 30
0.0
 42
0.4142135623730951
  0
VERTEX
  5
26A7
  8
SAPA_PROFIL
 10
-18.39999999999986
 20
22.599999999999
 30
0.0
  0
VERTEX
  5
26A8
  8
SAPA_PROFIL
 10
-18.39999999999986
 20
22.26337307536437
 30
0.0
 42
-0.5535245743249307
  0
VERTEX
  5
26A9
  8
SAPA_PROFIL
 10
-22.710554211531189
 20
24.035892397874481
 30
0.0
  0
VERTEX
  5
26AA
  8
SAPA_PROFIL
 10
-22.423223304703239
 20
24.32322330470242
 30
0.0
 42
0.4142135623731068
  0
VERTEX
  5
26AB
  8
SAPA_PROFIL
 10
-22.423223304703011
 20
24.67677669529553
 30
0.0
  0
VERTEX
  5
26AC
  8
SAPA_PROFIL
 10
-22.710554211531189
 20
24.96410760212348
 30
0.0
 42
-0.553524574324932
  0
VERTEX
  5
26AD
  8
SAPA_PROFIL
 10
-18.39999999999986
 20
26.736626924633359
 30
0.0
  0
VERTEX
  5
26AE
  8
SAPA_PROFIL
 10
-18.39999999999986
 20
26.399999999998961
 30
0.0
 42
0.4142135623730951
  0
VERTEX
  5
26AF
  8
SAPA_PROFIL
 10
-18.099999999999682
 20
26.099999999999
 30
0.0
  0
VERTEX
  5
26B0
  8
SAPA_PROFIL
 10
-17.599999999999682
 20
26.099999999999
 30
0.0
 42
0.4142135623730951
  0
VERTEX
  5
26B1
  8
SAPA_PROFIL
 10
-17.299999999999731
 20
26.399999999998961
 30
0.0
  0
VERTEX
  5
26B2
  8
SAPA_PROFIL
 10
-17.299999999999731
 20
28.699999999998909
 30
0.0
 42
0.4142135623730951
  0
VERTEX
  5
26B3
  8
SAPA_PROFIL
 10
-17.599999999999682
 20
28.99999999999887
 30
0.0
  0
VERTEX
  5
26B4
  8
SAPA_PROFIL
 10
-21.999999999999769
 20
28.99999999999887
 30
0.0
 42
-0.4142135623730951
  0
VERTEX
  5
26B5
  8
SAPA_PROFIL
 10
-22.999999999999769
 20
29.99999999999886
 30
0.0
  0
VERTEX
  5
26B6
  8
SAPA_PROFIL
 10
-22.999999999999769
 20
54.699999999998909
 30
0.0
 42
-0.4142135623730951
  0
VERTEX
  5
26B7
  8
SAPA_PROFIL
 10
-22.699999999999822
 20
54.999999999998863
 30
0.0
  0
VERTEX
  5
26B8
  8
SAPA_PROFIL
 10
-21.39999999999986
 20
54.999999999998863
 30
0.0
 42
0.4142135623730951
  0
VERTEX
  5
26B9
  8
SAPA_PROFIL
 10
-21.099999999999682
 20
55.299999999999052
 30
0.0
  0
VERTEX
  5
26BA
  8
SAPA_PROFIL
 10
-21.099999999999682
 20
55.875735931286947
 30
0.0
 42
0.1989123673796752
  0
VERTEX
  5
26BB
  8
SAPA_PROFIL
 10
-21.187867965643822
 20
56.087867965642999
 30
0.0
  0
VERTEX
  5
26BC
  8
SAPA_PROFIL
 10
-22.91213203435586
 20
57.812132034355052
 30
0.0
 42
-0.1989123673796057
  0
VERTEX
  5
26BD
  8
SAPA_PROFIL
 10
-22.999999999999769
 20
58.024264068710863
 30
0.0
  0
VERTEX
  5
26BE
  8
SAPA_PROFIL
 10
-22.999999999999769
 20
61.499999999998863
 30
0.0
 42
-0.4142135623730951
  0
VERTEX
  5
26BF
  8
SAPA_PROFIL
 10
-21.999999999999769
 20
62.499999999998863
 30
0.0
  0
VERTEX
  5
26C0
  8
SAPA_PROFIL
 10
22.000000000000231
 20
62.499999999998863
 30
0.0
 42
-0.4142135623730951
  0
VERTEX
  5
26C1
  8
SAPA_PROFIL
 10
23.000000000000231
 20
61.499999999998863
 30
0.0
  0
SEQEND
  5
26C2
  8
SAPA_PROFIL
  0
POLYLINE
  5
1DB5
  8
SAPA_PROFIL
 66
     1
 10
0.0
 20
0.0
 30
0.0
 70
     1
  0
VERTEX
  5
26C3
  8
SAPA_PROFIL
 10
6.0000000000002274
 20
-30.00000000000114
 30
0.0
 42
0.4142135623730951
  0
VERTEX
  5
26C4
  8
SAPA_PROFIL
 10
5.0000000000002274
 20
-31.00000000000114
 30
0.0
  0
VERTEX
  5
26C5
  8
SAPA_PROFIL
 10
5.0000000000002274
 20
-52.200000000000948
 30
0.0
 42
-0.4142135623730951
  0
VERTEX
  5
26C6
  8
SAPA_PROFIL
 10
4.700000000000272
 20
-52.50000000000113
 30
0.0
  0
VERTEX
  5
26C7
  8
SAPA_PROFIL
 10
3.0757360000002332
 20
-52.50000000000113
 30
0.0
  0
VERTEX
  5
26C8
  8
SAPA_PROFIL
 10
2.2378679656442269
 20
-51.562132034356871
 30
0.0
 42
-0.668178637919305
  0
VERTEX
  5
26C9
  8
SAPA_PROFIL
 10
2.450000000000272
 20
-51.050000000001091
 30
0.0
  0
VERTEX
  5
26CA
  8
SAPA_PROFIL
 10
2.700000000000272
 20
-51.050000000001091
 30
0.0
  0
VERTEX
  5
26CB
  8
SAPA_PROFIL
 10
2.1767196966982278
 20
-49.673765406424756
 30
0.0
 42
-0.5450207798987201
  0
VERTEX
  5
26CC
  8
SAPA_PROFIL
 10
2.450000000000272
 20
-49.250000000001137
 30
0.0
  0
VERTEX
  5
26CD
  8
SAPA_PROFIL
 10
2.700000000000272
 20
-49.250000000001137
 30
0.0
  0
VERTEX
  5
26CE
  8
SAPA_PROFIL
 10
2.1767196966982278
 20
-47.873765406424567
 30
0.0
 42
-0.5450207798987201
  0
VERTEX
  5
26CF
  8
SAPA_PROFIL
 10
2.450000000000272
 20
-47.450000000000962
 30
0.0
  0
VERTEX
  5
26D0
  8
SAPA_PROFIL
 10
2.700000000000272
 20
-47.450000000000962
 30
0.0
  0
VERTEX
  5
26D1
  8
SAPA_PROFIL
 10
2.1767196966982278
 20
-46.07376540642462
 30
0.0
 42
-0.5450207798987342
  0
VERTEX
  5
26D2
  8
SAPA_PROFIL
 10
2.450000000000272
 20
-45.650000000000993
 30
0.0
  0
VERTEX
  5
26D3
  8
SAPA_PROFIL
 10
2.700000000000272
 20
-45.650000000000993
 30
0.0
  0
VERTEX
  5
26D4
  8
SAPA_PROFIL
 10
2.1767196966982278
 20
-44.273765406424673
 30
0.0
 42
-0.5450207798987201
  0
VERTEX
  5
26D5
  8
SAPA_PROFIL
 10
2.450000000000272
 20
-43.850000000001039
 30
0.0
  0
VERTEX
  5
26D6
  8
SAPA_PROFIL
 10
2.700000000000272
 20
-43.850000000001039
 30
0.0
  0
VERTEX
  5
26D7
  8
SAPA_PROFIL
 10
2.4722372826161059
 20
-43.126282705194853
 30
0.0
 42
0.2945484962563026
  0
VERTEX
  5
26D8
  8
SAPA_PROFIL
 10
2.1988824689378812
 20
-42.950048040246656
 30
0.0
  0
VERTEX
  5
26D9
  8
SAPA_PROFIL
 10
1.2642999377483191
 20
-42.950255222213173
 30
0.0
 42
-0.3475954753796591
  0
VERTEX
  5
26DA
  8
SAPA_PROFIL
 10
0.9723265106783856
 20
-42.719501178044077
 30
0.0
 42
0.790522909611319
  0
VERTEX
  5
26DB
  8
SAPA_PROFIL
 10
-0.973664089865224
 20
-42.71949097360357
 30
0.0
 42
-0.3476065658631364
  0
VERTEX
  5
26DC
  8
SAPA_PROFIL
 10
-1.2656518108867649
 20
-42.950241952335773
 30
0.0
  0
VERTEX
  5
26DD
  8
SAPA_PROFIL
 10
-1.8499926620931999
 20
-42.950095231626847
 30
0.0
 42
0.4102317530969976
  0
VERTEX
  5
26DE
  8
SAPA_PROFIL
 10
-2.1500282985855388
 20
-43.245946879780369
 30
0.0
 42
-0.0712587206050384
  0
VERTEX
  5
26DF
  8
SAPA_PROFIL
 10
-2.1632556124550311
 20
-43.329990804708579
 30
0.0
  0
VERTEX
  5
26E0
  8
SAPA_PROFIL
 10
-2.6999999999998181
 20
-44.750000000001137
 30
0.0
  0
VERTEX
  5
26E1
  8
SAPA_PROFIL
 10
-2.4499999999998181
 20
-44.750000000001137
 30
0.0
 42
-0.5450200690651619
  0
VERTEX
  5
26E2
  8
SAPA_PROFIL
 10
-2.17671899999982
 20
-45.173765000001133
 30
0.0
  0
VERTEX
  5
26E3
  8
SAPA_PROFIL
 10
-2.6999999999998181
 20
-46.550000000001091
 30
0.0
  0
VERTEX
  5
26E4
  8
SAPA_PROFIL
 10
-2.4499999999998181
 20
-46.550000000000857
 30
0.0
 42
-0.545020069065176
  0
VERTEX
  5
26E5
  8
SAPA_PROFIL
 10
-2.17671899999982
 20
-46.973765000001087
 30
0.0
  0
VERTEX
  5
26E6
  8
SAPA_PROFIL
 10
-2.6999999999998181
 20
-48.350000000001039
 30
0.0
  0
VERTEX
  5
26E7
  8
SAPA_PROFIL
 10
-2.4499999999998181
 20
-48.350000000001039
 30
0.0
 42
-0.5450200690651692
  0
VERTEX
  5
26E8
  8
SAPA_PROFIL
 10
-2.17671899999982
 20
-48.773765000001049
 30
0.0
  0
VERTEX
  5
26E9
  8
SAPA_PROFIL
 10
-2.6999999999998181
 20
-50.150000000001
 30
0.0
  0
VERTEX
  5
26EA
  8
SAPA_PROFIL
 10
-2.1499999999998631
 20
-50.150000000001
 30
0.0
  0
VERTEX
  5
26EB
  8
SAPA_PROFIL
 10
-2.1499999999998631
 20
-51.350000000001039
 30
0.0
 42
-0.1989123673797004
  0
VERTEX
  5
26EC
  8
SAPA_PROFIL
 10
-2.2378679999997071
 20
-51.562132000001156
 30
0.0
  0
VERTEX
  5
26ED
  8
SAPA_PROFIL
 10
-3.075735999999778
 20
-52.50000000000113
 30
0.0
  0
VERTEX
  5
26EE
  8
SAPA_PROFIL
 10
-4.6999999999998181
 20
-52.50000000000113
 30
0.0
 42
-0.4142135623730951
  0
VERTEX
  5
26EF
  8
SAPA_PROFIL
 10
-4.9999999999997717
 20
-52.200000000000948
 30
0.0
  0
VERTEX
  5
26F0
  8
SAPA_PROFIL
 10
-4.9999999999997717
 20
-31.00000000000114
 30
0.0
 42
0.4142135623730951
  0
VERTEX
  5
26F1
  8
SAPA_PROFIL
 10
-5.9999999999997717
 20
-30.00000000000114
 30
0.0
  0
VERTEX
  5
26F2
  8
SAPA_PROFIL
 10
-14.19999999999982
 20
-30.00000000000114
 30
0.0
 42
0.4142135623730951
  0
VERTEX
  5
26F3
  8
SAPA_PROFIL
 10
-14.69999999999982
 20
-30.50000000000114
 30
0.0
  0
VERTEX
  5
26F4
  8
SAPA_PROFIL
 10
-14.69999999999982
 20
-33.700000000000962
 30
0.0
 42
0.4142135623730951
  0
VERTEX
  5
26F5
  8
SAPA_PROFIL
 10
-14.19999999999982
 20
-34.200000000000962
 30
0.0
  0
VERTEX
  5
26F6
  8
SAPA_PROFIL
 10
-11.299999999999731
 20
-34.200000000000962
 30
0.0
 42
-0.4142135623730951
  0
VERTEX
  5
26F7
  8
SAPA_PROFIL
 10
-10.999999999999771
 20
-34.500000000001137
 30
0.0
  0
VERTEX
  5
26F8
  8
SAPA_PROFIL
 10
-10.999999999999771
 20
-35.200000000000948
 30
0.0
 42
-0.4142135623730951
  0
VERTEX
  5
26F9
  8
SAPA_PROFIL
 10
-11.299999999999731
 20
-35.500000000001137
 30
0.0
  0
VERTEX
  5
26FA
  8
SAPA_PROFIL
 10
-17.999999999999769
 20
-35.500000000001137
 30
0.0
  0
VERTEX
  5
26FB
  8
SAPA_PROFIL
 10
-18.586384015500471
 20
-35.035076580641999
 30
0.0
 42
-0.7105995019814511
  0
VERTEX
  5
26FC
  8
SAPA_PROFIL
 10
-18.39999999999986
 20
-34.500000000001137
 30
0.0
  0
VERTEX
  5
26FD
  8
SAPA_PROFIL
 10
-16.499999999999769
 20
-34.500000000001137
 30
0.0
 42
0.4142135623730951
  0
VERTEX
  5
26FE
  8
SAPA_PROFIL
 10
-16.199999999999822
 20
-34.200000000000962
 30
0.0
  0
VERTEX
  5
26FF
  8
SAPA_PROFIL
 10
-16.199999999999822
 20
-30.300000000001091
 30
0.0
 42
0.4142135623730951
  0
VERTEX
  5
2700
  8
SAPA_PROFIL
 10
-16.499999999999769
 20
-30.00000000000114
 30
0.0
  0
VERTEX
  5
2701
  8
SAPA_PROFIL
 10
-23.199999999999822
 20
-30.00000000000114
 30
0.0
 42
0.4142135623730951
  0
VERTEX
  5
2702
  8
SAPA_PROFIL
 10
-23.499999999999769
 20
-30.300000000001091
 30
0.0
  0
VERTEX
  5
2703
  8
SAPA_PROFIL
 10
-23.499999999999769
 20
-34.200000000000962
 30
0.0
 42
0.4142135623730951
  0
VERTEX
  5
2704
  8
SAPA_PROFIL
 10
-23.199999999999822
 20
-34.500000000001137
 30
0.0
  0
VERTEX
  5
2705
  8
SAPA_PROFIL
 10
-21.999999999999769
 20
-34.500000000001137
 30
0.0
 42
-0.7105990647993611
  0
VERTEX
  5
2706
  8
SAPA_PROFIL
 10
-21.81361599999968
 20
-35.035076000001027
 30
0.0
  0
VERTEX
  5
2707
  8
SAPA_PROFIL
 10
-22.39999999999986
 20
-35.500000000001137
 30
0.0
  0
VERTEX
  5
2708
  8
SAPA_PROFIL
 10
-24.699999999999822
 20
-35.500000000001137
 30
0.0
 42
-0.4142135623730951
  0
VERTEX
  5
2709
  8
SAPA_PROFIL
 10
-24.999999999999769
 20
-35.200000000000948
 30
0.0
  0
VERTEX
  5
270A
  8
SAPA_PROFIL
 10
-24.999999999999769
 20
63.999999999998863
 30
0.0
 42
-0.4142135623730951
  0
VERTEX
  5
270B
  8
SAPA_PROFIL
 10
-24.499999999999769
 20
64.499999999998863
 30
0.0
  0
VERTEX
  5
270C
  8
SAPA_PROFIL
 10
24.500000000000231
 20
64.499999999998863
 30
0.0
 42
-0.4142135623730951
  0
VERTEX
  5
270D
  8
SAPA_PROFIL
 10
25.000000000000231
 20
63.999999999998863
 30
0.0
  0
VERTEX
  5
270E
  8
SAPA_PROFIL
 10
25.000000000000231
 20
-35.200000000000948
 30
0.0
 42
-0.4142135623730951
  0
VERTEX
  5
270F
  8
SAPA_PROFIL
 10
24.700000000000269
 20
-35.500000000001137
 30
0.0
  0
VERTEX
  5
2710
  8
SAPA_PROFIL
 10
22.400000000000318
 20
-35.500000000001137
 30
0.0
  0
VERTEX
  5
2711
  8
SAPA_PROFIL
 10
21.81361598449962
 20
-35.035076580641999
 30
0.0
 42
-0.7105995019814511
  0
VERTEX
  5
2712
  8
SAPA_PROFIL
 10
22.000000000000231
 20
-34.500000000001137
 30
0.0
  0
VERTEX
  5
2713
  8
SAPA_PROFIL
 10
23.200000000000269
 20
-34.500000000001137
 30
0.0
 42
0.4142135623730951
  0
VERTEX
  5
2714
  8
SAPA_PROFIL
 10
23.500000000000231
 20
-34.200000000000962
 30
0.0
  0
VERTEX
  5
2715
  8
SAPA_PROFIL
 10
23.500000000000231
 20
-30.300000000001091
 30
0.0
 42
0.4142135623730951
  0
VERTEX
  5
2716
  8
SAPA_PROFIL
 10
23.200000000000269
 20
-30.00000000000114
 30
0.0
  0
VERTEX
  5
2717
  8
SAPA_PROFIL
 10
16.500000000000231
 20
-30.00000000000114
 30
0.0
 42
0.4142135623730951
  0
VERTEX
  5
2718
  8
SAPA_PROFIL
 10
16.200000000000269
 20
-30.300000000001091
 30
0.0
  0
VERTEX
  5
2719
  8
SAPA_PROFIL
 10
16.200000000000269
 20
-34.200000000000962
 30
0.0
 42
0.4142135623730951
  0
VERTEX
  5
271A
  8
SAPA_PROFIL
 10
16.500000000000231
 20
-34.500000000001137
 30
0.0
  0
VERTEX
  5
271B
  8
SAPA_PROFIL
 10
18.400000000000318
 20
-34.500000000001137
 30
0.0
 42
-0.7105995019814511
  0
VERTEX
  5
271C
  8
SAPA_PROFIL
 10
18.586384015500919
 20
-35.035076580641999
 30
0.0
  0
VERTEX
  5
271D
  8
SAPA_PROFIL
 10
18.000000000000231
 20
-35.500000000001137
 30
0.0
  0
VERTEX
  5
271E
  8
SAPA_PROFIL
 10
11.30000000000018
 20
-35.500000000001137
 30
0.0
 42
-0.4142135623730951
  0
VERTEX
  5
271F
  8
SAPA_PROFIL
 10
11.00000000000022
 20
-35.200000000000948
 30
0.0
  0
VERTEX
  5
2720
  8
SAPA_PROFIL
 10
11.00000000000022
 20
-34.500000000001137
 30
0.0
 42
-0.4142135623730951
  0
VERTEX
  5
2721
  8
SAPA_PROFIL
 10
11.30000000000018
 20
-34.200000000000962
 30
0.0
  0
VERTEX
  5
2722
  8
SAPA_PROFIL
 10
14.200000000000269
 20
-34.200000000000962
 30
0.0
 42
0.4142135623730951
  0
VERTEX
  5
2723
  8
SAPA_PROFIL
 10
14.700000000000269
 20
-33.700000000000962
 30
0.0
  0
VERTEX
  5
2724
  8
SAPA_PROFIL
 10
14.700000000000269
 20
-30.50000000000114
 30
0.0
 42
0.4142135623730951
  0
VERTEX
  5
2725
  8
SAPA_PROFIL
 10
14.200000000000269
 20
-30.00000000000114
 30
0.0
  0
SEQEND
  5
2726
  8
SAPA_PROFIL
  0
POLYLINE
  5
1DC4
  8
SAPA_GLAS
 66
     1
 10
0.0
 20
0.0
 30
0.0
  0
VERTEX
  5
275D
  8
SAPA_GLAS
 10
40.999999999995673
 20
-48.499999999010363
 30
0.0
  0
VERTEX
  5
275E
  8
SAPA_GLAS
 10
10.99999999999568
 20
-48.499999999010363
 30
0.0
  0
VERTEX
  5
275F
  8
SAPA_GLAS
 10
10.99999999999568
 20
-44.499999999010349
 30
0.0
  0
VERTEX
  5
2760
  8
SAPA_GLAS
 10
40.999999999995673
 20
-44.499999999010349
 30
0.0
  0
SEQEND
  5
2761
  8
SAPA_GLAS
  0
POLYLINE
  5
1DC5
  8
SAPA_GLAS
 66
     1
 10
0.0
 20
0.0
 30
0.0
  0
VERTEX
  5
2762
  8
SAPA_GLAS
 10
20.99999999999477
 20
-60.499999999010363
 30
0.0
  0
VERTEX
  5
2763
  8
SAPA_GLAS
 10
20.99999999999477
 20
-48.499999999010363
 30
0.0
  0
VERTEX
  5
2764
  8
SAPA_GLAS
 10
10.99999999999568
 20
-48.499999999010363
 30
0.0
  0
VERTEX
  5
2765
  8
SAPA_GLAS
 10
10.99999999999568
 20
-60.499999999010363
 30
0.0
  0
VERTEX
  5
2766
  8
SAPA_GLAS
 10
20.99999999999477
 20
-60.499999999010363
 30
0.0
  0
SEQEND
  5
2767
  8
SAPA_GLAS
  0
POLYLINE
  5
1DC6
  8
SAPA_GLAS
 66
     1
 10
0.0
 20
0.0
 30
0.0
  0
VERTEX
  5
2768
  8
SAPA_GLAS
 10
40.999999999995673
 20
-64.499999999010356
 30
0.0
  0
VERTEX
  5
2769
  8
SAPA_GLAS
 10
10.99999999999568
 20
-64.499999999010356
 30
0.0
  0
VERTEX
  5
276A
  8
SAPA_GLAS
 10
10.99999999999568
 20
-60.499999999010363
 30
0.0
  0
VERTEX
  5
276B
  8
SAPA_GLAS
 10
40.999999999995673
 20
-60.499999999010363
 30
0.0
  0
SEQEND
  5
276C
  8
SAPA_GLAS
  0
POLYLINE
  5
1DC7
  8
SAPA_GLAS
 66
     1
 10
0.0
 20
0.0
 30
0.0
  0
VERTEX
  5
276D
  8
SAPA_GLAS
 10
20.99999999999477
 20
-76.499999999011933
 30
0.0
  0
VERTEX
  5
276E
  8
SAPA_GLAS
 10
20.99999999999477
 20
-64.499999999010356
 30
0.0
  0
VERTEX
  5
276F
  8
SAPA_GLAS
 10
10.99999999999568
 20
-64.499999999010356
 30
0.0
  0
VERTEX
  5
2770
  8
SAPA_GLAS
 10
10.99999999999568
 20
-76.499999999011933
 30
0.0
  0
VERTEX
  5
2771
  8
SAPA_GLAS
 10
20.99999999999477
 20
-76.499999999011933
 30
0.0
  0
SEQEND
  5
2772
  8
SAPA_GLAS
  0
POLYLINE
  5
1DC8
  8
SAPA_GLAS
 66
     1
 10
0.0
 20
0.0
 30
0.0
  0
VERTEX
  5
2773
  8
SAPA_GLAS
 10
40.999999999995673
 20
-82.499999999011948
 30
0.0
  0
VERTEX
  5
2774
  8
SAPA_GLAS
 10
10.99999999999568
 20
-82.499999999011948
 30
0.0
  0
VERTEX
  5
2775
  8
SAPA_GLAS
 10
10.99999999999568
 20
-76.499999999011933
 30
0.0
  0
VERTEX
  5
2776
  8
SAPA_GLAS
 10
40.999999999995673
 20
-76.499999999011933
 30
0.0
  0
SEQEND
  5
2777
  8
SAPA_GLAS
  0
POLYLINE
  5
1DC9
  8
SAPA_GLAS
 66
     1
 10
0.0
 20
0.0
 30
0.0
  0
VERTEX
  5
2778
  8
SAPA_GLAS
 10
-60.999999999987722
 20
117.4499999251591
 30
0.0
  0
VERTEX
  5
2779
  8
SAPA_GLAS
 10
-30.999999999987718
 20
117.4499999251591
 30
0.0
  0
VERTEX
  5
277A
  8
SAPA_GLAS
 10
-30.999999999987718
 20
121.4499999251591
 30
0.0
  0
VERTEX
  5
277B
  8
SAPA_GLAS
 10
-60.999999999987722
 20
121.4499999251591
 30
0.0
  0
SEQEND
  5
277C
  8
SAPA_GLAS
  0
POLYLINE
  5
1DCA
  8
SAPA_GLAS
 66
     1
 10
0.0
 20
0.0
 30
0.0
  0
VERTEX
  5
277D
  8
SAPA_GLAS
 10
-40.999999999987722
 20
105.4499999251591
 30
0.0
  0
VERTEX
  5
277E
  8
SAPA_GLAS
 10
-40.999999999987722
 20
117.4499999251591
 30
0.0
  0
VERTEX
  5
277F
  8
SAPA_GLAS
 10
-30.999999999987718
 20
117.4499999251591
 30
0.0
  0
VERTEX
  5
2780
  8
SAPA_GLAS
 10
-30.999999999987718
 20
105.4499999251591
 30
0.0
  0
VERTEX
  5
2781
  8
SAPA_GLAS
 10
-40.999999999987722
 20
105.4499999251591
 30
0.0
  0
SEQEND
  5
2782
  8
SAPA_GLAS
  0
POLYLINE
  5
1DCB
  8
SAPA_GLAS
 66
     1
 10
0.0
 20
0.0
 30
0.0
  0
VERTEX
  5
2783
  8
SAPA_GLAS
 10
-60.999999999987722
 20
101.4499999251591
 30
0.0
  0
VERTEX
  5
2784
  8
SAPA_GLAS
 10
-30.999999999987718
 20
101.4499999251591
 30
0.0
  0
VERTEX
  5
2785
  8
SAPA_GLAS
 10
-30.999999999987718
 20
105.4499999251591
 30
0.0
  0
VERTEX
  5
2786
  8
SAPA_GLAS
 10
-60.999999999987722
 20
105.4499999251591
 30
0.0
  0
SEQEND
  5
2787
  8
SAPA_GLAS
  0
POLYLINE
  5
1DCC
  8
SAPA_GLAS
 66
     1
 10
0.0
 20
0.0
 30
0.0
  0
VERTEX
  5
2788
  8
SAPA_GLAS
 10
-40.999999999987722
 20
89.449999925159148
 30
0.0
  0
VERTEX
  5
2789
  8
SAPA_GLAS
 10
-40.999999999987722
 20
101.4499999251591
 30
0.0
  0
VERTEX
  5
278A
  8
SAPA_GLAS
 10
-30.999999999987718
 20
101.4499999251591
 30
0.0
  0
VERTEX
  5
278B
  8
SAPA_GLAS
 10
-30.999999999987718
 20
89.449999925159148
 30
0.0
  0
VERTEX
  5
278C
  8
SAPA_GLAS
 10
-40.999999999987722
 20
89.449999925159148
 30
0.0
  0
SEQEND
  5
278D
  8
SAPA_GLAS
  0
POLYLINE
  5
1DCD
  8
SAPA_GLAS
 66
     1
 10
0.0
 20
0.0
 30
0.0
  0
VERTEX
  5
278E
  8
SAPA_GLAS
 10
-60.999999999987722
 20
83.449999925159133
 30
0.0
  0
VERTEX
  5
278F
  8
SAPA_GLAS
 10
-30.999999999987718
 20
83.449999925159133
 30
0.0
  0
VERTEX
  5
2790
  8
SAPA_GLAS
 10
-30.999999999987718
 20
89.449999925159148
 30
0.0
  0
VERTEX
  5
2791
  8
SAPA_GLAS
 10
-60.999999999987722
 20
89.449999925159148
 30
0.0
  0
SEQEND
  5
2792
  8
SAPA_GLAS
  0
INSERT
  5
1DD4
  8
SAPA_ISOLATOR
  6
CONTINUOUS
  2
*X82
 10
0.0
 20
0.0
 30
0.0
1001
ACAD
1000
HATCH
1002
{
1070
    19
1000
ANSI31
1040
0.35
1040
5.4977871437821371
1000
R14_HATCH_DATA
1000
1DD4
1011
1.0
1021
0.0
1031
0.0
1021
0.0
1031
0.0
1011
0.0
1021
0.0
1031
0.0
1021
1.0
1031
0.0
1011
0.0
1021
0.0
1031
0.0
1021
0.0
1031
1.0
1040
0.0
1010
0.0
1020
0.0
1030
1.0
1000
ANSI31
1070
     0
1070
     0
1071
        1
1071
        1
1071
       49
1070
     2
1040
-23.128163190640951
1040
99.536257502558954
1040
0.3006817060114675
1040
0.0050584204141675
1040
1.2209764013054469
1070
     1
1070
     1
1040
-23.025110957018882
1040
99.818728254098787
1040
-25.457940978562899
1040
100.70420596696989
1070
     2
1040
-25.321132921230092
1040
101.08008301528611
1040
0.400000000002539
1040
1.919862177198238
1040
3.1415926535904428
1070
     0
1070
     1
1040
-25.72113292123262
1040
101.08008301528631
1040
-25.721132921232599
1040
111.5000000000005
1070
     1
1040
-25.721132921232599
1040
111.5000000000005
1040
-25.721132921232542
1040
121.9199169847186
1070
     2
1040
-25.321132921232891
1040
121.91991698471681
1040
0.3999999999996488
1040
3.1415926535941709
1040
4.3633231299864041
1070
     0
1070
     1
1040
-25.457940978562821
1040
122.2957940330309
1040
-23.02511095702712
1040
123.1812717458991
1070
     2
1040
-23.128009399970871
1040
123.4636343180465
1040
0.3005273892841634
1040
5.0618515338339378
1040
6.2784842586649878
1070
     1
1070
     2
1040
-28.388128406495792
1040
123.6918102929848
1040
5.5653807064749881
1040
6.2419205770420829
1040
6.3050848890821518
1070
     1
1070
     1
1040
-22.82408220184718
1040
123.81368006175209
1040
-22.685412444740649
1040
124.0538631265344
1070
     2
1040
-22.867277779535549
1040
124.1588631265341
1040
0.2100000000000017
1040
5.7595865315828716
1040
7.8539816339739712
1070
     1
1070
     1
1040
-22.867277779535438
1040
124.36886312653409
1040
-23.13439230774836
1040
124.36886312653429
1070
     1
1040
-23.13439230774836
1040
124.36886312653429
1040
-23.330614373532651
1040
124.7000000000004
1070
     1
1040
-23.330614373532651
1040
124.7000000000004
1040
-23.898258537030099
1040
125.683320137981
1070
     2
1040
-23.71639320223656
1040
125.7883201379792
1040
0.209999999998109
1040
2.6179938779958061
1040
3.1415926535924319
1070
     0
1070
     1
1040
-23.92639320223466
1040
125.7883201379798
1040
-23.926393202234781
1040
126.1000000000024
1070
     2
1040
-23.526393202238651
1040
126.1000000000043
1040
0.3999999999961332
1040
3.1415926535850138
1040
4.7123889803951498
1070
     0
1070
     1
1040
-23.526393202234459
1040
126.5000000000004
1040
-20.126393202234709
1040
126.5000000000005
1070
     2
1040
-20.1263932022318
1040
126.1000000000034
1040
0.3999999999970676
1040
4.7123889803774146
1040
6.2831853071870016
1070
     0
1070
     1
1040
-19.726393202234728
1040
126.10000000000041
1040
-19.726393202234728
1040
125.7883201379768
1070
     2
1040
-19.936393202229681
1040
125.7883201379784
1040
0.2099999999949489
1040
0.0000000000078835
1040
0.5235987756045111
1070
     0
1070
     1
1040
-19.754527867439968
1040
125.68332013797981
1040
-20.32224801380201
1040
124.7000000000004
1070
     1
1040
-20.32224801380201
1040
124.7000000000004
1040
-20.665623686774129
1040
124.10525588832959
1070
     2
1040
-19.626393202223731
1040
123.5052558883235
1040
1.2000000000109059
1040
2.6179938779908598
1040
3.1415926535875132
1070
     1
1070
     1
1040
-20.826393202234641
1040
123.5052558883262
1040
-20.82639320223441
1040
122.5533915554398
1070
     2
1040
-21.826393202226669
1040
122.5533915554488
1040
0.9999999999922533
1040
0.0000000000090097
1040
1.221730476401516
1070
     0
1070
     1
1040
-21.484373058908801
1040
121.61369893466831
1040
-23.65794097856249
1040
120.8225849097584
1070
     2
1040
-23.521132921231221
1040
120.4467078614429
1040
0.4000000000013905
1040
1.9198621771951729
1040
3.141592653587403
1070
     1
1070
     1
1040
-23.921132921232608
1040
120.4467078614439
1040
-23.921132921232608
1040
111.5000000000005
1070
     1
1040
-23.921132921232608
1040
111.5000000000005
1040
-23.921132921232669
1040
102.553292138557
1070
     2
1040
-23.521132921234091
1040
102.553292138556
1040
0.3999999999985775
1040
3.141592653587308
1040
4.363323129979511
1070
     1
1070
     1
1040
-23.657940978566248
1040
102.1774150902438
1040
-21.484373058909028
1040
101.3863010653327
1070
     2
1040
-21.82639320224791
1040
100.4466084445375
1040
1.000000000013211
1040
5.0614548307928056
1040
6.2831853071850263
1070
     0
1070
     1
1040
-20.826393202234701
1040
100.4466084445321
1040
-20.826393202234701
1040
99.494744111674635
1070
     2
1040
-19.626393202245669
1040
99.494744111671636
1040
1.1999999999890261
1040
3.1415926535872978
1040
3.665191429183948
1070
     1
1070
     1
1040
-20.665623686779981
1040
98.894744111681433
1040
-20.326393202234751
1040
98.307179676972936
1070
     1
1040
-20.326393202234751
1040
98.307179676972936
1040
-19.754527867440029
1040
97.316679862021005
1070
     2
1040
-19.93639320224117
1040
97.211679862019324
1040
0.2100000000063851
1040
5.759586531589667
1040
6.2831853071863426
1070
     0
1070
     1
1040
-19.726393202234789
1040
97.211679862017917
1040
-19.726393202234728
1040
96.900000000000404
1070
     2
1040
-20.126393202237679
1040
96.900000000003374
1040
0.40000000000295
1040
0.0000000000074323
1040
1.570796326797411
1070
     0
1070
     1
1040
-20.126393202238692
1040
96.500000000000426
1040
-23.52639320223474
1040
96.500000000000426
1070
     2
1040
-23.52639320223274
1040
96.900000000002407
1040
0.4000000000019782
1040
1.5707963267998979
1040
3.1415926535899059
1070
     0
1070
     1
1040
-23.926393202234721
1040
96.900000000002464
1040
-23.926393202234721
1040
97.211679862021114
1070
     2
1040
-23.716393202232808
1040
97.211679862020631
1040
0.2100000000019078
1040
3.1415926535920451
1040
3.6651914291886731
1070
     0
1070
     1
1040
-23.89825853702914
1040
97.316679862021687
1040
-23.13439230774836
1040
98.631136873466673
1070
     1
1040
-23.13439230774836
1040
98.631136873466673
1040
-22.867277779535438
1040
98.631136873466815
1070
     2
1040
-22.867277779535549
1040
98.841136873466809
1040
0.2100000000000017
1040
4.7123889803851959
1040
6.8067840827762964
1070
     1
1070
     1
1040
-22.685412444740649
1040
98.946136873466514
1040
-22.824082201847169
1040
99.186319938248815
1070
     2
1040
-28.388128405938289
1040
99.308189707019196
1040
5.5653807059176952
1040
6.2612857252742726
1040
6.3244500373143397
1070
     1
1071
        0
1070
     0
1070
     1
1040
5.4977871437821371
1040
0.35
1070
     0
1070
     1
1040
0.0
1040
-25.721133114252812
1040
96.499999849184661
1040
0.0000000000000003
1040
1.111249999999999
1070
     0
1071
        1
1040
-25.721133114252812
1040
96.499999849184661
1040
0.0
1002
}
  0
INSERT
  5
1DD5
  8
SAPA_ISOLATOR
  6
CONTINUOUS
  2
*X83
 10
0.0
 20
0.0
 30
0.0
1001
ACAD
1000
HATCH
1002
{
1070
    19
1000
ANSI31
1040
0.35
1040
5.4977871437821371
1000
R14_HATCH_DATA
1000
1DD5
1011
1.0
1021
0.0
1031
0.0
1021
0.0
1031
0.0
1011
0.0
1021
0.0
1031
0.0
1021
1.0
1031
0.0
1011
0.0
1021
0.0
1031
0.0
1021
0.0
1031
1.0
1040
0.0
1010
0.0
1020
0.0
1030
1.0
1000
ANSI31
1070
     0
1070
     0
1071
        1
1071
        1
1071
       49
1070
     2
1040
9.9014379433161253
1040
103.30399500347831
1040
4.8787750972680151
1040
9.3856702471691875
1040
9.4489000971125154
1070
     1
1070
     1
1040
5.024082201856884
1040
103.18631993824729
1040
4.8854124447503571
1040
102.94613687346499
1070
     2
1040
5.0672777795452566
1040
102.8411368734653
1040
0.2100000000000011
1040
8.9011791851726656
1040
10.99557428756377
1070
     1
1070
     1
1040
5.06727777954515
1040
102.63113687346529
1040
5.338115397671543
1040
102.6332864004289
1070
     1
1040
5.338115397671543
1040
102.6332864004289
1040
6.08620082337913
1040
101.3375644347016
1070
     2
1040
5.8263932022415519
1040
101.18756443470011
1040
0.3000000000027061
1040
-0.5235987755989511
1040
-0.0000000000021192
1070
     0
1070
     1
1040
6.126393202244258
1040
101.1875644347007
1040
6.126393202244258
1040
100.9000000000009
1070
     2
1040
5.7263932022422974
1040
100.9000000000009
1040
0.400000000001961
1040
-0.0000000000000142
1040
1.5707963267899361
1070
     0
1070
     1
1040
5.7263932022442807
1040
100.49999999999891
1040
2.3263932022482261
1040
100.49999999999891
1070
     2
1040
2.3263932022472602
1040
100.9000000000018
1040
0.4000000000029332
1040
1.57079632679248
1040
3.1415926535825451
1070
     0
1070
     1
1040
1.9263932022443271
1040
100.8999999999989
1040
1.92639320224427
1040
101.1875644346963
1070
     2
1040
2.226393202253373
1040
101.1875644346981
1040
0.3000000000091028
1040
3.14159265358396
1040
3.665191429180378
1070
     0
1070
     1
1040
1.9665855811090009
1040
101.3375644347006
1040
2.8656236867895748
1040
102.8947441116799
1070
     2
1040
1.8263932022552101
1040
103.4947441116701
1040
1.199999999989082
1040
5.7595865315854429
1040
6.2831853071820687
1070
     1
1070
     1
1040
3.0263932022442921
1040
103.4947441116731
1040
3.0263932022442921
1040
104.9056465456206
1070
     2
1040
3.326393202248509
1040
104.9056465456223
1040
0.3000000000042169
1040
3.1415926535841971
1040
4.2913100193678089
1070
     0
1070
     1
1040
3.203769581379361
1040
105.1794410810087
1040
5.8307659036898647
1040
106.3559868458432
1070
     2
1040
5.6263932022463878
1040
106.8123110714798
1040
0.4999999999980974
1040
5.1334679413983864
1040
6.2831853071820669
1070
     1
1070
     1
1040
6.1263932022444862
1040
106.81231107148101
1040
6.1263932022444862
1040
116.1874352799433
1070
     2
1040
5.6263932022426024
1040
116.18743527994209
1040
0.5000000000018839
1040
6.2831853071819728
1040
7.435102613494684
1070
     1
1070
     1
1040
5.829761523781797
1040
116.64420800876491
1040
3.2043722093216331
1040
117.813106641665
1070
     2
1040
3.326393202241769
1040
118.08717027895619
1040
0.2999999999974772
1040
1.9896753472677791
1040
3.1415926535805561
1070
     0
1070
     1
1040
3.0263932022442921
1040
118.08717027895339
1040
3.0263932022442921
1040
119.5052558883247
1070
     2
1040
1.82639320223335
1040
119.5052558883216
1040
1.2000000000109421
1040
6.2831853071821673
1040
6.8067840827787949
1070
     1
1070
     1
1040
2.8656236867836071
1040
120.105255888328
1040
2.522248013811605
1040
120.69999999999889
1070
     1
1040
2.522248013811605
1040
120.69999999999889
1040
1.9665855811090009
1040
121.6624355652971
1070
     2
1040
2.2263932022370172
1040
121.8124355652953
1040
0.2999999999927472
1040
2.6179938779845968
1040
3.1415926535814318
1070
     0
1070
     1
1040
1.92639320224427
1040
121.8124355652928
1040
1.9263932022443271
1040
122.0999999999989
1070
     2
1040
2.3263932022414
1040
122.1000000000019
1040
0.3999999999970729
1040
3.1415926535823848
1040
4.7123889803919496
1070
     0
1070
     1
1040
2.3263932022443039
1040
122.49999999999901
1040
5.7263932022442807
1040
122.49999999999891
1070
     2
1040
5.7263932022442701
1040
122.0999999999989
1040
0.3999999999999879
1040
-1.570796326794867
1040
-0.0000000000048583
1070
     0
1070
     1
1040
6.126393202244258
1040
122.1000000000008
1040
6.126393202244258
1040
121.81243556529709
1070
     2
1040
5.8263932022470346
1040
121.8124355652964
1040
0.2999999999972234
1040
-0.0000000000024514
1040
0.5235987755943783
1070
     0
1070
     1
1040
6.0862008233805511
1040
121.66243556529879
1040
5.5305383906769796
1040
120.69999999999889
1070
     1
1040
5.5305383906769796
1040
120.69999999999889
1040
5.3381153976715723
1040
120.366713599569
1070
     1
1040
5.3381153976715723
1040
120.366713599569
1040
5.06727777954515
1040
120.3688631265326
1070
     2
1040
5.0672777795452566
1040
120.15886312653259
1040
0.2100000000000008
1040
7.8539816339749891
1040
9.9483767363660949
1070
     1
1070
     1
1040
4.8854124447503571
1040
120.0538631265329
1040
5.024082201856884
1040
119.8136800617506
1070
     2
1040
11.950545633587369
1040
119.68348785853409
1040
6.9276868925261033
1040
9.4059838279000907
1040
9.4567228176585623
1070
     1
1070
     1
1040
5.0263932022442566
1040
119.46222152941181
1040
5.0263932022442921
1040
119.3859854653528
1070
     2
1040
5.3263932022477096
1040
119.38598546535501
1040
0.3000000000034175
1040
3.1415926535970291
1040
4.2935099599099358
1070
     1
1070
     1
1040
5.2043722093246449
1040
119.1119218280586
1040
7.748414195166986
1040
117.97924135933241
1070
     2
1040
7.6263932022445911
1040
117.70517772203981
1040
0.2999999999996781
1040
-1.151917306317036
1040
-0.0000000000042513
1070
     0
1070
     1
1040
7.9263932022442702
1040
117.7051777220411
1040
7.9263932022444399
1040
113.23005594144961
1070
     1
1040
7.9263932022444399
1040
113.23005594144961
1040
7.926393202244383
1040
105.2948222779596
1070
     2
1040
7.626393202242431
1040
105.2948222779594
1040
0.3000000000019533
1040
-0.000000000000675
1040
1.151917306312114
1070
     0
1070
     1
1040
7.7484141951670997
1040
105.02075864066531
1040
5.2043722093165741
1040
103.8880781719355
1070
     2
1040
5.3263932022409284
1040
103.6140145346471
1040
0.2999999999966353
1040
8.2728606544640044
1040
9.4247779607766731
1070
     1
1070
     1
1040
5.0263932022442921
1040
103.61401453464489
1040
5.0263932022442921
1040
103.49474411165551
1071
        0
1070
     0
1070
     1
1040
5.4977871437821371
1040
0.35
1070
     0
1070
     1
1040
0.0
1040
0.0
1040
0.0
1040
0.0000000000000003
1040
1.111249999999999
1070
     0
1071
        1
1040
8.5584747667009253
1040
99.999516966809267
1040
0.0
1002
}
  0
LINE
  5
1E19
  8
SAPA_FOGBAND
 10
34.799999874100592
 20
116.1989789791217
 30
0.0
 11
34.93704631930057
 21
116.313974965322
 31
0.0
  0
LINE
  5
1E1A
  8
SAPA_FOGBAND
 10
34.799999874100592
 20
120.69898809882061
 30
0.0
 11
34.93704631930057
 21
120.81398408502091
 31
0.0
  0
LINE
  5
1E1B
  8
SAPA_FOGBAND
 10
34.799999874100578
 20
123.6989941786199
 30
0.0
 11
34.937046319300563
 21
123.8139901648202
 31
0.0
  0
LINE
  5
1E1C
  8
SAPA_FOGBAND
 10
34.799999874100578
 20
126.6989946703201
 30
0.0
 11
34.937046319300563
 21
126.8139906565203
 31
0.0
  0
LINE
  5
1E1D
  8
SAPA_FOGBAND
 10
34.799999874100578
 20
132.6990012418195
 30
0.0
 11
34.937046319300563
 21
132.8139972280197
 31
0.0
  0
LINE
  5
1E1E
  8
SAPA_FOGBAND
 10
34.799999874100578
 20
135.69900732161869
 30
0.0
 11
34.937046319300563
 21
135.81400330781901
 31
0.0
  0
LINE
  5
1E1F
  8
SAPA_FOGBAND
 10
34.799999874100578
 20
138.69900781331879
 30
0.0
 11
34.937046319300563
 21
138.8140037995191
 31
0.0
  0
LINE
  5
1E20
  8
SAPA_FOGBAND
 10
34.799999874100592
 20
106.80102102087319
 30
0.0
 11
34.93704631930057
 21
106.68602503467299
 31
0.0
  0
LINE
  5
1E21
  8
SAPA_FOGBAND
 10
34.799999874100592
 20
102.30101190117431
 30
0.0
 11
34.93704631930057
 21
102.18601591497401
 31
0.0
  0
LINE
  5
1E22
  8
SAPA_FOGBAND
 10
34.799999874100592
 20
99.301005821375057
 30
0.0
 11
34.937046319300578
 21
99.186009835174787
 31
0.0
  0
LINE
  5
1E23
  8
SAPA_FOGBAND
 10
34.799999874100592
 20
96.301005329674922
 30
0.0
 11
34.937046319300578
 21
96.186009343474666
 31
0.0
  0
POLYLINE
  5
1E24
  8
SAPA_FOGBAND
 66
     1
 10
0.0
 20
0.0
 30
0.0
 70
     1
  0
VERTEX
  5
2BEF
  8
SAPA_FOGBAND
 10
24.700000000000951
 20
120.6786481844216
 30
0.0
 42
-0.2477256978079298
  0
VERTEX
  5
2BF0
  8
SAPA_FOGBAND
 10
24.961487758061761
 20
121.1740363777178
 30
0.0
 42
0.0324410416313708
  0
VERTEX
  5
2BF1
  8
SAPA_FOGBAND
 10
26.114236070984582
 20
122.0766733979391
 30
0.0
 42
-0.2332140242940444
  0
VERTEX
  5
2BF2
  8
SAPA_FOGBAND
 10
26.625714144930662
 20
122.21874104544899
 30
0.0
  0
VERTEX
  5
2BF3
  8
SAPA_FOGBAND
 10
31.511728871064172
 20
121.2926954557432
 30
0.0
 42
-0.3603575240022061
  0
VERTEX
  5
2BF4
  8
SAPA_FOGBAND
 10
32.000000000000959
 20
120.7031900194911
 30
0.0
  0
VERTEX
  5
2BF5
  8
SAPA_FOGBAND
 10
32.000000000000959
 20
113.1000000036675
 30
0.0
 42
-0.4142135623730951
  0
VERTEX
  5
2BF6
  8
SAPA_FOGBAND
 10
31.40000000000088
 20
112.5000000036674
 30
0.0
  0
VERTEX
  5
2BF7
  8
SAPA_FOGBAND
 10
25.300000000000971
 20
112.5000000036674
 30
0.0
 42
-0.4142135623730992
  0
VERTEX
  5
2BF8
  8
SAPA_FOGBAND
 10
24.700000000000951
 20
113.1000000036675
 30
0.0
  0
SEQEND
  5
2BF9
  8
SAPA_FOGBAND
  0
ARC
  5
1E25
  8
SAPA_FOGBAND
 10
25.300000000000971
 20
120.6786481844216
 30
0.0
 40
0.6000000000000229
 50
124.34585901905631
 51
180.0
  0
ARC
  5
1E26
  8
SAPA_FOGBAND
 10
26.51398527386737
 20
121.6292356091968
 30
0.0
 40
0.6000000000000061
 50
79.268034745045313
 51
131.77819150961761
  0
ARC
  5
1E27
  8
SAPA_FOGBAND
 10
25.300000000000971
 20
113.1000000036675
 30
0.0
 40
0.6000000000000001
 50
180.0
 51
270.0
  0
ARC
  5
1E28
  8
SAPA_FOGBAND
 10
31.40000000000088
 20
120.7031900194911
 30
0.0
 40
0.6000000000000001
 50
0.0
 51
79.268034745045313
  0
ARC
  5
1E29
  8
SAPA_FOGBAND
 10
31.40000000000088
 20
113.1000000036675
 30
0.0
 40
0.6000000000000001
 50
270.0
 51
0.0
  0
LINE
  5
1E2A
  8
SAPA_FOGBAND
 10
31.40000000000088
 20
112.5000000036674
 30
0.0
 11
25.300000000000971
 21
112.5000000036674
 31
0.0
  0
ARC
  5
1E2B
  8
SAPA_FOGBAND
 10
18.58920197206912
 20
130.49941594037929
 30
0.0
 40
11.294632801736849
 50
304.34585901905638
 51
311.77819150961761
  0
LINE
  5
1E2C
  8
SAPA_FOGBAND
 10
24.700000000000951
 20
120.6786481844216
 30
0.0
 11
24.700000000000951
 21
113.1000000036675
 31
0.0
  0
LINE
  5
1E2D
  8
SAPA_FOGBAND
 10
26.625714144930662
 20
122.21874104544899
 30
0.0
 11
31.511728871064172
 21
121.2926954557432
 31
0.0
  0
LINE
  5
1E2E
  8
SAPA_FOGBAND
 10
32.000000000000959
 20
120.7031900194911
 30
0.0
 11
32.000000000000959
 21
113.1000000036675
 31
0.0
  0
LINE
  5
1E2F
  8
SAPA_FOGBAND
 10
32.000000000000561
 20
144.34999999999519
 30
0.0
 11
32.000000000000377
 21
144.35902054813349
 31
0.0
  0
LINE
  5
1E30
  8
SAPA_FOGBAND
 10
24.827817149030619
 20
142.54999999999549
 30
0.0
 11
24.82781714902994
 21
143.04999999999569
 31
0.0
  0
LINE
  5
1E31
  8
SAPA_FOGBAND
 10
34.799999874100592
 20
90.300998758175524
 30
0.0
 11
34.937046319300578
 21
90.186002771975254
 31
0.0
  0
LINE
  5
1E32
  8
SAPA_FOGBAND
 10
34.799999874100592
 20
87.300992678376247
 30
0.0
 11
34.937046319300578
 21
87.185996692175991
 31
0.0
  0
POLYLINE
  5
1E33
  8
SAPA_FOGBAND
 66
     1
 10
0.0
 20
0.0
 30
0.0
 70
     1
  0
VERTEX
  5
2BFA
  8
SAPA_FOGBAND
 10
24.700000000000951
 20
102.32135181557339
 30
0.0
 42
0.2477256978079298
  0
VERTEX
  5
2BFB
  8
SAPA_FOGBAND
 10
24.961487758061761
 20
101.8259636222772
 30
0.0
 42
-0.0324410416313708
  0
VERTEX
  5
2BFC
  8
SAPA_FOGBAND
 10
26.114236070984589
 20
100.92332660205589
 30
0.0
 42
0.2332140242940444
  0
VERTEX
  5
2BFD
  8
SAPA_FOGBAND
 10
26.625714144930669
 20
100.7812589545459
 30
0.0
  0
VERTEX
  5
2BFE
  8
SAPA_FOGBAND
 10
31.511728871064172
 20
101.7073045442517
 30
0.0
 42
0.3603575240022061
  0
VERTEX
  5
2BFF
  8
SAPA_FOGBAND
 10
32.000000000000959
 20
102.29680998050389
 30
0.0
  0
VERTEX
  5
2C00
  8
SAPA_FOGBAND
 10
32.000000000000959
 20
109.8999999963274
 30
0.0
 42
0.4142135623730951
  0
VERTEX
  5
2C01
  8
SAPA_FOGBAND
 10
31.40000000000088
 20
110.4999999963276
 30
0.0
  0
VERTEX
  5
2C02
  8
SAPA_FOGBAND
 10
25.300000000000971
 20
110.4999999963276
 30
0.0
 42
0.4142135623730992
  0
VERTEX
  5
2C03
  8
SAPA_FOGBAND
 10
24.700000000000951
 20
109.8999999963274
 30
0.0
  0
SEQEND
  5
2C04
  8
SAPA_FOGBAND
  0
POLYLINE
  5
1E34
  8
SAPA_FOGBAND
 66
     1
 10
0.0
 20
0.0
 30
0.0
 70
     1
  0
VERTEX
  5
2C05
  8
SAPA_FOGBAND
 10
26.625714144930601
 20
122.21874104544931
 30
0.0
 42
0.2332140242940483
  0
VERTEX
  5
2C06
  8
SAPA_FOGBAND
 10
26.114236070984461
 20
122.0766733979393
 30
0.0
 42
-0.0324410416313699
  0
VERTEX
  5
2C07
  8
SAPA_FOGBAND
 10
24.961487758061761
 20
121.1740363777179
 30
0.0
 42
0.2477256978079298
  0
VERTEX
  5
2C08
  8
SAPA_FOGBAND
 10
24.700000000000951
 20
120.6786481844216
 30
0.0
  0
VERTEX
  5
2C09
  8
SAPA_FOGBAND
 10
24.700000000000951
 20
113.0999999963275
 30
0.0
 42
0.4142135623730951
  0
VERTEX
  5
2C0A
  8
SAPA_FOGBAND
 10
25.300000000000971
 20
112.4999999963273
 30
0.0
  0
VERTEX
  5
2C0B
  8
SAPA_FOGBAND
 10
31.40000000000088
 20
112.4999999963273
 30
0.0
 42
0.4142135623730951
  0
VERTEX
  5
2C0C
  8
SAPA_FOGBAND
 10
32.000000000000959
 20
113.0999999963275
 30
0.0
  0
VERTEX
  5
2C0D
  8
SAPA_FOGBAND
 10
32.000000000000959
 20
120.703190019491
 30
0.0
 42
0.3603575240022065
  0
VERTEX
  5
2C0E
  8
SAPA_FOGBAND
 10
31.511728871064172
 20
121.2926954557434
 30
0.0
  0
SEQEND
  5
2C0F
  8
SAPA_FOGBAND
  0
ARC
  5
1E35
  8
SAPA_FOGBAND
 10
25.300000000000971
 20
102.32135181557339
 30
0.0
 40
0.6000000000000229
 50
180.0
 51
235.65414098094089
  0
ARC
  5
1E36
  8
SAPA_FOGBAND
 10
26.51398527386737
 20
101.3707643907981
 30
0.0
 40
0.6000000000000061
 50
228.2218084903848
 51
280.7319652549549
  0
ARC
  5
1E37
  8
SAPA_FOGBAND
 10
25.300000000000971
 20
113.0999999963275
 30
0.0
 40
0.6000000000000001
 50
180.0
 51
270.0
  0
ARC
  5
1E38
  8
SAPA_FOGBAND
 10
25.300000000000971
 20
109.8999999963274
 30
0.0
 40
0.6000000000000001
 50
90.0
 51
180.0
  0
ARC
  5
1E39
  8
SAPA_FOGBAND
 10
31.40000000000088
 20
102.29680998050389
 30
0.0
 40
0.6000000000000001
 50
280.7319652549549
 51
0.0
  0
ARC
  5
1E3A
  8
SAPA_FOGBAND
 10
31.40000000000088
 20
109.8999999963274
 30
0.0
 40
0.6000000000000001
 50
0.0
 51
90.0
  0
ARC
  5
1E3B
  8
SAPA_FOGBAND
 10
31.40000000000088
 20
113.0999999963275
 30
0.0
 40
0.6000000000000001
 50
270.0
 51
0.0
  0
LINE
  5
1E3C
  8
SAPA_FOGBAND
 10
24.700000000000951
 20
113.0999999963275
 30
0.0
 11
24.700000000000951
 21
120.6786481844216
 31
0.0
  0
LINE
  5
1E3D
  8
SAPA_FOGBAND
 10
32.000000000000959
 20
113.0999999963275
 30
0.0
 11
32.000000000000959
 21
120.703190019491
 31
0.0
  0
LINE
  5
1E3E
  8
SAPA_FOGBAND
 10
31.40000000000088
 20
112.4999999963273
 30
0.0
 11
25.300000000000971
 21
112.4999999963273
 31
0.0
  0
LINE
  5
1E3F
  8
SAPA_FOGBAND
 10
31.40000000000088
 20
110.4999999963276
 30
0.0
 11
25.300000000000971
 21
110.4999999963276
 31
0.0
  0
ARC
  5
1E40
  8
SAPA_FOGBAND
 10
18.58920197206913
 20
92.500584059615676
 30
0.0
 40
11.294632801736849
 50
48.221808490384809
 51
55.654140980940859
  0
LINE
  5
1E41
  8
SAPA_FOGBAND
 10
24.700000000000951
 20
102.32135181557339
 30
0.0
 11
24.700000000000951
 21
109.8999999963274
 31
0.0
  0
LINE
  5
1E42
  8
SAPA_FOGBAND
 10
26.625714144930669
 20
100.7812589545459
 30
0.0
 11
31.511728871064172
 21
101.7073045442517
 31
0.0
  0
LINE
  5
1E43
  8
SAPA_FOGBAND
 10
32.000000000000959
 20
102.29680998050389
 30
0.0
 11
32.000000000000959
 21
109.8999999963274
 31
0.0
  0
LINE
  5
1E44
  8
SAPA_FOGBAND
 10
32.000000000000568
 20
78.64999999999975
 30
0.0
 11
32.000000000000398
 21
78.640979451861426
 31
0.0
  0
LINE
  5
1E45
  8
SAPA_FOGBAND
 10
24.827817149031208
 20
80.449999999999477
 30
0.0
 11
24.827817149030011
 21
79.949999999999136
 31
0.0
  0
POLYLINE
  5
1E46
  8
SAPA_FOGBAND
 66
     1
 10
0.0
 20
0.0
 30
0.0
 70
     1
  0
VERTEX
  5
2C10
  8
SAPA_FOGBAND
 10
34.937046319300578
 20
93.186008851774545
 30
0.0
  0
VERTEX
  5
2C11
  8
SAPA_FOGBAND
 10
34.799999874100592
 20
93.301004837974801
 30
0.0
  0
VERTEX
  5
2C12
  8
SAPA_FOGBAND
 10
34.939274096945333
 20
93.417870157501284
 30
0.0
 42
0.2216942531867427
  0
VERTEX
  5
2C13
  8
SAPA_FOGBAND
 10
35.000000000000398
 20
93.548097542243895
 30
0.0
  0
VERTEX
  5
2C14
  8
SAPA_FOGBAND
 10
35.000000000000568
 20
93.553913147005574
 30
0.0
 42
0.2216942531866174
  0
VERTEX
  5
2C15
  8
SAPA_FOGBAND
 10
34.939274096945333
 20
93.684140531748199
 30
0.0
  0
VERTEX
  5
2C16
  8
SAPA_FOGBAND
 10
34.799999874100592
 20
93.801005851274681
 30
0.0
  0
VERTEX
  5
2C17
  8
SAPA_FOGBAND
 10
34.939274096945333
 20
93.917871170801163
 30
0.0
 42
0.2216942531867427
  0
VERTEX
  5
2C18
  8
SAPA_FOGBAND
 10
35.000000000000398
 20
94.048098555543788
 30
0.0
  0
VERTEX
  5
2C19
  8
SAPA_FOGBAND
 10
35.000000000000568
 20
94.053914160305439
 30
0.0
 42
0.2216942531866174
  0
VERTEX
  5
2C1A
  8
SAPA_FOGBAND
 10
34.939274096945333
 20
94.184141545048064
 30
0.0
  0
VERTEX
  5
2C1B
  8
SAPA_FOGBAND
 10
34.799999874100592
 20
94.301006864574546
 30
0.0
  0
VERTEX
  5
2C1C
  8
SAPA_FOGBAND
 10
34.939274096945333
 20
94.417872184101029
 30
0.0
 42
0.2216942531867427
  0
VERTEX
  5
2C1D
  8
SAPA_FOGBAND
 10
35.000000000000398
 20
94.548099568843654
 30
0.0
  0
VERTEX
  5
2C1E
  8
SAPA_FOGBAND
 10
35.000000000000568
 20
94.553915173605333
 30
0.0
 42
0.2216942531866174
  0
VERTEX
  5
2C1F
  8
SAPA_FOGBAND
 10
34.939274096945333
 20
94.684142558347958
 30
0.0
  0
VERTEX
  5
2C20
  8
SAPA_FOGBAND
 10
34.799999874100592
 20
94.80100787787444
 30
0.0
  0
VERTEX
  5
2C21
  8
SAPA_FOGBAND
 10
34.939274096945333
 20
94.917873197400922
 30
0.0
 42
0.2216942531867427
  0
VERTEX
  5
2C22
  8
SAPA_FOGBAND
 10
35.000000000000398
 20
95.048100582143547
 30
0.0
  0
VERTEX
  5
2C23
  8
SAPA_FOGBAND
 10
35.000000000000568
 20
95.053916186905226
 30
0.0
 42
0.2216942531866174
  0
VERTEX
  5
2C24
  8
SAPA_FOGBAND
 10
34.939274096945333
 20
95.184143571647837
 30
0.0
  0
VERTEX
  5
2C25
  8
SAPA_FOGBAND
 10
34.799999874100592
 20
95.301008891174334
 30
0.0
  0
VERTEX
  5
2C26
  8
SAPA_FOGBAND
 10
34.939274096945333
 20
95.417874210700816
 30
0.0
 42
0.2216942531867427
  0
VERTEX
  5
2C27
  8
SAPA_FOGBAND
 10
35.000000000000398
 20
95.548101595443427
 30
0.0
  0
VERTEX
  5
2C28
  8
SAPA_FOGBAND
 10
35.000000000000568
 20
95.553917200205092
 30
0.0
 42
0.2216942531866174
  0
VERTEX
  5
2C29
  8
SAPA_FOGBAND
 10
34.939274096945333
 20
95.684144584947717
 30
0.0
  0
VERTEX
  5
2C2A
  8
SAPA_FOGBAND
 10
34.799999874100592
 20
95.801009904474185
 30
0.0
  0
VERTEX
  5
2C2B
  8
SAPA_FOGBAND
 10
34.939274096945333
 20
95.917875224000682
 30
0.0
 42
0.2216942531867427
  0
VERTEX
  5
2C2C
  8
SAPA_FOGBAND
 10
35.000000000000398
 20
96.048102608743307
 30
0.0
  0
VERTEX
  5
2C2D
  8
SAPA_FOGBAND
 10
35.000000000000568
 20
96.053918213504971
 30
0.0
 42
0.2216942531866174
  0
VERTEX
  5
2C2E
  8
SAPA_FOGBAND
 10
34.939274096945333
 20
96.184145598247596
 30
0.0
  0
VERTEX
  5
2C2F
  8
SAPA_FOGBAND
 10
34.800003203908659
 20
96.3010081237245
 30
0.0
  0
VERTEX
  5
2C30
  8
SAPA_FOGBAND
 10
34.939274096945333
 20
96.417870649201404
 30
0.0
 42
0.2216942531867427
  0
VERTEX
  5
2C31
  8
SAPA_FOGBAND
 10
35.000000000000398
 20
96.548098033944029
 30
0.0
  0
VERTEX
  5
2C32
  8
SAPA_FOGBAND
 10
35.000000000000568
 20
96.553913638705694
 30
0.0
 42
0.2216942531866174
  0
VERTEX
  5
2C33
  8
SAPA_FOGBAND
 10
34.939274096945333
 20
96.684141023448333
 30
0.0
  0
VERTEX
  5
2C34
  8
SAPA_FOGBAND
 10
34.799999874100592
 20
96.801006342974816
 30
0.0
  0
VERTEX
  5
2C35
  8
SAPA_FOGBAND
 10
34.939274096945333
 20
96.917871662501284
 30
0.0
 42
0.2216942531867427
  0
VERTEX
  5
2C36
  8
SAPA_FOGBAND
 10
35.000000000000398
 20
97.048099047243923
 30
0.0
  0
VERTEX
  5
2C37
  8
SAPA_FOGBAND
 10
35.000000000000568
 20
97.053914652005574
 30
0.0
 42
0.2216942531866174
  0
VERTEX
  5
2C38
  8
SAPA_FOGBAND
 10
34.939274096945333
 20
97.184142036748199
 30
0.0
  0
VERTEX
  5
2C39
  8
SAPA_FOGBAND
 10
34.799999874100592
 20
97.301007356274681
 30
0.0
  0
VERTEX
  5
2C3A
  8
SAPA_FOGBAND
 10
34.939274096945333
 20
97.417872675801163
 30
0.0
 42
0.2216942531867427
  0
VERTEX
  5
2C3B
  8
SAPA_FOGBAND
 10
35.000000000000398
 20
97.548100060543788
 30
0.0
  0
VERTEX
  5
2C3C
  8
SAPA_FOGBAND
 10
35.000000000000568
 20
97.553915665305453
 30
0.0
 42
0.2216942531866174
  0
VERTEX
  5
2C3D
  8
SAPA_FOGBAND
 10
34.939274096945333
 20
97.684143050048078
 30
0.0
  0
VERTEX
  5
2C3E
  8
SAPA_FOGBAND
 10
34.799999874100592
 20
97.801008369574575
 30
0.0
  0
VERTEX
  5
2C3F
  8
SAPA_FOGBAND
 10
34.939274096945333
 20
97.917873689101043
 30
0.0
 42
0.2216942531867427
  0
VERTEX
  5
2C40
  8
SAPA_FOGBAND
 10
35.000000000000398
 20
98.048101073843668
 30
0.0
  0
VERTEX
  5
2C41
  8
SAPA_FOGBAND
 10
35.000000000000568
 20
98.053916678605333
 30
0.0
 42
0.2216942531866174
  0
VERTEX
  5
2C42
  8
SAPA_FOGBAND
 10
34.939274096945333
 20
98.184144063347944
 30
0.0
  0
VERTEX
  5
2C43
  8
SAPA_FOGBAND
 10
34.799999874100592
 20
98.30100938287444
 30
0.0
  0
VERTEX
  5
2C44
  8
SAPA_FOGBAND
 10
34.939274096945333
 20
98.417874702400923
 30
0.0
 42
0.2216942531867427
  0
VERTEX
  5
2C45
  8
SAPA_FOGBAND
 10
35.000000000000398
 20
98.548102087143533
 30
0.0
  0
VERTEX
  5
2C46
  8
SAPA_FOGBAND
 10
35.000000000000568
 20
98.553917691905212
 30
0.0
 42
0.2216942531866174
  0
VERTEX
  5
2C47
  8
SAPA_FOGBAND
 10
34.939274096945333
 20
98.684145076647837
 30
0.0
  0
VERTEX
  5
2C48
  8
SAPA_FOGBAND
 10
34.799999874100592
 20
98.80101039617432
 30
0.0
  0
VERTEX
  5
2C49
  8
SAPA_FOGBAND
 10
34.939274096945333
 20
98.917875715700802
 30
0.0
 42
0.2216942531867427
  0
VERTEX
  5
2C4A
  8
SAPA_FOGBAND
 10
35.000000000000398
 20
99.048103100443427
 30
0.0
  0
VERTEX
  5
2C4B
  8
SAPA_FOGBAND
 10
35.000000000000568
 20
99.053918705205106
 30
0.0
 42
0.2216942531866174
  0
VERTEX
  5
2C4C
  8
SAPA_FOGBAND
 10
34.939274096945333
 20
99.184146089947731
 30
0.0
  0
VERTEX
  5
2C4D
  8
SAPA_FOGBAND
 10
34.799999874100592
 20
99.301011409474214
 30
0.0
  0
VERTEX
  5
2C4E
  8
SAPA_FOGBAND
 10
34.939274096945333
 20
99.417876729000696
 30
0.0
 42
0.2216942531867427
  0
VERTEX
  5
2C4F
  8
SAPA_FOGBAND
 10
35.000000000000391
 20
99.548104113743321
 30
0.0
  0
VERTEX
  5
2C50
  8
SAPA_FOGBAND
 10
35.000000000000561
 20
99.553919718504972
 30
0.0
 42
0.2216942531866174
  0
VERTEX
  5
2C51
  8
SAPA_FOGBAND
 10
34.939274096945319
 20
99.684147103247597
 30
0.0
  0
VERTEX
  5
2C52
  8
SAPA_FOGBAND
 10
34.799999874100592
 20
99.801012422774079
 30
0.0
  0
VERTEX
  5
2C53
  8
SAPA_FOGBAND
 10
34.939274096945319
 20
99.917877742300561
 30
0.0
 42
0.2216942531867427
  0
VERTEX
  5
2C54
  8
SAPA_FOGBAND
 10
35.000000000000391
 20
100.0481051270432
 30
0.0
  0
VERTEX
  5
2C55
  8
SAPA_FOGBAND
 10
35.000000000000561
 20
100.05392073180479
 30
0.0
 42
0.2216942531866174
  0
VERTEX
  5
2C56
  8
SAPA_FOGBAND
 10
34.939274096945319
 20
100.1841481165475
 30
0.0
  0
VERTEX
  5
2C57
  8
SAPA_FOGBAND
 10
34.799999874100592
 20
100.3010134360739
 30
0.0
  0
VERTEX
  5
2C58
  8
SAPA_FOGBAND
 10
34.939274096945319
 20
100.4178787556004
 30
0.0
 42
0.2216942531867427
  0
VERTEX
  5
2C59
  8
SAPA_FOGBAND
 10
35.000000000000391
 20
100.54810614034299
 30
0.0
  0
VERTEX
  5
2C5A
  8
SAPA_FOGBAND
 10
35.000000000000561
 20
100.5539217451047
 30
0.0
 42
0.2216942531866174
  0
VERTEX
  5
2C5B
  8
SAPA_FOGBAND
 10
34.939274096945319
 20
100.6841491298473
 30
0.0
  0
VERTEX
  5
2C5C
  8
SAPA_FOGBAND
 10
34.799999874100592
 20
100.8010144493738
 30
0.0
  0
VERTEX
  5
2C5D
  8
SAPA_FOGBAND
 10
34.939274096945319
 20
100.91787976890031
 30
0.0
 42
0.2216942531867427
  0
VERTEX
  5
2C5E
  8
SAPA_FOGBAND
 10
35.000000000000391
 20
101.0481071536429
 30
0.0
  0
VERTEX
  5
2C5F
  8
SAPA_FOGBAND
 10
35.000000000000561
 20
101.0539227584046
 30
0.0
 42
0.2216942531866174
  0
VERTEX
  5
2C60
  8
SAPA_FOGBAND
 10
34.939274096945319
 20
101.18415014314721
 30
0.0
  0
VERTEX
  5
2C61
  8
SAPA_FOGBAND
 10
34.799999874100592
 20
101.3010154626737
 30
0.0
  0
VERTEX
  5
2C62
  8
SAPA_FOGBAND
 10
34.939274096945319
 20
101.4178807822002
 30
0.0
 42
0.2216942531867427
  0
VERTEX
  5
2C63
  8
SAPA_FOGBAND
 10
35.000000000000391
 20
101.5481081669428
 30
0.0
  0
VERTEX
  5
2C64
  8
SAPA_FOGBAND
 10
35.000000000000561
 20
101.5539237717045
 30
0.0
 42
0.2216942531866174
  0
VERTEX
  5
2C65
  8
SAPA_FOGBAND
 10
34.939274096945319
 20
101.6841511564471
 30
0.0
  0
VERTEX
  5
2C66
  8
SAPA_FOGBAND
 10
34.799999874100592
 20
101.8010164759736
 30
0.0
  0
VERTEX
  5
2C67
  8
SAPA_FOGBAND
 10
34.939274096945319
 20
101.91788179549999
 30
0.0
 42
0.2216942531867427
  0
VERTEX
  5
2C68
  8
SAPA_FOGBAND
 10
35.000000000000391
 20
102.0481091802427
 30
0.0
  0
VERTEX
  5
2C69
  8
SAPA_FOGBAND
 10
35.000000000000561
 20
102.0539247850043
 30
0.0
 42
0.2216942531866174
  0
VERTEX
  5
2C6A
  8
SAPA_FOGBAND
 10
34.939274096945319
 20
102.18415216974699
 30
0.0
  0
VERTEX
  5
2C6B
  8
SAPA_FOGBAND
 10
34.799999874100592
 20
102.30101748927341
 30
0.0
  0
VERTEX
  5
2C6C
  8
SAPA_FOGBAND
 10
34.939274096945319
 20
102.4178828087999
 30
0.0
 42
0.2216942531867427
  0
VERTEX
  5
2C6D
  8
SAPA_FOGBAND
 10
35.000000000000391
 20
102.5481101935426
 30
0.0
  0
VERTEX
  5
2C6E
  8
SAPA_FOGBAND
 10
35.000000000000561
 20
102.55392579830421
 30
0.0
 42
0.2216942531866174
  0
VERTEX
  5
2C6F
  8
SAPA_FOGBAND
 10
34.939274096945319
 20
102.6841531830468
 30
0.0
  0
VERTEX
  5
2C70
  8
SAPA_FOGBAND
 10
34.799999874100592
 20
102.8010185025733
 30
0.0
  0
VERTEX
  5
2C71
  8
SAPA_FOGBAND
 10
34.939274096945319
 20
102.9178838220998
 30
0.0
 42
0.2216942531867427
  0
VERTEX
  5
2C72
  8
SAPA_FOGBAND
 10
35.000000000000391
 20
103.04811120684241
 30
0.0
  0
VERTEX
  5
2C73
  8
SAPA_FOGBAND
 10
35.000000000000561
 20
103.0539268116041
 30
0.0
 42
0.2216942531866174
  0
VERTEX
  5
2C74
  8
SAPA_FOGBAND
 10
34.939274096945319
 20
103.1841541963467
 30
0.0
  0
VERTEX
  5
2C75
  8
SAPA_FOGBAND
 10
34.799999874100592
 20
103.30101951587319
 30
0.0
  0
VERTEX
  5
2C76
  8
SAPA_FOGBAND
 10
34.939274096945319
 20
103.4178848353997
 30
0.0
 42
0.2216942531867427
  0
VERTEX
  5
2C77
  8
SAPA_FOGBAND
 10
35.000000000000391
 20
103.5481122201423
 30
0.0
  0
VERTEX
  5
2C78
  8
SAPA_FOGBAND
 10
35.000000000000561
 20
103.55392782490399
 30
0.0
 42
0.2216942531866174
  0
VERTEX
  5
2C79
  8
SAPA_FOGBAND
 10
34.939274096945319
 20
103.6841552096466
 30
0.0
  0
VERTEX
  5
2C7A
  8
SAPA_FOGBAND
 10
34.799999874100592
 20
103.8010205291731
 30
0.0
  0
VERTEX
  5
2C7B
  8
SAPA_FOGBAND
 10
34.939274096945319
 20
103.9178858486996
 30
0.0
 42
0.2216942531867427
  0
VERTEX
  5
2C7C
  8
SAPA_FOGBAND
 10
35.000000000000391
 20
104.04811323344219
 30
0.0
  0
VERTEX
  5
2C7D
  8
SAPA_FOGBAND
 10
35.000000000000561
 20
104.0539288382039
 30
0.0
 42
0.2216942531866174
  0
VERTEX
  5
2C7E
  8
SAPA_FOGBAND
 10
34.939274096945319
 20
104.1841562229465
 30
0.0
  0
VERTEX
  5
2C7F
  8
SAPA_FOGBAND
 10
34.799999874100592
 20
104.30102154247299
 30
0.0
  0
VERTEX
  5
2C80
  8
SAPA_FOGBAND
 10
34.939274096945319
 20
104.41788686199951
 30
0.0
 42
0.2216942531867427
  0
VERTEX
  5
2C81
  8
SAPA_FOGBAND
 10
35.000000000000391
 20
104.5481142467421
 30
0.0
  0
VERTEX
  5
2C82
  8
SAPA_FOGBAND
 10
35.000000000000561
 20
104.5539298515038
 30
0.0
 42
0.2216942531866174
  0
VERTEX
  5
2C83
  8
SAPA_FOGBAND
 10
34.939274096945319
 20
104.68415723624641
 30
0.0
  0
VERTEX
  5
2C84
  8
SAPA_FOGBAND
 10
34.799999874100592
 20
104.8010225557729
 30
0.0
  0
VERTEX
  5
2C85
  8
SAPA_FOGBAND
 10
34.939274096945319
 20
104.9178878752993
 30
0.0
 42
0.2216942531867427
  0
VERTEX
  5
2C86
  8
SAPA_FOGBAND
 10
35.000000000000391
 20
105.048115260042
 30
0.0
  0
VERTEX
  5
2C87
  8
SAPA_FOGBAND
 10
35.000000000000561
 20
105.0539308648036
 30
0.0
 42
0.2216942531866174
  0
VERTEX
  5
2C88
  8
SAPA_FOGBAND
 10
34.939274096945319
 20
105.1841582495463
 30
0.0
  0
VERTEX
  5
2C89
  8
SAPA_FOGBAND
 10
34.799999874100592
 20
105.3010235690727
 30
0.0
  0
VERTEX
  5
2C8A
  8
SAPA_FOGBAND
 10
34.939274096945319
 20
105.41788888859919
 30
0.0
 42
0.2216942531867427
  0
VERTEX
  5
2C8B
  8
SAPA_FOGBAND
 10
35.000000000000391
 20
105.5481162733418
 30
0.0
  0
VERTEX
  5
2C8C
  8
SAPA_FOGBAND
 10
35.000000000000561
 20
105.5539318781035
 30
0.0
 42
0.2216942531866174
  0
VERTEX
  5
2C8D
  8
SAPA_FOGBAND
 10
34.939274096945319
 20
105.68415926284609
 30
0.0
  0
VERTEX
  5
2C8E
  8
SAPA_FOGBAND
 10
34.799999874100592
 20
105.80102458237261
 30
0.0
  0
VERTEX
  5
2C8F
  8
SAPA_FOGBAND
 10
34.939274096945319
 20
105.9178899018991
 30
0.0
 42
0.2216942531867427
  0
VERTEX
  5
2C90
  8
SAPA_FOGBAND
 10
35.000000000000391
 20
106.0481172866417
 30
0.0
  0
VERTEX
  5
2C91
  8
SAPA_FOGBAND
 10
35.000000000000561
 20
106.05393289140341
 30
0.0
 42
0.2216942531866174
  0
VERTEX
  5
2C92
  8
SAPA_FOGBAND
 10
34.939274096945319
 20
106.184160276146
 30
0.0
  0
VERTEX
  5
2C93
  8
SAPA_FOGBAND
 10
34.799999874100592
 20
106.3010255956725
 30
0.0
  0
VERTEX
  5
2C94
  8
SAPA_FOGBAND
 10
34.939274096945319
 20
106.417890915199
 30
0.0
 42
0.2216942531867427
  0
VERTEX
  5
2C95
  8
SAPA_FOGBAND
 10
35.000000000000391
 20
106.54811829994161
 30
0.0
  0
VERTEX
  5
2C96
  8
SAPA_FOGBAND
 10
35.000000000000561
 20
106.5539339047033
 30
0.0
 42
0.2216942531866174
  0
VERTEX
  5
2C97
  8
SAPA_FOGBAND
 10
34.939274096945319
 20
106.6841612894459
 30
0.0
  0
VERTEX
  5
2C98
  8
SAPA_FOGBAND
 10
34.799999874100592
 20
106.80102660897241
 30
0.0
  0
VERTEX
  5
2C99
  8
SAPA_FOGBAND
 10
34.939274096945319
 20
106.9178919284988
 30
0.0
 42
0.2216942531867427
  0
VERTEX
  5
2C9A
  8
SAPA_FOGBAND
 10
35.000000000000391
 20
107.0481193132415
 30
0.0
  0
VERTEX
  5
2C9B
  8
SAPA_FOGBAND
 10
35.000000000000561
 20
107.05393491800309
 30
0.0
 42
0.2216942531866174
  0
VERTEX
  5
2C9C
  8
SAPA_FOGBAND
 10
34.939274096945319
 20
107.1841623027458
 30
0.0
  0
VERTEX
  5
2C9D
  8
SAPA_FOGBAND
 10
34.799999874100592
 20
107.3010276222722
 30
0.0
  0
VERTEX
  5
2C9E
  8
SAPA_FOGBAND
 10
34.939274096945319
 20
107.4178929417987
 30
0.0
 42
0.2216942531867427
  0
VERTEX
  5
2C9F
  8
SAPA_FOGBAND
 10
35.000000000000391
 20
107.54812032654129
 30
0.0
  0
VERTEX
  5
2CA0
  8
SAPA_FOGBAND
 10
35.000000000000561
 20
107.553935931303
 30
0.0
 42
0.2216942531866174
  0
VERTEX
  5
2CA1
  8
SAPA_FOGBAND
 10
34.939274096945319
 20
107.6841633160456
 30
0.0
  0
VERTEX
  5
2CA2
  8
SAPA_FOGBAND
 10
34.799999874100592
 20
107.8010286355721
 30
0.0
  0
VERTEX
  5
2CA3
  8
SAPA_FOGBAND
 10
34.939274096945319
 20
107.91789395509861
 30
0.0
 42
0.2216942531867427
  0
VERTEX
  5
2CA4
  8
SAPA_FOGBAND
 10
35.000000000000391
 20
108.0481213398412
 30
0.0
  0
VERTEX
  5
2CA5
  8
SAPA_FOGBAND
 10
35.000000000000561
 20
108.0539369446029
 30
0.0
 42
0.2216942531866174
  0
VERTEX
  5
2CA6
  8
SAPA_FOGBAND
 10
34.939274096945319
 20
108.18416432934551
 30
0.0
  0
VERTEX
  5
2CA7
  8
SAPA_FOGBAND
 10
34.799999874100592
 20
108.301029648872
 30
0.0
  0
VERTEX
  5
2CA8
  8
SAPA_FOGBAND
 10
34.939274096945319
 20
108.4178949683985
 30
0.0
 42
0.2216942531867427
  0
VERTEX
  5
2CA9
  8
SAPA_FOGBAND
 10
35.000000000000391
 20
108.5481223531411
 30
0.0
  0
VERTEX
  5
2CAA
  8
SAPA_FOGBAND
 10
35.000000000000561
 20
108.5539379579028
 30
0.0
 42
0.2216942531866174
  0
VERTEX
  5
2CAB
  8
SAPA_FOGBAND
 10
34.939274096945319
 20
108.6841653426454
 30
0.0
  0
VERTEX
  5
2CAC
  8
SAPA_FOGBAND
 10
34.799999874100592
 20
108.8010306621719
 30
0.0
  0
VERTEX
  5
2CAD
  8
SAPA_FOGBAND
 10
34.939274096945319
 20
108.91789598169839
 30
0.0
 42
0.2216942531867427
  0
VERTEX
  5
2CAE
  8
SAPA_FOGBAND
 10
35.000000000000391
 20
109.048123366441
 30
0.0
  0
VERTEX
  5
2CAF
  8
SAPA_FOGBAND
 10
35.000000000000561
 20
109.0539389712027
 30
0.0
 42
0.2216942531866174
  0
VERTEX
  5
2CB0
  8
SAPA_FOGBAND
 10
34.939274096945319
 20
109.18416635594529
 30
0.0
  0
VERTEX
  5
2CB1
  8
SAPA_FOGBAND
 10
34.799999874100592
 20
109.3010316754718
 30
0.0
  0
VERTEX
  5
2CB2
  8
SAPA_FOGBAND
 10
34.939274096945319
 20
109.4178969949982
 30
0.0
 42
0.2216942531867427
  0
VERTEX
  5
2CB3
  8
SAPA_FOGBAND
 10
35.000000000000391
 20
109.5481243797409
 30
0.0
  0
VERTEX
  5
2CB4
  8
SAPA_FOGBAND
 10
35.000000000000561
 20
109.55393998450251
 30
0.0
 42
0.2216942531866174
  0
VERTEX
  5
2CB5
  8
SAPA_FOGBAND
 10
34.939274096945319
 20
109.6841673692452
 30
0.0
  0
VERTEX
  5
2CB6
  8
SAPA_FOGBAND
 10
34.799999874100592
 20
109.8010326887717
 30
0.0
  0
VERTEX
  5
2CB7
  8
SAPA_FOGBAND
 10
34.939274096945319
 20
109.9178980082981
 30
0.0
 42
0.2216942531867427
  0
VERTEX
  5
2CB8
  8
SAPA_FOGBAND
 10
35.000000000000391
 20
110.04812539304081
 30
0.0
  0
VERTEX
  5
2CB9
  8
SAPA_FOGBAND
 10
35.000000000000561
 20
110.0539409978024
 30
0.0
 42
0.2216942531866174
  0
VERTEX
  5
2CBA
  8
SAPA_FOGBAND
 10
34.939274096945319
 20
110.1841683825451
 30
0.0
  0
VERTEX
  5
2CBB
  8
SAPA_FOGBAND
 10
34.799999874100592
 20
110.30103370207151
 30
0.0
  0
VERTEX
  5
2CBC
  8
SAPA_FOGBAND
 10
34.939274096945319
 20
110.417899021598
 30
0.0
 42
0.2216942531867427
  0
VERTEX
  5
2CBD
  8
SAPA_FOGBAND
 10
35.000000000000391
 20
110.5481264063406
 30
0.0
  0
VERTEX
  5
2CBE
  8
SAPA_FOGBAND
 10
35.000000000000561
 20
110.55394201110229
 30
0.0
 42
0.2216942531866174
  0
VERTEX
  5
2CBF
  8
SAPA_FOGBAND
 10
34.939274096945319
 20
110.6841693958449
 30
0.0
  0
VERTEX
  5
2CC0
  8
SAPA_FOGBAND
 10
34.799999874100592
 20
110.8010347153714
 30
0.0
  0
VERTEX
  5
2CC1
  8
SAPA_FOGBAND
 10
34.939274096945319
 20
110.9179000348979
 30
0.0
 42
0.2216942531867427
  0
VERTEX
  5
2CC2
  8
SAPA_FOGBAND
 10
35.000000000000391
 20
111.04812741964049
 30
0.0
  0
VERTEX
  5
2CC3
  8
SAPA_FOGBAND
 10
35.000000000000512
 20
111.0539430244022
 30
0.0
 42
0.2268538695033543
  0
VERTEX
  5
2CC4
  8
SAPA_FOGBAND
 10
34.936694190346543
 20
111.1862923717614
 30
0.0
  0
VERTEX
  5
2CC5
  8
SAPA_FOGBAND
 10
34.562831655645589
 20
111.5000000110107
 30
0.0
  0
VERTEX
  5
2CC6
  8
SAPA_FOGBAND
 10
34.936694190409121
 20
111.8137076281559
 30
0.0
 42
0.2268538695033853
  0
VERTEX
  5
2CC7
  8
SAPA_FOGBAND
 10
35.000000000000561
 20
111.9460569755928
 30
0.0
  0
VERTEX
  5
2CC8
  8
SAPA_FOGBAND
 10
35.000000000000391
 20
111.9518725803544
 30
0.0
 42
0.2216942531867426
  0
VERTEX
  5
2CC9
  8
SAPA_FOGBAND
 10
34.939274096945319
 20
112.0820999650971
 30
0.0
  0
VERTEX
  5
2CCA
  8
SAPA_FOGBAND
 10
34.799999874100592
 20
112.1989652846235
 30
0.0
  0
VERTEX
  5
2CCB
  8
SAPA_FOGBAND
 10
34.939274096945319
 20
112.31583060414999
 30
0.0
 42
0.2216942531866175
  0
VERTEX
  5
2CCC
  8
SAPA_FOGBAND
 10
35.000000000000561
 20
112.4460579888927
 30
0.0
  0
VERTEX
  5
2CCD
  8
SAPA_FOGBAND
 10
35.000000000000391
 20
112.4518735936543
 30
0.0
 42
0.2216942531867426
  0
VERTEX
  5
2CCE
  8
SAPA_FOGBAND
 10
34.939274096945319
 20
112.58210097839689
 30
0.0
  0
VERTEX
  5
2CCF
  8
SAPA_FOGBAND
 10
34.799999874100592
 20
112.69896629792341
 30
0.0
  0
VERTEX
  5
2CD0
  8
SAPA_FOGBAND
 10
34.939274096945319
 20
112.8158316174499
 30
0.0
 42
0.2216942531866175
  0
VERTEX
  5
2CD1
  8
SAPA_FOGBAND
 10
35.000000000000561
 20
112.9460590021925
 30
0.0
  0
VERTEX
  5
2CD2
  8
SAPA_FOGBAND
 10
35.000000000000391
 20
112.95187460695421
 30
0.0
 42
0.2216942531867426
  0
VERTEX
  5
2CD3
  8
SAPA_FOGBAND
 10
34.939274096945319
 20
113.0821019916968
 30
0.0
  0
VERTEX
  5
2CD4
  8
SAPA_FOGBAND
 10
34.799999874100592
 20
113.1989673112233
 30
0.0
  0
VERTEX
  5
2CD5
  8
SAPA_FOGBAND
 10
34.939274096945319
 20
113.3158326307498
 30
0.0
 42
0.2216942531866175
  0
VERTEX
  5
2CD6
  8
SAPA_FOGBAND
 10
35.000000000000561
 20
113.44606001549241
 30
0.0
  0
VERTEX
  5
2CD7
  8
SAPA_FOGBAND
 10
35.000000000000391
 20
113.4518756202541
 30
0.0
 42
0.2216942531867426
  0
VERTEX
  5
2CD8
  8
SAPA_FOGBAND
 10
34.939274096945319
 20
113.5821030049967
 30
0.0
  0
VERTEX
  5
2CD9
  8
SAPA_FOGBAND
 10
34.799999874100592
 20
113.69896832452319
 30
0.0
  0
VERTEX
  5
2CDA
  8
SAPA_FOGBAND
 10
34.939274096945319
 20
113.8158336440497
 30
0.0
 42
0.2216942531866175
  0
VERTEX
  5
2CDB
  8
SAPA_FOGBAND
 10
35.000000000000561
 20
113.9460610287923
 30
0.0
  0
VERTEX
  5
2CDC
  8
SAPA_FOGBAND
 10
35.000000000000391
 20
113.95187663355389
 30
0.0
 42
0.2216942531867426
  0
VERTEX
  5
2CDD
  8
SAPA_FOGBAND
 10
34.939274096945319
 20
114.0821040182966
 30
0.0
  0
VERTEX
  5
2CDE
  8
SAPA_FOGBAND
 10
34.799999874100592
 20
114.1989693378231
 30
0.0
  0
VERTEX
  5
2CDF
  8
SAPA_FOGBAND
 10
34.939274096945319
 20
114.3158346573496
 30
0.0
 42
0.2216942531866175
  0
VERTEX
  5
2CE0
  8
SAPA_FOGBAND
 10
35.000000000000561
 20
114.44606204209219
 30
0.0
  0
VERTEX
  5
2CE1
  8
SAPA_FOGBAND
 10
35.000000000000391
 20
114.4518776468538
 30
0.0
 42
0.2216942531867426
  0
VERTEX
  5
2CE2
  8
SAPA_FOGBAND
 10
34.939274096945319
 20
114.5821050315965
 30
0.0
  0
VERTEX
  5
2CE3
  8
SAPA_FOGBAND
 10
34.799999874100592
 20
114.6989703511229
 30
0.0
  0
VERTEX
  5
2CE4
  8
SAPA_FOGBAND
 10
34.939274096945319
 20
114.81583567064941
 30
0.0
 42
0.2216942531866175
  0
VERTEX
  5
2CE5
  8
SAPA_FOGBAND
 10
35.000000000000561
 20
114.9460630553921
 30
0.0
  0
VERTEX
  5
2CE6
  8
SAPA_FOGBAND
 10
35.000000000000391
 20
114.9518786601537
 30
0.0
 42
0.2216942531867426
  0
VERTEX
  5
2CE7
  8
SAPA_FOGBAND
 10
34.939274096945319
 20
115.08210604489631
 30
0.0
  0
VERTEX
  5
2CE8
  8
SAPA_FOGBAND
 10
34.799999874100592
 20
115.1989713644228
 30
0.0
  0
VERTEX
  5
2CE9
  8
SAPA_FOGBAND
 10
34.939274096945319
 20
115.3158366839493
 30
0.0
 42
0.2216942531866175
  0
VERTEX
  5
2CEA
  8
SAPA_FOGBAND
 10
35.000000000000561
 20
115.4460640686919
 30
0.0
  0
VERTEX
  5
2CEB
  8
SAPA_FOGBAND
 10
35.000000000000391
 20
115.4518796734536
 30
0.0
 42
0.2216942531867426
  0
VERTEX
  5
2CEC
  8
SAPA_FOGBAND
 10
34.939274096945319
 20
115.5821070581962
 30
0.0
  0
VERTEX
  5
2CED
  8
SAPA_FOGBAND
 10
34.799999874100592
 20
115.6989723777227
 30
0.0
  0
VERTEX
  5
2CEE
  8
SAPA_FOGBAND
 10
34.939274096945319
 20
115.81583769724919
 30
0.0
 42
0.2216942531866175
  0
VERTEX
  5
2CEF
  8
SAPA_FOGBAND
 10
35.000000000000561
 20
115.9460650819918
 30
0.0
  0
VERTEX
  5
2CF0
  8
SAPA_FOGBAND
 10
35.000000000000391
 20
115.9518806867535
 30
0.0
 42
0.2216942531867426
  0
VERTEX
  5
2CF1
  8
SAPA_FOGBAND
 10
34.939274096945319
 20
116.08210807149609
 30
0.0
  0
VERTEX
  5
2CF2
  8
SAPA_FOGBAND
 10
34.799999874100592
 20
116.19897339102261
 30
0.0
  0
VERTEX
  5
2CF3
  8
SAPA_FOGBAND
 10
34.939274096945319
 20
116.3158387105491
 30
0.0
 42
0.2216942531866175
  0
VERTEX
  5
2CF4
  8
SAPA_FOGBAND
 10
35.000000000000561
 20
116.4460660952917
 30
0.0
  0
VERTEX
  5
2CF5
  8
SAPA_FOGBAND
 10
35.000000000000391
 20
116.45188170005341
 30
0.0
 42
0.2216942531867426
  0
VERTEX
  5
2CF6
  8
SAPA_FOGBAND
 10
34.939274096945319
 20
116.582109084796
 30
0.0
  0
VERTEX
  5
2CF7
  8
SAPA_FOGBAND
 10
34.799999874100592
 20
116.6989744043225
 30
0.0
  0
VERTEX
  5
2CF8
  8
SAPA_FOGBAND
 10
34.939274096945319
 20
116.8158397238489
 30
0.0
 42
0.2216942531866175
  0
VERTEX
  5
2CF9
  8
SAPA_FOGBAND
 10
35.000000000000561
 20
116.94606710859161
 30
0.0
  0
VERTEX
  5
2CFA
  8
SAPA_FOGBAND
 10
35.000000000000391
 20
116.9518827133532
 30
0.0
 42
0.2216942531867426
  0
VERTEX
  5
2CFB
  8
SAPA_FOGBAND
 10
34.939274096945319
 20
117.0821100980959
 30
0.0
  0
VERTEX
  5
2CFC
  8
SAPA_FOGBAND
 10
34.799999874100592
 20
117.19897541762229
 30
0.0
  0
VERTEX
  5
2CFD
  8
SAPA_FOGBAND
 10
34.939274096945319
 20
117.3158407371488
 30
0.0
 42
0.2216942531866175
  0
VERTEX
  5
2CFE
  8
SAPA_FOGBAND
 10
35.000000000000561
 20
117.4460681218914
 30
0.0
  0
VERTEX
  5
2CFF
  8
SAPA_FOGBAND
 10
35.000000000000391
 20
117.45188372665309
 30
0.0
 42
0.2216942531867426
  0
VERTEX
  5
2D00
  8
SAPA_FOGBAND
 10
34.939274096945319
 20
117.5821111113957
 30
0.0
  0
VERTEX
  5
2D01
  8
SAPA_FOGBAND
 10
34.799999874100592
 20
117.6989764309222
 30
0.0
  0
VERTEX
  5
2D02
  8
SAPA_FOGBAND
 10
34.939274096945319
 20
117.8158417504487
 30
0.0
 42
0.2216942531866175
  0
VERTEX
  5
2D03
  8
SAPA_FOGBAND
 10
35.000000000000561
 20
117.94606913519129
 30
0.0
  0
VERTEX
  5
2D04
  8
SAPA_FOGBAND
 10
35.000000000000391
 20
117.951884739953
 30
0.0
 42
0.2216942531867426
  0
VERTEX
  5
2D05
  8
SAPA_FOGBAND
 10
34.939274096945319
 20
118.0821121246956
 30
0.0
  0
VERTEX
  5
2D06
  8
SAPA_FOGBAND
 10
34.799999874100592
 20
118.19897744422209
 30
0.0
  0
VERTEX
  5
2D07
  8
SAPA_FOGBAND
 10
34.939274096945319
 20
118.31584276374861
 30
0.0
 42
0.2216942531866175
  0
VERTEX
  5
2D08
  8
SAPA_FOGBAND
 10
35.000000000000561
 20
118.4460701484912
 30
0.0
  0
VERTEX
  5
2D09
  8
SAPA_FOGBAND
 10
35.000000000000391
 20
118.4518857532529
 30
0.0
 42
0.2216942531867426
  0
VERTEX
  5
2D0A
  8
SAPA_FOGBAND
 10
34.939274096945319
 20
118.58211313799551
 30
0.0
  0
VERTEX
  5
2D0B
  8
SAPA_FOGBAND
 10
34.799999874100592
 20
118.698978457522
 30
0.0
  0
VERTEX
  5
2D0C
  8
SAPA_FOGBAND
 10
34.939274096945319
 20
118.8158437770485
 30
0.0
 42
0.2216942531866175
  0
VERTEX
  5
2D0D
  8
SAPA_FOGBAND
 10
35.000000000000561
 20
118.9460711617911
 30
0.0
  0
VERTEX
  5
2D0E
  8
SAPA_FOGBAND
 10
35.000000000000391
 20
118.9518867665527
 30
0.0
 42
0.2216942531867426
  0
VERTEX
  5
2D0F
  8
SAPA_FOGBAND
 10
34.939274096945319
 20
119.0821141512954
 30
0.0
  0
VERTEX
  5
2D10
  8
SAPA_FOGBAND
 10
34.799999874100592
 20
119.1989794708218
 30
0.0
  0
VERTEX
  5
2D11
  8
SAPA_FOGBAND
 10
34.939274096945319
 20
119.31584479034829
 30
0.0
 42
0.2216942531866175
  0
VERTEX
  5
2D12
  8
SAPA_FOGBAND
 10
35.000000000000561
 20
119.446072175091
 30
0.0
  0
VERTEX
  5
2D13
  8
SAPA_FOGBAND
 10
35.000000000000391
 20
119.4518877798526
 30
0.0
 42
0.2216942531867426
  0
VERTEX
  5
2D14
  8
SAPA_FOGBAND
 10
34.939274096945319
 20
119.58211516459529
 30
0.0
  0
VERTEX
  5
2D15
  8
SAPA_FOGBAND
 10
34.799999874100592
 20
119.69898048412171
 30
0.0
  0
VERTEX
  5
2D16
  8
SAPA_FOGBAND
 10
34.939274096945319
 20
119.8158458036482
 30
0.0
 42
0.2216942531866175
  0
VERTEX
  5
2D17
  8
SAPA_FOGBAND
 10
35.000000000000561
 20
119.9460731883909
 30
0.0
  0
VERTEX
  5
2D18
  8
SAPA_FOGBAND
 10
35.000000000000391
 20
119.95188879315251
 30
0.0
 42
0.2216942531867426
  0
VERTEX
  5
2D19
  8
SAPA_FOGBAND
 10
34.939274096945319
 20
120.0821161778951
 30
0.0
  0
VERTEX
  5
2D1A
  8
SAPA_FOGBAND
 10
34.799999874100592
 20
120.1989814974216
 30
0.0
  0
VERTEX
  5
2D1B
  8
SAPA_FOGBAND
 10
34.939274096945319
 20
120.3158468169481
 30
0.0
 42
0.2216942531866175
  0
VERTEX
  5
2D1C
  8
SAPA_FOGBAND
 10
35.000000000000561
 20
120.44607420169071
 30
0.0
  0
VERTEX
  5
2D1D
  8
SAPA_FOGBAND
 10
35.000000000000391
 20
120.4518898064524
 30
0.0
 42
0.2216942531867426
  0
VERTEX
  5
2D1E
  8
SAPA_FOGBAND
 10
34.939274096945319
 20
120.582117191195
 30
0.0
  0
VERTEX
  5
2D1F
  8
SAPA_FOGBAND
 10
34.799999874100592
 20
120.69898251072151
 30
0.0
  0
VERTEX
  5
2D20
  8
SAPA_FOGBAND
 10
34.939274096945319
 20
120.815847830248
 30
0.0
 42
0.2216942531866175
  0
VERTEX
  5
2D21
  8
SAPA_FOGBAND
 10
35.000000000000561
 20
120.9460752149906
 30
0.0
  0
VERTEX
  5
2D22
  8
SAPA_FOGBAND
 10
35.000000000000391
 20
120.95189081975229
 30
0.0
 42
0.2216942531867426
  0
VERTEX
  5
2D23
  8
SAPA_FOGBAND
 10
34.939274096945319
 20
121.0821182044949
 30
0.0
  0
VERTEX
  5
2D24
  8
SAPA_FOGBAND
 10
34.799999874100592
 20
121.1989835240214
 30
0.0
  0
VERTEX
  5
2D25
  8
SAPA_FOGBAND
 10
34.939274096945319
 20
121.3158488435479
 30
0.0
 42
0.2216942531866175
  0
VERTEX
  5
2D26
  8
SAPA_FOGBAND
 10
35.000000000000561
 20
121.44607622829049
 30
0.0
  0
VERTEX
  5
2D27
  8
SAPA_FOGBAND
 10
35.000000000000391
 20
121.4518918330522
 30
0.0
 42
0.2216942531867426
  0
VERTEX
  5
2D28
  8
SAPA_FOGBAND
 10
34.939274096945319
 20
121.5821192177948
 30
0.0
  0
VERTEX
  5
2D29
  8
SAPA_FOGBAND
 10
34.799999874100592
 20
121.69898453732129
 30
0.0
  0
VERTEX
  5
2D2A
  8
SAPA_FOGBAND
 10
34.939274096945319
 20
121.81584985684771
 30
0.0
 42
0.2216942531866175
  0
VERTEX
  5
2D2B
  8
SAPA_FOGBAND
 10
35.000000000000561
 20
121.9460772415904
 30
0.0
  0
VERTEX
  5
2D2C
  8
SAPA_FOGBAND
 10
35.000000000000391
 20
121.951892846352
 30
0.0
 42
0.2216942531867426
  0
VERTEX
  5
2D2D
  8
SAPA_FOGBAND
 10
34.939274096945319
 20
122.08212023109471
 30
0.0
  0
VERTEX
  5
2D2E
  8
SAPA_FOGBAND
 10
34.799999874100592
 20
122.1989855506211
 30
0.0
  0
VERTEX
  5
2D2F
  8
SAPA_FOGBAND
 10
34.939274096945319
 20
122.3158508701476
 30
0.0
 42
0.2216942531866175
  0
VERTEX
  5
2D30
  8
SAPA_FOGBAND
 10
35.000000000000561
 20
122.4460782548902
 30
0.0
  0
VERTEX
  5
2D31
  8
SAPA_FOGBAND
 10
35.000000000000391
 20
122.4518938596519
 30
0.0
 42
0.2216942531867426
  0
VERTEX
  5
2D32
  8
SAPA_FOGBAND
 10
34.939274096945319
 20
122.5821212443945
 30
0.0
  0
VERTEX
  5
2D33
  8
SAPA_FOGBAND
 10
34.799999874100592
 20
122.698986563921
 30
0.0
  0
VERTEX
  5
2D34
  8
SAPA_FOGBAND
 10
34.939274096945319
 20
122.81585188344749
 30
0.0
 42
0.2216942531866175
  0
VERTEX
  5
2D35
  8
SAPA_FOGBAND
 10
35.000000000000561
 20
122.9460792681901
 30
0.0
  0
VERTEX
  5
2D36
  8
SAPA_FOGBAND
 10
35.000000000000391
 20
122.9518948729518
 30
0.0
 42
0.2216942531867426
  0
VERTEX
  5
2D37
  8
SAPA_FOGBAND
 10
34.939274096945319
 20
123.08212225769439
 30
0.0
  0
VERTEX
  5
2D38
  8
SAPA_FOGBAND
 10
34.799999874100592
 20
123.1989875772209
 30
0.0
  0
VERTEX
  5
2D39
  8
SAPA_FOGBAND
 10
34.939274096945319
 20
123.3158528967474
 30
0.0
 42
0.2216942531866175
  0
VERTEX
  5
2D3A
  8
SAPA_FOGBAND
 10
35.000000000000561
 20
123.44608028149
 30
0.0
  0
VERTEX
  5
2D3B
  8
SAPA_FOGBAND
 10
35.000000000000391
 20
123.45189588625171
 30
0.0
 42
0.2216942531867426
  0
VERTEX
  5
2D3C
  8
SAPA_FOGBAND
 10
34.939274096945311
 20
123.5821232709943
 30
0.0
  0
VERTEX
  5
2D3D
  8
SAPA_FOGBAND
 10
34.799999874100578
 20
123.6989885905208
 30
0.0
  0
VERTEX
  5
2D3E
  8
SAPA_FOGBAND
 10
34.939274096945311
 20
123.8158539100473
 30
0.0
 42
0.2216942531866175
  0
VERTEX
  5
2D3F
  8
SAPA_FOGBAND
 10
35.000000000000547
 20
123.94608129478991
 30
0.0
  0
VERTEX
  5
2D40
  8
SAPA_FOGBAND
 10
35.000000000000391
 20
123.9518968995515
 30
0.0
 42
0.2216942531867426
  0
VERTEX
  5
2D41
  8
SAPA_FOGBAND
 10
34.939274096945311
 20
124.0821242842942
 30
0.0
  0
VERTEX
  5
2D42
  8
SAPA_FOGBAND
 10
34.799999874100578
 20
124.19898960382061
 30
0.0
  0
VERTEX
  5
2D43
  8
SAPA_FOGBAND
 10
34.939274096945311
 20
124.3158549233471
 30
0.0
 42
0.2216942531866175
  0
VERTEX
  5
2D44
  8
SAPA_FOGBAND
 10
35.000000000000547
 20
124.4460823080898
 30
0.0
  0
VERTEX
  5
2D45
  8
SAPA_FOGBAND
 10
35.000000000000391
 20
124.45189791285139
 30
0.0
 42
0.2216942531867426
  0
VERTEX
  5
2D46
  8
SAPA_FOGBAND
 10
34.939274096945311
 20
124.582125297594
 30
0.0
  0
VERTEX
  5
2D47
  8
SAPA_FOGBAND
 10
34.799999874100578
 20
124.6989906171205
 30
0.0
  0
VERTEX
  5
2D48
  8
SAPA_FOGBAND
 10
34.939274096945311
 20
124.815855936647
 30
0.0
 42
0.2216942531866175
  0
VERTEX
  5
2D49
  8
SAPA_FOGBAND
 10
35.000000000000547
 20
124.94608332138969
 30
0.0
  0
VERTEX
  5
2D4A
  8
SAPA_FOGBAND
 10
35.000000000000391
 20
124.9518989261513
 30
0.0
 42
0.2216942531867426
  0
VERTEX
  5
2D4B
  8
SAPA_FOGBAND
 10
34.939274096945311
 20
125.0821263108939
 30
0.0
  0
VERTEX
  5
2D4C
  8
SAPA_FOGBAND
 10
34.799999874100578
 20
125.19899163042039
 30
0.0
  0
VERTEX
  5
2D4D
  8
SAPA_FOGBAND
 10
34.939274096945311
 20
125.31585694994691
 30
0.0
 42
0.2216942531866175
  0
VERTEX
  5
2D4E
  8
SAPA_FOGBAND
 10
35.000000000000547
 20
125.4460843346895
 30
0.0
  0
VERTEX
  5
2D4F
  8
SAPA_FOGBAND
 10
35.000000000000391
 20
125.4518999394512
 30
0.0
 42
0.2216942531867426
  0
VERTEX
  5
2D50
  8
SAPA_FOGBAND
 10
34.939274096945311
 20
125.58212732419381
 30
0.0
  0
VERTEX
  5
2D51
  8
SAPA_FOGBAND
 10
34.799999874100578
 20
125.6989926437203
 30
0.0
  0
VERTEX
  5
2D52
  8
SAPA_FOGBAND
 10
34.939274096945311
 20
125.8158579632468
 30
0.0
 42
0.2216942531866175
  0
VERTEX
  5
2D53
  8
SAPA_FOGBAND
 10
35.000000000000547
 20
125.9460853479894
 30
0.0
  0
VERTEX
  5
2D54
  8
SAPA_FOGBAND
 10
35.000000000000391
 20
125.9519009527511
 30
0.0
 42
0.2216942531867426
  0
VERTEX
  5
2D55
  8
SAPA_FOGBAND
 10
34.939274096945311
 20
126.0821283374937
 30
0.0
  0
VERTEX
  5
2D56
  8
SAPA_FOGBAND
 10
34.799999874100578
 20
126.1989936570202
 30
0.0
  0
VERTEX
  5
2D57
  8
SAPA_FOGBAND
 10
34.939274096945311
 20
126.31585897654671
 30
0.0
 42
0.2216942531866175
  0
VERTEX
  5
2D58
  8
SAPA_FOGBAND
 10
35.000000000000547
 20
126.4460863612893
 30
0.0
  0
VERTEX
  5
2D59
  8
SAPA_FOGBAND
 10
35.000000000000391
 20
126.4519019660509
 30
0.0
 42
0.2216942531867426
  0
VERTEX
  5
2D5A
  8
SAPA_FOGBAND
 10
34.939274096945311
 20
126.58212935079359
 30
0.0
  0
VERTEX
  5
2D5B
  8
SAPA_FOGBAND
 10
34.800003203908638
 20
126.6989918762705
 30
0.0
  0
VERTEX
  5
2D5C
  8
SAPA_FOGBAND
 10
34.939274096945311
 20
126.8158544017474
 30
0.0
 42
0.2216942531866175
  0
VERTEX
  5
2D5D
  8
SAPA_FOGBAND
 10
35.000000000000547
 20
126.94608178649
 30
0.0
  0
VERTEX
  5
2D5E
  8
SAPA_FOGBAND
 10
35.000000000000391
 20
126.95189739125171
 30
0.0
 42
0.2216942531867426
  0
VERTEX
  5
2D5F
  8
SAPA_FOGBAND
 10
34.939274096945311
 20
127.0821247759943
 30
0.0
  0
VERTEX
  5
2D60
  8
SAPA_FOGBAND
 10
34.799999874100578
 20
127.1989900955208
 30
0.0
  0
VERTEX
  5
2D61
  8
SAPA_FOGBAND
 10
34.939274096945311
 20
127.3158554150473
 30
0.0
 42
0.2216942531866175
  0
VERTEX
  5
2D62
  8
SAPA_FOGBAND
 10
35.000000000000547
 20
127.44608279978991
 30
0.0
  0
VERTEX
  5
2D63
  8
SAPA_FOGBAND
 10
35.000000000000391
 20
127.4518984045516
 30
0.0
 42
0.2216942531867426
  0
VERTEX
  5
2D64
  8
SAPA_FOGBAND
 10
34.939274096945311
 20
127.5821257892942
 30
0.0
  0
VERTEX
  5
2D65
  8
SAPA_FOGBAND
 10
34.799999874100578
 20
127.69899110882071
 30
0.0
  0
VERTEX
  5
2D66
  8
SAPA_FOGBAND
 10
34.939274096945311
 20
127.8158564283471
 30
0.0
 42
0.2216942531866175
  0
VERTEX
  5
2D67
  8
SAPA_FOGBAND
 10
35.000000000000547
 20
127.9460838130898
 30
0.0
  0
VERTEX
  5
2D68
  8
SAPA_FOGBAND
 10
35.000000000000391
 20
127.95189941785139
 30
0.0
 42
0.2216942531867426
  0
VERTEX
  5
2D69
  8
SAPA_FOGBAND
 10
34.939274096945311
 20
128.08212680259399
 30
0.0
  0
VERTEX
  5
2D6A
  8
SAPA_FOGBAND
 10
34.799999874100578
 20
128.1989921221205
 30
0.0
  0
VERTEX
  5
2D6B
  8
SAPA_FOGBAND
 10
34.939274096945311
 20
128.31585744164701
 30
0.0
 42
0.2216942531866175
  0
VERTEX
  5
2D6C
  8
SAPA_FOGBAND
 10
35.000000000000547
 20
128.44608482638961
 30
0.0
  0
VERTEX
  5
2D6D
  8
SAPA_FOGBAND
 10
35.000000000000391
 20
128.4519004311513
 30
0.0
 42
0.2216942531867426
  0
VERTEX
  5
2D6E
  8
SAPA_FOGBAND
 10
34.939274096945311
 20
128.5821278158939
 30
0.0
  0
VERTEX
  5
2D6F
  8
SAPA_FOGBAND
 10
34.799999874100578
 20
128.69899313542041
 30
0.0
  0
VERTEX
  5
2D70
  8
SAPA_FOGBAND
 10
34.939274096945311
 20
128.81585845494689
 30
0.0
 42
0.2216942531866175
  0
VERTEX
  5
2D71
  8
SAPA_FOGBAND
 10
35.000000000000547
 20
128.94608583968949
 30
0.0
  0
VERTEX
  5
2D72
  8
SAPA_FOGBAND
 10
35.000000000000391
 20
128.95190144445121
 30
0.0
 42
0.2216942531867426
  0
VERTEX
  5
2D73
  8
SAPA_FOGBAND
 10
34.939274096945311
 20
129.08212882919381
 30
0.0
  0
VERTEX
  5
2D74
  8
SAPA_FOGBAND
 10
34.799999874100578
 20
129.19899414872029
 30
0.0
  0
VERTEX
  5
2D75
  8
SAPA_FOGBAND
 10
34.939274096945311
 20
129.3158594682468
 30
0.0
 42
0.2216942531866175
  0
VERTEX
  5
2D76
  8
SAPA_FOGBAND
 10
35.000000000000547
 20
129.4460868529894
 30
0.0
  0
VERTEX
  5
2D77
  8
SAPA_FOGBAND
 10
35.000000000000391
 20
129.45190245775109
 30
0.0
 42
0.2216942531867426
  0
VERTEX
  5
2D78
  8
SAPA_FOGBAND
 10
34.939274096945311
 20
129.58212984249371
 30
0.0
  0
VERTEX
  5
2D79
  8
SAPA_FOGBAND
 10
34.799999874100578
 20
129.6989951620202
 30
0.0
  0
VERTEX
  5
2D7A
  8
SAPA_FOGBAND
 10
34.939274096945482
 20
129.81585489344761
 30
0.0
 42
0.2216942531863032
  0
VERTEX
  5
2D7B
  8
SAPA_FOGBAND
 10
35.000000000000547
 20
129.94608227819009
 30
0.0
  0
VERTEX
  5
2D7C
  8
SAPA_FOGBAND
 10
35.000000000000391
 20
129.95189788295181
 30
0.0
 42
0.2216942531867426
  0
VERTEX
  5
2D7D
  8
SAPA_FOGBAND
 10
34.939274096945311
 20
130.08212526769441
 30
0.0
  0
VERTEX
  5
2D7E
  8
SAPA_FOGBAND
 10
34.799999874100578
 20
130.19899058722089
 30
0.0
  0
VERTEX
  5
2D7F
  8
SAPA_FOGBAND
 10
34.939274096945311
 20
130.3158559067474
 30
0.0
 42
0.2216942531866175
  0
VERTEX
  5
2D80
  8
SAPA_FOGBAND
 10
35.000000000000547
 20
130.44608329149
 30
0.0
  0
VERTEX
  5
2D81
  8
SAPA_FOGBAND
 10
35.000000000000391
 20
130.45189889625169
 30
0.0
 42
0.2216942531867426
  0
VERTEX
  5
2D82
  8
SAPA_FOGBAND
 10
34.939274096945311
 20
130.58212628099429
 30
0.0
  0
VERTEX
  5
2D83
  8
SAPA_FOGBAND
 10
34.799999874100578
 20
130.6989916005208
 30
0.0
  0
VERTEX
  5
2D84
  8
SAPA_FOGBAND
 10
34.939274096945311
 20
130.81585692004731
 30
0.0
 42
0.2216942531866175
  0
VERTEX
  5
2D85
  8
SAPA_FOGBAND
 10
35.000000000000547
 20
130.94608430478991
 30
0.0
  0
VERTEX
  5
2D86
  8
SAPA_FOGBAND
 10
35.000000000000391
 20
130.9518999095516
 30
0.0
 42
0.2216942531867426
  0
VERTEX
  5
2D87
  8
SAPA_FOGBAND
 10
34.939274096945311
 20
131.0821272942942
 30
0.0
  0
VERTEX
  5
2D88
  8
SAPA_FOGBAND
 10
34.799999874100578
 20
131.19899261382071
 30
0.0
  0
VERTEX
  5
2D89
  8
SAPA_FOGBAND
 10
34.939274096945311
 20
131.3158579333471
 30
0.0
 42
0.2216942531866175
  0
VERTEX
  5
2D8A
  8
SAPA_FOGBAND
 10
35.000000000000547
 20
131.44608531808981
 30
0.0
  0
VERTEX
  5
2D8B
  8
SAPA_FOGBAND
 10
35.000000000000391
 20
131.45190092285139
 30
0.0
 42
0.2216942531867426
  0
VERTEX
  5
2D8C
  8
SAPA_FOGBAND
 10
34.939274096945311
 20
131.5821283075941
 30
0.0
  0
VERTEX
  5
2D8D
  8
SAPA_FOGBAND
 10
34.799999874100578
 20
131.6989936271205
 30
0.0
  0
VERTEX
  5
2D8E
  8
SAPA_FOGBAND
 10
34.939274096945311
 20
131.81585894664701
 30
0.0
 42
0.2216942531866175
  0
VERTEX
  5
2D8F
  8
SAPA_FOGBAND
 10
35.000000000000547
 20
131.94608633138961
 30
0.0
  0
VERTEX
  5
2D90
  8
SAPA_FOGBAND
 10
35.000000000000391
 20
131.9519019361513
 30
0.0
 42
0.2216942531867426
  0
VERTEX
  5
2D91
  8
SAPA_FOGBAND
 10
34.939274096945311
 20
132.0821293208939
 30
0.0
  0
VERTEX
  5
2D92
  8
SAPA_FOGBAND
 10
34.799999874100578
 20
132.19899464042041
 30
0.0
  0
VERTEX
  5
2D93
  8
SAPA_FOGBAND
 10
34.939274096945311
 20
132.31585995994689
 30
0.0
 42
0.2216942531866175
  0
VERTEX
  5
2D94
  8
SAPA_FOGBAND
 10
35.000000000000547
 20
132.44608734468949
 30
0.0
  0
VERTEX
  5
2D95
  8
SAPA_FOGBAND
 10
35.000000000000391
 20
132.45190294945121
 30
0.0
 42
0.2216942531867426
  0
VERTEX
  5
2D96
  8
SAPA_FOGBAND
 10
34.939274096945311
 20
132.58213033419381
 30
0.0
  0
VERTEX
  5
2D97
  8
SAPA_FOGBAND
 10
34.799999874100578
 20
132.69899565372029
 30
0.0
  0
VERTEX
  5
2D98
  8
SAPA_FOGBAND
 10
34.939274096945311
 20
132.8158609732468
 30
0.0
 42
0.2216942531866175
  0
VERTEX
  5
2D99
  8
SAPA_FOGBAND
 10
35.000000000000547
 20
132.9460883579894
 30
0.0
  0
VERTEX
  5
2D9A
  8
SAPA_FOGBAND
 10
35.000000000000391
 20
132.95190396275109
 30
0.0
 42
0.2216942531867426
  0
VERTEX
  5
2D9B
  8
SAPA_FOGBAND
 10
34.939274096945311
 20
133.08213134749371
 30
0.0
  0
VERTEX
  5
2D9C
  8
SAPA_FOGBAND
 10
34.799999874100578
 20
133.1989966670202
 30
0.0
  0
VERTEX
  5
2D9D
  8
SAPA_FOGBAND
 10
34.939274096945311
 20
133.31586198654671
 30
0.0
 42
0.2216942531866175
  0
VERTEX
  5
2D9E
  8
SAPA_FOGBAND
 10
35.000000000000547
 20
133.4460893712893
 30
0.0
  0
VERTEX
  5
2D9F
  8
SAPA_FOGBAND
 10
35.000000000000391
 20
133.45190497605091
 30
0.0
 42
0.2216942531867426
  0
VERTEX
  5
2DA0
  8
SAPA_FOGBAND
 10
34.939274096945311
 20
133.58213236079359
 30
0.0
  0
VERTEX
  5
2DA1
  8
SAPA_FOGBAND
 10
34.799999874100578
 20
133.69899768031999
 30
0.0
  0
VERTEX
  5
2DA2
  8
SAPA_FOGBAND
 10
34.939274096945311
 20
133.8158629998465
 30
0.0
 42
0.2216942531866175
  0
VERTEX
  5
2DA3
  8
SAPA_FOGBAND
 10
35.000000000000547
 20
133.94609038458921
 30
0.0
  0
VERTEX
  5
2DA4
  8
SAPA_FOGBAND
 10
35.000000000000391
 20
133.95190598935079
 30
0.0
 42
0.2216942531867426
  0
VERTEX
  5
2DA5
  8
SAPA_FOGBAND
 10
34.939274096945311
 20
134.08213337409339
 30
0.0
  0
VERTEX
  5
2DA6
  8
SAPA_FOGBAND
 10
34.799999874100578
 20
134.1989986936199
 30
0.0
  0
VERTEX
  5
2DA7
  8
SAPA_FOGBAND
 10
34.939274096945311
 20
134.31586401314641
 30
0.0
 42
0.2216942531866175
  0
VERTEX
  5
2DA8
  8
SAPA_FOGBAND
 10
35.000000000000547
 20
134.44609139788901
 30
0.0
  0
VERTEX
  5
2DA9
  8
SAPA_FOGBAND
 10
35.000000000000391
 20
134.4519070026507
 30
0.0
 42
0.2216942531867426
  0
VERTEX
  5
2DAA
  8
SAPA_FOGBAND
 10
34.939274096945311
 20
134.5821343873933
 30
0.0
  0
VERTEX
  5
2DAB
  8
SAPA_FOGBAND
 10
34.799999874100578
 20
134.69899970691981
 30
0.0
  0
VERTEX
  5
2DAC
  8
SAPA_FOGBAND
 10
34.939274096945311
 20
134.81586502644629
 30
0.0
 42
0.2216942531866175
  0
VERTEX
  5
2DAD
  8
SAPA_FOGBAND
 10
35.000000000000547
 20
134.94609241118891
 30
0.0
  0
VERTEX
  5
2DAE
  8
SAPA_FOGBAND
 10
35.000000000000391
 20
134.95190801595061
 30
0.0
 42
0.2216942531867426
  0
VERTEX
  5
2DAF
  8
SAPA_FOGBAND
 10
34.939274096945311
 20
135.0821354006932
 30
0.0
  0
VERTEX
  5
2DB0
  8
SAPA_FOGBAND
 10
34.799999874100578
 20
135.19900072021969
 30
0.0
  0
VERTEX
  5
2DB1
  8
SAPA_FOGBAND
 10
34.939274096945311
 20
135.3158660397462
 30
0.0
 42
0.2216942531866175
  0
VERTEX
  5
2DB2
  8
SAPA_FOGBAND
 10
35.000000000000547
 20
135.44609342448879
 30
0.0
  0
VERTEX
  5
2DB3
  8
SAPA_FOGBAND
 10
35.000000000000391
 20
135.45190902925049
 30
0.0
 42
0.2216942531867426
  0
VERTEX
  5
2DB4
  8
SAPA_FOGBAND
 10
34.939274096945311
 20
135.58213641399311
 30
0.0
  0
VERTEX
  5
2DB5
  8
SAPA_FOGBAND
 10
34.799999874100578
 20
135.69900173351959
 30
0.0
  0
VERTEX
  5
2DB6
  8
SAPA_FOGBAND
 10
34.939274096945311
 20
135.81586705304599
 30
0.0
 42
0.2216942531866175
  0
VERTEX
  5
2DB7
  8
SAPA_FOGBAND
 10
35.000000000000547
 20
135.9460944377887
 30
0.0
  0
VERTEX
  5
2DB8
  8
SAPA_FOGBAND
 10
35.000000000000391
 20
135.95191004255031
 30
0.0
 42
0.2216942531867426
  0
VERTEX
  5
2DB9
  8
SAPA_FOGBAND
 10
34.939274096945311
 20
136.08213742729299
 30
0.0
  0
VERTEX
  5
2DBA
  8
SAPA_FOGBAND
 10
34.799999874100578
 20
136.1990027468195
 30
0.0
  0
VERTEX
  5
2DBB
  8
SAPA_FOGBAND
 10
34.939274096945311
 20
136.3158680663459
 30
0.0
 42
0.2216942531866175
  0
VERTEX
  5
2DBC
  8
SAPA_FOGBAND
 10
35.000000000000547
 20
136.44609545108861
 30
0.0
  0
VERTEX
  5
2DBD
  8
SAPA_FOGBAND
 10
35.000000000000391
 20
136.45191105585019
 30
0.0
 42
0.2216942531867426
  0
VERTEX
  5
2DBE
  8
SAPA_FOGBAND
 10
34.939274096945311
 20
136.5821384405929
 30
0.0
  0
VERTEX
  5
2DBF
  8
SAPA_FOGBAND
 10
34.799999874100578
 20
136.6990037601193
 30
0.0
  0
VERTEX
  5
2DC0
  8
SAPA_FOGBAND
 10
34.939274096945311
 20
136.81586907964581
 30
0.0
 42
0.2216942531866175
  0
VERTEX
  5
2DC1
  8
SAPA_FOGBAND
 10
35.000000000000547
 20
136.9460964643884
 30
0.0
  0
VERTEX
  5
2DC2
  8
SAPA_FOGBAND
 10
35.000000000000391
 20
136.9519120691501
 30
0.0
 42
0.2216942531867426
  0
VERTEX
  5
2DC3
  8
SAPA_FOGBAND
 10
34.939274096945311
 20
137.08213945389269
 30
0.0
  0
VERTEX
  5
2DC4
  8
SAPA_FOGBAND
 10
34.799999874100578
 20
137.1990047734192
 30
0.0
  0
VERTEX
  5
2DC5
  8
SAPA_FOGBAND
 10
34.939274096945311
 20
137.31587009294569
 30
0.0
 42
0.2216942531866175
  0
VERTEX
  5
2DC6
  8
SAPA_FOGBAND
 10
35.000000000000547
 20
137.44609747768831
 30
0.0
  0
VERTEX
  5
2DC7
  8
SAPA_FOGBAND
 10
35.000000000000391
 20
137.45191308245001
 30
0.0
 42
0.2216942531867426
  0
VERTEX
  5
2DC8
  8
SAPA_FOGBAND
 10
34.939274096945311
 20
137.5821404671926
 30
0.0
  0
VERTEX
  5
2DC9
  8
SAPA_FOGBAND
 10
34.799999874100578
 20
137.69900578671911
 30
0.0
  0
VERTEX
  5
2DCA
  8
SAPA_FOGBAND
 10
34.939274096945311
 20
137.8158711062456
 30
0.0
 42
0.2216942531866175
  0
VERTEX
  5
2DCB
  8
SAPA_FOGBAND
 10
35.000000000000547
 20
137.94609849098819
 30
0.0
  0
VERTEX
  5
2DCC
  8
SAPA_FOGBAND
 10
35.000000000000391
 20
137.95191409574991
 30
0.0
 42
0.2216942531867426
  0
VERTEX
  5
2DCD
  8
SAPA_FOGBAND
 10
34.939274096945311
 20
138.08214148049251
 30
0.0
  0
VERTEX
  5
2DCE
  8
SAPA_FOGBAND
 10
34.799999874100578
 20
138.19900680001899
 30
0.0
  0
VERTEX
  5
2DCF
  8
SAPA_FOGBAND
 10
34.939274096945311
 20
138.3158721195455
 30
0.0
 42
0.2216942531866175
  0
VERTEX
  5
2DD0
  8
SAPA_FOGBAND
 10
35.000000000000547
 20
138.4460995042881
 30
0.0
  0
VERTEX
  5
2DD1
  8
SAPA_FOGBAND
 10
35.000000000000391
 20
138.45191510904971
 30
0.0
 42
0.2216942531867426
  0
VERTEX
  5
2DD2
  8
SAPA_FOGBAND
 10
34.939274096945311
 20
138.58214249379239
 30
0.0
  0
VERTEX
  5
2DD3
  8
SAPA_FOGBAND
 10
34.800003203908638
 20
138.69900501926929
 30
0.0
  0
VERTEX
  5
2DD4
  8
SAPA_FOGBAND
 10
34.939274096945311
 20
138.8158675447462
 30
0.0
 42
0.2216942531866175
  0
VERTEX
  5
2DD5
  8
SAPA_FOGBAND
 10
35.000000000000547
 20
138.94609492948879
 30
0.0
  0
VERTEX
  5
2DD6
  8
SAPA_FOGBAND
 10
35.000000000000391
 20
138.95191053425049
 30
0.0
 42
0.2216942531867426
  0
VERTEX
  5
2DD7
  8
SAPA_FOGBAND
 10
34.939274096945311
 20
139.08213791899311
 30
0.0
  0
VERTEX
  5
2DD8
  8
SAPA_FOGBAND
 10
34.799999874100578
 20
139.19900323851959
 30
0.0
  0
VERTEX
  5
2DD9
  8
SAPA_FOGBAND
 10
34.939274096945311
 20
139.31586855804599
 30
0.0
 42
0.2216942531866175
  0
VERTEX
  5
2DDA
  8
SAPA_FOGBAND
 10
35.000000000000547
 20
139.4460959427887
 30
0.0
  0
VERTEX
  5
2DDB
  8
SAPA_FOGBAND
 10
35.000000000000391
 20
139.45191154755031
 30
0.0
 42
0.2216942531867426
  0
VERTEX
  5
2DDC
  8
SAPA_FOGBAND
 10
34.939274096945311
 20
139.58213893229299
 30
0.0
  0
VERTEX
  5
2DDD
  8
SAPA_FOGBAND
 10
34.799999874100578
 20
139.69900425181939
 30
0.0
  0
VERTEX
  5
2DDE
  8
SAPA_FOGBAND
 10
34.939274096945311
 20
139.8158695713459
 30
0.0
 42
0.2216942531866175
  0
VERTEX
  5
2DDF
  8
SAPA_FOGBAND
 10
35.000000000000547
 20
139.94609695608861
 30
0.0
  0
VERTEX
  5
2DE0
  8
SAPA_FOGBAND
 10
35.000000000000391
 20
139.95191256085019
 30
0.0
 42
0.2216942531867426
  0
VERTEX
  5
2DE1
  8
SAPA_FOGBAND
 10
34.939274096945311
 20
140.08213994559279
 30
0.0
  0
VERTEX
  5
2DE2
  8
SAPA_FOGBAND
 10
34.799999874100578
 20
140.1990052651193
 30
0.0
  0
VERTEX
  5
2DE3
  8
SAPA_FOGBAND
 10
34.939274096945311
 20
140.31587058464581
 30
0.0
 42
0.2216942531866175
  0
VERTEX
  5
2DE4
  8
SAPA_FOGBAND
 10
35.000000000000547
 20
140.4460979693884
 30
0.0
  0
VERTEX
  5
2DE5
  8
SAPA_FOGBAND
 10
35.000000000000391
 20
140.4519135741501
 30
0.0
 42
0.2216942531867426
  0
VERTEX
  5
2DE6
  8
SAPA_FOGBAND
 10
34.939274096945311
 20
140.58214095889269
 30
0.0
  0
VERTEX
  5
2DE7
  8
SAPA_FOGBAND
 10
34.799999874100578
 20
140.6990062784192
 30
0.0
  0
VERTEX
  5
2DE8
  8
SAPA_FOGBAND
 10
34.939274096945311
 20
140.81587159794569
 30
0.0
 42
0.2216942531866175
  0
VERTEX
  5
2DE9
  8
SAPA_FOGBAND
 10
35.000000000000547
 20
140.94609898268831
 30
0.0
  0
VERTEX
  5
2DEA
  8
SAPA_FOGBAND
 10
35.000000000000391
 20
140.95191458745001
 30
0.0
 42
0.2216942531867426
  0
VERTEX
  5
2DEB
  8
SAPA_FOGBAND
 10
34.939274096945311
 20
141.0821419721926
 30
0.0
  0
VERTEX
  5
2DEC
  8
SAPA_FOGBAND
 10
34.799999874100578
 20
141.19900729171911
 30
0.0
  0
VERTEX
  5
2DED
  8
SAPA_FOGBAND
 10
34.939274096945311
 20
141.3158726112456
 30
0.0
 42
0.2216942531866175
  0
VERTEX
  5
2DEE
  8
SAPA_FOGBAND
 10
35.000000000000547
 20
141.44609999598819
 30
0.0
  0
VERTEX
  5
2DEF
  8
SAPA_FOGBAND
 10
35.000000000000391
 20
141.4519156007498
 30
0.0
 42
0.2216942531867426
  0
VERTEX
  5
2DF0
  8
SAPA_FOGBAND
 10
34.939274096945311
 20
141.58214298549251
 30
0.0
  0
VERTEX
  5
2DF1
  8
SAPA_FOGBAND
 10
34.799999874100578
 20
141.69900830501899
 30
0.0
  0
VERTEX
  5
2DF2
  8
SAPA_FOGBAND
 10
34.928556539182111
 20
141.8068787500525
 30
0.0
 42
0.2216963450753095
  0
VERTEX
  5
2DF3
  8
SAPA_FOGBAND
 10
35.000000000000547
 20
141.9600884633011
 30
0.0
  0
VERTEX
  5
2DF4
  8
SAPA_FOGBAND
 10
35.000000000000611
 20
143.14900746006481
 30
0.0
 42
0.1999476574935361
  0
VERTEX
  5
2DF5
  8
SAPA_FOGBAND
 10
34.91128548386699
 20
143.36198268000209
 30
0.0
  0
VERTEX
  5
2DF6
  8
SAPA_FOGBAND
 10
32.426071236555963
 20
145.82747934627781
 30
0.0
 42
0.6667393677648819
  0
VERTEX
  5
2DF7
  8
SAPA_FOGBAND
 10
32.000000000000561
 20
145.64999999632991
 30
0.0
  0
VERTEX
  5
2DF8
  8
SAPA_FOGBAND
 10
32.000000000000561
 20
144.4499999999951
 30
0.0
 42
-0.4142135623731506
  0
VERTEX
  5
2DF9
  8
SAPA_FOGBAND
 10
31.700000000000539
 20
144.1499999999952
 30
0.0
  0
VERTEX
  5
2DFA
  8
SAPA_FOGBAND
 10
30.933415429661739
 20
144.1499999999952
 30
0.0
 42
0.0829635818303945
  0
VERTEX
  5
2DFB
  8
SAPA_FOGBAND
 10
30.8683994759595
 20
144.1391373198569
 30
0.0
  0
VERTEX
  5
2DFC
  8
SAPA_FOGBAND
 10
30.27208765773678
 20
143.9341551323426
 30
0.0
 42
-0.711985727291339
  0
VERTEX
  5
2DFD
  8
SAPA_FOGBAND
 10
30.03901681028735
 20
144.23172470150081
 30
0.0
  0
VERTEX
  5
2DFE
  8
SAPA_FOGBAND
 10
30.245029510654931
 20
144.55101571220411
 30
0.0
 42
0.4140587270332008
  0
VERTEX
  5
2DFF
  8
SAPA_FOGBAND
 10
30.194425768712041
 20
144.7859810376994
 30
0.0
  0
VERTEX
  5
2E00
  8
SAPA_FOGBAND
 10
30.06002771360771
 20
144.8727979135889
 30
0.0
 42
0.4143684146674996
  0
VERTEX
  5
2E01
  8
SAPA_FOGBAND
 10
29.824938136180648
 20
144.82216741189819
 30
0.0
  0
VERTEX
  5
2E02
  8
SAPA_FOGBAND
 10
29.4798647061479
 20
144.28735162605031
 30
0.0
 42
-0.2131842828170128
  0
VERTEX
  5
2E03
  8
SAPA_FOGBAND
 10
29.27487553632584
 20
144.15371933362681
 30
0.0
  0
VERTEX
  5
2E04
  8
SAPA_FOGBAND
 10
27.534916734569482
 20
143.8771566471782
 30
0.0
 42
-0.6485541630617839
  0
VERTEX
  5
2E05
  8
SAPA_FOGBAND
 10
27.335466393623211
 20
144.1831093407211
 30
0.0
  0
VERTEX
  5
2E06
  8
SAPA_FOGBAND
 10
27.57284665968449
 20
144.55101571220411
 30
0.0
 42
0.4140587270332008
  0
VERTEX
  5
2E07
  8
SAPA_FOGBAND
 10
27.52224291774159
 20
144.7859810376994
 30
0.0
  0
VERTEX
  5
2E08
  8
SAPA_FOGBAND
 10
27.387844862637149
 20
144.8727979135889
 30
0.0
 42
0.4143684146674465
  0
VERTEX
  5
2E09
  8
SAPA_FOGBAND
 10
27.152755285210151
 20
144.82216741189819
 30
0.0
  0
VERTEX
  5
2E0A
  8
SAPA_FOGBAND
 10
26.47809910903009
 20
143.77654424407919
 30
0.0
 42
-0.213184282816855
  0
VERTEX
  5
2E0B
  8
SAPA_FOGBAND
 10
26.341439662482159
 20
143.68745604913019
 30
0.0
  0
VERTEX
  5
2E0C
  8
SAPA_FOGBAND
 10
25.219765880588952
 20
143.50916842868389
 30
0.0
 42
0.3687633958509935
  0
VERTEX
  5
2E0D
  8
SAPA_FOGBAND
 10
24.82781714903
 20
143.0499999999958
 30
0.0
  0
VERTEX
  5
2E0E
  8
SAPA_FOGBAND
 10
24.827817149030739
 20
142.54999999999549
 30
0.0
 42
0.3687633958513223
  0
VERTEX
  5
2E0F
  8
SAPA_FOGBAND
 10
25.219765880589009
 20
142.09083157130721
 30
0.0
  0
VERTEX
  5
2E10
  8
SAPA_FOGBAND
 10
26.34143966248239
 20
141.91254395086119
 30
0.0
 42
-0.2131842828168576
  0
VERTEX
  5
2E11
  8
SAPA_FOGBAND
 10
26.47809910903025
 20
141.82345575591239
 30
0.0
  0
VERTEX
  5
2E12
  8
SAPA_FOGBAND
 10
27.152755285210379
 20
140.77783258809319
 30
0.0
 42
0.4143684146673642
  0
VERTEX
  5
2E13
  8
SAPA_FOGBAND
 10
27.38784486263755
 20
140.727202086403
 30
0.0
  0
VERTEX
  5
2E14
  8
SAPA_FOGBAND
 10
27.522242917741881
 20
140.81401896229261
 30
0.0
 42
0.4140587270331185
  0
VERTEX
  5
2E15
  8
SAPA_FOGBAND
 10
27.572846659684942
 20
141.0489842877879
 30
0.0
  0
VERTEX
  5
2E16
  8
SAPA_FOGBAND
 10
27.335466393623658
 20
141.41689065927071
 30
0.0
 42
-0.6485541630629518
  0
VERTEX
  5
2E17
  8
SAPA_FOGBAND
 10
27.534916734569759
 20
141.72284335281381
 30
0.0
  0
VERTEX
  5
2E18
  8
SAPA_FOGBAND
 10
29.274875536326071
 20
141.44628066636531
 30
0.0
 42
-0.2131842828171531
  0
VERTEX
  5
2E19
  8
SAPA_FOGBAND
 10
29.47986470614812
 20
141.3126483739419
 30
0.0
  0
VERTEX
  5
2E1A
  8
SAPA_FOGBAND
 10
29.824938136180879
 20
140.7778325880939
 30
0.0
 42
0.4143684146673642
  0
VERTEX
  5
2E1B
  8
SAPA_FOGBAND
 10
30.060027713608051
 20
140.72720208640351
 30
0.0
  0
VERTEX
  5
2E1C
  8
SAPA_FOGBAND
 10
30.194425768712211
 20
140.81401896229289
 30
0.0
 42
0.4140587270324127
  0
VERTEX
  5
2E1D
  8
SAPA_FOGBAND
 10
30.245029510655389
 20
141.04898428778819
 30
0.0
  0
VERTEX
  5
2E1E
  8
SAPA_FOGBAND
 10
30.039016810287521
 20
141.36827529849131
 30
0.0
 42
-0.7119857272911798
  0
VERTEX
  5
2E1F
  8
SAPA_FOGBAND
 10
30.27208765773695
 20
141.6658448676495
 30
0.0
  0
VERTEX
  5
2E20
  8
SAPA_FOGBAND
 10
30.86839947595978
 20
141.46086268013539
 30
0.0
 42
0.0829635818308052
  0
VERTEX
  5
2E21
  8
SAPA_FOGBAND
 10
30.93341542966202
 20
141.44999999999649
 30
0.0
  0
VERTEX
  5
2E22
  8
SAPA_FOGBAND
 10
31.700000000000319
 20
141.44999999999709
 30
0.0
 42
-0.4142135623733726
  0
VERTEX
  5
2E23
  8
SAPA_FOGBAND
 10
32.000000000000561
 20
141.14999999999711
 30
0.0
  0
VERTEX
  5
2E24
  8
SAPA_FOGBAND
 10
32.000000000000561
 20
138.6499999816408
 30
0.0
 42
0.4142135623731506
  0
VERTEX
  5
2E25
  8
SAPA_FOGBAND
 10
32.300000000000573
 20
138.34999998164079
 30
0.0
  0
VERTEX
  5
2E26
  8
SAPA_FOGBAND
 10
32.400000000000929
 20
138.34999998164071
 30
0.0
 42
-0.4142135623730617
  0
VERTEX
  5
2E27
  8
SAPA_FOGBAND
 10
33.400000000000873
 20
137.34999998164071
 30
0.0
  0
VERTEX
  5
2E28
  8
SAPA_FOGBAND
 10
33.400000000000873
 20
128.34999998164059
 30
0.0
 42
-0.4142135623730784
  0
VERTEX
  5
2E29
  8
SAPA_FOGBAND
 10
32.400000000000929
 20
127.34999998164059
 30
0.0
  0
VERTEX
  5
2E2A
  8
SAPA_FOGBAND
 10
32.300000000000963
 20
127.34999998164071
 30
0.0
 42
0.4142135623730948
  0
VERTEX
  5
2E2B
  8
SAPA_FOGBAND
 10
32.000000000000952
 20
127.0499999816405
 30
0.0
  0
VERTEX
  5
2E2C
  8
SAPA_FOGBAND
 10
32.000000000000902
 20
124.97681539008509
 30
0.0
 42
0.0878504214281866
  0
VERTEX
  5
2E2D
  8
SAPA_FOGBAND
 10
32.018239846097849
 20
124.87380463495489
 30
0.0
  0
VERTEX
  5
2E2E
  8
SAPA_FOGBAND
 10
32.281760151668941
 20
124.1530107551277
 30
0.0
 42
-0.5820970919984486
  0
VERTEX
  5
2E2F
  8
SAPA_FOGBAND
 10
31.94413556223417
 20
123.75524728187141
 30
0.0
  0
VERTEX
  5
2E30
  8
SAPA_FOGBAND
 10
27.244135564469381
 20
124.6460375298558
 30
0.0
 42
-0.3603575240022853
  0
VERTEX
  5
2E31
  8
SAPA_FOGBAND
 10
27.000000000000959
 20
124.94079024798189
 30
0.0
  0
VERTEX
  5
2E32
  8
SAPA_FOGBAND
 10
27.000000000000838
 20
125.5501831407708
 30
0.0
 42
0.7588023796546127
  0
VERTEX
  5
2E33
  8
SAPA_FOGBAND
 10
26.53657726863905
 20
125.6797245794526
 30
0.0
 42
-0.1169572780734508
  0
VERTEX
  5
2E34
  8
SAPA_FOGBAND
 10
23.525861699534389
 20
122.6241642203169
 30
0.0
 42
0.2811482092434636
  0
VERTEX
  5
2E35
  8
SAPA_FOGBAND
 10
23.200000000000941
 20
122.0904525076693
 30
0.0
  0
VERTEX
  5
2E36
  8
SAPA_FOGBAND
 10
23.200000000000891
 20
111.4999999999975
 30
0.0
  0
VERTEX
  5
2E37
  8
SAPA_FOGBAND
 10
23.200000000000951
 20
100.9095474923257
 30
0.0
 42
0.2811482092434637
  0
VERTEX
  5
2E38
  8
SAPA_FOGBAND
 10
23.525861699534399
 20
100.375835779678
 30
0.0
 42
-0.1169572780734176
  0
VERTEX
  5
2E39
  8
SAPA_FOGBAND
 10
26.536577268638659
 20
97.320275420543112
 30
0.0
 42
0.7588023796541021
  0
VERTEX
  5
2E3A
  8
SAPA_FOGBAND
 10
27.000000000000849
 20
97.449816859224143
 30
0.0
  0
VERTEX
  5
2E3B
  8
SAPA_FOGBAND
 10
27.000000000000959
 20
98.059209752013103
 30
0.0
 42
-0.3603575240022852
  0
VERTEX
  5
2E3C
  8
SAPA_FOGBAND
 10
27.244135564469381
 20
98.353962470139209
 30
0.0
  0
VERTEX
  5
2E3D
  8
SAPA_FOGBAND
 10
31.94413556223418
 20
99.24475271812355
 30
0.0
 42
-0.5820970919987597
  0
VERTEX
  5
2E3E
  8
SAPA_FOGBAND
 10
32.281760151668941
 20
98.846989244867245
 30
0.0
  0
VERTEX
  5
2E3F
  8
SAPA_FOGBAND
 10
32.018239846097849
 20
98.126195365040076
 30
0.0
 42
0.0878504214281866
  0
VERTEX
  5
2E40
  8
SAPA_FOGBAND
 10
32.000000000000902
 20
98.02318460990989
 30
0.0
  0
VERTEX
  5
2E41
  8
SAPA_FOGBAND
 10
32.000000000000973
 20
95.950000018354444
 30
0.0
 42
0.414213562373095
  0
VERTEX
  5
2E42
  8
SAPA_FOGBAND
 10
32.300000000000978
 20
95.650000018354277
 30
0.0
  0
VERTEX
  5
2E43
  8
SAPA_FOGBAND
 10
32.400000000000936
 20
95.650000018354376
 30
0.0
 42
-0.4142135623730784
  0
VERTEX
  5
2E44
  8
SAPA_FOGBAND
 10
33.400000000000887
 20
94.650000018354376
 30
0.0
  0
VERTEX
  5
2E45
  8
SAPA_FOGBAND
 10
33.400000000000887
 20
85.650000018354277
 30
0.0
 42
-0.4142135623730784
  0
VERTEX
  5
2E46
  8
SAPA_FOGBAND
 10
32.400000000000936
 20
84.650000018354248
 30
0.0
  0
VERTEX
  5
2E47
  8
SAPA_FOGBAND
 10
32.30000000000058
 20
84.650000018354149
 30
0.0
 42
0.4142135623731505
  0
VERTEX
  5
2E48
  8
SAPA_FOGBAND
 10
32.000000000000568
 20
84.350000018354194
 30
0.0
  0
VERTEX
  5
2E49
  8
SAPA_FOGBAND
 10
32.000000000000568
 20
81.849999999997877
 30
0.0
 42
-0.4142135623733725
  0
VERTEX
  5
2E4A
  8
SAPA_FOGBAND
 10
31.70000000000033
 20
81.549999999997908
 30
0.0
  0
VERTEX
  5
2E4B
  8
SAPA_FOGBAND
 10
30.933415429662041
 20
81.549999999998477
 30
0.0
 42
0.0829635818308052
  0
VERTEX
  5
2E4C
  8
SAPA_FOGBAND
 10
30.868399475959791
 20
81.539137319859606
 30
0.0
  0
VERTEX
  5
2E4D
  8
SAPA_FOGBAND
 10
30.272087657736961
 20
81.334155132345472
 30
0.0
 42
-0.7119857272911798
  0
VERTEX
  5
2E4E
  8
SAPA_FOGBAND
 10
30.039016810287539
 20
81.631724701503686
 30
0.0
  0
VERTEX
  5
2E4F
  8
SAPA_FOGBAND
 10
30.245029510655399
 20
81.951015712206754
 30
0.0
 42
0.4140587270324127
  0
VERTEX
  5
2E50
  8
SAPA_FOGBAND
 10
30.194425768712222
 20
82.185981037702035
 30
0.0
  0
VERTEX
  5
2E51
  8
SAPA_FOGBAND
 10
30.060027713608068
 20
82.272797913591489
 30
0.0
 42
0.414368414667364
  0
VERTEX
  5
2E52
  8
SAPA_FOGBAND
 10
29.82493813618089
 20
82.222167411901069
 30
0.0
  0
VERTEX
  5
2E53
  8
SAPA_FOGBAND
 10
29.479864706148138
 20
81.687351626053101
 30
0.0
 42
-0.2131842828171531
  0
VERTEX
  5
2E54
  8
SAPA_FOGBAND
 10
29.274875536326078
 20
81.553719333629715
 30
0.0
  0
VERTEX
  5
2E55
  8
SAPA_FOGBAND
 10
27.53491673456978
 20
81.277156647181187
 30
0.0
 42
-0.6485541630629518
  0
VERTEX
  5
2E56
  8
SAPA_FOGBAND
 10
27.33546639362368
 20
81.583109340724263
 30
0.0
  0
VERTEX
  5
2E57
  8
SAPA_FOGBAND
 10
27.572846659684959
 20
81.951015712207095
 30
0.0
 42
0.4140587270331186
  0
VERTEX
  5
2E58
  8
SAPA_FOGBAND
 10
27.522242917741892
 20
82.185981037702376
 30
0.0
  0
VERTEX
  5
2E59
  8
SAPA_FOGBAND
 10
27.387844862637571
 20
82.272797913591944
 30
0.0
 42
0.414368414667364
  0
VERTEX
  5
2E5A
  8
SAPA_FOGBAND
 10
27.15275528521039
 20
82.222167411901751
 30
0.0
  0
VERTEX
  5
2E5B
  8
SAPA_FOGBAND
 10
26.478099109030271
 20
81.176544244082606
 30
0.0
 42
-0.2131842828168576
  0
VERTEX
  5
2E5C
  8
SAPA_FOGBAND
 10
26.341439662482401
 20
81.087456049133706
 30
0.0
  0
VERTEX
  5
2E5D
  8
SAPA_FOGBAND
 10
25.219765880589019
 20
80.909168428687735
 30
0.0
 42
0.3687633958515224
  0
VERTEX
  5
2E5E
  8
SAPA_FOGBAND
 10
24.827817149031318
 20
80.449999999999477
 30
0.0
  0
VERTEX
  5
2E5F
  8
SAPA_FOGBAND
 10
24.827817149029961
 20
79.94999999999925
 30
0.0
 42
0.3687633958509936
  0
VERTEX
  5
2E60
  8
SAPA_FOGBAND
 10
25.21976588058897
 20
79.490831571311105
 30
0.0
  0
VERTEX
  5
2E61
  8
SAPA_FOGBAND
 10
26.34143966248217
 20
79.312543950864779
 30
0.0
 42
-0.2131842828168549
  0
VERTEX
  5
2E62
  8
SAPA_FOGBAND
 10
26.478099109030101
 20
79.223455755915765
 30
0.0
  0
VERTEX
  5
2E63
  8
SAPA_FOGBAND
 10
27.152755285210159
 20
78.177832588096749
 30
0.0
 42
0.4143684146674465
  0
VERTEX
  5
2E64
  8
SAPA_FOGBAND
 10
27.38784486263717
 20
78.127202086406101
 30
0.0
  0
VERTEX
  5
2E65
  8
SAPA_FOGBAND
 10
27.522242917741611
 20
78.21401896229554
 30
0.0
 42
0.4140587270332008
  0
VERTEX
  5
2E66
  8
SAPA_FOGBAND
 10
27.572846659684501
 20
78.448984287790836
 30
0.0
  0
VERTEX
  5
2E67
  8
SAPA_FOGBAND
 10
27.335466393623221
 20
78.816890659273895
 30
0.0
 42
-0.6485541630617839
  0
VERTEX
  5
2E68
  8
SAPA_FOGBAND
 10
27.534916734569489
 20
79.122843352816744
 30
0.0
  0
VERTEX
  5
2E69
  8
SAPA_FOGBAND
 10
29.274875536325851
 20
78.846280666368216
 30
0.0
 42
-0.2131842828170127
  0
VERTEX
  5
2E6A
  8
SAPA_FOGBAND
 10
29.479864706147911
 20
78.712648373944717
 30
0.0
  0
VERTEX
  5
2E6B
  8
SAPA_FOGBAND
 10
29.824938136180659
 20
78.177832588096749
 30
0.0
 42
0.4143684146674996
  0
VERTEX
  5
2E6C
  8
SAPA_FOGBAND
 10
30.060027713607731
 20
78.127202086406101
 30
0.0
  0
VERTEX
  5
2E6D
  8
SAPA_FOGBAND
 10
30.194425768712051
 20
78.21401896229554
 30
0.0
 42
0.4140587270332008
  0
VERTEX
  5
2E6E
  8
SAPA_FOGBAND
 10
30.245029510654948
 20
78.448984287790836
 30
0.0
  0
VERTEX
  5
2E6F
  8
SAPA_FOGBAND
 10
30.039016810287361
 20
78.768275298494132
 30
0.0
 42
-0.7119857272913394
  0
VERTEX
  5
2E70
  8
SAPA_FOGBAND
 10
30.27208765773679
 20
79.065844867652345
 30
0.0
  0
VERTEX
  5
2E71
  8
SAPA_FOGBAND
 10
30.86839947595951
 20
78.860862680138084
 30
0.0
 42
0.082963581830348
  0
VERTEX
  5
2E72
  8
SAPA_FOGBAND
 10
30.93341542966175
 20
78.849999999999795
 30
0.0
  0
VERTEX
  5
2E73
  8
SAPA_FOGBAND
 10
31.700000000000561
 20
78.849999999999795
 30
0.0
 42
-0.4142135623731505
  0
VERTEX
  5
2E74
  8
SAPA_FOGBAND
 10
32.000000000000568
 20
78.549999999999841
 30
0.0
  0
VERTEX
  5
2E75
  8
SAPA_FOGBAND
 10
32.000000000000568
 20
77.350000003665059
 30
0.0
 42
0.666739367763703
  0
VERTEX
  5
2E76
  8
SAPA_FOGBAND
 10
32.42607123655592
 20
77.172520653717243
 30
0.0
  0
VERTEX
  5
2E77
  8
SAPA_FOGBAND
 10
34.911285483867012
 20
79.638017319992855
 30
0.0
 42
0.1999476574935361
  0
VERTEX
  5
2E78
  8
SAPA_FOGBAND
 10
35.000000000000632
 20
79.850992539930189
 30
0.0
  0
VERTEX
  5
2E79
  8
SAPA_FOGBAND
 10
35.000000000000568
 20
81.039911536693921
 30
0.0
 42
0.2216963450753665
  0
VERTEX
  5
2E7A
  8
SAPA_FOGBAND
 10
34.928556539182118
 20
81.193121249942465
 30
0.0
  0
VERTEX
  5
2E7B
  8
SAPA_FOGBAND
 10
34.799999874100592
 20
81.300991694976005
 30
0.0
  0
VERTEX
  5
2E7C
  8
SAPA_FOGBAND
 10
34.939274096945333
 20
81.417857014502488
 30
0.0
 42
0.2216942531867427
  0
VERTEX
  5
2E7D
  8
SAPA_FOGBAND
 10
35.000000000000398
 20
81.548084399245113
 30
0.0
  0
VERTEX
  5
2E7E
  8
SAPA_FOGBAND
 10
35.000000000000568
 20
81.553900004006763
 30
0.0
 42
0.2216942531866174
  0
VERTEX
  5
2E7F
  8
SAPA_FOGBAND
 10
34.939274096945333
 20
81.684127388749388
 30
0.0
  0
VERTEX
  5
2E80
  8
SAPA_FOGBAND
 10
34.799999874100592
 20
81.800992708275885
 30
0.0
  0
VERTEX
  5
2E81
  8
SAPA_FOGBAND
 10
34.939274096945333
 20
81.917858027802353
 30
0.0
 42
0.2216942531867427
  0
VERTEX
  5
2E82
  8
SAPA_FOGBAND
 10
35.000000000000398
 20
82.048085412544978
 30
0.0
  0
VERTEX
  5
2E83
  8
SAPA_FOGBAND
 10
35.000000000000568
 20
82.053901017306657
 30
0.0
 42
0.2216942531866174
  0
VERTEX
  5
2E84
  8
SAPA_FOGBAND
 10
34.939274096945333
 20
82.184128402049282
 30
0.0
  0
VERTEX
  5
2E85
  8
SAPA_FOGBAND
 10
34.799999874100592
 20
82.300993721575765
 30
0.0
  0
VERTEX
  5
2E86
  8
SAPA_FOGBAND
 10
34.939274096945333
 20
82.417859041102247
 30
0.0
 42
0.2216942531867427
  0
VERTEX
  5
2E87
  8
SAPA_FOGBAND
 10
35.000000000000398
 20
82.548086425844872
 30
0.0
  0
VERTEX
  5
2E88
  8
SAPA_FOGBAND
 10
35.000000000000568
 20
82.553902030606537
 30
0.0
 42
0.2216942531866174
  0
VERTEX
  5
2E89
  8
SAPA_FOGBAND
 10
34.939274096945333
 20
82.684129415349176
 30
0.0
  0
VERTEX
  5
2E8A
  8
SAPA_FOGBAND
 10
34.799999874100592
 20
82.800994734875644
 30
0.0
  0
VERTEX
  5
2E8B
  8
SAPA_FOGBAND
 10
34.939274096945333
 20
82.917860054402126
 30
0.0
 42
0.2216942531867427
  0
VERTEX
  5
2E8C
  8
SAPA_FOGBAND
 10
35.000000000000398
 20
83.048087439144766
 30
0.0
  0
VERTEX
  5
2E8D
  8
SAPA_FOGBAND
 10
35.000000000000568
 20
83.053903043906416
 30
0.0
 42
0.2216942531866174
  0
VERTEX
  5
2E8E
  8
SAPA_FOGBAND
 10
34.939274096945333
 20
83.184130428649041
 30
0.0
  0
VERTEX
  5
2E8F
  8
SAPA_FOGBAND
 10
34.799999874100592
 20
83.300995748175524
 30
0.0
  0
VERTEX
  5
2E90
  8
SAPA_FOGBAND
 10
34.939274096945333
 20
83.417861067702006
 30
0.0
 42
0.2216942531867427
  0
VERTEX
  5
2E91
  8
SAPA_FOGBAND
 10
35.000000000000398
 20
83.548088452444631
 30
0.0
  0
VERTEX
  5
2E92
  8
SAPA_FOGBAND
 10
35.000000000000568
 20
83.553904057206296
 30
0.0
 42
0.2216942531866174
  0
VERTEX
  5
2E93
  8
SAPA_FOGBAND
 10
34.939274096945333
 20
83.684131441948921
 30
0.0
  0
VERTEX
  5
2E94
  8
SAPA_FOGBAND
 10
34.799999874100592
 20
83.800996761475403
 30
0.0
  0
VERTEX
  5
2E95
  8
SAPA_FOGBAND
 10
34.939274096945333
 20
83.917862081001886
 30
0.0
 42
0.2216942531867427
  0
VERTEX
  5
2E96
  8
SAPA_FOGBAND
 10
35.000000000000398
 20
84.048089465744511
 30
0.0
  0
VERTEX
  5
2E97
  8
SAPA_FOGBAND
 10
35.000000000000568
 20
84.053905070506175
 30
0.0
 42
0.2216942531866174
  0
VERTEX
  5
2E98
  8
SAPA_FOGBAND
 10
34.939274096945333
 20
84.184132455248786
 30
0.0
  0
VERTEX
  5
2E99
  8
SAPA_FOGBAND
 10
34.800003203908659
 20
84.300994980725704
 30
0.0
  0
VERTEX
  5
2E9A
  8
SAPA_FOGBAND
 10
34.939274096945333
 20
84.417857506202594
 30
0.0
 42
0.2216942531867427
  0
VERTEX
  5
2E9B
  8
SAPA_FOGBAND
 10
35.000000000000398
 20
84.548084890945219
 30
0.0
  0
VERTEX
  5
2E9C
  8
SAPA_FOGBAND
 10
35.000000000000568
 20
84.553900495706898
 30
0.0
 42
0.2216942531866174
  0
VERTEX
  5
2E9D
  8
SAPA_FOGBAND
 10
34.939274096945333
 20
84.684127880449523
 30
0.0
  0
VERTEX
  5
2E9E
  8
SAPA_FOGBAND
 10
34.799999874100592
 20
84.800993199976006
 30
0.0
  0
VERTEX
  5
2E9F
  8
SAPA_FOGBAND
 10
34.939274096945333
 20
84.917858519502488
 30
0.0
 42
0.2216942531867427
  0
VERTEX
  5
2EA0
  8
SAPA_FOGBAND
 10
35.000000000000398
 20
85.048085904245113
 30
0.0
  0
VERTEX
  5
2EA1
  8
SAPA_FOGBAND
 10
35.000000000000568
 20
85.053901509006778
 30
0.0
 42
0.2216942531866174
  0
VERTEX
  5
2EA2
  8
SAPA_FOGBAND
 10
34.939274096945333
 20
85.184128893749417
 30
0.0
  0
VERTEX
  5
2EA3
  8
SAPA_FOGBAND
 10
34.799999874100592
 20
85.300994213275885
 30
0.0
  0
VERTEX
  5
2EA4
  8
SAPA_FOGBAND
 10
34.939274096945333
 20
85.417859532802368
 30
0.0
 42
0.2216942531867427
  0
VERTEX
  5
2EA5
  8
SAPA_FOGBAND
 10
35.000000000000398
 20
85.548086917545007
 30
0.0
  0
VERTEX
  5
2EA6
  8
SAPA_FOGBAND
 10
35.000000000000568
 20
85.553902522306643
 30
0.0
 42
0.2216942531866174
  0
VERTEX
  5
2EA7
  8
SAPA_FOGBAND
 10
34.939274096945333
 20
85.684129907049282
 30
0.0
  0
VERTEX
  5
2EA8
  8
SAPA_FOGBAND
 10
34.799999874100592
 20
85.800995226575765
 30
0.0
  0
VERTEX
  5
2EA9
  8
SAPA_FOGBAND
 10
34.939274096945333
 20
85.917860546102247
 30
0.0
 42
0.2216942531867427
  0
VERTEX
  5
2EAA
  8
SAPA_FOGBAND
 10
35.000000000000398
 20
86.048087930844872
 30
0.0
  0
VERTEX
  5
2EAB
  8
SAPA_FOGBAND
 10
35.000000000000568
 20
86.053903535606537
 30
0.0
 42
0.2216942531866174
  0
VERTEX
  5
2EAC
  8
SAPA_FOGBAND
 10
34.939274096945333
 20
86.184130920349162
 30
0.0
  0
VERTEX
  5
2EAD
  8
SAPA_FOGBAND
 10
34.799999874100592
 20
86.300996239875644
 30
0.0
  0
VERTEX
  5
2EAE
  8
SAPA_FOGBAND
 10
34.939274096945333
 20
86.417861559402127
 30
0.0
 42
0.2216942531867427
  0
VERTEX
  5
2EAF
  8
SAPA_FOGBAND
 10
35.000000000000398
 20
86.548088944144752
 30
0.0
  0
VERTEX
  5
2EB0
  8
SAPA_FOGBAND
 10
35.000000000000568
 20
86.553904548906416
 30
0.0
 42
0.2216942531866174
  0
VERTEX
  5
2EB1
  8
SAPA_FOGBAND
 10
34.939274096945333
 20
86.684131933649027
 30
0.0
  0
VERTEX
  5
2EB2
  8
SAPA_FOGBAND
 10
34.799999874100592
 20
86.800997253175524
 30
0.0
  0
VERTEX
  5
2EB3
  8
SAPA_FOGBAND
 10
34.939274096945333
 20
86.917862572702006
 30
0.0
 42
0.2216942531867427
  0
VERTEX
  5
2EB4
  8
SAPA_FOGBAND
 10
35.000000000000398
 20
87.048089957444617
 30
0.0
  0
VERTEX
  5
2EB5
  8
SAPA_FOGBAND
 10
35.000000000000568
 20
87.053905562206296
 30
0.0
 42
0.2216942531866174
  0
VERTEX
  5
2EB6
  8
SAPA_FOGBAND
 10
34.939274096945333
 20
87.184132946948921
 30
0.0
  0
VERTEX
  5
2EB7
  8
SAPA_FOGBAND
 10
34.799999874100592
 20
87.300998266475403
 30
0.0
  0
VERTEX
  5
2EB8
  8
SAPA_FOGBAND
 10
34.939274096945333
 20
87.417863586001886
 30
0.0
 42
0.2216942531867427
  0
VERTEX
  5
2EB9
  8
SAPA_FOGBAND
 10
35.000000000000398
 20
87.548090970744511
 30
0.0
  0
VERTEX
  5
2EBA
  8
SAPA_FOGBAND
 10
35.000000000000568
 20
87.553906575506176
 30
0.0
 42
0.2216942531866174
  0
VERTEX
  5
2EBB
  8
SAPA_FOGBAND
 10
34.939274096945333
 20
87.684133960248815
 30
0.0
  0
VERTEX
  5
2EBC
  8
SAPA_FOGBAND
 10
34.799999874100592
 20
87.800999279775283
 30
0.0
  0
VERTEX
  5
2EBD
  8
SAPA_FOGBAND
 10
34.939274096945333
 20
87.917864599301765
 30
0.0
 42
0.2216942531867427
  0
VERTEX
  5
2EBE
  8
SAPA_FOGBAND
 10
35.000000000000398
 20
88.048091984044405
 30
0.0
  0
VERTEX
  5
2EBF
  8
SAPA_FOGBAND
 10
35.000000000000568
 20
88.053907588806055
 30
0.0
 42
0.2216942531866174
  0
VERTEX
  5
2EC0
  8
SAPA_FOGBAND
 10
34.939274096945333
 20
88.18413497354868
 30
0.0
  0
VERTEX
  5
2EC1
  8
SAPA_FOGBAND
 10
34.799999874100592
 20
88.301000293075163
 30
0.0
  0
VERTEX
  5
2EC2
  8
SAPA_FOGBAND
 10
34.939274096945333
 20
88.417865612601645
 30
0.0
 42
0.2216942531867427
  0
VERTEX
  5
2EC3
  8
SAPA_FOGBAND
 10
35.000000000000398
 20
88.548092997344256
 30
0.0
  0
VERTEX
  5
2EC4
  8
SAPA_FOGBAND
 10
35.000000000000568
 20
88.553908602105935
 30
0.0
 42
0.2216942531866174
  0
VERTEX
  5
2EC5
  8
SAPA_FOGBAND
 10
34.939274096945333
 20
88.68413598684856
 30
0.0
  0
VERTEX
  5
2EC6
  8
SAPA_FOGBAND
 10
34.799999874100592
 20
88.801001306375042
 30
0.0
  0
VERTEX
  5
2EC7
  8
SAPA_FOGBAND
 10
34.939274096945333
 20
88.917866625901524
 30
0.0
 42
0.2216942531867427
  0
VERTEX
  5
2EC8
  8
SAPA_FOGBAND
 10
35.000000000000398
 20
89.048094010644149
 30
0.0
  0
VERTEX
  5
2EC9
  8
SAPA_FOGBAND
 10
35.000000000000568
 20
89.053909615405814
 30
0.0
 42
0.2216942531866174
  0
VERTEX
  5
2ECA
  8
SAPA_FOGBAND
 10
34.939274096945333
 20
89.184137000148425
 30
0.0
  0
VERTEX
  5
2ECB
  8
SAPA_FOGBAND
 10
34.799999874100592
 20
89.301002319674907
 30
0.0
  0
VERTEX
  5
2ECC
  8
SAPA_FOGBAND
 10
34.939274096945333
 20
89.417867639201404
 30
0.0
 42
0.2216942531867427
  0
VERTEX
  5
2ECD
  8
SAPA_FOGBAND
 10
35.000000000000398
 20
89.548095023944015
 30
0.0
  0
VERTEX
  5
2ECE
  8
SAPA_FOGBAND
 10
35.000000000000568
 20
89.553910628705694
 30
0.0
 42
0.2216942531866174
  0
VERTEX
  5
2ECF
  8
SAPA_FOGBAND
 10
34.939274096945333
 20
89.684138013448319
 30
0.0
  0
VERTEX
  5
2ED0
  8
SAPA_FOGBAND
 10
34.799999874100592
 20
89.801003332974801
 30
0.0
  0
VERTEX
  5
2ED1
  8
SAPA_FOGBAND
 10
34.939274096945333
 20
89.917868652501284
 30
0.0
 42
0.2216942531867427
  0
VERTEX
  5
2ED2
  8
SAPA_FOGBAND
 10
35.000000000000398
 20
90.048096037243909
 30
0.0
  0
VERTEX
  5
2ED3
  8
SAPA_FOGBAND
 10
35.000000000000568
 20
90.053911642005573
 30
0.0
 42
0.2216942531866174
  0
VERTEX
  5
2ED4
  8
SAPA_FOGBAND
 10
34.939274096945333
 20
90.184139026748198
 30
0.0
  0
VERTEX
  5
2ED5
  8
SAPA_FOGBAND
 10
34.799999874100592
 20
90.301004346274695
 30
0.0
  0
VERTEX
  5
2ED6
  8
SAPA_FOGBAND
 10
34.939274096945333
 20
90.417869665801163
 30
0.0
 42
0.2216942531867427
  0
VERTEX
  5
2ED7
  8
SAPA_FOGBAND
 10
35.000000000000398
 20
90.548097050543788
 30
0.0
  0
VERTEX
  5
2ED8
  8
SAPA_FOGBAND
 10
35.000000000000568
 20
90.553912655305453
 30
0.0
 42
0.2216942531866174
  0
VERTEX
  5
2ED9
  8
SAPA_FOGBAND
 10
34.939274096945333
 20
90.684140040048064
 30
0.0
  0
VERTEX
  5
2EDA
  8
SAPA_FOGBAND
 10
34.799999874100592
 20
90.80100535957456
 30
0.0
  0
VERTEX
  5
2EDB
  8
SAPA_FOGBAND
 10
34.939274096945333
 20
90.917870679101043
 30
0.0
 42
0.2216942531867427
  0
VERTEX
  5
2EDC
  8
SAPA_FOGBAND
 10
35.000000000000398
 20
91.048098063843653
 30
0.0
  0
VERTEX
  5
2EDD
  8
SAPA_FOGBAND
 10
35.000000000000568
 20
91.053913668605333
 30
0.0
 42
0.2216942531866174
  0
VERTEX
  5
2EDE
  8
SAPA_FOGBAND
 10
34.939274096945333
 20
91.184141053347957
 30
0.0
  0
VERTEX
  5
2EDF
  8
SAPA_FOGBAND
 10
34.799999874100592
 20
91.30100637287444
 30
0.0
  0
VERTEX
  5
2EE0
  8
SAPA_FOGBAND
 10
34.939274096945333
 20
91.417871692400922
 30
0.0
 42
0.2216942531867427
  0
VERTEX
  5
2EE1
  8
SAPA_FOGBAND
 10
35.000000000000398
 20
91.548099077143547
 30
0.0
  0
VERTEX
  5
2EE2
  8
SAPA_FOGBAND
 10
35.000000000000568
 20
91.553914681905198
 30
0.0
 42
0.2216942531866174
  0
VERTEX
  5
2EE3
  8
SAPA_FOGBAND
 10
34.939274096945333
 20
91.684142066647837
 30
0.0
  0
VERTEX
  5
2EE4
  8
SAPA_FOGBAND
 10
34.799999874100592
 20
91.801007386174305
 30
0.0
  0
VERTEX
  5
2EE5
  8
SAPA_FOGBAND
 10
34.939274096945333
 20
91.917872705700788
 30
0.0
 42
0.2216942531867427
  0
VERTEX
  5
2EE6
  8
SAPA_FOGBAND
 10
35.000000000000398
 20
92.048100090443427
 30
0.0
  0
VERTEX
  5
2EE7
  8
SAPA_FOGBAND
 10
35.000000000000568
 20
92.053915695205092
 30
0.0
 42
0.2216942531866174
  0
VERTEX
  5
2EE8
  8
SAPA_FOGBAND
 10
34.939274096945333
 20
92.184143079947717
 30
0.0
  0
VERTEX
  5
2EE9
  8
SAPA_FOGBAND
 10
34.799999874100592
 20
92.301008399474199
 30
0.0
  0
VERTEX
  5
2EEA
  8
SAPA_FOGBAND
 10
34.939274096945333
 20
92.417873719000681
 30
0.0
 42
0.2216942531867427
  0
VERTEX
  5
2EEB
  8
SAPA_FOGBAND
 10
35.000000000000398
 20
92.548101103743306
 30
0.0
  0
VERTEX
  5
2EEC
  8
SAPA_FOGBAND
 10
35.000000000000568
 20
92.553916708504985
 30
0.0
 42
0.2216942531866174
  0
VERTEX
  5
2EED
  8
SAPA_FOGBAND
 10
34.939274096945333
 20
92.684144093247596
 30
0.0
  0
VERTEX
  5
2EEE
  8
SAPA_FOGBAND
 10
34.799999874100592
 20
92.801009412774079
 30
0.0
  0
VERTEX
  5
2EEF
  8
SAPA_FOGBAND
 10
34.939274096945333
 20
92.917874732300575
 30
0.0
 42
0.2216942531867427
  0
VERTEX
  5
2EF0
  8
SAPA_FOGBAND
 10
35.000000000000398
 20
93.048102117043186
 30
0.0
  0
VERTEX
  5
2EF1
  8
SAPA_FOGBAND
 10
35.000000000000568
 20
93.053917721804851
 30
0.0
 42
0.2216942531866174
  0
VERTEX
  5
2EF2
  8
SAPA_FOGBAND
 10
34.939274096945333
 20
93.184145106547476
 30
0.0
  0
SEQEND
  5
2EF3
  8
SAPA_FOGBAND
  0
LINE
  5
1E47
  8
SAPA_FOGBAND
 10
34.799999874100592
 20
84.300992186676126
 30
0.0
 11
34.937046319300578
 21
84.185996200475856
 31
0.0
  0
CIRCLE
  5
1E48
  8
SAPA_FOGBAND
 10
18.629356795612921
 20
-85.028466855359852
 30
0.0
 40
0.2549509756796394
  0
INSERT
  5
1E49
  8
SAPA_FOGBAND
  6
CONTINUOUS
  2
*U85
 10
0.0
 20
0.0
 30
0.0
1001
ACAD
1002
{
1000
R14_HATCH_DATA
1000
1E49
1011
1.0
1021
0.0
1031
0.0
1021
0.0
1031
0.0
1011
0.0
1021
0.0
1031
0.0
1021
1.0
1031
0.0
1011
0.0
1021
0.0
1031
0.0
1021
0.0
1031
1.0
1040
0.0
1010
0.0
1020
0.0
1030
1.0
1000
SOLID
1070
     1
1070
     1
1071
        1
1071
        1
1071
        1
1070
     2
1040
18.629356795612921
1040
-85.028466855359852
1040
0.2549509756796394
1040
-3.1415926535897931
1040
3.1415926535897931
1070
     0
1071
        1
1005
1E48
1070
     0
1070
     1
1071
        1
1040
577.52116078462973
1040
-436.19161876006672
1040
0.0
1002
}
  0
POLYLINE
  5
1E4A
  8
SAPA_FOGBAND
 66
     1
 10
0.0
 20
0.0
 30
0.0
 70
     1
  0
VERTEX
  5
2F05
  8
SAPA_FOGBAND
 10
17.729356795613281
 20
-87.599999999011175
 30
0.0
 42
-0.9999999999999998
  0
VERTEX
  5
2F06
  8
SAPA_FOGBAND
 10
19.52935679561347
 20
-87.599999999011175
 30
0.0
  0
VERTEX
  5
2F07
  8
SAPA_FOGBAND
 10
19.52935679561347
 20
-88.199999999011538
 30
0.0
 42
-0.9999999999999998
  0
VERTEX
  5
2F08
  8
SAPA_FOGBAND
 10
17.729356795613281
 20
-88.199999999011538
 30
0.0
  0
SEQEND
  5
2F09
  8
SAPA_FOGBAND
  0
POLYLINE
  5
1E4B
  8
SAPA_FOGBAND
 66
     1
 10
0.0
 20
0.0
 30
0.0
 70
     1
  0
VERTEX
  5
2F0A
  8
SAPA_FOGBAND
 10
14.379356795612919
 20
-84.164228703859749
 30
0.0
  0
VERTEX
  5
2F0B
  8
SAPA_FOGBAND
 10
14.379356795612919
 20
-86.299999999011007
 30
0.0
 42
0.4142135623730951
  0
VERTEX
  5
2F0C
  8
SAPA_FOGBAND
 10
14.579356795612741
 20
-86.499999999010825
 30
0.0
  0
VERTEX
  5
2F0D
  8
SAPA_FOGBAND
 10
16.629356795612921
 20
-86.499999999010825
 30
0.0
 42
-0.4142135623730951
  0
VERTEX
  5
2F0E
  8
SAPA_FOGBAND
 10
17.129356795612921
 20
-86.999999999010811
 30
0.0
  0
VERTEX
  5
2F0F
  8
SAPA_FOGBAND
 10
17.129356795612921
 20
-87.726794918254555
 30
0.0
  0
VERTEX
  5
2F10
  8
SAPA_FOGBAND
 10
16.87759298659261
 20
-87.794254827564487
 30
0.0
 42
0.4740571810232154
  0
VERTEX
  5
2F11
  8
SAPA_FOGBAND
 10
16.750299124229279
 20
-88.0765374132028
 30
0.0
  0
VERTEX
  5
2F12
  8
SAPA_FOGBAND
 10
17.370399626988039
 20
-89.522743549963138
 30
0.0
 42
0.2846003776496056
  0
VERTEX
  5
2F13
  8
SAPA_FOGBAND
 10
17.818043805448038
 20
-89.799999999010993
 30
0.0
  0
VERTEX
  5
2F14
  8
SAPA_FOGBAND
 10
19.440669785778709
 20
-89.799999999010993
 30
0.0
 42
0.2846003776496054
  0
VERTEX
  5
2F15
  8
SAPA_FOGBAND
 10
19.888313964238701
 20
-89.522743549963138
 30
0.0
  0
VERTEX
  5
2F16
  8
SAPA_FOGBAND
 10
20.508414466997468
 20
-88.0765374132028
 30
0.0
 42
0.4740571810232154
  0
VERTEX
  5
2F17
  8
SAPA_FOGBAND
 10
20.381120604633232
 20
-87.794254827564487
 30
0.0
  0
VERTEX
  5
2F18
  8
SAPA_FOGBAND
 10
20.129356795612921
 20
-87.726794918254555
 30
0.0
  0
VERTEX
  5
2F19
  8
SAPA_FOGBAND
 10
20.129356795612921
 20
-86.999999999010811
 30
0.0
 42
-0.4142135623730951
  0
VERTEX
  5
2F1A
  8
SAPA_FOGBAND
 10
20.629356795612921
 20
-86.499999999010825
 30
0.0
  0
VERTEX
  5
2F1B
  8
SAPA_FOGBAND
 10
23.679356795613099
 20
-86.499999999010825
 30
0.0
 42
-0.4142135623730951
  0
VERTEX
  5
2F1C
  8
SAPA_FOGBAND
 10
23.879356795612921
 20
-86.699999999011538
 30
0.0
  0
VERTEX
  5
2F1D
  8
SAPA_FOGBAND
 10
23.879356795612921
 20
-87.599999999011175
 30
0.0
 42
0.4142135623730951
  0
VERTEX
  5
2F1E
  8
SAPA_FOGBAND
 10
24.079356795612739
 20
-87.799999999010979
 30
0.0
  0
VERTEX
  5
2F1F
  8
SAPA_FOGBAND
 10
24.77935679561347
 20
-87.799999999010979
 30
0.0
 42
0.4142135623730951
  0
VERTEX
  5
2F20
  8
SAPA_FOGBAND
 10
25.079356795612739
 20
-87.499999999010811
 30
0.0
  0
VERTEX
  5
2F21
  8
SAPA_FOGBAND
 10
25.079356795612739
 20
-86.689488222359046
 30
0.0
 42
-0.1316524975873982
  0
VERTEX
  5
2F22
  8
SAPA_FOGBAND
 10
25.347305988044582
 20
-85.689488222359046
 30
0.0
  0
VERTEX
  5
2F23
  8
SAPA_FOGBAND
 10
29.318018525146051
 20
-83.054121304015439
 30
0.0
 42
0.876976462992761
  0
VERTEX
  5
2F24
  8
SAPA_FOGBAND
 10
29.21511293523622
 20
-82.536779967899164
 30
0.0
  0
VERTEX
  5
2F25
  8
SAPA_FOGBAND
 10
23.790451373364021
 20
-83.09062476444285
 30
0.0
 42
-0.1353185728426623
  0
VERTEX
  5
2F26
  8
SAPA_FOGBAND
 10
23.790451373364021
 20
-83.09062476444285
 30
0.0
  0
VERTEX
  5
2F27
  8
SAPA_FOGBAND
 10
23.552561880535219
 20
-82.678588072042999
 30
0.0
 42
0.5773502691896196
  0
VERTEX
  5
2F28
  8
SAPA_FOGBAND
 10
23.206151719020681
 20
-82.678588072042999
 30
0.0
  0
VERTEX
  5
2F29
  8
SAPA_FOGBAND
 10
22.968104102289772
 20
-83.090898634604287
 30
0.0
  0
VERTEX
  5
2F2A
  8
SAPA_FOGBAND
 10
22.1906094923736
 20
-83.090898634604287
 30
0.0
  0
VERTEX
  5
2F2B
  8
SAPA_FOGBAND
 10
21.952561880534859
 20
-82.678588072042999
 30
0.0
 42
0.5773502691896196
  0
VERTEX
  5
2F2C
  8
SAPA_FOGBAND
 10
21.606151719021231
 20
-82.678588072042999
 30
0.0
  0
VERTEX
  5
2F2D
  8
SAPA_FOGBAND
 10
21.368104102290321
 20
-83.090898634604287
 30
0.0
  0
VERTEX
  5
2F2E
  8
SAPA_FOGBAND
 10
20.590609492373229
 20
-83.090898634604287
 30
0.0
  0
VERTEX
  5
2F2F
  8
SAPA_FOGBAND
 10
20.352561880535411
 20
-82.678588072042999
 30
0.0
 42
0.5773502691896196
  0
VERTEX
  5
2F30
  8
SAPA_FOGBAND
 10
20.00615171902087
 20
-82.678588072042999
 30
0.0
  0
VERTEX
  5
2F31
  8
SAPA_FOGBAND
 10
19.768104102290859
 20
-83.090898634604287
 30
0.0
  0
VERTEX
  5
2F32
  8
SAPA_FOGBAND
 10
18.990609492373778
 20
-83.090898634604287
 30
0.0
  0
VERTEX
  5
2F33
  8
SAPA_FOGBAND
 10
18.75256188053504
 20
-82.678588072042999
 30
0.0
 42
0.5773502691896196
  0
VERTEX
  5
2F34
  8
SAPA_FOGBAND
 10
18.406151719021409
 20
-82.678588072042999
 30
0.0
  0
VERTEX
  5
2F35
  8
SAPA_FOGBAND
 10
18.168104102290499
 20
-83.090898634604287
 30
0.0
  0
VERTEX
  5
2F36
  8
SAPA_FOGBAND
 10
17.390609492373411
 20
-83.090898634604287
 30
0.0
  0
VERTEX
  5
2F37
  8
SAPA_FOGBAND
 10
17.15256188053468
 20
-82.678588072042999
 30
0.0
 42
0.5773502691896196
  0
VERTEX
  5
2F38
  8
SAPA_FOGBAND
 10
16.806151719021042
 20
-82.678588072042999
 30
0.0
  0
VERTEX
  5
2F39
  8
SAPA_FOGBAND
 10
16.568104102290128
 20
-83.090898634604287
 30
0.0
  0
VERTEX
  5
2F3A
  8
SAPA_FOGBAND
 10
15.790609488208471
 20
-83.090898634604287
 30
0.0
  0
VERTEX
  5
2F3B
  8
SAPA_FOGBAND
 10
15.55256187636973
 20
-82.678588072042999
 30
0.0
 42
0.5773502691896196
  0
VERTEX
  5
2F3C
  8
SAPA_FOGBAND
 10
15.2061517148561
 20
-82.678588072042999
 30
0.0
  0
VERTEX
  5
2F3D
  8
SAPA_FOGBAND
 10
14.40615171530157
 20
-84.064228703089043
 30
0.0
 42
0.1316524987190407
  0
SEQEND
  5
2F3E
  8
SAPA_FOGBAND
  0
POLYLINE
  5
1E4C
  8
SAPA_FOGBAND
 66
     1
 10
0.0
 20
0.0
 30
0.0
 70
     1
  0
VERTEX
  5
2F3F
  8
SAPA_FOGBAND
 10
21.953090993535849
 20
-33.991114672817389
 30
0.0
 42
0.4740571810231764
  0
VERTEX
  5
2F40
  8
SAPA_FOGBAND
 10
22.08038485589918
 20
-33.708832087179083
 30
0.0
  0
VERTEX
  5
2F41
  8
SAPA_FOGBAND
 10
21.46028435314042
 20
-32.262625950418737
 30
0.0
 42
0.2846003776496257
  0
VERTEX
  5
2F42
  8
SAPA_FOGBAND
 10
21.012640174680431
 20
-31.985369501370879
 30
0.0
  0
VERTEX
  5
2F43
  8
SAPA_FOGBAND
 10
19.39001419434976
 20
-31.985369501370879
 30
0.0
 42
0.2846003776496159
  0
VERTEX
  5
2F44
  8
SAPA_FOGBAND
 10
18.942370015889761
 20
-32.262625950418737
 30
0.0
  0
VERTEX
  5
2F45
  8
SAPA_FOGBAND
 10
18.322269513131001
 20
-33.708832087179083
 30
0.0
 42
0.4740571810232354
  0
VERTEX
  5
2F46
  8
SAPA_FOGBAND
 10
18.449563375494328
 20
-33.991114672817389
 30
0.0
  0
VERTEX
  5
2F47
  8
SAPA_FOGBAND
 10
18.701327184515549
 20
-34.058574582128252
 30
0.0
  0
VERTEX
  5
2F48
  8
SAPA_FOGBAND
 10
18.701327184515549
 20
-34.999999999009681
 30
0.0
 42
-0.4142135623730951
  0
VERTEX
  5
2F49
  8
SAPA_FOGBAND
 10
18.201327184515549
 20
-35.499999999009667
 30
0.0
  0
VERTEX
  5
2F4A
  8
SAPA_FOGBAND
 10
15.17322763378092
 20
-35.499999999009667
 30
0.0
 42
0.1657205760184635
  0
VERTEX
  5
2F4B
  8
SAPA_FOGBAND
 10
14.562553147167129
 20
-35.708118270846292
 30
0.0
  0
VERTEX
  5
2F4C
  8
SAPA_FOGBAND
 10
5.194662756689695
 20
-40.602703355701919
 30
0.0
 42
0.2325311832130358
  0
VERTEX
  5
2F4D
  8
SAPA_FOGBAND
 10
4.9999999999965894
 20
-40.998644219784069
 30
0.0
  0
VERTEX
  5
2F4E
  8
SAPA_FOGBAND
 10
4.9999999999965894
 20
-42.729387776221181
 30
0.0
 42
0.3826682380870913
  0
VERTEX
  5
2F4F
  8
SAPA_FOGBAND
 10
5.8913247430457432
 20
-43.723465081326928
 30
0.0
  0
VERTEX
  5
2F50
  8
SAPA_FOGBAND
 10
11.49579350334284
 20
-44.499999999010349
 30
0.0
  0
VERTEX
  5
2F51
  8
SAPA_FOGBAND
 10
25.2013271625658
 20
-44.499999999010349
 30
0.0
 42
0.4257917699693507
  0
VERTEX
  5
2F52
  8
SAPA_FOGBAND
 10
25.501094716163841
 20
-44.18819263647935
 30
0.0
  0
VERTEX
  5
2F53
  8
SAPA_FOGBAND
 10
25.01325490149452
 20
-35.788192636479039
 30
0.0
 42
0.4027293761437475
  0
VERTEX
  5
2F54
  8
SAPA_FOGBAND
 10
24.713487347896489
 20
-35.499999999009667
 30
0.0
  0
VERTEX
  5
2F55
  8
SAPA_FOGBAND
 10
22.201327184515549
 20
-35.499999999009667
 30
0.0
 42
-0.4142135623730951
  0
VERTEX
  5
2F56
  8
SAPA_FOGBAND
 10
21.701327184514639
 20
-34.999999999009681
 30
0.0
  0
VERTEX
  5
2F57
  8
SAPA_FOGBAND
 10
21.701327184514639
 20
-34.058574582128252
 30
0.0
  0
SEQEND
  5
2F58
  8
SAPA_FOGBAND
  0
POLYLINE
  5
1E4D
  8
SAPA_FOGBAND
 66
     1
 10
0.0
 20
0.0
 30
0.0
 70
     1
  0
VERTEX
  5
2F59
  8
SAPA_FOGBAND
 10
19.301327184514999
 20
-33.585369501371247
 30
0.0
  0
VERTEX
  5
2F5A
  8
SAPA_FOGBAND
 10
19.301327184514999
 20
-34.185369501370701
 30
0.0
 42
0.9999999999999998
  0
VERTEX
  5
2F5B
  8
SAPA_FOGBAND
 10
21.101327184515181
 20
-34.185369501370701
 30
0.0
  0
VERTEX
  5
2F5C
  8
SAPA_FOGBAND
 10
21.101327184515181
 20
-33.585369501371247
 30
0.0
 42
0.9999999999999998
  0
SEQEND
  5
2F5D
  8
SAPA_FOGBAND
  0
POLYLINE
  5
1E4E
  8
SAPA_FOGBAND
 66
     1
 10
0.0
 20
0.0
 30
0.0
  0
VERTEX
  5
2F5E
  8
SAPA_FOGBAND
 10
23.801327184514999
 20
-35.499999999009667
 30
0.0
  0
VERTEX
  5
2F5F
  8
SAPA_FOGBAND
 10
23.801327184514999
 20
-35.799999999009863
 30
0.0
 42
-0.4142135623730951
  0
VERTEX
  5
2F60
  8
SAPA_FOGBAND
 10
23.301327184514999
 20
-36.299999999009863
 30
0.0
  0
VERTEX
  5
2F61
  8
SAPA_FOGBAND
 10
16.001327184514821
 20
-36.299999999009863
 30
0.0
 42
-0.4142135623730951
  0
VERTEX
  5
2F62
  8
SAPA_FOGBAND
 10
15.501327184514819
 20
-35.799999999009863
 30
0.0
  0
VERTEX
  5
2F63
  8
SAPA_FOGBAND
 10
15.501327184515731
 20
-35.499999999009667
 30
0.0
  0
SEQEND
  5
2F64
  8
SAPA_FOGBAND
  0
POLYLINE
  5
1E4F
  8
SAPA_FOGBAND
 10
18.983103333429021
 20
-38.341392140065295
 30
0.0
 66
     1
 70
     8
  0
VERTEX
  8
SAPA_FOGBAND
  5
3003
 10
18.9831
 20
-38.3414
 30
0.000000
  70
    32
  0
VERTEX
  8
SAPA_FOGBAND
  5
3004
 10
19.1449
 20
-38.3450
 30
0.000000
  70
    32
  0
VERTEX
  8
SAPA_FOGBAND
  5
3005
 10
19.3063
 20
-38.3527
 30
0.000000
  70
    32
  0
VERTEX
  8
SAPA_FOGBAND
  5
3006
 10
19.4669
 20
-38.3645
 30
0.000000
  70
    32
  0
VERTEX
  8
SAPA_FOGBAND
  5
3007
 10
19.6262
 20
-38.3802
 30
0.000000
  70
    32
  0
VERTEX
  8
SAPA_FOGBAND
  5
3008
 10
19.7840
 20
-38.3999
 30
0.000000
  70
    32
  0
VERTEX
  8
SAPA_FOGBAND
  5
3009
 10
19.9398
 20
-38.4236
 30
0.000000
  70
    32
  0
VERTEX
  8
SAPA_FOGBAND
  5
300A
 10
20.0933
 20
-38.4511
 30
0.000000
  70
    32
  0
VERTEX
  8
SAPA_FOGBAND
  5
300B
 10
20.2440
 20
-38.4824
 30
0.000000
  70
    32
  0
VERTEX
  8
SAPA_FOGBAND
  5
300C
 10
20.3917
 20
-38.5175
 30
0.000000
  70
    32
  0
VERTEX
  8
SAPA_FOGBAND
  5
300D
 10
20.5359
 20
-38.5561
 30
0.000000
  70
    32
  0
VERTEX
  8
SAPA_FOGBAND
  5
300E
 10
20.6764
 20
-38.5984
 30
0.000000
  70
    32
  0
VERTEX
  8
SAPA_FOGBAND
  5
300F
 10
20.8127
 20
-38.6440
 30
0.000000
  70
    32
  0
VERTEX
  8
SAPA_FOGBAND
  5
3010
 10
20.9446
 20
-38.6931
 30
0.000000
  70
    32
  0
VERTEX
  8
SAPA_FOGBAND
  5
3011
 10
21.0717
 20
-38.7453
 30
0.000000
  70
    32
  0
VERTEX
  8
SAPA_FOGBAND
  5
3012
 10
21.1937
 20
-38.8006
 30
0.000000
  70
    32
  0
VERTEX
  8
SAPA_FOGBAND
  5
3013
 10
21.3104
 20
-38.8589
 30
0.000000
  70
    32
  0
VERTEX
  8
SAPA_FOGBAND
  5
3014
 10
21.4214
 20
-38.9200
 30
0.000000
  70
    32
  0
VERTEX
  8
SAPA_FOGBAND
  5
3015
 10
21.5266
 20
-38.9838
 30
0.000000
  70
    32
  0
VERTEX
  8
SAPA_FOGBAND
  5
3016
 10
21.6255
 20
-39.0501
 30
0.000000
  70
    32
  0
VERTEX
  8
SAPA_FOGBAND
  5
3017
 10
21.7180
 20
-39.1187
 30
0.000000
  70
    32
  0
VERTEX
  8
SAPA_FOGBAND
  5
3018
 10
21.8040
 20
-39.1896
 30
0.000000
  70
    32
  0
VERTEX
  8
SAPA_FOGBAND
  5
3019
 10
21.8830
 20
-39.2624
 30
0.000000
  70
    32
  0
VERTEX
  8
SAPA_FOGBAND
  5
301A
 10
21.9551
 20
-39.3371
 30
0.000000
  70
    32
  0
VERTEX
  8
SAPA_FOGBAND
  5
301B
 10
22.0199
 20
-39.4135
 30
0.000000
  70
    32
  0
VERTEX
  8
SAPA_FOGBAND
  5
301C
 10
22.0774
 20
-39.4914
 30
0.000000
  70
    32
  0
VERTEX
  8
SAPA_FOGBAND
  5
301D
 10
22.1274
 20
-39.5705
 30
0.000000
  70
    32
  0
VERTEX
  8
SAPA_FOGBAND
  5
301E
 10
22.1698
 20
-39.6508
 30
0.000000
  70
    32
  0
VERTEX
  8
SAPA_FOGBAND
  5
301F
 10
22.2045
 20
-39.7320
 30
0.000000
  70
    32
  0
VERTEX
  8
SAPA_FOGBAND
  5
3020
 10
22.2313
 20
-39.8139
 30
0.000000
  70
    32
  0
VERTEX
  8
SAPA_FOGBAND
  5
3021
 10
22.2503
 20
-39.8963
 30
0.000000
  70
    32
  0
VERTEX
  8
SAPA_FOGBAND
  5
3022
 10
22.2614
 20
-39.9790
 30
0.000000
  70
    32
  0
VERTEX
  8
SAPA_FOGBAND
  5
3023
 10
22.2646
 20
-40.0618
 30
0.000000
  70
    32
  0
VERTEX
  8
SAPA_FOGBAND
  5
3024
 10
22.2598
 20
-40.1446
 30
0.000000
  70
    32
  0
VERTEX
  8
SAPA_FOGBAND
  5
3025
 10
22.2470
 20
-40.2271
 30
0.000000
  70
    32
  0
VERTEX
  8
SAPA_FOGBAND
  5
3026
 10
22.2264
 20
-40.3091
 30
0.000000
  70
    32
  0
VERTEX
  8
SAPA_FOGBAND
  5
3027
 10
22.1979
 20
-40.3904
 30
0.000000
  70
    32
  0
VERTEX
  8
SAPA_FOGBAND
  5
3028
 10
22.1616
 20
-40.4709
 30
0.000000
  70
    32
  0
VERTEX
  8
SAPA_FOGBAND
  5
3029
 10
22.1177
 20
-40.5503
 30
0.000000
  70
    32
  0
VERTEX
  8
SAPA_FOGBAND
  5
302A
 10
22.0661
 20
-40.6285
 30
0.000000
  70
    32
  0
VERTEX
  8
SAPA_FOGBAND
  5
302B
 10
22.0071
 20
-40.7052
 30
0.000000
  70
    32
  0
VERTEX
  8
SAPA_FOGBAND
  5
302C
 10
21.9407
 20
-40.7802
 30
0.000000
  70
    32
  0
VERTEX
  8
SAPA_FOGBAND
  5
302D
 10
21.8672
 20
-40.8535
 30
0.000000
  70
    32
  0
VERTEX
  8
SAPA_FOGBAND
  5
302E
 10
21.7867
 20
-40.9248
 30
0.000000
  70
    32
  0
VERTEX
  8
SAPA_FOGBAND
  5
302F
 10
21.6994
 20
-40.9939
 30
0.000000
  70
    32
  0
VERTEX
  8
SAPA_FOGBAND
  5
3030
 10
21.6055
 20
-41.0607
 30
0.000000
  70
    32
  0
VERTEX
  8
SAPA_FOGBAND
  5
3031
 10
21.5052
 20
-41.1250
 30
0.000000
  70
    32
  0
VERTEX
  8
SAPA_FOGBAND
  5
3032
 10
21.3989
 20
-41.1867
 30
0.000000
  70
    32
  0
VERTEX
  8
SAPA_FOGBAND
  5
3033
 10
21.2867
 20
-41.2455
 30
0.000000
  70
    32
  0
VERTEX
  8
SAPA_FOGBAND
  5
3034
 10
21.1688
 20
-41.3015
 30
0.000000
  70
    32
  0
VERTEX
  8
SAPA_FOGBAND
  5
3035
 10
21.0457
 20
-41.3544
 30
0.000000
  70
    32
  0
VERTEX
  8
SAPA_FOGBAND
  5
3036
 10
20.9176
 20
-41.4041
 30
0.000000
  70
    32
  0
VERTEX
  8
SAPA_FOGBAND
  5
3037
 10
20.7848
 20
-41.4504
 30
0.000000
  70
    32
  0
VERTEX
  8
SAPA_FOGBAND
  5
3038
 10
20.6475
 20
-41.4934
 30
0.000000
  70
    32
  0
VERTEX
  8
SAPA_FOGBAND
  5
3039
 10
20.5063
 20
-41.5328
 30
0.000000
  70
    32
  0
VERTEX
  8
SAPA_FOGBAND
  5
303A
 10
20.3613
 20
-41.5686
 30
0.000000
  70
    32
  0
VERTEX
  8
SAPA_FOGBAND
  5
303B
 10
20.2130
 20
-41.6007
 30
0.000000
  70
    32
  0
VERTEX
  8
SAPA_FOGBAND
  5
303C
 10
20.0616
 20
-41.6290
 30
0.000000
  70
    32
  0
VERTEX
  8
SAPA_FOGBAND
  5
303D
 10
19.9077
 20
-41.6535
 30
0.000000
  70
    32
  0
VERTEX
  8
SAPA_FOGBAND
  5
303E
 10
19.7514
 20
-41.6740
 30
0.000000
  70
    32
  0
VERTEX
  8
SAPA_FOGBAND
  5
303F
 10
19.5933
 20
-41.6906
 30
0.000000
  70
    32
  0
VERTEX
  8
SAPA_FOGBAND
  5
3040
 10
19.4336
 20
-41.7032
 30
0.000000
  70
    32
  0
VERTEX
  8
SAPA_FOGBAND
  5
3041
 10
19.2729
 20
-41.7117
 30
0.000000
  70
    32
  0
VERTEX
  8
SAPA_FOGBAND
  5
3042
 10
19.1114
 20
-41.7162
 30
0.000000
  70
    32
  0
VERTEX
  8
SAPA_FOGBAND
  5
3043
 10
18.9495
 20
-41.7166
 30
0.000000
  70
    32
  0
VERTEX
  8
SAPA_FOGBAND
  5
3044
 10
18.7877
 20
-41.7130
 30
0.000000
  70
    32
  0
VERTEX
  8
SAPA_FOGBAND
  5
3045
 10
18.6263
 20
-41.7053
 30
0.000000
  70
    32
  0
VERTEX
  8
SAPA_FOGBAND
  5
3046
 10
18.4657
 20
-41.6935
 30
0.000000
  70
    32
  0
VERTEX
  8
SAPA_FOGBAND
  5
3047
 10
18.3064
 20
-41.6778
 30
0.000000
  70
    32
  0
VERTEX
  8
SAPA_FOGBAND
  5
3048
 10
18.1486
 20
-41.6581
 30
0.000000
  70
    32
  0
VERTEX
  8
SAPA_FOGBAND
  5
3049
 10
17.9928
 20
-41.6344
 30
0.000000
  70
    32
  0
VERTEX
  8
SAPA_FOGBAND
  5
304A
 10
17.8393
 20
-41.6069
 30
0.000000
  70
    32
  0
VERTEX
  8
SAPA_FOGBAND
  5
304B
 10
17.6886
 20
-41.5756
 30
0.000000
  70
    32
  0
VERTEX
  8
SAPA_FOGBAND
  5
304C
 10
17.5409
 20
-41.5406
 30
0.000000
  70
    32
  0
VERTEX
  8
SAPA_FOGBAND
  5
304D
 10
17.3967
 20
-41.5019
 30
0.000000
  70
    32
  0
VERTEX
  8
SAPA_FOGBAND
  5
304E
 10
17.2562
 20
-41.4596
 30
0.000000
  70
    32
  0
VERTEX
  8
SAPA_FOGBAND
  5
304F
 10
17.1199
 20
-41.4140
 30
0.000000
  70
    32
  0
VERTEX
  8
SAPA_FOGBAND
  5
3050
 10
16.9880
 20
-41.3650
 30
0.000000
  70
    32
  0
VERTEX
  8
SAPA_FOGBAND
  5
3051
 10
16.8609
 20
-41.3127
 30
0.000000
  70
    32
  0
VERTEX
  8
SAPA_FOGBAND
  5
3052
 10
16.7389
 20
-41.2574
 30
0.000000
  70
    32
  0
VERTEX
  8
SAPA_FOGBAND
  5
3053
 10
16.6222
 20
-41.1991
 30
0.000000
  70
    32
  0
VERTEX
  8
SAPA_FOGBAND
  5
3054
 10
16.5112
 20
-41.1380
 30
0.000000
  70
    32
  0
VERTEX
  8
SAPA_FOGBAND
  5
3055
 10
16.4061
 20
-41.0742
 30
0.000000
  70
    32
  0
VERTEX
  8
SAPA_FOGBAND
  5
3056
 10
16.3071
 20
-41.0079
 30
0.000000
  70
    32
  0
VERTEX
  8
SAPA_FOGBAND
  5
3057
 10
16.2146
 20
-40.9393
 30
0.000000
  70
    32
  0
VERTEX
  8
SAPA_FOGBAND
  5
3058
 10
16.1287
 20
-40.8685
 30
0.000000
  70
    32
  0
VERTEX
  8
SAPA_FOGBAND
  5
3059
 10
16.0496
 20
-40.7956
 30
0.000000
  70
    32
  0
VERTEX
  8
SAPA_FOGBAND
  5
305A
 10
15.9775
 20
-40.7209
 30
0.000000
  70
    32
  0
VERTEX
  8
SAPA_FOGBAND
  5
305B
 10
15.9127
 20
-40.6445
 30
0.000000
  70
    32
  0
VERTEX
  8
SAPA_FOGBAND
  5
305C
 10
15.8552
 20
-40.5666
 30
0.000000
  70
    32
  0
VERTEX
  8
SAPA_FOGBAND
  5
305D
 10
15.8052
 20
-40.4875
 30
0.000000
  70
    32
  0
VERTEX
  8
SAPA_FOGBAND
  5
305E
 10
15.7628
 20
-40.4072
 30
0.000000
  70
    32
  0
VERTEX
  8
SAPA_FOGBAND
  5
305F
 10
15.7281
 20
-40.3260
 30
0.000000
  70
    32
  0
VERTEX
  8
SAPA_FOGBAND
  5
3060
 10
15.7013
 20
-40.2442
 30
0.000000
  70
    32
  0
VERTEX
  8
SAPA_FOGBAND
  5
3061
 10
15.6823
 20
-40.1617
 30
0.000000
  70
    32
  0
VERTEX
  8
SAPA_FOGBAND
  5
3062
 10
15.6712
 20
-40.0790
 30
0.000000
  70
    32
  0
VERTEX
  8
SAPA_FOGBAND
  5
3063
 10
15.6680
 20
-39.9962
 30
0.000000
  70
    32
  0
VERTEX
  8
SAPA_FOGBAND
  5
3064
 10
15.6728
 20
-39.9134
 30
0.000000
  70
    32
  0
VERTEX
  8
SAPA_FOGBAND
  5
3065
 10
15.6856
 20
-39.8309
 30
0.000000
  70
    32
  0
VERTEX
  8
SAPA_FOGBAND
  5
3066
 10
15.7062
 20
-39.7489
 30
0.000000
  70
    32
  0
VERTEX
  8
SAPA_FOGBAND
  5
3067
 10
15.7347
 20
-39.6676
 30
0.000000
  70
    32
  0
VERTEX
  8
SAPA_FOGBAND
  5
3068
 10
15.7710
 20
-39.5871
 30
0.000000
  70
    32
  0
VERTEX
  8
SAPA_FOGBAND
  5
3069
 10
15.8149
 20
-39.5077
 30
0.000000
  70
    32
  0
VERTEX
  8
SAPA_FOGBAND
  5
306A
 10
15.8665
 20
-39.4296
 30
0.000000
  70
    32
  0
VERTEX
  8
SAPA_FOGBAND
  5
306B
 10
15.9255
 20
-39.3529
 30
0.000000
  70
    32
  0
VERTEX
  8
SAPA_FOGBAND
  5
306C
 10
15.9919
 20
-39.2778
 30
0.000000
  70
    32
  0
VERTEX
  8
SAPA_FOGBAND
  5
306D
 10
16.0654
 20
-39.2045
 30
0.000000
  70
    32
  0
VERTEX
  8
SAPA_FOGBAND
  5
306E
 10
16.1459
 20
-39.1332
 30
0.000000
  70
    32
  0
VERTEX
  8
SAPA_FOGBAND
  5
306F
 10
16.2332
 20
-39.0641
 30
0.000000
  70
    32
  0
VERTEX
  8
SAPA_FOGBAND
  5
3070
 10
16.3271
 20
-38.9973
 30
0.000000
  70
    32
  0
VERTEX
  8
SAPA_FOGBAND
  5
3071
 10
16.4274
 20
-38.9330
 30
0.000000
  70
    32
  0
VERTEX
  8
SAPA_FOGBAND
  5
3072
 10
16.5337
 20
-38.8713
 30
0.000000
  70
    32
  0
VERTEX
  8
SAPA_FOGBAND
  5
3073
 10
16.6460
 20
-38.8125
 30
0.000000
  70
    32
  0
VERTEX
  8
SAPA_FOGBAND
  5
3074
 10
16.7638
 20
-38.7565
 30
0.000000
  70
    32
  0
VERTEX
  8
SAPA_FOGBAND
  5
3075
 10
16.8869
 20
-38.7036
 30
0.000000
  70
    32
  0
VERTEX
  8
SAPA_FOGBAND
  5
3076
 10
17.0150
 20
-38.6539
 30
0.000000
  70
    32
  0
VERTEX
  8
SAPA_FOGBAND
  5
3077
 10
17.1479
 20
-38.6076
 30
0.000000
  70
    32
  0
VERTEX
  8
SAPA_FOGBAND
  5
3078
 10
17.2851
 20
-38.5646
 30
0.000000
  70
    32
  0
VERTEX
  8
SAPA_FOGBAND
  5
3079
 10
17.4263
 20
-38.5252
 30
0.000000
  70
    32
  0
VERTEX
  8
SAPA_FOGBAND
  5
307A
 10
17.5713
 20
-38.4894
 30
0.000000
  70
    32
  0
VERTEX
  8
SAPA_FOGBAND
  5
307B
 10
17.7196
 20
-38.4573
 30
0.000000
  70
    32
  0
VERTEX
  8
SAPA_FOGBAND
  5
307C
 10
17.8710
 20
-38.4290
 30
0.000000
  70
    32
  0
VERTEX
  8
SAPA_FOGBAND
  5
307D
 10
18.0249
 20
-38.4045
 30
0.000000
  70
    32
  0
VERTEX
  8
SAPA_FOGBAND
  5
307E
 10
18.1812
 20
-38.3840
 30
0.000000
  70
    32
  0
VERTEX
  8
SAPA_FOGBAND
  5
307F
 10
18.3393
 20
-38.3674
 30
0.000000
  70
    32
  0
VERTEX
  8
SAPA_FOGBAND
  5
3080
 10
18.4990
 20
-38.3548
 30
0.000000
  70
    32
  0
VERTEX
  8
SAPA_FOGBAND
  5
3081
 10
18.6597
 20
-38.3463
 30
0.000000
  70
    32
  0
VERTEX
  8
SAPA_FOGBAND
  5
3082
 10
18.8212
 20
-38.3418
 30
0.000000
  70
    32
  0
VERTEX
  8
SAPA_FOGBAND
  5
3083
 10
18.9831
 20
-38.3414
 30
0.000000
  70
    32
  0
SEQEND
  8
SAPA_FOGBAND
  5
3084
  0
POLYLINE
  5
1E50
  8
SAPA_FOGBAND
 66
     1
 10
0.0
 20
0.0
 30
0.0
 70
     1
  0
VERTEX
  5
2F65
  8
SAPA_FOGBAND
 10
8.8913247649945788
 20
-42.953324864972153
 30
0.0
  0
VERTEX
  5
2F66
  8
SAPA_FOGBAND
 10
11.892651927563969
 20
-43.445277204862457
 30
0.0
 42
0.4464785874932524
  0
VERTEX
  5
2F67
  8
SAPA_FOGBAND
 10
13.001327184515731
 20
-42.451199899756709
 30
0.0
  0
VERTEX
  5
2F68
  8
SAPA_FOGBAND
 10
13.001327184515731
 20
-39.350147745599202
 30
0.0
 42
0.622676997742357
  0
VERTEX
  5
2F69
  8
SAPA_FOGBAND
 10
11.39065269790194
 20
-38.558266017435813
 30
0.0
  0
VERTEX
  5
2F6A
  8
SAPA_FOGBAND
 10
8.3893255353325458
 20
-41.03330133995302
 30
0.0
 42
0.6488456670267916
  0
VERTEX
  5
2F6B
  8
SAPA_FOGBAND
 10
8.8913247649945788
 20
-42.953324864972153
 30
0.0
  0
VERTEX
  5
2F6C
  8
SAPA_FOGBAND
 10
8.8913247649945788
 20
-42.953324864972153
 30
0.0
 42
0.7183425420956111
  0
SEQEND
  5
2F6D
  8
SAPA_FOGBAND
  0
POLYLINE
  5
1E51
  8
SAPA_FOGBAND
 66
     1
 10
0.0
 20
0.0
 30
0.0
 70
   129
  0
VERTEX
  5
2F6E
  8
SAPA_FOGBAND
 10
-31.561718286272029
 20
125.0848194822363
 30
0.0
  0
VERTEX
  5
2F6F
  8
SAPA_FOGBAND
 10
-31.61222911297455
 20
125.3213835376871
 30
0.0
  0
VERTEX
  5
2F70
  8
SAPA_FOGBAND
 10
-31.76193600020315
 20
125.54939755181179
 30
0.0
  0
VERTEX
  5
2F71
  8
SAPA_FOGBAND
 10
-32.005428150993339
 20
125.76062050405631
 30
0.0
  0
VERTEX
  5
2F72
  8
SAPA_FOGBAND
 10
-32.33390512460619
 20
125.9474182465899
 30
0.0
  0
VERTEX
  5
2F73
  8
SAPA_FOGBAND
 10
-32.735494907372868
 20
126.10303942229871
 30
0.0
  0
VERTEX
  5
2F74
  8
SAPA_FOGBAND
 10
-33.195682998214117
 20
126.2218594764297
 30
0.0
  0
VERTEX
  5
2F75
  8
SAPA_FOGBAND
 10
-33.697837000518582
 20
126.29958394264099
 30
0.0
  0
VERTEX
  5
2F76
  8
SAPA_FOGBAND
 10
-34.223807760294683
 20
126.33340365621621
 30
0.0
  0
VERTEX
  5
2F77
  8
SAPA_FOGBAND
 10
-34.754585323879382
 20
126.3220962845888
 30
0.0
  0
VERTEX
  5
2F78
  8
SAPA_FOGBAND
 10
-35.270986007197727
 20
126.2660705056303
 30
0.0
  0
VERTEX
  5
2F79
  8
SAPA_FOGBAND
 10
-35.754345744082912
 20
126.1673512369678
 30
0.0
  0
VERTEX
  5
2F7A
  8
SAPA_FOGBAND
 10
-36.187194654269213
 20
126.0295064501795
 30
0.0
  0
VERTEX
  5
2F7B
  8
SAPA_FOGBAND
 10
-36.553888450357142
 20
125.8575182150132
 30
0.0
  0
VERTEX
  5
2F7C
  8
SAPA_FOGBAND
 10
-36.841173863151653
 20
125.6576026343962
 30
0.0
  0
VERTEX
  5
2F7D
  8
SAPA_FOGBAND
 10
-37.038667649316722
 20
125.4369851782874
 30
0.0
  0
VERTEX
  5
2F7E
  8
SAPA_FOGBAND
 10
-37.139231868854502
 20
125.20363953636731
 30
0.0
  0
VERTEX
  5
2F7F
  8
SAPA_FOGBAND
 10
-37.139231868854502
 20
124.9659994281071
 30
0.0
  0
VERTEX
  5
2F80
  8
SAPA_FOGBAND
 10
-37.038667649316722
 20
124.7326537861852
 30
0.0
  0
VERTEX
  5
2F81
  8
SAPA_FOGBAND
 10
-36.841173863151653
 20
124.5120363300783
 30
0.0
  0
VERTEX
  5
2F82
  8
SAPA_FOGBAND
 10
-36.553888450357142
 20
124.3121207494612
 30
0.0
  0
VERTEX
  5
2F83
  8
SAPA_FOGBAND
 10
-36.187194654269213
 20
124.1401325142931
 30
0.0
  0
VERTEX
  5
2F84
  8
SAPA_FOGBAND
 10
-35.754345744082912
 20
124.0022877275067
 30
0.0
  0
VERTEX
  5
2F85
  8
SAPA_FOGBAND
 10
-35.270986007197727
 20
123.9035684588423
 30
0.0
  0
VERTEX
  5
2F86
  8
SAPA_FOGBAND
 10
-34.754585323879382
 20
123.84754267988571
 30
0.0
  0
VERTEX
  5
2F87
  8
SAPA_FOGBAND
 10
-34.223807760294683
 20
123.8362353082582
 30
0.0
  0
VERTEX
  5
2F88
  8
SAPA_FOGBAND
 10
-33.697837000518582
 20
123.8700550218316
 30
0.0
  0
VERTEX
  5
2F89
  8
SAPA_FOGBAND
 10
-33.195682998214117
 20
123.9477794880429
 30
0.0
  0
VERTEX
  5
2F8A
  8
SAPA_FOGBAND
 10
-32.735494907372868
 20
124.0665995421739
 30
0.0
  0
VERTEX
  5
2F8B
  8
SAPA_FOGBAND
 10
-32.33390512460619
 20
124.2222207178846
 30
0.0
  0
VERTEX
  5
2F8C
  8
SAPA_FOGBAND
 10
-32.005428150993339
 20
124.4090184604181
 30
0.0
  0
VERTEX
  5
2F8D
  8
SAPA_FOGBAND
 10
-31.76193600020315
 20
124.6202414126608
 30
0.0
  0
VERTEX
  5
2F8E
  8
SAPA_FOGBAND
 10
-31.61222911297455
 20
124.8482554267855
 30
0.0
  0
SEQEND
  5
2F8F
  8
SAPA_FOGBAND
  0
POLYLINE
  5
1E52
  8
SAPA_FOGBAND
 66
     1
 10
0.0
 20
0.0
 30
0.0
 70
   129
  0
VERTEX
  5
2F90
  8
SAPA_FOGBAND
 10
-39.286377803044623
 20
126.92956531786589
 30
0.0
  0
VERTEX
  5
2F91
  8
SAPA_FOGBAND
 10
-39.336888629748962
 20
127.16612937331659
 30
0.0
  0
VERTEX
  5
2F92
  8
SAPA_FOGBAND
 10
-39.48659551697574
 20
127.3941433874413
 30
0.0
  0
VERTEX
  5
2F93
  8
SAPA_FOGBAND
 10
-39.730087667765929
 20
127.6053663396858
 30
0.0
  0
VERTEX
  5
2F94
  8
SAPA_FOGBAND
 10
-40.058564641376947
 20
127.7921640822194
 30
0.0
  0
VERTEX
  5
2F95
  8
SAPA_FOGBAND
 10
-40.460154424143639
 20
127.94778525793009
 30
0.0
  0
VERTEX
  5
2F96
  8
SAPA_FOGBAND
 10
-40.920342514986707
 20
128.06660531205921
 30
0.0
  0
VERTEX
  5
2F97
  8
SAPA_FOGBAND
 10
-41.422496517292977
 20
128.1443297782705
 30
0.0
  0
VERTEX
  5
2F98
  8
SAPA_FOGBAND
 10
-41.948467277067259
 20
128.1781494918439
 30
0.0
  0
VERTEX
  5
2F99
  8
SAPA_FOGBAND
 10
-42.479244840651972
 20
128.16684212021639
 30
0.0
  0
VERTEX
  5
2F9A
  8
SAPA_FOGBAND
 10
-42.995645523968513
 20
128.11081634125981
 30
0.0
  0
VERTEX
  5
2F9B
  8
SAPA_FOGBAND
 10
-43.479005260857321
 20
128.0120970725973
 30
0.0
  0
VERTEX
  5
2F9C
  8
SAPA_FOGBAND
 10
-43.91185417103997
 20
127.87425228580901
 30
0.0
  0
VERTEX
  5
2F9D
  8
SAPA_FOGBAND
 10
-44.278547967131537
 20
127.70226405064091
 30
0.0
  0
VERTEX
  5
2F9E
  8
SAPA_FOGBAND
 10
-44.565833379924243
 20
127.50234847002569
 30
0.0
  0
VERTEX
  5
2F9F
  8
SAPA_FOGBAND
 10
-44.763327166087493
 20
127.2817310139187
 30
0.0
  0
VERTEX
  5
2FA0
  8
SAPA_FOGBAND
 10
-44.863891385627078
 20
127.0483853719968
 30
0.0
  0
VERTEX
  5
2FA1
  8
SAPA_FOGBAND
 10
-44.863891385627078
 20
126.81074526373671
 30
0.0
  0
VERTEX
  5
2FA2
  8
SAPA_FOGBAND
 10
-44.763327166087493
 20
126.57739962181481
 30
0.0
  0
VERTEX
  5
2FA3
  8
SAPA_FOGBAND
 10
-44.565833379924243
 20
126.35678216570589
 30
0.0
  0
VERTEX
  5
2FA4
  8
SAPA_FOGBAND
 10
-44.278547967131537
 20
126.1568665850907
 30
0.0
  0
VERTEX
  5
2FA5
  8
SAPA_FOGBAND
 10
-43.91185417103997
 20
125.9848783499226
 30
0.0
  0
VERTEX
  5
2FA6
  8
SAPA_FOGBAND
 10
-43.479005260857321
 20
125.84703356313619
 30
0.0
  0
VERTEX
  5
2FA7
  8
SAPA_FOGBAND
 10
-42.995645523968513
 20
125.7483142944737
 30
0.0
  0
VERTEX
  5
2FA8
  8
SAPA_FOGBAND
 10
-42.479244840651972
 20
125.6922885155152
 30
0.0
  0
VERTEX
  5
2FA9
  8
SAPA_FOGBAND
 10
-41.948467277067259
 20
125.68098114388771
 30
0.0
  0
VERTEX
  5
2FAA
  8
SAPA_FOGBAND
 10
-41.422496517292977
 20
125.7148008574612
 30
0.0
  0
VERTEX
  5
2FAB
  8
SAPA_FOGBAND
 10
-40.920342514986707
 20
125.79252532367239
 30
0.0
  0
VERTEX
  5
2FAC
  8
SAPA_FOGBAND
 10
-40.460154424143639
 20
125.9113453778034
 30
0.0
  0
VERTEX
  5
2FAD
  8
SAPA_FOGBAND
 10
-40.058564641376947
 20
126.06696655351411
 30
0.0
  0
VERTEX
  5
2FAE
  8
SAPA_FOGBAND
 10
-39.730087667765929
 20
126.2537642960458
 30
0.0
  0
VERTEX
  5
2FAF
  8
SAPA_FOGBAND
 10
-39.48659551697574
 20
126.4649872482903
 30
0.0
  0
VERTEX
  5
2FB0
  8
SAPA_FOGBAND
 10
-39.336888629748962
 20
126.693001262415
 30
0.0
  0
SEQEND
  5
2FB1
  8
SAPA_FOGBAND
  0
POLYLINE
  5
1E53
  8
SAPA_FOGBAND
 66
     1
 10
0.0
 20
0.0
 30
0.0
 70
     1
  0
VERTEX
  5
2FB2
  8
SAPA_FOGBAND
 10
-34.81953535070943
 20
121.4499999251609
 30
0.0
  0
VERTEX
  5
2FB3
  8
SAPA_FOGBAND
 10
-48.500000000007731
 20
121.4499999251609
 30
0.0
 42
-0.427966335106886
  0
VERTEX
  5
2FB4
  8
SAPA_FOGBAND
 10
-48.799672567728066
 20
121.764012496519
 30
0.0
  0
VERTEX
  5
2FB5
  8
SAPA_FOGBAND
 10
-48.313372659648387
 20
130.16401249651861
 30
0.0
 42
-0.4005932428724212
  0
VERTEX
  5
2FB6
  8
SAPA_FOGBAND
 10
-48.013700091928051
 20
130.44999992516091
 30
0.0
  0
VERTEX
  5
2FB7
  8
SAPA_FOGBAND
 10
-46.200000000006639
 20
130.44999992516091
 30
0.0
  0
VERTEX
  5
2FB8
  8
SAPA_FOGBAND
 10
-46.200000000006639
 20
132.1499999251599
 30
0.0
 42
-0.4142135623730951
  0
VERTEX
  5
2FB9
  8
SAPA_FOGBAND
 10
-45.900000000007367
 20
132.44999992516091
 30
0.0
  0
VERTEX
  5
2FBA
  8
SAPA_FOGBAND
 10
-38.481219236381087
 20
132.44999992516091
 30
0.0
 42
-0.1379343940649207
  0
VERTEX
  5
2FBB
  8
SAPA_FOGBAND
 10
-37.960000927333112
 20
132.30342331030511
 30
0.0
  0
VERTEX
  5
2FBC
  8
SAPA_FOGBAND
 10
-26.039390845483009
 20
125.49620507239599
 30
0.0
 42
-0.2613472755167645
  0
VERTEX
  5
2FBD
  8
SAPA_FOGBAND
 10
-25.800000000008819
 20
125.06949337982481
 30
0.0
  0
VERTEX
  5
2FBE
  8
SAPA_FOGBAND
 10
-25.800000000008819
 20
123.2747967626608
 30
0.0
 42
-0.3915187749346393
  0
VERTEX
  5
2FBF
  8
SAPA_FOGBAND
 10
-26.721977699781291
 20
122.2778451486563
 30
0.0
  0
VERTEX
  5
2FC0
  8
SAPA_FOGBAND
 10
-34.780524200594762
 20
121.4515241181569
 30
0.0
 42
-0.0195279011117891
  0
SEQEND
  5
2FC1
  8
SAPA_FOGBAND
  0
POLYLINE
  5
1E54
  8
SAPA_FOGBAND
 66
     1
 10
0.0
 20
0.0
 30
0.0
  0
VERTEX
  5
2FC2
  8
SAPA_FOGBAND
 10
-46.056372436878974
 20
78.949999925159148
 30
0.0
 42
-0.285714285714282
  0
VERTEX
  5
2FC3
  8
SAPA_FOGBAND
 10
-43.256372436879701
 20
78.949999925159148
 30
0.0
  0
VERTEX
  5
2FC4
  8
SAPA_FOGBAND
 10
-41.182592267492957
 20
78.949999925160967
 30
0.0
 42
0.3882600129940275
  0
VERTEX
  5
2FC5
  8
SAPA_FOGBAND
 10
-40.883790770151329
 20
79.223210651440979
 30
0.0
  0
VERTEX
  5
2FC6
  8
SAPA_FOGBAND
 10
-40.417580846224602
 20
83.123210651440615
 30
0.0
 42
0.4406523138893894
  0
VERTEX
  5
2FC7
  8
SAPA_FOGBAND
 10
-40.716382343566231
 20
83.449999925159133
 30
0.0
  0
VERTEX
  5
2FC8
  8
SAPA_FOGBAND
 10
-42.426174340486341
 20
83.449999925159133
 30
0.0
 42
0.3394542588634375
  0
VERTEX
  5
2FC9
  8
SAPA_FOGBAND
 10
-42.715952088372887
 20
83.227645638690603
 30
0.0
  0
VERTEX
  5
2FCA
  8
SAPA_FOGBAND
 10
-42.918331816303628
 20
83.010059856523014
 30
0.0
 42
-0.3394542588633663
  0
VERTEX
  5
2FCB
  8
SAPA_FOGBAND
 10
-43.208109564190181
 20
82.78770557005447
 30
0.0
  0
VERTEX
  5
2FCC
  8
SAPA_FOGBAND
 10
-46.104635309568494
 20
82.78770557005447
 30
0.0
 42
-0.3394542588634373
  0
VERTEX
  5
2FCD
  8
SAPA_FOGBAND
 10
-46.39441305745504
 20
83.010059856523014
 30
0.0
  0
VERTEX
  5
2FCE
  8
SAPA_FOGBAND
 10
-46.596792785387599
 20
83.227645638690603
 30
0.0
 42
0.3394542588633662
  0
VERTEX
  5
2FCF
  8
SAPA_FOGBAND
 10
-46.886570533274153
 20
83.449999925159133
 30
0.0
  0
VERTEX
  5
2FD0
  8
SAPA_FOGBAND
 10
-48.596362530194249
 20
83.449999925159133
 30
0.0
 42
0.4406523138893994
  0
VERTEX
  5
2FD1
  8
SAPA_FOGBAND
 10
-48.895164027535891
 20
83.123210651440615
 30
0.0
  0
VERTEX
  5
2FD2
  8
SAPA_FOGBAND
 10
-48.428954103609158
 20
79.223210651440979
 30
0.0
 42
0.3882600129940462
  0
VERTEX
  5
2FD3
  8
SAPA_FOGBAND
 10
-48.130152606267529
 20
78.949999925159148
 30
0.0
  0
VERTEX
  5
2FD4
  8
SAPA_FOGBAND
 10
-46.067964813730661
 20
78.949999925159148
 30
0.0
  0
SEQEND
  5
2FD5
  8
SAPA_FOGBAND
  0
POLYLINE
  5
1E55
  8
SAPA_FOGBAND
 66
     1
 10
0.0
 20
0.0
 30
0.0
  0
VERTEX
  5
2FD6
  8
SAPA_FOGBAND
 10
-46.067964813730661
 20
78.949999925159148
 30
0.0
  0
VERTEX
  5
2FD7
  8
SAPA_FOGBAND
 10
-45.875606393738501
 20
77.859081115006859
 30
0.0
  0
VERTEX
  5
2FD8
  8
SAPA_FOGBAND
 10
-46.30740295363875
 20
77.743381575487376
 30
0.0
 42
0.4430158954262519
  0
VERTEX
  5
2FD9
  8
SAPA_FOGBAND
 10
-46.442880001183312
 20
77.479905147380862
 30
0.0
  0
VERTEX
  5
2FDA
  8
SAPA_FOGBAND
 10
-45.965931807963443
 20
76.209417399461756
 30
0.0
 42
0.3125358528825162
  0
VERTEX
  5
2FDB
  8
SAPA_FOGBAND
 10
-45.591450094835167
 20
75.949999925160967
 30
0.0
  0
VERTEX
  5
2FDC
  8
SAPA_FOGBAND
 10
-43.721294778925312
 20
75.949999925159148
 30
0.0
 42
0.3125358528825104
  0
VERTEX
  5
2FDD
  8
SAPA_FOGBAND
 10
-43.346813065795232
 20
76.209417399461756
 30
0.0
  0
VERTEX
  5
2FDE
  8
SAPA_FOGBAND
 10
-42.869864872575363
 20
77.479905147380862
 30
0.0
 42
0.4430158954262519
  0
VERTEX
  5
2FDF
  8
SAPA_FOGBAND
 10
-43.005341920119911
 20
77.743381575487376
 30
0.0
  0
VERTEX
  5
2FE0
  8
SAPA_FOGBAND
 10
-43.437138480021979
 20
77.859081115006859
 30
0.0
  0
VERTEX
  5
2FE1
  8
SAPA_FOGBAND
 10
-43.247994623680363
 20
78.93176922877575
 30
0.0
  0
SEQEND
  5
2FE2
  8
SAPA_FOGBAND
  0
INSERT
  5
1E56
  8
SAPA_FOGBAND
  2
BYGG-029014$0$BORST_9
 10
-46.767949192429107
 20
64.465925826287773
 30
0.0
 43
-1.0
210
0.0
220
0.0
230
-1.0
  0
INSERT
  5
1E57
  8
SAPA_FOGBAND
  2
BYGG-029014$0$BORST_9
 10
-23.767949192429111
 20
64.465925826287773
 30
0.0
 43
-1.0
210
0.0
220
0.0
230
-1.0
  0
DIMENSION
  5
1E61
  8
SAPA_MATT
  2
*D73
 10
59.714735356083622
 20
64.499999999999076
 30
0.0
 11
57.214735356083608
 21
69.499999999999005
 31
0.0
 70
     0
 13
29.399999999997821
 23
74.49999999999892
 33
0.0
 14
24.500000000000231
 24
64.499999999999091
 34
0.0
 50
90.0
1001
ACAD
1000
DSTYLE
1002
{
1070
   287
1070
     4
1070
    40
1040
1.0
1070
   279
1070
     1
1002
}
  0
DIMENSION
  5
1E62
  8
SAPA_MATT
  2
*D72
 10
31.99999999999795
 20
46.592369856398868
 30
0.0
 11
28.499999999999091
 21
49.092369856398868
 31
0.0
 70
     0
 13
25.000000000000231
 23
63.999999999999091
 33
0.0
 14
31.99999999999795
 24
77.099999999994395
 34
0.0
 50
180.0
1001
ACAD
1000
DSTYLE
1002
{
1070
    40
1040
1.0
1002
}
  0
DIMENSION
  5
1E63
  8
SAPA_MATT
  2
*D71
 10
59.715131157909298
 20
74.499999999999091
 30
0.0
 11
57.21513115790929
 21
111.49999999999901
 31
0.0
 70
     0
 13
29.39999999999921
 23
148.49999999999889
 33
0.0
 14
35.399999999998393
 24
74.499999999999091
 34
0.0
 50
90.0
1001
ACAD
1000
DSTYLE
1002
{
1070
    40
1040
1.0
1002
}
  0
DIMENSION
  5
1E64
  8
SAPA_MATT
  2
*D70
 10
-37.000000000000341
 20
-125.8563963596021
 30
0.0
 11
-31.000000000000341
 21
-123.3563963596021
 31
0.0
 70
     0
 13
-25.000000000000341
 23
-105.9999999990105
 33
0.0
 14
-37.000000000000341
 24
-85.507832962818824
 34
0.0
 50
180.0
1001
ACAD
1000
DSTYLE
1002
{
1070
   287
1070
     4
1070
    40
1040
1.0
1070
   279
1070
     1
1002
}
  0
DIMENSION
  5
1E65
  8
SAPA_MATT
  2
*D69
 10
-25.000000000000341
 20
-125.8699098731156
 30
0.0
 11
-0.0000000000003409
 21
-123.3699098731156
 31
0.0
 70
     0
 13
24.999999999999659
 23
-105.9999999990105
 33
0.0
 14
-25.000000000000341
 24
-105.9999999990105
 34
0.0
 50
180.0
1001
ACAD
1000
DSTYLE
1002
{
1070
    40
1040
1.0
1002
}
  0
VIEWPORT
  5
C4
 67
     1
  8
0
 10
143.06236603067589
 20
116.00969601843509
 30
0.0
 40
369.98580003443811
 41
256.8421457311839
 68
     1
 69
     1
1001
ACAD
1000
MVIEW
1002
{
1070
    16
1010
0.0
1020
0.0
1030
0.0
1010
0.0
1020
0.0
1030
1.0
1040
0.0
1040
256.8421457311839
1040
99.206250190734863
1040
130.70624923706049
1040
50.0
1040
0.0
1040
0.0
1070
     0
1070
     0
1070
     1
1070
     1
1070
     0
1070
     0
1070
     0
1070
     0
1040
0.0
1040
0.0
1040
0.0
1040
10.0
1040
10.0
1040
10.0
1040
10.0
1070
     0
1002
{
1002
}
1002
}
  0
ENDSEC
  0
EOF
