  0
SECTION
  2
HEADER
  9
$ACADVER
  1
AC1009
  9
$INSBASE
 10
0.0
 20
0.0
 30
0.0
  9
$EXTMIN
 10
-49.658640351439502
 20
-54.650776963873568
 30
0.0
  9
$EXTMAX
 10
40.999999999999432
 20
416.13942732907782
 30
0.0
  9
$LIMMIN
 10
0.0
 20
0.0
  9
$LIMMAX
 10
790.0
 20
790.0
  9
$ORTHOMODE
 70
     1
  9
$REGENMODE
 70
     1
  9
$FILLMODE
 70
     1
  9
$QTEXTMODE
 70
     0
  9
$MIRRTEXT
 70
     1
  9
$DRAGMODE
 70
     2
  9
$LTSCALE
 40
4.0
  9
$OSMODE
 70
   167
  9
$ATTMODE
 70
     1
  9
$TEXTSIZE
 40
3.5
  9
$TRACEWID
 40
0.05
  9
$TEXTSTYLE
  7
ISO
  9
$CLAYER
  8
0
  9
$CELTYPE
  6
BYLAYER
  9
$CECOLOR
 62
   256
  9
$DIMSCALE
 40
0.0
  9
$DIMASZ
 40
3.0
  9
$DIMEXO
 40
1.5
  9
$DIMDLI
 40
10.0
  9
$DIMRND
 40
0.0
  9
$DIMDLE
 40
0.0
  9
$DIMEXE
 40
1.5
  9
$DIMTP
 40
0.0
  9
$DIMTM
 40
0.0
  9
$DIMTXT
 40
3.0
  9
$DIMCEN
 40
-5.0
  9
$DIMTSZ
 40
0.0
  9
$DIMTOL
 70
     0
  9
$DIMLIM
 70
     0
  9
$DIMTIH
 70
     0
  9
$DIMTOH
 70
     0
  9
$DIMSE1
 70
     0
  9
$DIMSE2
 70
     0
  9
$DIMTAD
 70
     1
  9
$DIMZIN
 70
     8
  9
$DIMBLK
  1

  9
$DIMASO
 70
     1
  9
$DIMSHO
 70
     1
  9
$DIMPOST
  1

  9
$DIMAPOST
  1

  9
$DIMALT
 70
     0
  9
$DIMALTD
 70
     0
  9
$DIMALTF
 40
25.399999999999999
  9
$DIMLFAC
 40
-1.0
  9
$DIMTOFL
 70
     1
  9
$DIMTVP
 40
0.0
  9
$DIMTIX
 70
     0
  9
$DIMSOXD
 70
     0
  9
$DIMSAH
 70
     0
  9
$DIMBLK1
  1

  9
$DIMBLK2
  1

  9
$DIMSTYLE
  2
MASKIN
  9
$DIMCLRD
 70
   256
  9
$DIMCLRE
 70
   256
  9
$DIMCLRT
 70
     2
  9
$DIMTFAC
 40
1.0
  9
$DIMGAP
 40
1.0
  9
$LUNITS
 70
     2
  9
$LUPREC
 70
     8
  9
$SKETCHINC
 40
0.1
  9
$FILLETRAD
 40
0.0
  9
$AUNITS
 70
     0
  9
$AUPREC
 70
     8
  9
$MENU
  1
ACAD
  9
$ELEVATION
 40
0.0
  9
$PELEVATION
 40
0.0
  9
$THICKNESS
 40
0.0
  9
$LIMCHECK
 70
     0
  9
$BLIPMODE
 70
     0
  9
$CHAMFERA
 40
0.0
  9
$CHAMFERB
 40
0.0
  9
$SKPOLY
 70
     0
  9
$TDCREATE
 40
2454993.3685295261
  9
$TDUPDATE
 40
2455009.367985324
  9
$TDINDWG
 40
0.0693632986
  9
$TDUSRTIMER
 40
0.0693632986
  9
$USRTIMER
 70
     1
  9
$ANGBASE
 50
0.0
  9
$ANGDIR
 70
     0
  9
$PDMODE
 70
     0
  9
$PDSIZE
 40
0.0
  9
$PLINEWID
 40
0.0
  9
$COORDS
 70
     1
  9
$SPLFRAME
 70
     0
  9
$SPLINETYPE
 70
     6
  9
$SPLINESEGS
 70
     8
  9
$ATTDIA
 70
     0
  9
$ATTREQ
 70
     1
  9
$HANDLING
 70
     1
  9
$HANDSEED
  5
14A6
  9
$SURFTAB1
 70
     6
  9
$SURFTAB2
 70
     6
  9
$SURFTYPE
 70
     6
  9
$SURFU
 70
     6
  9
$SURFV
 70
     6
  9
$UCSNAME
  2

  9
$UCSORG
 10
0.0
 20
0.0
 30
0.0
  9
$UCSXDIR
 10
1.0
 20
0.0
 30
0.0
  9
$UCSYDIR
 10
0.0
 20
1.0
 30
0.0
  9
$PUCSNAME
  2

  9
$PUCSORG
 10
0.0
 20
0.0
 30
0.0
  9
$PUCSXDIR
 10
1.0
 20
0.0
 30
0.0
  9
$PUCSYDIR
 10
0.0
 20
1.0
 30
0.0
  9
$USERI1
 70
     0
  9
$USERI2
 70
     0
  9
$USERI3
 70
     0
  9
$USERI4
 70
     0
  9
$USERI5
 70
     0
  9
$USERR1
 40
0.0
  9
$USERR2
 40
0.0
  9
$USERR3
 40
0.0
  9
$USERR4
 40
0.0
  9
$USERR5
 40
0.0
  9
$WORLDVIEW
 70
     1
  9
$SHADEDGE
 70
     3
  9
$SHADEDIF
 70
    70
  9
$TILEMODE
 70
     1
  9
$MAXACTVP
 70
    16
  9
$PLIMCHECK
 70
     0
  9
$PEXTMIN
 10
1.0000000000000000E+020
 20
1.0000000000000000E+020
 30
1.0000000000000000E+020
  9
$PEXTMAX
 10
-1.0000000000000000E+020
 20
-1.0000000000000000E+020
 30
-1.0000000000000000E+020
  9
$PLIMMIN
 10
-5.069427490234375
 20
-5.8737497329711914
  9
$PLIMMAX
 10
291.89889526367187
 20
204.0995779037475
  9
$UNITMODE
 70
     0
  9
$VISRETAIN
 70
     1
  9
$PLINEGEN
 70
     0
  9
$PSLTSCALE
 70
     1
  0
ENDSEC
  0
SECTION
  2
TABLES
  0
TABLE
  2
VPORT
 70
     1
  0
VPORT
  2
*ACTIVE
 70
     0
 10
0.0
 20
0.0
 11
1.0
 21
1.0
 12
182.585813344857
 22
180.75529883698519
 13
0.0
 23
0.0
 14
1.0
 24
1.0
 15
0.0
 25
0.0
 16
0.0
 26
0.0
 36
1.0
 17
0.0
 27
0.0
 37
0.0
 40
474.50727600325848
 41
2.362776025236593
 42
50.0
 43
0.0
 44
0.0
 50
0.0
 51
0.0
 71
     0
 72
   100
 73
     1
 74
     1
 75
     0
 76
     0
 77
     0
 78
     0
  0
ENDTAB
  0
TABLE
  2
LTYPE
 70
     4
  0
LTYPE
  2
CONTINUOUS
 70
     0
  3
Solid line
 72
    65
 73
     0
 40
0.0
  0
LTYPE
  2
NEWDOT
 70
     0
  3
____ . ____ . ____ . ____ . ____ . ____ . ____
 72
    65
 73
     4
 40
2.0
 49
1.0
 49
-0.5
 49
0.0
 49
-0.5
  0
LTYPE
  2
BYGG-01472402$0$NEWDOT
 70
     0
  3
____ . ____ . ____ . ____ . ____ . ____ . ____
 72
    65
 73
     4
 40
2.0
 49
1.0
 49
-0.5
 49
0.0
 49
-0.5
  0
LTYPE
  2
BYGG-014252$0$NEWDOT
 70
     0
  3
____ . ____ . ____ . ____ . ____ . ____ . ____
 72
    65
 73
     4
 40
2.0
 49
1.0
 49
-0.5
 49
0.0
 49
-0.5
  0
ENDTAB
  0
TABLE
  2
LAYER
 70
    43
  0
LAYER
  2
0
 70
     0
 62
     7
  6
CONTINUOUS
  0
LAYER
  2
DEFPOINTS
 70
     0
 62
     7
  6
CONTINUOUS
  0
LAYER
  2
SAPA_ANSLUTNING
 70
     0
 62
     6
  6
CONTINUOUS
  0
LAYER
  2
SAPA_ARTIKELNR
 70
     0
 62
     4
  6
CONTINUOUS
  0
LAYER
  2
SAPA_LIGHT
 70
     1
 62
     1
  6
CONTINUOUS
  0
LAYER
  2
SAPA_PROFIL
 70
     0
 62
     7
  6
CONTINUOUS
  0
LAYER
  2
SAPA_MATT
 70
     0
 62
     1
  6
CONTINUOUS
  0
LAYER
  2
SAPA_GLAS
 70
     0
 62
     4
  6
CONTINUOUS
  0
LAYER
  2
SAPA_FOGBAND
 70
     0
 62
     2
  6
CONTINUOUS
  0
ENDTAB
  0
TABLE
  2
STYLE
 70
    16
  0
STYLE
  2
STANDARD
 70
     0
 40
0.0
 41
1.0
 50
0.0
 71
     0
 42
0.2
  3
txt
  4

  0
STYLE
  2
ISO
 70
     0
 40
0.0
 41
1.0
 50
0.0
 71
     0
 42
3.5
  3
txt
  4

  0
STYLE
  2
BYGG-024081$0$STANDARD
 70
     0
 40
0.0
 41
1.0
 50
0.0
 71
     0
 42
0.2
  3
txt
  4

  0
STYLE
  2
BYGG-024081$0$ISO
 70
     0
 40
0.0
 41
1.0
 50
0.0
 71
     0
 42
3.5
  3
txt
  4

  0
STYLE
  2
BYGG-01472402$0$STANDARD
 70
     0
 40
0.0
 41
1.0
 50
0.0
 71
     0
 42
0.2
  3
txt
  4

  0
STYLE
  2
BYGG-01472402$0$ISO
 70
     0
 40
0.0
 41
1.0
 50
0.0
 71
     0
 42
2.5
  3
isocp3.shx
  4

  0
STYLE
  2
BYGG-024082$0$STANDARD
 70
     0
 40
0.0
 41
1.0
 50
0.0
 71
     0
 42
0.2
  3
txt
  4

  0
STYLE
  2
BYGG-024082$0$ISO
 70
     0
 40
0.0
 41
1.0
 50
0.0
 71
     0
 42
3.5
  3
txt
  4

  0
STYLE
  2
BYGG-014252$0$STANDARD
 70
     0
 40
0.0
 41
1.0
 50
0.0
 71
     0
 42
0.2
  3
txt
  4

  0
STYLE
  2
BYGG-014252$0$ISO
 70
     0
 40
0.0
 41
1.0
 50
0.0
 71
     0
 42
2.5
  3
isocp3.shx
  4

  0
STYLE
  2
BYGG-014014$0$STANDARD
 70
     0
 40
0.0
 41
1.0
 50
0.0
 71
     0
 42
0.2
  3
txt
  4

  0
STYLE
  2
BYGG-024083$0$STANDARD
 70
     0
 40
0.0
 41
1.0
 50
0.0
 71
     0
 42
0.2
  3
txt
  4

  0
STYLE
  2
BYGG-024083$0$ISO
 70
     0
 40
0.0
 41
1.0
 50
0.0
 71
     0
 42
3.5
  3
txt
  4

  0
STYLE
  2
BYGG-024084$0$STANDARD
 70
     0
 40
0.0
 41
1.0
 50
0.0
 71
     0
 42
0.2
  3
txt
  4

  0
STYLE
  2
BYGG-024084$0$ISO
 70
     0
 40
0.0
 41
1.0
 50
0.0
 71
     0
 42
3.5
  3
txt
  4

  0
STYLE
  2
BYGG-013683$0$STANDARD
 70
     0
 40
0.0
 41
1.0
 50
0.0
 71
     0
 42
0.2
  3
txt
  4

  0
ENDTAB
  0
TABLE
  2
VIEW
 70
     0
  0
ENDTAB
  0
TABLE
  2
UCS
 70
     0
  0
ENDTAB
  0
TABLE
  2
APPID
 70
    17
  0
APPID
  2
ACAD
 70
     0
  0
APPID
  2
ACAD_DSTYLE_DIMTEXT_FILL
 70
     0
  0
APPID
  2
ACAD_DSTYLE_DIMEXT_LENGTH
 70
     0
  0
APPID
  2
ACAD_DSTYLE_DIMEXT_ENABLED
 70
     0
  0
APPID
  2
ACAD_DSTYLE_DIM_LINETYPE
 70
     0
  0
APPID
  2
ACAD_DSTYLE_DIM_EXT1_LINETYPE
 70
     0
  0
APPID
  2
ACAD_DSTYLE_DIM_EXT2_LINETYPE
 70
     0
  0
APPID
  2
ACAD_DSTYLE_DIMJOGGED_JOGA
 70
     0
  0
APPID
  2
ACAD_DSTYLE_DIMARC_LENGTH_
 70
     0
  0
APPID
  2
ACAD_PSEXT
 70
     0
  0
APPID
  2
ACAD_MLEADERVER
 70
     0
  0
APPID
  2
AME_SOL
 70
     0
  0
APPID
  2
AMG_ARCHIVE11
 70
     0
  0
APPID
  2
DCO15
 70
     0
  0
APPID
  2
ACAD_EXEMPT_FROM_CAD_STANDARDS
 70
     0
  0
APPID
  2
ACADANNOTATIVE
 70
     0
  0
APPID
  2
ACAECLAYERSTANDARD
 70
     0
  0
ENDTAB
  0
TABLE
  2
DIMSTYLE
 70
    16
  0
DIMSTYLE
  2
STANDARD
 70
     0
  3

  4

  5

  6

  7

 40
1.0
 41
0.18
 42
0.0625
 43
0.38
 44
0.18
 45
0.0
 46
0.0
 47
0.0
 48
0.0
140
0.18
141
0.09
142
0.0
143
25.399999999999999
144
1.0
145
0.0
146
1.0
147
0.09
 71
     0
 72
     0
 73
     1
 74
     1
 75
     0
 76
     0
 77
     0
 78
     0
170
     0
171
     2
172
     0
173
     0
174
     0
175
     0
176
     0
177
     0
178
     0
  0
DIMSTYLE
  2
MASKIN
 70
     0
  3

  4

  5

  6

  7

 40
0.0
 41
3.0
 42
1.5
 43
10.0
 44
1.5
 45
0.0
 46
0.0
 47
0.0
 48
0.0
140
3.0
141
-5.0
142
0.0
143
25.399999999999999
144
-1.0
145
0.0
146
1.0
147
1.0
 71
     0
 72
     0
 73
     0
 74
     0
 75
     0
 76
     0
 77
     1
 78
     8
170
     0
171
     0
172
     1
173
     0
174
     0
175
     0
176
   256
177
   256
178
     2
  0
DIMSTYLE
  2
BYGG-024081$0$STANDARD
 70
     0
  3

  4

  5

  6

  7

 40
1.0
 41
0.18
 42
0.0625
 43
0.38
 44
0.18
 45
0.0
 46
0.0
 47
0.0
 48
0.0
140
0.18
141
0.09
142
0.0
143
25.399999999999999
144
1.0
145
0.0
146
1.0
147
0.09
 71
     0
 72
     0
 73
     1
 74
     1
 75
     0
 76
     0
 77
     0
 78
     0
170
     0
171
     2
172
     0
173
     0
174
     0
175
     0
176
     0
177
     0
178
     0
  0
DIMSTYLE
  2
BYGG-024081$0$MASKIN
 70
     0
  3

  4

  5

  6

  7

 40
0.0
 41
3.0
 42
1.5
 43
10.0
 44
1.5
 45
0.0
 46
0.0
 47
0.0
 48
0.0
140
3.0
141
-5.0
142
0.0
143
25.399999999999999
144
-1.0
145
0.0
146
1.0
147
1.0
 71
     0
 72
     0
 73
     0
 74
     0
 75
     0
 76
     0
 77
     1
 78
     8
170
     0
171
     0
172
     1
173
     0
174
     0
175
     0
176
   256
177
   256
178
     2
  0
DIMSTYLE
  2
BYGG-01472402$0$STANDARD
 70
     0
  3

  4

  5

  6

  7

 40
1.0
 41
0.18
 42
0.0625
 43
0.38
 44
0.18
 45
0.0
 46
0.0
 47
0.0
 48
0.0
140
0.18
141
0.09
142
0.0
143
25.399999999999999
144
1.0
145
0.0
146
1.0
147
0.09
 71
     0
 72
     0
 73
     1
 74
     1
 75
     0
 76
     0
 77
     0
 78
     0
170
     0
171
     2
172
     0
173
     0
174
     0
175
     0
176
     0
177
     0
178
     0
  0
DIMSTYLE
  2
BYGG-01472402$0$MASKIN
 70
     0
  3

  4

  5

  6

  7

 40
0.0
 41
3.0
 42
1.5
 43
10.0
 44
1.5
 45
0.0
 46
0.0
 47
0.0
 48
0.0
140
3.0
141
-5.0
142
0.0
143
25.399999999999999
144
-1.0
145
0.0
146
1.0
147
1.0
 71
     0
 72
     0
 73
     0
 74
     1
 75
     0
 76
     0
 77
     1
 78
     8
170
     0
171
     0
172
     1
173
     0
174
     0
175
     0
176
   256
177
   256
178
     2
  0
DIMSTYLE
  2
BYGG-024082$0$STANDARD
 70
     0
  3

  4

  5

  6

  7

 40
1.0
 41
0.18
 42
0.0625
 43
0.38
 44
0.18
 45
0.0
 46
0.0
 47
0.0
 48
0.0
140
0.18
141
0.09
142
0.0
143
25.399999999999999
144
1.0
145
0.0
146
1.0
147
0.09
 71
     0
 72
     0
 73
     1
 74
     1
 75
     0
 76
     0
 77
     0
 78
     0
170
     0
171
     2
172
     0
173
     0
174
     0
175
     0
176
     0
177
     0
178
     0
  0
DIMSTYLE
  2
BYGG-024082$0$MASKIN
 70
     0
  3

  4

  5

  6

  7

 40
0.0
 41
3.0
 42
1.5
 43
10.0
 44
1.5
 45
0.0
 46
0.0
 47
0.0
 48
0.0
140
3.0
141
-5.0
142
0.0
143
25.399999999999999
144
-1.0
145
0.0
146
1.0
147
1.0
 71
     0
 72
     0
 73
     0
 74
     0
 75
     0
 76
     0
 77
     1
 78
     8
170
     0
171
     0
172
     1
173
     0
174
     0
175
     0
176
   256
177
   256
178
     2
  0
DIMSTYLE
  2
BYGG-014252$0$STANDARD
 70
     0
  3

  4

  5

  6

  7

 40
1.0
 41
0.18
 42
0.0625
 43
0.38
 44
0.18
 45
0.0
 46
0.0
 47
0.0
 48
0.0
140
0.18
141
0.09
142
0.0
143
25.399999999999999
144
1.0
145
0.0
146
1.0
147
0.09
 71
     0
 72
     0
 73
     1
 74
     1
 75
     0
 76
     0
 77
     0
 78
     0
170
     0
171
     2
172
     0
173
     0
174
     0
175
     0
176
     0
177
     0
178
     0
  0
DIMSTYLE
  2
BYGG-014252$0$MASKIN
 70
     0
  3

  4

  5

  6

  7

 40
0.0
 41
3.0
 42
1.5
 43
10.0
 44
1.5
 45
0.0
 46
0.0
 47
0.0
 48
0.0
140
3.0
141
-5.0
142
0.0
143
25.399999999999999
144
-1.0
145
0.0
146
1.0
147
1.0
 71
     0
 72
     0
 73
     0
 74
     1
 75
     0
 76
     0
 77
     1
 78
     8
170
     0
171
     0
172
     1
173
     0
174
     0
175
     0
176
   256
177
   256
178
     2
  0
DIMSTYLE
  2
BYGG-014014$0$STANDARD
 70
     0
  3

  4

  5

  6

  7

 40
1.0
 41
0.18
 42
0.0625
 43
0.38
 44
0.18
 45
0.0
 46
0.0
 47
0.0
 48
0.0
140
0.18
141
0.09
142
0.0
143
25.399999999999999
144
1.0
145
0.0
146
1.0
147
0.09
 71
     0
 72
     0
 73
     1
 74
     1
 75
     0
 76
     0
 77
     0
 78
     0
170
     0
171
     2
172
     0
173
     0
174
     0
175
     0
176
     0
177
     0
178
     0
  0
DIMSTYLE
  2
BYGG-024083$0$STANDARD
 70
     0
  3

  4

  5

  6

  7

 40
1.0
 41
0.18
 42
0.0625
 43
0.38
 44
0.18
 45
0.0
 46
0.0
 47
0.0
 48
0.0
140
0.18
141
0.09
142
0.0
143
25.399999999999999
144
1.0
145
0.0
146
1.0
147
0.09
 71
     0
 72
     0
 73
     1
 74
     1
 75
     0
 76
     0
 77
     0
 78
     0
170
     0
171
     2
172
     0
173
     0
174
     0
175
     0
176
     0
177
     0
178
     0
  0
DIMSTYLE
  2
BYGG-024083$0$MASKIN
 70
     0
  3

  4

  5

  6

  7

 40
0.0
 41
3.0
 42
1.5
 43
10.0
 44
1.5
 45
0.0
 46
0.0
 47
0.0
 48
0.0
140
3.0
141
-5.0
142
0.0
143
25.399999999999999
144
-1.0
145
0.0
146
1.0
147
1.0
 71
     0
 72
     0
 73
     0
 74
     0
 75
     0
 76
     0
 77
     1
 78
     8
170
     0
171
     0
172
     1
173
     0
174
     0
175
     0
176
   256
177
   256
178
     2
  0
DIMSTYLE
  2
BYGG-024084$0$STANDARD
 70
     0
  3

  4

  5

  6

  7

 40
1.0
 41
0.18
 42
0.0625
 43
0.38
 44
0.18
 45
0.0
 46
0.0
 47
0.0
 48
0.0
140
0.18
141
0.09
142
0.0
143
25.399999999999999
144
1.0
145
0.0
146
1.0
147
0.09
 71
     0
 72
     0
 73
     1
 74
     1
 75
     0
 76
     0
 77
     0
 78
     0
170
     0
171
     2
172
     0
173
     0
174
     0
175
     0
176
     0
177
     0
178
     0
  0
DIMSTYLE
  2
BYGG-024084$0$MASKIN
 70
     0
  3

  4

  5

  6

  7

 40
0.0
 41
3.0
 42
1.5
 43
10.0
 44
1.5
 45
0.0
 46
0.0
 47
0.0
 48
0.0
140
3.0
141
-5.0
142
0.0
143
25.399999999999999
144
-1.0
145
0.0
146
1.0
147
1.0
 71
     0
 72
     0
 73
     0
 74
     0
 75
     0
 76
     0
 77
     1
 78
     8
170
     0
171
     0
172
     1
173
     0
174
     0
175
     0
176
   256
177
   256
178
     2
  0
DIMSTYLE
  2
BYGG-013683$0$STANDARD
 70
     0
  3

  4

  5

  6

  7

 40
1.0
 41
0.18
 42
0.0625
 43
0.38
 44
0.18
 45
0.0
 46
0.0
 47
0.0
 48
0.0
140
0.18
141
0.09
142
0.0
143
25.399999999999999
144
1.0
145
0.0
146
1.0
147
0.09
 71
     0
 72
     0
 73
     1
 74
     1
 75
     0
 76
     0
 77
     0
 78
     0
170
     0
171
     2
172
     0
173
     0
174
     0
175
     0
176
     0
177
     0
178
     0
  0
ENDTAB
  0
ENDSEC
  0
SECTION
  2
BLOCKS
  0
BLOCK
  8
0
  2
$MODEL_SPACE
 70
     0
 10
0.0
 20
0.0
 30
0.0
  3
$MODEL_SPACE
  1

  0
ENDBLK
  5
37
  8
0
  0
BLOCK
 67
     1
  8
0
  2
$PAPER_SPACE
 70
     0
 10
0.0
 20
0.0
 30
0.0
  3
$PAPER_SPACE
  1

  0
ENDBLK
  5
35
 67
     1
  8
0
  0
BLOCK
  8
0
  2
*D22
 70
     1
 10
0.0
 20
0.0
 30
0.0
  3
*D22
  1

  0
LINE
  5
C98
  8
SAPA_MATT
 10
-24.99999999999913
 20
-25.500469849008841
 30
0.0
 11
-24.99999999999913
 21
-44.56544441920056
 31
0.0
  0
LINE
  5
C99
  8
SAPA_MATT
 10
24.999999999999879
 20
-25.50046984900883
 30
0.0
 11
24.999999999999879
 21
-44.56544441920056
 31
0.0
  0
LINE
  5
C9A
  8
SAPA_MATT
 10
-21.99999999999913
 20
-43.065444419200553
 30
0.0
 11
21.999999999999879
 21
-43.065444419200553
 31
0.0
  0
SOLID
  5
C9B
  8
SAPA_MATT
 10
-21.99999999999913
 20
-42.565444419200553
 30
0.0
 11
-21.99999999999913
 21
-43.56544441920056
 31
0.0
 12
-24.99999999999913
 22
-43.065444419200553
 32
0.0
 13
-24.99999999999913
 23
-43.065444419200553
 33
0.0
  0
SOLID
  5
C9C
  8
SAPA_MATT
 10
21.999999999999879
 20
-42.565444419200553
 30
0.0
 11
21.999999999999879
 21
-43.56544441920056
 31
0.0
 12
24.999999999999879
 22
-43.065444419200553
 32
0.0
 13
24.999999999999879
 23
-43.065444419200553
 33
0.0
  0
INSERT
  5
C9D
  8
0
  2
*U39
 10
0.0
 20
0.0
 30
0.0
  0
POINT
  5
C9E
  8
DEFPOINTS
 62
     0
 10
-24.99999999999913
 20
-24.000469849008841
 30
0.0
  0
POINT
  5
C9F
  8
DEFPOINTS
 62
     0
 10
24.999999999999879
 20
-24.00046984900882
 30
0.0
  0
POINT
  5
CA0
  8
DEFPOINTS
 62
     0
 10
24.999999999999879
 20
-43.065444419200553
 30
0.0
  0
ENDBLK
  5
C8B
  8
0
  0
BLOCK
  8
0
  2
*D23
 70
     1
 10
0.0
 20
0.0
 30
0.0
  3
*D23
  1

  0
LINE
  5
CA1
  8
SAPA_MATT
 10
-7.4771333159515017
 20
106.2199999999978
 30
0.0
 11
3.0053309923309648
 21
106.2199999999978
 31
0.0
  0
LINE
  5
CA2
  8
SAPA_MATT
 10
-38.5
 20
406.21999999999781
 30
0.0
 11
3.0053309923310301
 21
406.21999999999781
 31
0.0
  0
LINE
  5
CA3
  8
SAPA_MATT
 10
1.5053309923309659
 20
109.2199999999978
 30
0.0
 11
1.505330992331031
 21
403.21999999999781
 31
0.0
  0
SOLID
  5
CA4
  8
SAPA_MATT
 10
1.0053309923309659
 20
109.2199999999978
 30
0.0
 11
2.0053309923309661
 21
109.2199999999978
 31
0.0
 12
1.505330992330965
 22
106.2199999999978
 32
0.0
 13
1.505330992330965
 23
106.2199999999978
 33
0.0
  0
SOLID
  5
CA5
  8
SAPA_MATT
 10
1.005330992331031
 20
403.21999999999781
 30
0.0
 11
2.005330992331031
 21
403.21999999999781
 31
0.0
 12
1.5053309923310321
 22
406.21999999999781
 32
0.0
 13
1.5053309923310321
 23
406.21999999999781
 33
0.0
  0
INSERT
  5
CA6
  8
0
  2
*U40
 10
0.0
 20
0.0
 30
0.0
  0
POINT
  5
CA7
  8
DEFPOINTS
 62
     0
 10
-8.9771333159515034
 20
106.2199999999978
 30
0.0
  0
POINT
  5
CA8
  8
DEFPOINTS
 62
     0
 10
-40.0
 20
406.21999999999781
 30
0.0
  0
POINT
  5
CA9
  8
DEFPOINTS
 62
     0
 10
1.5053309923310321
 20
406.21999999999781
 30
0.0
  0
ENDBLK
  5
C97
  8
0
  0
BLOCK
  8
0
  2
*X24
 70
     1
 10
0.0
 20
0.0
 30
0.0
  3
*X24
  1

  0
LINE
  5
CCC
  8
0
 62
     0
 10
-25.102420373008052
 20
-13.06366814153585
 30
0.0
 11
-25.251985592582908
 21
-12.914102921960991
 31
0.0
  0
LINE
  5
CCD
  8
0
 62
     0
 10
-25.102420373008052
 20
-14.186200156669489
 30
0.0
 11
-25.811289239013028
 21
-13.477331290664511
 31
0.0
  0
LINE
  5
CCE
  8
0
 62
     0
 10
-25.102420373008052
 20
-15.308732171803131
 30
0.0
 11
-26.416504278219289
 21
-13.9946482665919
 31
0.0
  0
LINE
  5
CCF
  8
0
 62
     0
 10
-25.102420373008052
 20
-16.431264186936779
 30
0.0
 11
-27.068527720650351
 21
-14.46515683929449
 31
0.0
  0
LINE
  5
CD0
  8
0
 62
     0
 10
-25.102420373008052
 20
-17.55379620207043
 30
0.0
 11
-27.769287851572091
 21
-14.886928723506379
 31
0.0
  0
LINE
  5
CD1
  8
0
 62
     0
 10
-25.102420373008052
 20
-18.67632821720407
 30
0.0
 11
-28.521962261836912
 21
-15.25678632837521
 31
0.0
  0
LINE
  5
CD2
  8
0
 62
     0
 10
-25.102420373008052
 20
-19.79886023233772
 30
0.0
 11
-29.33138153521454
 21
-15.569899070131219
 31
0.0
  0
LINE
  5
CD3
  8
0
 62
     0
 10
-25.102420373008041
 20
-20.92139224747136
 30
0.0
 11
-30.204754246849529
 21
-15.819058373629881
 31
0.0
  0
LINE
  5
CD4
  8
0
 62
     0
 10
-25.102420373008041
 20
-22.04392426260501
 30
0.0
 11
-31.15301725160435
 21
-15.993327384008699
 31
0.0
  0
LINE
  5
CD5
  8
0
 62
     0
 10
-25.102420373008041
 20
-23.16645627773865
 30
0.0
 11
-32.193563087854699
 21
-16.075313562891989
 31
0.0
  0
LINE
  5
CD6
  8
0
 62
     0
 10
-25.529197615419179
 20
-23.862211050461159
 30
0.0
 11
-33.356522272759413
 21
-16.034886393120932
 31
0.0
  0
LINE
  5
CD7
  8
0
 62
     0
 10
-26.97526326133929
 20
-23.538677419674698
 30
0.0
 11
-34.702696614166513
 21
-15.811244066847481
 31
0.0
  0
LINE
  5
CD8
  8
0
 62
     0
 10
-28.330747942806472
 20
-23.30572475334116
 30
0.0
 11
-36.401196753501203
 21
-15.23527594264643
 31
0.0
  0
LINE
  5
CD9
  8
0
 62
     0
 10
-29.612529569083769
 20
-23.146475142197499
 30
0.0
 11
-39.939664251732673
 21
-12.8193404595486
 31
0.0
  0
LINE
  5
CDA
  8
0
 62
     0
 10
-30.832454266780982
 20
-23.049082459633929
 30
0.0
 11
-39.939664251732673
 21
-13.941872474682251
 31
0.0
  0
LINE
  5
CDB
  8
0
 62
     0
 10
-31.99921807635457
 20
-23.004850665193992
 30
0.0
 11
-39.939664251732673
 21
-15.0644044898159
 31
0.0
  0
LINE
  5
CDC
  8
0
 62
     0
 10
-33.11942809385382
 20
-23.007172662828388
 30
0.0
 11
-39.939664251732658
 21
-16.186936504949539
 31
0.0
  0
LINE
  5
CDD
  8
0
 62
     0
 10
-34.198242490054739
 20
-23.050890281761109
 30
0.0
 11
-39.939664251732658
 21
-17.30946852008319
 31
0.0
  0
LINE
  5
CDE
  8
0
 62
     0
 10
-35.239777452448273
 20
-23.131887334501219
 30
0.0
 11
-39.939664251732651
 21
-18.43200053521684
 31
0.0
  0
LINE
  5
CDF
  8
0
 62
     0
 10
-36.247377188849882
 20
-23.246819613233249
 30
0.0
 11
-39.939664251732658
 21
-19.55453255035048
 31
0.0
  0
LINE
  5
CE0
  8
0
 62
     0
 10
-37.223799475793989
 20
-23.392929341422789
 30
0.0
 11
-39.939664251732651
 21
-20.67706456548412
 31
0.0
  0
LINE
  5
CE1
  8
0
 62
     0
 10
-38.171346978915189
 20
-23.567913853435229
 30
0.0
 11
-39.939664251732651
 21
-21.79959658061777
 31
0.0
  0
LINE
  5
CE2
  8
0
 62
     0
 10
-39.091962548765167
 20
-23.769830298718901
 30
0.0
 11
-39.939664251732651
 21
-22.92212859575142
 31
0.0
  0
LINE
  5
CE3
  8
0
 62
     0
 10
-25.994560644413209
 20
-23.749496614145912
 30
0.0
 11
-25.102420373008041
 21
-22.857356342740751
 31
0.0
  0
LINE
  5
CE4
  8
0
 62
     0
 10
-26.9176646202068
 20
-23.550068574805859
 30
0.0
 11
-25.102420373008041
 21
-21.734824327607111
 31
0.0
  0
LINE
  5
CE5
  8
0
 62
     0
 10
-27.867872058836451
 20
-23.37774399830187
 30
0.0
 11
-25.102420373008041
 21
-20.612292312473471
 31
0.0
  0
LINE
  5
CE6
  8
0
 62
     0
 10
-28.847156697170739
 20
-23.234496621502519
 30
0.0
 11
-25.102420373008041
 21
-19.489760297339821
 31
0.0
  0
LINE
  5
CE7
  8
0
 62
     0
 10
-29.85785995504364
 20
-23.12266786424177
 30
0.0
 11
-25.102420373008041
 21
-18.367228282206181
 31
0.0
  0
LINE
  5
CE8
  8
0
 62
     0
 10
-30.90278908892563
 20
-23.045064982990109
 30
0.0
 11
-25.102420373008041
 21
-17.244696267072531
 31
0.0
  0
LINE
  5
CE9
  8
0
 62
     0
 10
-31.98535275083216
 20
-23.005096629762999
 30
0.0
 11
-25.102420373008052
 21
-16.122164251938891
 31
0.0
  0
LINE
  5
CEA
  8
0
 62
     0
 10
-33.109753023378282
 20
-23.006964887175481
 30
0.0
 11
-25.102420373008041
 21
-14.999632236805249
 31
0.0
  0
LINE
  5
CEB
  8
0
 62
     0
 10
-34.281265723182123
 20
-23.055945571845669
 30
0.0
 11
-25.102420373008041
 21
-13.877100221671601
 31
0.0
  0
LINE
  5
CEC
  8
0
 62
     0
 10
-25.15990608155332
 20
-12.812053915083229
 30
0.0
 11
-25.102420373008041
 21
-12.754568206537961
 31
0.0
  0
LINE
  5
CED
  8
0
 62
     0
 10
-35.506664431640488
 20
-23.1588122651704
 30
0.0
 11
-25.963420795061921
 21
-13.615568628591831
 31
0.0
  0
LINE
  5
CEE
  8
0
 62
     0
 10
-36.794890420187997
 20
-23.324506238584259
 30
0.0
 11
-28.873287226043232
 21
-15.402903044439491
 31
0.0
  0
LINE
  5
CEF
  8
0
 62
     0
 10
-38.158169716161083
 20
-23.565253519423699
 30
0.0
 11
-30.47068298170063
 21
-15.877766784963249
 31
0.0
  0
LINE
  5
CF0
  8
0
 62
     0
 10
-39.614008639118786
 20
-23.898560427247759
 30
0.0
 11
-31.77099663619925
 21
-16.055548424328229
 31
0.0
  0
LINE
  5
CF1
  8
0
 62
     0
 10
-39.939664251732651
 20
-23.101684024727991
 30
0.0
 11
-32.905100775779978
 21
-16.067120548775321
 31
0.0
  0
LINE
  5
CF2
  8
0
 62
     0
 10
-39.939664251732651
 20
-21.97915200959434
 30
0.0
 11
-33.924639323669723
 21
-15.96412708153141
 31
0.0
  0
LINE
  5
CF3
  8
0
 62
     0
 10
-39.939664251732658
 20
-20.856619994460701
 30
0.0
 11
-34.856246636350171
 21
-15.773202379078221
 31
0.0
  0
LINE
  5
CF4
  8
0
 62
     0
 10
-39.939664251732651
 20
-19.73408797932705
 30
0.0
 11
-35.715636034696082
 21
-15.510059762290471
 31
0.0
  0
LINE
  5
CF5
  8
0
 62
     0
 10
-39.939664251732658
 20
-18.611555964193411
 30
0.0
 11
-36.512812067261429
 21
-15.184703779722181
 31
0.0
  0
LINE
  5
CF6
  8
0
 62
     0
 10
-39.939664251732651
 20
-17.489023949059771
 30
0.0
 11
-37.254407763003307
 21
-14.80376746033042
 31
0.0
  0
LINE
  5
CF7
  8
0
 62
     0
 10
-39.939664251732658
 20
-16.366491933926131
 30
0.0
 11
-37.944865635068787
 21
-14.37169331726226
 31
0.0
  0
LINE
  5
CF8
  8
0
 62
     0
 10
-39.939664251732673
 20
-15.243959918792489
 30
0.0
 11
-38.58707906278277
 21
-13.891374729842591
 31
0.0
  0
LINE
  5
CF9
  8
0
 62
     0
 10
-39.939664251732658
 20
-14.121427903658841
 30
0.0
 11
-39.18274967522089
 21
-13.364513327147071
 31
0.0
  0
LINE
  5
CFA
  8
0
 62
     0
 10
-39.939664251732673
 20
-12.998895888525199
 30
0.0
 11
-39.732576306814821
 21
-12.791807943607351
 31
0.0
  0
ENDBLK
  5
CFC
  8
0
  0
BLOCK
  8
0
  2
*X25
 70
     1
 10
0.0
 20
0.0
 30
0.0
  3
*X25
  1

  0
LINE
  5
CFE
  8
0
 62
     0
 10
-25.399996586046839
 20
-12.37333992761693
 30
0.0
 11
-25.222363312181969
 21
-12.06567007216819
 31
0.0
  0
LINE
  5
CFF
  8
0
 62
     0
 10
-26.59062130155074
 20
-11.68593242761694
 30
0.0
 11
-26.193746301550739
 21
-10.99852476336304
 31
0.0
  0
LINE
  5
D00
  8
0
 62
     0
 10
-27.781246301550741
 20
-13.74815542037863
 30
0.0
 11
-27.38437130155074
 21
-13.06074775612473
 31
0.0
  0
LINE
  5
D01
  8
0
 62
     0
 10
-26.590621017054641
 20
-8.9363019348552424
 30
0.0
 11
-26.350460836449031
 21
-8.5203323000914093
 31
0.0
  0
LINE
  5
D02
  8
0
 62
     0
 10
-27.781246017054642
 20
-10.998524927616931
 30
0.0
 11
-27.38437101705464
 21
-10.311117263363039
 31
0.0
  0
LINE
  5
D03
  8
0
 62
     0
 10
-28.971871017054639
 20
-13.060747920378629
 30
0.0
 11
-28.574996017054641
 21
-12.373340256124729
 31
0.0
  0
LINE
  5
D04
  8
0
 62
     0
 10
-30.162496017054639
 20
-15.12297091314033
 30
0.0
 11
-29.765621017054642
 21
-14.43556324888643
 31
0.0
  0
LINE
  5
D05
  8
0
 62
     0
 10
-27.781245732558549
 20
-8.2488944348552433
 30
0.0
 11
-27.48583546852835
 21
-7.7372288484775931
 31
0.0
  0
LINE
  5
D06
  8
0
 62
     0
 10
-28.97187073255855
 20
-10.31111742761694
 30
0.0
 11
-28.574995732558548
 21
-9.6237097633630402
 31
0.0
  0
LINE
  5
D07
  8
0
 62
     0
 10
-30.162495732558551
 20
-12.37334042037863
 30
0.0
 11
-29.765620732558549
 21
-11.68593275612473
 31
0.0
  0
LINE
  5
D08
  8
0
 62
     0
 10
-31.353120732558551
 20
-14.435563413140329
 30
0.0
 11
-30.95624573255855
 21
-13.748155748886431
 31
0.0
  0
LINE
  5
D09
  8
0
 62
     0
 10
-28.97187044806245
 20
-7.5614869348552389
 30
0.0
 11
-28.751542499937429
 21
-7.1798677343753088
 31
0.0
  0
LINE
  5
D0A
  8
0
 62
     0
 10
-30.162495448062451
 20
-9.6237099276169342
 30
0.0
 11
-29.765620448062439
 21
-8.9363022633630358
 31
0.0
  0
LINE
  5
D0B
  8
0
 62
     0
 10
-31.353120448062452
 20
-11.68593292037863
 30
0.0
 11
-30.95624544806244
 21
-10.998525256124729
 31
0.0
  0
LINE
  5
D0C
  8
0
 62
     0
 10
-32.543745448062452
 20
-13.748155913140319
 30
0.0
 11
-32.146870448062451
 21
-13.060748248886419
 31
0.0
  0
LINE
  5
D0D
  8
0
 62
     0
 10
-33.563943089145504
 20
-15.51519006125808
 30
0.0
 11
-33.337495448062448
 21
-15.12297124164812
 31
0.0
  0
LINE
  5
D0E
  8
0
 62
     0
 10
-30.162495163566341
 20
-6.8740794348552372
 30
0.0
 11
-30.123591328447411
 21
-6.8066960158199787
 31
0.0
  0
LINE
  5
D0F
  8
0
 62
     0
 10
-31.353120163566341
 20
-8.9363024276169316
 30
0.0
 11
-30.956245163566329
 21
-8.2488947633630332
 31
0.0
  0
LINE
  5
D10
  8
0
 62
     0
 10
-32.543745163566342
 20
-10.99852542037862
 30
0.0
 11
-32.146870163566327
 21
-10.31111775612473
 31
0.0
  0
LINE
  5
D11
  8
0
 62
     0
 10
-33.734370163566339
 20
-13.06074841314032
 30
0.0
 11
-33.337495163566338
 21
-12.37334074888642
 31
0.0
  0
LINE
  5
D12
  8
0
 62
     0
 10
-34.924995163566336
 20
-15.122971405902019
 30
0.0
 11
-34.528120163566342
 21
-14.435563741648121
 31
0.0
  0
LINE
  5
D13
  8
0
 62
     0
 10
-32.543744879070239
 20
-8.2488949276169308
 30
0.0
 11
-32.146869879070238
 21
-7.5614872633630323
 31
0.0
  0
LINE
  5
D14
  8
0
 62
     0
 10
-33.734369879070243
 20
-10.311117920378621
 30
0.0
 11
-33.337494879070242
 21
-9.6237102561247276
 31
0.0
  0
LINE
  5
D15
  8
0
 62
     0
 10
-34.924994879070248
 20
-12.37334091314032
 30
0.0
 11
-34.528119879070253
 21
-11.685933248886419
 31
0.0
  0
LINE
  5
D16
  8
0
 62
     0
 10
-36.115619879070252
 20
-14.43556390590202
 30
0.0
 11
-35.71874487907025
 21
-13.74815624164812
 31
0.0
  0
LINE
  5
D17
  8
0
 62
     0
 10
-33.73436959457414
 20
-7.5614874276169317
 30
0.0
 11
-33.337494594574139
 21
-6.8740797633630342
 31
0.0
  0
LINE
  5
D18
  8
0
 62
     0
 10
-34.924994594574152
 20
-9.623710420378627
 30
0.0
 11
-34.528119594574143
 21
-8.9363027561247286
 31
0.0
  0
LINE
  5
D19
  8
0
 62
     0
 10
-36.115619594574149
 20
-11.685933413140321
 30
0.0
 11
-35.718744594574147
 21
-10.99852574888642
 31
0.0
  0
LINE
  5
D1A
  8
0
 62
     0
 10
-37.306244594574153
 20
-13.748156405902019
 30
0.0
 11
-36.909369594574152
 21
-13.060748741648119
 31
0.0
  0
LINE
  5
D1B
  8
0
 62
     0
 10
-34.924994310078048
 20
-6.8740799276169282
 30
0.0
 11
-34.894226870210709
 21
-6.8207891585478748
 31
0.0
  0
LINE
  5
D1C
  8
0
 62
     0
 10
-36.115619310078053
 20
-8.9363029203786226
 30
0.0
 11
-35.718744310078051
 21
-8.2488952561247242
 31
0.0
  0
LINE
  5
D1D
  8
0
 62
     0
 10
-37.306244310078057
 20
-10.99852591314032
 30
0.0
 11
-36.909369310078063
 21
-10.311118248886419
 31
0.0
  0
LINE
  5
D1E
  8
0
 62
     0
 10
-38.496869310078061
 20
-13.06074890590201
 30
0.0
 11
-38.09999431007806
 21
-12.373341241648109
 31
0.0
  0
LINE
  5
D1F
  8
0
 62
     0
 10
-37.306244025581947
 20
-8.2488954203786342
 30
0.0
 11
-36.909369025581952
 21
-7.5614877561247349
 31
0.0
  0
LINE
  5
D20
  8
0
 62
     0
 10
-38.496869025581958
 20
-10.31111841314033
 30
0.0
 11
-38.099994025581957
 21
-9.6237107488864311
 31
0.0
  0
LINE
  5
D21
  8
0
 62
     0
 10
-39.635348036966938
 20
-12.283021904209891
 30
0.0
 11
-39.290619025581961
 21
-11.685933741648119
 31
0.0
  0
LINE
  5
D22
  8
0
 62
     0
 10
-26.19374431007806
 20
-9.6237040144766031
 30
0.0
 11
-26.590619310078061
 21
-8.9362963502227046
 31
0.0
  0
LINE
  5
D23
  8
0
 62
     0
 10
-25.080419430436049
 20
-11.552039271347059
 30
0.0
 11
-25.399994310078061
 21
-10.9985193429844
 31
0.0
  0
LINE
  5
D24
  8
0
 62
     0
 10
-28.574994025581962
 20
-8.2488885217149068
 30
0.0
 11
-28.97186902558197
 21
-7.5614808574610084
 31
0.0
  0
LINE
  5
D25
  8
0
 62
     0
 10
-27.384369025581961
 20
-10.3111115144766
 30
0.0
 11
-27.781244025581969
 21
-9.6237038502227037
 31
0.0
  0
LINE
  5
D26
  8
0
 62
     0
 10
-26.19374402558196
 20
-12.373334507238299
 30
0.0
 11
-26.590619025581962
 21
-11.685926842984401
 31
0.0
  0
LINE
  5
D27
  8
0
 62
     0
 10
-30.956243741085871
 20
-6.8740730289532133
 30
0.0
 11
-31.082315731391301
 21
-6.6557099363328742
 31
0.0
  0
LINE
  5
D28
  8
0
 62
     0
 10
-29.765618741085859
 20
-8.9362960217149077
 30
0.0
 11
-30.162493741085871
 21
-8.2488883574610092
 31
0.0
  0
LINE
  5
D29
  8
0
 62
     0
 10
-28.574993741085859
 20
-10.998519014476599
 30
0.0
 11
-28.971868741085871
 21
-10.311111350222699
 31
0.0
  0
LINE
  5
D2A
  8
0
 62
     0
 10
-27.384368741085861
 20
-13.0607420072383
 30
0.0
 11
-27.78124374108587
 21
-12.3733343429844
 31
0.0
  0
LINE
  5
D2B
  8
0
 62
     0
 10
-32.146868456589772
 20
-7.5614805289532097
 30
0.0
 11
-32.543743456589773
 21
-6.8740728646993121
 31
0.0
  0
LINE
  5
D2C
  8
0
 62
     0
 10
-30.956243456589771
 20
-9.6237035217149032
 30
0.0
 11
-31.353118456589769
 21
-8.9362958574610065
 31
0.0
  0
LINE
  5
D2D
  8
0
 62
     0
 10
-29.76561845658977
 20
-11.6859265144766
 30
0.0
 11
-30.162493456589772
 21
-10.9985188502227
 31
0.0
  0
LINE
  5
D2E
  8
0
 62
     0
 10
-28.57499345658977
 20
-13.74814950723829
 30
0.0
 11
-28.971868456589771
 21
-13.060741842984401
 31
0.0
  0
LINE
  5
D2F
  8
0
 62
     0
 10
-33.337493172093673
 20
-8.2488880289532105
 30
0.0
 11
-33.734368172093681
 21
-7.5614803646993121
 31
0.0
  0
LINE
  5
D30
  8
0
 62
     0
 10
-32.146868172093669
 20
-10.3111110217149
 30
0.0
 11
-32.54374317209367
 21
-9.6237033574610074
 31
0.0
  0
LINE
  5
D31
  8
0
 62
     0
 10
-30.956243172093671
 20
-12.373334014476599
 30
0.0
 11
-31.353118172093669
 21
-11.685926350222701
 31
0.0
  0
LINE
  5
D32
  8
0
 62
     0
 10
-29.765618172093671
 20
-14.435557007238289
 30
0.0
 11
-30.162493172093669
 21
-13.7481493429844
 31
0.0
  0
LINE
  5
D33
  8
0
 62
     0
 10
-34.528117887597581
 20
-8.9362955289532096
 30
0.0
 11
-34.924992887597583
 21
-8.2488878646993111
 31
0.0
  0
LINE
  5
D34
  8
0
 62
     0
 10
-33.337492887597577
 20
-10.9985185217149
 30
0.0
 11
-33.734367887597578
 21
-10.311110857460999
 31
0.0
  0
LINE
  5
D35
  8
0
 62
     0
 10
-32.146867887597573
 20
-13.0607415144766
 30
0.0
 11
-32.543742887597581
 21
-12.3733338502227
 31
0.0
  0
LINE
  5
D36
  8
0
 62
     0
 10
-30.956242887597568
 20
-15.12296450723829
 30
0.0
 11
-31.35311788759757
 21
-14.435556842984401
 31
0.0
  0
LINE
  5
D37
  8
0
 62
     0
 10
-36.909367603101487
 20
-7.5614800361915142
 30
0.0
 11
-36.954582443233967
 21
-7.483165635825956
 31
0.0
  0
LINE
  5
D38
  8
0
 62
     0
 10
-35.718742603101482
 20
-9.6237030289532086
 30
0.0
 11
-36.115617603101491
 21
-8.9362953646993102
 31
0.0
  0
LINE
  5
D39
  8
0
 62
     0
 10
-34.528117603101478
 20
-11.6859260217149
 30
0.0
 11
-34.924992603101479
 21
-10.998518357461
 31
0.0
  0
LINE
  5
D3A
  8
0
 62
     0
 10
-33.337492603101481
 20
-13.748149014476599
 30
0.0
 11
-33.734367603101482
 21
-13.060741350222701
 31
0.0
  0
LINE
  5
D3B
  8
0
 62
     0
 10
-32.290098397924169
 20
-15.56228899339691
 30
0.0
 11
-32.543742603101471
 21
-15.122964342984391
 31
0.0
  0
LINE
  5
D3C
  8
0
 62
     0
 10
-38.099992318605388
 20
-8.2488875361915142
 30
0.0
 11
-38.148453386917929
 21
-8.1649505036851231
 31
0.0
  0
LINE
  5
D3D
  8
0
 62
     0
 10
-36.909367318605391
 20
-10.311110528953209
 30
0.0
 11
-37.306242318605378
 21
-9.623702864699311
 31
0.0
  0
LINE
  5
D3E
  8
0
 62
     0
 10
-35.718742318605379
 20
-12.373333521714899
 30
0.0
 11
-36.115617318605381
 21
-11.685925857460999
 31
0.0
  0
LINE
  5
D3F
  8
0
 62
     0
 10
-34.528117318605382
 20
-14.4355565144766
 30
0.0
 11
-34.924992318605383
 21
-13.7481488502227
 31
0.0
  0
LINE
  5
D40
  8
0
 62
     0
 10
-38.099992034109277
 20
-10.99851802895321
 30
0.0
 11
-38.496867034109293
 21
-10.31111036469931
 31
0.0
  0
LINE
  5
D41
  8
0
 62
     0
 10
-36.90936703410928
 20
-13.0607410217149
 30
0.0
 11
-37.306242034109282
 21
-12.373333357461
 31
0.0
  0
LINE
  5
D42
  8
0
 62
     0
 10
-35.725287041652287
 20
-15.11162772887619
 30
0.0
 11
-36.115617034109277
 21
-14.435556350222701
 31
0.0
  0
LINE
  5
D43
  8
0
 62
     0
 10
-39.290616749613179
 20
-11.685925528953209
 30
0.0
 11
-39.68749174961318
 21
-10.998517864699309
 31
0.0
  0
LINE
  5
D44
  8
0
 62
     0
 10
-38.099991749613181
 20
-13.74814852171491
 30
0.0
 11
-38.496866749613183
 21
-13.06074085746101
 31
0.0
  0
LINE
  5
D45
  8
0
 62
     0
 10
-30.95624999999999
 20
-15.122965000000001
 30
0.0
 11
-30.162499999999991
 21
-15.122965000000001
 31
0.0
  0
LINE
  5
D46
  8
0
 62
     0
 10
-33.337499999999991
 20
-15.122965000000001
 30
0.0
 11
-32.543749999999989
 21
-15.122965000000001
 31
0.0
  0
LINE
  5
D47
  8
0
 62
     0
 10
-35.686393811084223
 20
-15.122965000000001
 30
0.0
 11
-34.92499999999999
 21
-15.122965000000001
 31
0.0
  0
LINE
  5
D48
  8
0
 62
     0
 10
-28.574999999999989
 20
-13.748150000000001
 30
0.0
 11
-27.781249999999989
 21
-13.748150000000001
 31
0.0
  0
LINE
  5
D49
  8
0
 62
     0
 10
-30.95624999999999
 20
-13.748150000000001
 30
0.0
 11
-30.162499999999991
 21
-13.748150000000001
 31
0.0
  0
LINE
  5
D4A
  8
0
 62
     0
 10
-33.337499999999991
 20
-13.748150000000001
 30
0.0
 11
-32.543749999999989
 21
-13.748150000000001
 31
0.0
  0
LINE
  5
D4B
  8
0
 62
     0
 10
-35.718749999999993
 20
-13.748150000000001
 30
0.0
 11
-34.92499999999999
 21
-13.748150000000001
 31
0.0
  0
LINE
  5
D4C
  8
0
 62
     0
 10
-38.100000000000001
 20
-13.748150000000001
 30
0.0
 11
-37.306249999999991
 21
-13.748150000000001
 31
0.0
  0
LINE
  5
D4D
  8
0
 62
     0
 10
-26.193750000000001
 20
-12.373335000000001
 30
0.0
 11
-25.399999999999999
 21
-12.373335000000001
 31
0.0
  0
LINE
  5
D4E
  8
0
 62
     0
 10
-28.574999999999989
 20
-12.373335000000001
 30
0.0
 11
-27.781249999999989
 21
-12.373335000000001
 31
0.0
  0
LINE
  5
D4F
  8
0
 62
     0
 10
-30.95624999999999
 20
-12.373335000000001
 30
0.0
 11
-30.162499999999991
 21
-12.373335000000001
 31
0.0
  0
LINE
  5
D50
  8
0
 62
     0
 10
-33.337499999999991
 20
-12.373335000000001
 30
0.0
 11
-32.543749999999989
 21
-12.373335000000001
 31
0.0
  0
LINE
  5
D51
  8
0
 62
     0
 10
-35.718749999999993
 20
-12.373335000000001
 30
0.0
 11
-34.92499999999999
 21
-12.373335000000001
 31
0.0
  0
LINE
  5
D52
  8
0
 62
     0
 10
-38.100000000000001
 20
-12.373335000000001
 30
0.0
 11
-37.306249999999991
 21
-12.373335000000001
 31
0.0
  0
LINE
  5
D53
  8
0
 62
     0
 10
-26.193750000000001
 20
-10.998519999999999
 30
0.0
 11
-25.399999999999999
 21
-10.998519999999999
 31
0.0
  0
LINE
  5
D54
  8
0
 62
     0
 10
-28.574999999999989
 20
-10.998519999999999
 30
0.0
 11
-27.781249999999989
 21
-10.998519999999999
 31
0.0
  0
LINE
  5
D55
  8
0
 62
     0
 10
-30.95624999999999
 20
-10.998519999999999
 30
0.0
 11
-30.162499999999991
 21
-10.998519999999999
 31
0.0
  0
LINE
  5
D56
  8
0
 62
     0
 10
-33.337499999999991
 20
-10.998519999999999
 30
0.0
 11
-32.543749999999989
 21
-10.998519999999999
 31
0.0
  0
LINE
  5
D57
  8
0
 62
     0
 10
-35.718749999999993
 20
-10.998519999999999
 30
0.0
 11
-34.92499999999999
 21
-10.998519999999999
 31
0.0
  0
LINE
  5
D58
  8
0
 62
     0
 10
-38.100000000000001
 20
-10.998519999999999
 30
0.0
 11
-37.306249999999991
 21
-10.998519999999999
 31
0.0
  0
LINE
  5
D59
  8
0
 62
     0
 10
-39.910498934586897
 20
-10.998519999999999
 30
0.0
 11
-39.6875
 21
-10.998519999999999
 31
0.0
  0
LINE
  5
D5A
  8
0
 62
     0
 10
-26.193750000000001
 20
-9.6237049999999993
 30
0.0
 11
-25.43320228399979
 21
-9.6237049999999993
 31
0.0
  0
LINE
  5
D5B
  8
0
 62
     0
 10
-28.574999999999989
 20
-9.6237049999999993
 30
0.0
 11
-27.781249999999989
 21
-9.6237049999999993
 31
0.0
  0
LINE
  5
D5C
  8
0
 62
     0
 10
-30.95624999999999
 20
-9.6237049999999993
 30
0.0
 11
-30.162499999999991
 21
-9.6237049999999993
 31
0.0
  0
LINE
  5
D5D
  8
0
 62
     0
 10
-33.337499999999991
 20
-9.6237049999999993
 30
0.0
 11
-32.543749999999989
 21
-9.6237049999999993
 31
0.0
  0
LINE
  5
D5E
  8
0
 62
     0
 10
-35.718749999999993
 20
-9.6237049999999993
 30
0.0
 11
-34.92499999999999
 21
-9.6237049999999993
 31
0.0
  0
LINE
  5
D5F
  8
0
 62
     0
 10
-38.100000000000001
 20
-9.6237049999999993
 30
0.0
 11
-37.306249999999991
 21
-9.6237049999999993
 31
0.0
  0
LINE
  5
D60
  8
0
 62
     0
 10
-28.574999999999989
 20
-8.2488899999999994
 30
0.0
 11
-27.781249999999989
 21
-8.2488899999999994
 31
0.0
  0
LINE
  5
D61
  8
0
 62
     0
 10
-30.95624999999999
 20
-8.2488899999999994
 30
0.0
 11
-30.162499999999991
 21
-8.2488899999999994
 31
0.0
  0
LINE
  5
D62
  8
0
 62
     0
 10
-33.337499999999991
 20
-8.2488899999999994
 30
0.0
 11
-32.543749999999989
 21
-8.2488899999999994
 31
0.0
  0
LINE
  5
D63
  8
0
 62
     0
 10
-35.718749999999993
 20
-8.2488899999999994
 30
0.0
 11
-34.92499999999999
 21
-8.2488899999999994
 31
0.0
  0
LINE
  5
D64
  8
0
 62
     0
 10
-38.100000000000001
 20
-8.2488899999999994
 30
0.0
 11
-37.306249999999991
 21
-8.2488899999999994
 31
0.0
  0
LINE
  5
D65
  8
0
 62
     0
 10
-30.95624999999999
 20
-6.8740749999999986
 30
0.0
 11
-30.162499999999991
 21
-6.8740749999999986
 31
0.0
  0
LINE
  5
D66
  8
0
 62
     0
 10
-33.337499999999991
 20
-6.8740749999999986
 30
0.0
 11
-32.543749999999989
 21
-6.8740749999999986
 31
0.0
  0
LINE
  5
D67
  8
0
 62
     0
 10
-35.136754775358419
 20
-6.8740749999999986
 30
0.0
 11
-34.92499999999999
 21
-6.8740749999999986
 31
0.0
  0
ENDBLK
  5
D69
  8
0
  0
BLOCK
  8
0
  2
*U26
 70
     1
 10
0.0
 20
0.0
 30
0.0
  3
*U26
  1

  0
TEXT
  5
D8F
  8
SAPA_ARTIKELNR
 10
-7.1891639414921871
 20
-30.89521820814673
 30
0.0
 40
3.5
  1
68280
  7
ISO
  0
ENDBLK
  5
D91
  8
0
  0
BLOCK
  8
0
  2
*U27
 70
     1
 10
0.0
 20
0.0
 30
0.0
  3
*U27
  1

  0
TEXT
  5
D93
  8
SAPA_ARTIKELNR
 10
-7.1891639414921871
 20
82.644091895668467
 30
0.0
 40
3.5
  1
42144
  7
ISO
  0
ENDBLK
  5
D95
  8
0
  0
BLOCK
  8
0
  2
*U28
 70
     1
 10
0.0
 20
0.0
 30
0.0
  3
*U28
  1

  0
TEXT
  5
D97
  8
SAPA_ARTIKELNR
 10
-31.6371511298772
 20
95.06040700980941
 30
0.0
 40
3.5
  1
0064
  7
ISO
  0
ENDBLK
  5
D99
  8
0
  0
BLOCK
  8
0
  2
*U29
 70
     1
 10
0.0
 20
0.0
 30
0.0
  3
*U29
  1

  0
TEXT
  5
DAE
  8
0
 62
     2
 10
0.5030582650582303
 20
249.3199999999978
 30
0.0
 40
3.0
  1
min 300
 50
90.0
  7
ISO
  0
ENDBLK
  5
DB0
  8
0
  0
BLOCK
  8
0
  2
*U30
 70
     1
 10
0.0
 20
0.0
 30
0.0
  3
*U30
  1

  0
TEXT
  5
E7E
  8
0
 62
     2
 10
67.775353807349802
 20
32.493759665304488
 30
0.0
 40
6.0
  1
60
 50
90.0
  7
BYGG-01472402$0$ISO
  0
ENDBLK
  5
E80
  8
0
  0
BLOCK
  8
0
  2
*U31
 70
     1
 10
0.0
 20
0.0
 30
0.0
  3
*U31
  1

  0
TEXT
  5
E82
  8
0
 62
     2
 10
23.616713455909959
 20
78.489807319913098
 30
0.0
 40
6.0
  1
50
  7
BYGG-01472402$0$ISO
  0
ENDBLK
  5
E84
  8
0
  0
BLOCK
  8
0
  2
*U32
 70
     1
 10
0.0
 20
0.0
 30
0.0
  3
*U32
  1

  0
TEXT
  5
EDC
  8
0
 62
     2
 10
2.924893507843874
 20
11.80837843001756
 30
0.0
 40
3.0
  1
7
 50
90.0
  7
BYGG-014252$0$ISO
  0
ENDBLK
  5
EDE
  8
0
  0
BLOCK
  8
0
  2
*U33
 70
     1
 10
0.0
 20
0.0
 30
0.0
  3
*U33
  1

  0
TEXT
  5
EE0
  8
0
 62
     2
 10
29.55729736359487
 20
1.4710805811525349
 30
0.0
 40
3.0
  1
47.6
  7
BYGG-014252$0$ISO
  0
ENDBLK
  5
EE2
  8
0
  0
BLOCK
  8
0
  2
*U34
 70
     1
 10
0.0
 20
0.0
 30
0.0
  3
*U34
  1

  0
TEXT
  5
FF1
  8
0
 62
     2
 10
-2.0999999999996208
 20
-42.06544441920056
 30
0.0
 40
3.0
  1
50
  7
ISO
  0
ENDBLK
  5
FF3
  8
0
  0
BLOCK
  8
0
  2
*U35
 70
     1
 10
0.0
 20
0.0
 30
0.0
  3
*U35
  1

  0
TEXT
  5
FF5
  8
0
 62
     2
 10
-43.956278146715057
 20
1.4766955053213751
 30
0.0
 40
6.0
  1
60
 50
90.0
  7
BYGG-01472402$0$ISO
  0
ENDBLK
  5
FF7
  8
0
  0
BLOCK
  8
0
  2
*U36
 70
     1
 10
0.0
 20
0.0
 30
0.0
  3
*U36
  1

  0
TEXT
  5
FF9
  8
0
 62
     2
 10
-4.2023622047240243
 20
-32.47368285794866
 30
0.0
 40
6.0
  1
50
  7
BYGG-01472402$0$ISO
  0
ENDBLK
  5
FFB
  8
0
  0
BLOCK
  8
0
  2
*U37
 70
     1
 10
0.0
 20
0.0
 30
0.0
  3
*U37
  1

  0
TEXT
  5
FFD
  8
0
 62
     2
 10
-3.8244094488188409
 20
89.386827999856038
 30
0.0
 40
3.0
  1
47.6
  7
BYGG-014252$0$ISO
  0
ENDBLK
  5
FFF
  8
0
  0
BLOCK
  8
0
  2
*U38
 70
     1
 10
0.0
 20
0.0
 30
0.0
  3
*U38
  1

  0
TEXT
  5
12AD
  8
0
 62
     2
 10
28.456813304569941
 20
74.949530150991009
 30
0.0
 40
3.0
  1
7
 50
90.0
  7
BYGG-014252$0$ISO
  0
ENDBLK
  5
12AF
  8
0
  0
BLOCK
  8
0
  2
*U39
 70
     1
 10
0.0
 20
0.0
 30
0.0
  3
*U39
  1

  0
TEXT
  5
141D
  8
SAPA_MATT
 62
     2
 10
-2.0999999999996208
 20
-42.06544441920056
 30
0.0
 40
3.0
  1
50
  7
ISO
  0
ENDBLK
  5
141F
  8
0
  0
BLOCK
  8
0
  2
*U40
 70
     1
 10
0.0
 20
0.0
 30
0.0
  3
*U40
  1

  0
TEXT
  5
1421
  8
SAPA_MATT
 62
     2
 10
0.5030582650582303
 20
249.3199999999978
 30
0.0
 40
3.0
  1
min 300
 50
90.0
  7
ISO
  0
ENDBLK
  5
1423
  8
0
  0
ENDSEC
  0
SECTION
  2
ENTITIES
  0
POLYLINE
  5
6F2
  8
SAPA_ANSLUTNING
 10
-39.911439133987649
 20
-11.06997245323919
 30
0.0
 66
     1
 70
     8
  0
VERTEX
  8
SAPA_ANSLUTNING
  5
1424
 10
-39.9114
 20
-11.0700
 30
0.000000
  70
    32
  0
VERTEX
  8
SAPA_ANSLUTNING
  5
1425
 10
-39.9025
 20
-10.8495
 30
0.000000
  70
    32
  0
VERTEX
  8
SAPA_ANSLUTNING
  5
1426
 10
-39.8756
 20
-10.6295
 30
0.000000
  70
    32
  0
VERTEX
  8
SAPA_ANSLUTNING
  5
1427
 10
-39.8309
 20
-10.4106
 30
0.000000
  70
    32
  0
VERTEX
  8
SAPA_ANSLUTNING
  5
1428
 10
-39.7685
 20
-10.1933
 30
0.000000
  70
    32
  0
VERTEX
  8
SAPA_ANSLUTNING
  5
1429
 10
-39.6886
 20
-9.97809
 30
0.000000
  70
    32
  0
VERTEX
  8
SAPA_ANSLUTNING
  5
142A
 10
-39.5912
 20
-9.76552
 30
0.000000
  70
    32
  0
VERTEX
  8
SAPA_ANSLUTNING
  5
142B
 10
-39.4767
 20
-9.55609
 30
0.000000
  70
    32
  0
VERTEX
  8
SAPA_ANSLUTNING
  5
142C
 10
-39.3453
 20
-9.35031
 30
0.000000
  70
    32
  0
VERTEX
  8
SAPA_ANSLUTNING
  5
142D
 10
-39.1974
 20
-9.14867
 30
0.000000
  70
    32
  0
VERTEX
  8
SAPA_ANSLUTNING
  5
142E
 10
-39.0333
 20
-8.95166
 30
0.000000
  70
    32
  0
VERTEX
  8
SAPA_ANSLUTNING
  5
142F
 10
-38.8534
 20
-8.75975
 30
0.000000
  70
    32
  0
VERTEX
  8
SAPA_ANSLUTNING
  5
1430
 10
-38.6581
 20
-8.57341
 30
0.000000
  70
    32
  0
VERTEX
  8
SAPA_ANSLUTNING
  5
1431
 10
-38.4479
 20
-8.39308
 30
0.000000
  70
    32
  0
VERTEX
  8
SAPA_ANSLUTNING
  5
1432
 10
-38.2233
 20
-8.21920
 30
0.000000
  70
    32
  0
VERTEX
  8
SAPA_ANSLUTNING
  5
1433
 10
-37.9849
 20
-8.05219
 30
0.000000
  70
    32
  0
VERTEX
  8
SAPA_ANSLUTNING
  5
1434
 10
-37.7332
 20
-7.89245
 30
0.000000
  70
    32
  0
VERTEX
  8
SAPA_ANSLUTNING
  5
1435
 10
-37.4688
 20
-7.74036
 30
0.000000
  70
    32
  0
VERTEX
  8
SAPA_ANSLUTNING
  5
1436
 10
-37.1924
 20
-7.59630
 30
0.000000
  70
    32
  0
VERTEX
  8
SAPA_ANSLUTNING
  5
1437
 10
-36.9047
 20
-7.46060
 30
0.000000
  70
    32
  0
VERTEX
  8
SAPA_ANSLUTNING
  5
1438
 10
-36.6062
 20
-7.33360
 30
0.000000
  70
    32
  0
VERTEX
  8
SAPA_ANSLUTNING
  5
1439
 10
-36.2978
 20
-7.21560
 30
0.000000
  70
    32
  0
VERTEX
  8
SAPA_ANSLUTNING
  5
143A
 10
-35.9802
 20
-7.10688
 30
0.000000
  70
    32
  0
VERTEX
  8
SAPA_ANSLUTNING
  5
143B
 10
-35.6542
 20
-7.00772
 30
0.000000
  70
    32
  0
VERTEX
  8
SAPA_ANSLUTNING
  5
143C
 10
-35.3205
 20
-6.91834
 30
0.000000
  70
    32
  0
VERTEX
  8
SAPA_ANSLUTNING
  5
143D
 10
-34.9799
 20
-6.83896
 30
0.000000
  70
    32
  0
VERTEX
  8
SAPA_ANSLUTNING
  5
143E
 10
-34.6333
 20
-6.76977
 30
0.000000
  70
    32
  0
VERTEX
  8
SAPA_ANSLUTNING
  5
143F
 10
-34.2815
 20
-6.71095
 30
0.000000
  70
    32
  0
VERTEX
  8
SAPA_ANSLUTNING
  5
1440
 10
-33.9254
 20
-6.66262
 30
0.000000
  70
    32
  0
VERTEX
  8
SAPA_ANSLUTNING
  5
1441
 10
-33.5657
 20
-6.62491
 30
0.000000
  70
    32
  0
VERTEX
  8
SAPA_ANSLUTNING
  5
1442
 10
-33.2034
 20
-6.59791
 30
0.000000
  70
    32
  0
VERTEX
  8
SAPA_ANSLUTNING
  5
1443
 10
-32.8394
 20
-6.58169
 30
0.000000
  70
    32
  0
VERTEX
  8
SAPA_ANSLUTNING
  5
1444
 10
-32.4745
 20
-6.57627
 30
0.000000
  70
    32
  0
VERTEX
  8
SAPA_ANSLUTNING
  5
1445
 10
-32.1096
 20
-6.58169
 30
0.000000
  70
    32
  0
VERTEX
  8
SAPA_ANSLUTNING
  5
1446
 10
-31.7455
 20
-6.59791
 30
0.000000
  70
    32
  0
VERTEX
  8
SAPA_ANSLUTNING
  5
1447
 10
-31.3832
 20
-6.62491
 30
0.000000
  70
    32
  0
VERTEX
  8
SAPA_ANSLUTNING
  5
1448
 10
-31.0236
 20
-6.66262
 30
0.000000
  70
    32
  0
VERTEX
  8
SAPA_ANSLUTNING
  5
1449
 10
-30.6674
 20
-6.71095
 30
0.000000
  70
    32
  0
VERTEX
  8
SAPA_ANSLUTNING
  5
144A
 10
-30.3156
 20
-6.76977
 30
0.000000
  70
    32
  0
VERTEX
  8
SAPA_ANSLUTNING
  5
144B
 10
-29.9690
 20
-6.83896
 30
0.000000
  70
    32
  0
VERTEX
  8
SAPA_ANSLUTNING
  5
144C
 10
-29.6285
 20
-6.91834
 30
0.000000
  70
    32
  0
VERTEX
  8
SAPA_ANSLUTNING
  5
144D
 10
-29.2948
 20
-7.00772
 30
0.000000
  70
    32
  0
VERTEX
  8
SAPA_ANSLUTNING
  5
144E
 10
-28.9687
 20
-7.10688
 30
0.000000
  70
    32
  0
VERTEX
  8
SAPA_ANSLUTNING
  5
144F
 10
-28.6511
 20
-7.21560
 30
0.000000
  70
    32
  0
VERTEX
  8
SAPA_ANSLUTNING
  5
1450
 10
-28.3427
 20
-7.33360
 30
0.000000
  70
    32
  0
VERTEX
  8
SAPA_ANSLUTNING
  5
1451
 10
-28.0443
 20
-7.46060
 30
0.000000
  70
    32
  0
VERTEX
  8
SAPA_ANSLUTNING
  5
1452
 10
-27.7565
 20
-7.59630
 30
0.000000
  70
    32
  0
VERTEX
  8
SAPA_ANSLUTNING
  5
1453
 10
-27.4801
 20
-7.74036
 30
0.000000
  70
    32
  0
VERTEX
  8
SAPA_ANSLUTNING
  5
1454
 10
-27.2157
 20
-7.89245
 30
0.000000
  70
    32
  0
VERTEX
  8
SAPA_ANSLUTNING
  5
1455
 10
-26.9640
 20
-8.05219
 30
0.000000
  70
    32
  0
VERTEX
  8
SAPA_ANSLUTNING
  5
1456
 10
-26.7256
 20
-8.21920
 30
0.000000
  70
    32
  0
VERTEX
  8
SAPA_ANSLUTNING
  5
1457
 10
-26.5010
 20
-8.39308
 30
0.000000
  70
    32
  0
VERTEX
  8
SAPA_ANSLUTNING
  5
1458
 10
-26.2909
 20
-8.57341
 30
0.000000
  70
    32
  0
VERTEX
  8
SAPA_ANSLUTNING
  5
1459
 10
-26.0956
 20
-8.75975
 30
0.000000
  70
    32
  0
VERTEX
  8
SAPA_ANSLUTNING
  5
145A
 10
-25.9157
 20
-8.95166
 30
0.000000
  70
    32
  0
VERTEX
  8
SAPA_ANSLUTNING
  5
145B
 10
-25.7515
 20
-9.14867
 30
0.000000
  70
    32
  0
VERTEX
  8
SAPA_ANSLUTNING
  5
145C
 10
-25.6036
 20
-9.35031
 30
0.000000
  70
    32
  0
VERTEX
  8
SAPA_ANSLUTNING
  5
145D
 10
-25.4722
 20
-9.55609
 30
0.000000
  70
    32
  0
VERTEX
  8
SAPA_ANSLUTNING
  5
145E
 10
-25.3577
 20
-9.76552
 30
0.000000
  70
    32
  0
VERTEX
  8
SAPA_ANSLUTNING
  5
145F
 10
-25.2604
 20
-9.97809
 30
0.000000
  70
    32
  0
VERTEX
  8
SAPA_ANSLUTNING
  5
1460
 10
-25.1804
 20
-10.1933
 30
0.000000
  70
    32
  0
VERTEX
  8
SAPA_ANSLUTNING
  5
1461
 10
-25.1180
 20
-10.4106
 30
0.000000
  70
    32
  0
VERTEX
  8
SAPA_ANSLUTNING
  5
1462
 10
-25.0733
 20
-10.6295
 30
0.000000
  70
    32
  0
VERTEX
  8
SAPA_ANSLUTNING
  5
1463
 10
-25.0465
 20
-10.8495
 30
0.000000
  70
    32
  0
VERTEX
  8
SAPA_ANSLUTNING
  5
1464
 10
-25.0375
 20
-11.0700
 30
0.000000
  70
    32
  0
VERTEX
  8
SAPA_ANSLUTNING
  5
1465
 10
-25.0465
 20
-11.2905
 30
0.000000
  70
    32
  0
VERTEX
  8
SAPA_ANSLUTNING
  5
1466
 10
-25.0733
 20
-11.5104
 30
0.000000
  70
    32
  0
VERTEX
  8
SAPA_ANSLUTNING
  5
1467
 10
-25.1180
 20
-11.7293
 30
0.000000
  70
    32
  0
VERTEX
  8
SAPA_ANSLUTNING
  5
1468
 10
-25.1804
 20
-11.9466
 30
0.000000
  70
    32
  0
VERTEX
  8
SAPA_ANSLUTNING
  5
1469
 10
-25.2604
 20
-12.1619
 30
0.000000
  70
    32
  0
VERTEX
  8
SAPA_ANSLUTNING
  5
146A
 10
-25.3577
 20
-12.3744
 30
0.000000
  70
    32
  0
VERTEX
  8
SAPA_ANSLUTNING
  5
146B
 10
-25.4722
 20
-12.5839
 30
0.000000
  70
    32
  0
VERTEX
  8
SAPA_ANSLUTNING
  5
146C
 10
-25.6036
 20
-12.7896
 30
0.000000
  70
    32
  0
VERTEX
  8
SAPA_ANSLUTNING
  5
146D
 10
-25.7515
 20
-12.9913
 30
0.000000
  70
    32
  0
VERTEX
  8
SAPA_ANSLUTNING
  5
146E
 10
-25.9157
 20
-13.1883
 30
0.000000
  70
    32
  0
VERTEX
  8
SAPA_ANSLUTNING
  5
146F
 10
-26.0956
 20
-13.3802
 30
0.000000
  70
    32
  0
VERTEX
  8
SAPA_ANSLUTNING
  5
1470
 10
-26.2909
 20
-13.5665
 30
0.000000
  70
    32
  0
VERTEX
  8
SAPA_ANSLUTNING
  5
1471
 10
-26.5010
 20
-13.7469
 30
0.000000
  70
    32
  0
VERTEX
  8
SAPA_ANSLUTNING
  5
1472
 10
-26.7256
 20
-13.9207
 30
0.000000
  70
    32
  0
VERTEX
  8
SAPA_ANSLUTNING
  5
1473
 10
-26.9640
 20
-14.0878
 30
0.000000
  70
    32
  0
VERTEX
  8
SAPA_ANSLUTNING
  5
1474
 10
-27.2157
 20
-14.2475
 30
0.000000
  70
    32
  0
VERTEX
  8
SAPA_ANSLUTNING
  5
1475
 10
-27.4801
 20
-14.3996
 30
0.000000
  70
    32
  0
VERTEX
  8
SAPA_ANSLUTNING
  5
1476
 10
-27.7565
 20
-14.5436
 30
0.000000
  70
    32
  0
VERTEX
  8
SAPA_ANSLUTNING
  5
1477
 10
-28.0443
 20
-14.6793
 30
0.000000
  70
    32
  0
VERTEX
  8
SAPA_ANSLUTNING
  5
1478
 10
-28.3427
 20
-14.8063
 30
0.000000
  70
    32
  0
VERTEX
  8
SAPA_ANSLUTNING
  5
1479
 10
-28.6511
 20
-14.9243
 30
0.000000
  70
    32
  0
VERTEX
  8
SAPA_ANSLUTNING
  5
147A
 10
-28.9687
 20
-15.0331
 30
0.000000
  70
    32
  0
VERTEX
  8
SAPA_ANSLUTNING
  5
147B
 10
-29.2948
 20
-15.1322
 30
0.000000
  70
    32
  0
VERTEX
  8
SAPA_ANSLUTNING
  5
147C
 10
-29.6285
 20
-15.2216
 30
0.000000
  70
    32
  0
VERTEX
  8
SAPA_ANSLUTNING
  5
147D
 10
-29.9690
 20
-15.3010
 30
0.000000
  70
    32
  0
VERTEX
  8
SAPA_ANSLUTNING
  5
147E
 10
-30.3156
 20
-15.3702
 30
0.000000
  70
    32
  0
VERTEX
  8
SAPA_ANSLUTNING
  5
147F
 10
-30.6674
 20
-15.4290
 30
0.000000
  70
    32
  0
VERTEX
  8
SAPA_ANSLUTNING
  5
1480
 10
-31.0236
 20
-15.4773
 30
0.000000
  70
    32
  0
VERTEX
  8
SAPA_ANSLUTNING
  5
1481
 10
-31.3832
 20
-15.5150
 30
0.000000
  70
    32
  0
VERTEX
  8
SAPA_ANSLUTNING
  5
1482
 10
-31.7455
 20
-15.5420
 30
0.000000
  70
    32
  0
VERTEX
  8
SAPA_ANSLUTNING
  5
1483
 10
-32.1096
 20
-15.5583
 30
0.000000
  70
    32
  0
VERTEX
  8
SAPA_ANSLUTNING
  5
1484
 10
-32.4745
 20
-15.5637
 30
0.000000
  70
    32
  0
VERTEX
  8
SAPA_ANSLUTNING
  5
1485
 10
-32.8394
 20
-15.5583
 30
0.000000
  70
    32
  0
VERTEX
  8
SAPA_ANSLUTNING
  5
1486
 10
-33.2034
 20
-15.5420
 30
0.000000
  70
    32
  0
VERTEX
  8
SAPA_ANSLUTNING
  5
1487
 10
-33.5657
 20
-15.5150
 30
0.000000
  70
    32
  0
VERTEX
  8
SAPA_ANSLUTNING
  5
1488
 10
-33.9254
 20
-15.4773
 30
0.000000
  70
    32
  0
VERTEX
  8
SAPA_ANSLUTNING
  5
1489
 10
-34.2815
 20
-15.4290
 30
0.000000
  70
    32
  0
VERTEX
  8
SAPA_ANSLUTNING
  5
148A
 10
-34.6333
 20
-15.3702
 30
0.000000
  70
    32
  0
VERTEX
  8
SAPA_ANSLUTNING
  5
148B
 10
-34.9799
 20
-15.3010
 30
0.000000
  70
    32
  0
VERTEX
  8
SAPA_ANSLUTNING
  5
148C
 10
-35.3205
 20
-15.2216
 30
0.000000
  70
    32
  0
VERTEX
  8
SAPA_ANSLUTNING
  5
148D
 10
-35.6542
 20
-15.1322
 30
0.000000
  70
    32
  0
VERTEX
  8
SAPA_ANSLUTNING
  5
148E
 10
-35.9802
 20
-15.0331
 30
0.000000
  70
    32
  0
VERTEX
  8
SAPA_ANSLUTNING
  5
148F
 10
-36.2978
 20
-14.9243
 30
0.000000
  70
    32
  0
VERTEX
  8
SAPA_ANSLUTNING
  5
1490
 10
-36.6062
 20
-14.8063
 30
0.000000
  70
    32
  0
VERTEX
  8
SAPA_ANSLUTNING
  5
1491
 10
-36.9047
 20
-14.6793
 30
0.000000
  70
    32
  0
VERTEX
  8
SAPA_ANSLUTNING
  5
1492
 10
-37.1924
 20
-14.5436
 30
0.000000
  70
    32
  0
VERTEX
  8
SAPA_ANSLUTNING
  5
1493
 10
-37.4688
 20
-14.3996
 30
0.000000
  70
    32
  0
VERTEX
  8
SAPA_ANSLUTNING
  5
1494
 10
-37.7332
 20
-14.2475
 30
0.000000
  70
    32
  0
VERTEX
  8
SAPA_ANSLUTNING
  5
1495
 10
-37.9849
 20
-14.0878
 30
0.000000
  70
    32
  0
VERTEX
  8
SAPA_ANSLUTNING
  5
1496
 10
-38.2233
 20
-13.9207
 30
0.000000
  70
    32
  0
VERTEX
  8
SAPA_ANSLUTNING
  5
1497
 10
-38.4479
 20
-13.7469
 30
0.000000
  70
    32
  0
VERTEX
  8
SAPA_ANSLUTNING
  5
1498
 10
-38.6581
 20
-13.5665
 30
0.000000
  70
    32
  0
VERTEX
  8
SAPA_ANSLUTNING
  5
1499
 10
-38.8534
 20
-13.3802
 30
0.000000
  70
    32
  0
VERTEX
  8
SAPA_ANSLUTNING
  5
149A
 10
-39.0333
 20
-13.1883
 30
0.000000
  70
    32
  0
VERTEX
  8
SAPA_ANSLUTNING
  5
149B
 10
-39.1974
 20
-12.9913
 30
0.000000
  70
    32
  0
VERTEX
  8
SAPA_ANSLUTNING
  5
149C
 10
-39.3453
 20
-12.7896
 30
0.000000
  70
    32
  0
VERTEX
  8
SAPA_ANSLUTNING
  5
149D
 10
-39.4767
 20
-12.5839
 30
0.000000
  70
    32
  0
VERTEX
  8
SAPA_ANSLUTNING
  5
149E
 10
-39.5912
 20
-12.3744
 30
0.000000
  70
    32
  0
VERTEX
  8
SAPA_ANSLUTNING
  5
149F
 10
-39.6886
 20
-12.1619
 30
0.000000
  70
    32
  0
VERTEX
  8
SAPA_ANSLUTNING
  5
14A0
 10
-39.7685
 20
-11.9466
 30
0.000000
  70
    32
  0
VERTEX
  8
SAPA_ANSLUTNING
  5
14A1
 10
-39.8309
 20
-11.7293
 30
0.000000
  70
    32
  0
VERTEX
  8
SAPA_ANSLUTNING
  5
14A2
 10
-39.8756
 20
-11.5104
 30
0.000000
  70
    32
  0
VERTEX
  8
SAPA_ANSLUTNING
  5
14A3
 10
-39.9025
 20
-11.2905
 30
0.000000
  70
    32
  0
VERTEX
  8
SAPA_ANSLUTNING
  5
14A4
 10
-39.9114
 20
-11.0700
 30
0.000000
  70
    32
  0
SEQEND
  8
SAPA_ANSLUTNING
  5
14A5
  0
POLYLINE
  5
854
  8
SAPA_ANSLUTNING
 66
     1
 10
0.0
 20
0.0
 30
0.0
 70
     1
1001
ACAD
1000
ASC_BOUNDS
1002
{
1070
    19
1005
98B
1002
}
  0
VERTEX
  5
CC1
  8
SAPA_ANSLUTNING
 10
-25.102420373008052
 20
-12.74684964815747
 30
0.0
  0
VERTEX
  5
CC2
  8
SAPA_ANSLUTNING
 10
-25.102420373008041
 20
-23.972867066226758
 30
0.0
 42
0.1318351716450102
  0
VERTEX
  5
CC3
  8
SAPA_ANSLUTNING
 10
-39.939664251732651
 20
-23.984159807306931
 30
0.0
  0
VERTEX
  5
CC4
  8
SAPA_ANSLUTNING
 10
-39.939664251732673
 20
-12.549851938234649
 30
0.0
 42
0.4622359140985589
  0
SEQEND
  5
CC5
  8
SAPA_ANSLUTNING
  0
POLYLINE
  5
85A
  8
SAPA_ANSLUTNING
 66
     1
 10
0.0
 20
0.0
 30
0.0
 70
     1
  0
VERTEX
  5
CC6
  8
SAPA_ANSLUTNING
 10
-25.000000000001108
 20
35.499530150990161
 30
0.0
  0
VERTEX
  5
CC7
  8
SAPA_ANSLUTNING
 10
-10.99999999999987
 20
35.499530150990161
 30
0.0
  0
VERTEX
  5
CC8
  8
SAPA_ANSLUTNING
 10
-10.99999999999987
 20
62.919999999997621
 30
0.0
  0
VERTEX
  5
CC9
  8
SAPA_ANSLUTNING
 10
-25.000000000001108
 20
62.919999999997621
 30
0.0
  0
SEQEND
  5
CCA
  8
SAPA_ANSLUTNING
  0
LINE
  5
85B
  8
SAPA_ANSLUTNING
 10
-10.99999999999987
 20
35.499530150990161
 30
0.0
 11
-25.000000000001108
 21
43.582433919645617
 31
0.0
  0
LINE
  5
85C
  8
SAPA_ANSLUTNING
 10
-10.99999999999987
 20
51.665337688301108
 30
0.0
 11
-25.000000000001108
 21
43.582433919645638
 31
0.0
  0
LINE
  5
85D
  8
SAPA_ANSLUTNING
 10
-10.99999999999987
 20
51.665337688301108
 30
0.0
 11
-25.000000000001108
 21
59.748241456956592
 31
0.0
  0
LINE
  5
85E
  8
SAPA_ANSLUTNING
 10
-19.506353054113401
 20
62.919999999997621
 30
0.0
 11
-25.000000000001108
 21
59.748241456956592
 31
0.0
  0
LINE
  5
887
  8
SAPA_ANSLUTNING
 10
-10.99999999999987
 20
64.519999999997623
 30
0.0
 11
-38.399999999999999
 21
64.519999999997609
 31
0.0
  0
LINE
  5
888
  8
SAPA_ANSLUTNING
 10
-19.877173350034351
 20
63.769999999997623
 30
0.0
 11
-29.877173350034351
 21
63.769999999997623
 31
0.0
  0
LINE
  5
889
  8
SAPA_ANSLUTNING
 10
-10.99999999999987
 20
63.019999999997623
 30
0.0
 11
-39.899999999999999
 21
63.01999999999763
 31
0.0
  0
LINE
  5
88F
  8
SAPA_ANSLUTNING
 10
-10.99999999999987
 20
63.019999999997623
 30
0.0
 11
-10.99999999999987
 21
64.519999999997623
 31
0.0
  0
INSERT
  5
98B
  8
SAPA_ANSLUTNING
  6
CONTINUOUS
  2
*X24
 10
0.0
 20
0.0
 30
0.0
1001
ACAD
1000
HATCH
1002
{
1070
    19
1000
ANSI37
1040
0.25
1040
0.0
1000
ASC_BOUNDS
1070
     1
1070
     1
1070
     1
1005
854
1000
ASC_SEEDPOINT
1011
-31.702985289329721
1021
-8.1680166307941567E+028
1031
-1.6336044947706093E+029
1021
-19.54273087628485
1031
0.0
1000
R14_HATCH_DATA
1000
98B
1011
1.0
1021
-8.1680166307941567E+028
1031
-1.6336044947706093E+029
1021
0.0
1031
0.0
1011
0.0
1021
-8.1680166307941567E+028
1031
-1.6336044947706093E+029
1021
1.0
1031
0.0
1011
0.0
1021
-8.1680166307941567E+028
1031
-1.6336044947706093E+029
1021
0.0
1031
1.0
1040
0.0
1010
0.0
1020
0.0
1030
1.0
1000
ANSI37
1070
     0
1070
     1
1071
        1
1071
        7
1070
     1
1070
     1
1071
        4
1040
-25.102420373008041
1040
-23.972867066226758
1040
0.0
1040
-25.102420373008052
1040
-12.74684964815747
1040
-0.4622359140985589
1040
-39.939664251732673
1040
-12.549851938234649
1040
0.0
1040
-39.939664251732651
1040
-23.984159807306931
1040
-0.1318351716450102
1071
        1
1005
854
1070
     0
1070
     1
1040
0.0
1040
0.25
1070
     0
1070
     2
1040
0.7853981633974483
1040
0.0
1040
0.0
1040
-0.5612660075668221
1040
0.5612660075668221
1070
     0
1040
2.3561944901923439
1040
0.0
1040
0.0
1040
-0.5612660075668221
1040
-0.5612660075668221
1070
     0
1040
0.0884032882088985
1071
        1
1040
-31.702985289329721
1040
-19.54273087628485
1040
0.0
1002
}
  0
INSERT
  5
9EA
  8
SAPA_ANSLUTNING
  6
CONTINUOUS
  2
*X25
 10
0.0
 20
0.0
 30
0.0
1001
ACAD
1000
HATCH
1002
{
1070
    19
1000
HEX
1040
0.25
1040
0.0
1000
ASC_BOUNDS
1070
     1
1070
     1
1070
     1
1005
6F2
1000
ASC_SEEDPOINT
1011
-32.05676831379288
1021
-8.1680166307941567E+028
1031
-1.6336044947706093E+029
1021
-10.879208532515801
1031
0.0
1000
R14_HATCH_DATA
1000
9EA
1011
1.0
1021
-8.1680166307941567E+028
1031
-1.6336044947706093E+029
1021
0.0
1031
0.0
1011
0.0
1021
-8.1680166307941567E+028
1031
-1.6336044947706093E+029
1021
1.0
1031
0.0
1011
0.0
1021
-8.1680166307941567E+028
1031
-1.6336044947706093E+029
1021
0.0
1031
1.0
1040
0.0
1010
0.0
1020
0.0
1030
1.0
1000
HEX
1070
     0
1070
     1
1071
        1
1071
        5
1071
        1
1070
     3
1040
-32.474470868090982
1040
-11.06997245323919
1040
-7.4369682658966658
1040
0.0
1040
0.6042378466118592
1040
0.0
1040
6.2831853071795862
1070
     0
1071
        1
1005
6F2
1070
     0
1070
     1
1040
0.0
1040
0.25
1070
     0
1070
     3
1040
0.0
1040
0.0
1040
0.0
1040
0.0
1040
1.374814999999999
1070
     2
1040
0.79375
1040
-1.587499999999999
1040
2.0943951023931948
1040
0.0
1040
0.0
1040
-1.190624715503902
1040
-0.6874074999999996
1070
     2
1040
0.7937499999999998
1040
-1.587499999999999
1040
1.047197551196597
1040
0.79375
1040
0.0
1040
-1.190624715503902
1040
0.6874075000000001
1070
     2
1040
0.79375
1040
-1.587499999999999
1040
0.0884032882088985
1071
        1
1040
-32.05676831379288
1040
-10.879208532515801
1040
0.0
1002
}
  0
LINE
  5
A20
  8
SAPA_ANSLUTNING
 10
-29.877173350034361
 20
64.519999999997637
 30
0.0
 11
-29.877173350034351
 21
63.019999999997623
 31
0.0
  0
LINE
  5
A21
  8
SAPA_ANSLUTNING
 10
-19.877173350034351
 20
64.519999999997623
 30
0.0
 11
-19.877173350034351
 21
63.01999999999763
 31
0.0
  0
POLYLINE
  5
A23
  8
SAPA_ANSLUTNING
 66
     1
 10
0.0
 20
0.0
 30
0.0
  0
VERTEX
  5
D6A
  8
SAPA_ANSLUTNING
 10
-27.005681311933589
 20
58.6869051862285
 30
0.0
  0
VERTEX
  5
D6B
  8
SAPA_ANSLUTNING
 10
-37.999998157691152
 20
58.6869051862285
 30
0.0
 42
0.9999999999999998
  0
VERTEX
  5
D6C
  8
SAPA_ANSLUTNING
 10
-37.999998157691152
 20
54.686905186232138
 30
0.0
  0
VERTEX
  5
D6D
  8
SAPA_ANSLUTNING
 10
-27.005681311933589
 20
54.686905186232138
 30
0.0
 42
-0.9999999999999998
  0
VERTEX
  5
D6E
  8
SAPA_ANSLUTNING
 10
-27.005681311933589
 20
50.686905186232131
 30
0.0
  0
VERTEX
  5
D6F
  8
SAPA_ANSLUTNING
 10
-37.999998157691152
 20
50.686905186230319
 30
0.0
 42
0.9999999999999998
  0
VERTEX
  5
D70
  8
SAPA_ANSLUTNING
 10
-37.999998157691152
 20
46.686905186237588
 30
0.0
  0
VERTEX
  5
D71
  8
SAPA_ANSLUTNING
 10
-27.005681311933589
 20
46.686905186237588
 30
0.0
 42
-0.9999999999999998
  0
VERTEX
  5
D72
  8
SAPA_ANSLUTNING
 10
-27.005681311933589
 20
42.686905186237588
 30
0.0
  0
VERTEX
  5
D73
  8
SAPA_ANSLUTNING
 10
-37.999998157691152
 20
42.686905186239407
 30
0.0
 42
0.9999999999999998
  0
VERTEX
  5
D74
  8
SAPA_ANSLUTNING
 10
-37.999998157691152
 20
38.686905186243052
 30
0.0
  0
VERTEX
  5
D75
  8
SAPA_ANSLUTNING
 10
-27.005681311933589
 20
38.686905186241241
 30
0.0
 42
-0.9999999999999998
  0
VERTEX
  5
D76
  8
SAPA_ANSLUTNING
 10
-27.005681311933589
 20
34.686905186241241
 30
0.0
  0
VERTEX
  5
D77
  8
SAPA_ANSLUTNING
 10
-37.999998157691152
 20
34.686905186241241
 30
0.0
 42
0.9999999999999998
  0
VERTEX
  5
D78
  8
SAPA_ANSLUTNING
 10
-37.999998157691152
 20
30.686905186244871
 30
0.0
  0
VERTEX
  5
D79
  8
SAPA_ANSLUTNING
 10
-27.005681311933589
 20
30.68690518624669
 30
0.0
 42
-0.9999999999999998
  0
VERTEX
  5
D7A
  8
SAPA_ANSLUTNING
 10
-27.005681311933589
 20
26.68690518624669
 30
0.0
  0
VERTEX
  5
D7B
  8
SAPA_ANSLUTNING
 10
-37.999998157691152
 20
26.686905186250328
 30
0.0
 42
0.9999999999999998
  0
VERTEX
  5
D7C
  8
SAPA_ANSLUTNING
 10
-37.999998157691152
 20
22.686905186250328
 30
0.0
  0
VERTEX
  5
D7D
  8
SAPA_ANSLUTNING
 10
-27.005681311933589
 20
22.686905186250328
 30
0.0
 42
-0.9999999999999998
  0
VERTEX
  5
D7E
  8
SAPA_ANSLUTNING
 10
-27.005681311933589
 20
18.686905186250328
 30
0.0
  0
VERTEX
  5
D7F
  8
SAPA_ANSLUTNING
 10
-37.999998157691152
 20
18.686905186248509
 30
0.0
 42
0.9999999999999998
  0
VERTEX
  5
D80
  8
SAPA_ANSLUTNING
 10
-37.999998157691152
 20
14.68690518625578
 30
0.0
  0
VERTEX
  5
D81
  8
SAPA_ANSLUTNING
 10
-27.0056794696211
 20
14.68690518625578
 30
0.0
 42
-0.9999999999999998
  0
VERTEX
  5
D82
  8
SAPA_ANSLUTNING
 10
-27.0056794696211
 20
10.68690518625578
 30
0.0
  0
VERTEX
  5
D83
  8
SAPA_ANSLUTNING
 10
-37.999996315378667
 20
10.68690518625578
 30
0.0
 42
0.9999999999999998
  0
VERTEX
  5
D84
  8
SAPA_ANSLUTNING
 10
-37.999996315378667
 20
6.6869051862594233
 30
0.0
  0
VERTEX
  5
D85
  8
SAPA_ANSLUTNING
 10
-27.0056794696211
 20
6.6869051862594233
 30
0.0
 42
-0.9999999999999998
  0
VERTEX
  5
D86
  8
SAPA_ANSLUTNING
 10
-27.0056794696211
 20
2.6869051862594229
 30
0.0
  0
VERTEX
  5
D87
  8
SAPA_ANSLUTNING
 10
-37.999996315378667
 20
2.6869051862594229
 30
0.0
 42
0.9999999999999998
  0
VERTEX
  5
D88
  8
SAPA_ANSLUTNING
 10
-37.999996315378667
 20
-1.313094813736938
 30
0.0
  0
VERTEX
  5
D89
  8
SAPA_ANSLUTNING
 10
-27.0056794696211
 20
-1.313094813736938
 30
0.0
 42
-0.9999999999999998
  0
VERTEX
  5
D8A
  8
SAPA_ANSLUTNING
 10
-27.0056794696211
 20
-5.3130948137369378
 30
0.0
  0
VERTEX
  5
D8B
  8
SAPA_ANSLUTNING
 10
-37.999996315378667
 20
-5.3130948137369378
 30
0.0
 42
0.494589963618819
  0
VERTEX
  5
D8C
  8
SAPA_ANSLUTNING
 10
-39.929422617942691
 20
-7.8397010641421048
 30
0.0
  0
SEQEND
  5
D8D
  8
SAPA_ANSLUTNING
  0
LINE
  5
A2B
  8
SAPA_ANSLUTNING
 10
-38.40000000000002
 20
361.90398971494619
 30
0.0
 11
-39.900000000000013
 21
361.90398971494619
 31
0.0
  0
LINE
  5
A2C
  8
SAPA_ANSLUTNING
 10
-38.40000000000002
 20
371.90398971494619
 30
0.0
 11
-39.900000000000013
 21
371.90398971494619
 31
0.0
  0
LINE
  5
A39
  8
SAPA_ANSLUTNING
 10
-39.149999999999999
 20
361.90398971494619
 30
0.0
 11
-39.149999999999999
 21
371.90398971494619
 31
0.0
  0
LINE
  5
A40
  8
SAPA_ANSLUTNING
 10
-20.0
 20
125.1629803517622
 30
0.0
 11
-30.0
 21
130.93648304365851
 31
0.0
  0
ARC
  5
A44
  8
SAPA_ANSLUTNING
 10
-34.489102319952508
 20
107.7199999999978
 30
0.0
 40
3.0
 50
180.0
 51
270.0
  0
LINE
  5
A45
  8
SAPA_ANSLUTNING
 10
-34.489102319952508
 20
104.7199999999978
 30
0.0
 11
-8.9771333159515052
 21
104.7199999999978
 31
0.0
  0
ARC
  5
A46
  8
SAPA_ANSLUTNING
 10
-8.9771333159515052
 20
103.1199999999978
 30
0.0
 40
1.5999999999999941
 50
270.0
 51
90.0
  0
LINE
  5
A47
  8
SAPA_ANSLUTNING
 10
-8.9771333159515052
 20
101.51999999999779
 30
0.0
 11
-20.499999999999549
 21
101.51999999999791
 31
0.0
  0
LINE
  5
A48
  8
SAPA_PROFIL
 10
-20.499999999999549
 20
101.51999999999791
 30
0.0
 11
-20.499999999999549
 21
100.01999999999779
 31
0.0
  0
LINE
  5
A49
  8
SAPA_ANSLUTNING
 10
-20.499999999999549
 20
100.01999999999779
 30
0.0
 11
-8.9771333159515052
 21
100.01999999999779
 31
0.0
  0
ARC
  5
A4A
  8
SAPA_ANSLUTNING
 10
-8.9771333159515052
 20
103.1199999999978
 30
0.0
 40
3.0999999999999801
 50
270.0
 51
90.0
  0
LINE
  5
A4B
  8
SAPA_ANSLUTNING
 10
-8.9771333159515052
 20
106.2199999999978
 30
0.0
 11
-32.989102319952508
 21
106.2199999999978
 31
0.0
  0
ARC
  5
A4C
  8
SAPA_ANSLUTNING
 10
-32.989102319952508
 20
109.2199999999978
 30
0.0
 40
3.0
 50
180.0
 51
270.0
  0
LINE
  5
A4D
  8
SAPA_ANSLUTNING
 10
-35.989102319952508
 20
109.2199999999978
 30
0.0
 11
-35.989102319952508
 21
377.5857996045354
 31
0.0
  0
LINE
  5
A4F
  8
SAPA_ANSLUTNING
 10
-38.500913759471374
 20
406.35115305169171
 30
0.0
 11
-40.0
 21
406.21999999999781
 31
0.0
  0
LINE
  5
A52
  8
SAPA_ANSLUTNING
 10
-20.0
 20
125.1629803517622
 30
0.0
 11
-20.0
 21
416.13942732907782
 31
0.0
  0
LINE
  5
A53
  8
SAPA_ANSLUTNING
 10
-29.999999999999979
 20
130.93648304365851
 30
0.0
 11
-30.0
 21
416.13942732907782
 31
0.0
  0
LINE
  5
A55
  8
SAPA_ANSLUTNING
 10
-37.489102319952387
 20
377.52030819017148
 30
0.0
 11
-37.489102319952508
 21
107.7199999999978
 31
0.0
  0
LINE
  5
A56
  8
SAPA_ANSLUTNING
 10
-38.399999999999991
 20
64.519999999997623
 30
0.0
 11
-38.399999999999999
 21
371.90398971494619
 31
0.0
  0
LINE
  5
A57
  8
SAPA_ANSLUTNING
 10
-39.900000000000013
 20
63.01999999999763
 30
0.0
 11
-39.900000000000013
 21
371.90398971494619
 31
0.0
  0
LINE
  5
A58
  8
SAPA_ANSLUTNING
 10
-40.0
 20
-54.650776963873568
 30
0.0
 11
-40.0
 21
416.13942732907782
 31
0.0
  0
LINE
  5
A5A
  8
SAPA_ANSLUTNING
 10
-40.0
 20
406.21999999999781
 30
0.0
 11
-37.489102319952501
 21
377.52030819017273
 31
0.0
  0
LINE
  5
A5B
  8
SAPA_ANSLUTNING
 10
-38.50570795286238
 20
406.35073361411918
 30
0.0
 11
-35.989102319952508
 21
377.58579960453551
 31
0.0
  0
INSERT
  5
A93
  8
0
  2
*U26
 10
0.0
 20
0.0
 30
0.0
  0
INSERT
  5
A94
  8
0
  2
*U27
 10
0.0
 20
0.0
 30
0.0
  0
INSERT
  5
A95
  8
0
  2
*U28
 10
0.0
 20
0.0
 30
0.0
  0
POLYLINE
  5
A96
  8
SAPA_LIGHT
 66
     1
 10
0.0
 20
0.0
 30
0.0
  0
VERTEX
  5
D9A
  8
SAPA_LIGHT
 10
-24.999999999999119
 20
-24.50046984900883
 30
0.0
  0
VERTEX
  5
D9B
  8
SAPA_LIGHT
 10
-25.000000000001108
 20
35.499530150990161
 30
0.0
  0
VERTEX
  5
D9C
  8
SAPA_LIGHT
 10
-5.0000000000001101
 20
35.499530150990168
 30
0.0
  0
VERTEX
  5
D9D
  8
SAPA_LIGHT
 10
-5.0000000000001013
 20
67.619999999997617
 30
0.0
  0
VERTEX
  5
D9E
  8
SAPA_LIGHT
 10
-21.89767722167198
 20
67.619999999997617
 30
0.0
  0
VERTEX
  5
D9F
  8
SAPA_LIGHT
 10
-21.897677221672001
 20
79.499530150990921
 30
0.0
  0
VERTEX
  5
DA0
  8
SAPA_LIGHT
 10
21.897677221672211
 20
79.499530150990921
 30
0.0
  0
VERTEX
  5
DA1
  8
SAPA_LIGHT
 10
21.897677221672261
 20
67.619999999997646
 30
0.0
  0
VERTEX
  5
DA2
  8
SAPA_LIGHT
 10
5.0
 20
67.619999999997646
 30
0.0
  0
VERTEX
  5
DA3
  8
SAPA_LIGHT
 10
5.0000000000000009
 20
40.859999999997278
 30
0.0
  0
VERTEX
  5
DA4
  8
SAPA_LIGHT
 10
25.000000000001879
 20
40.859999999997292
 30
0.0
  0
VERTEX
  5
DA5
  8
SAPA_LIGHT
 10
25.000000000001879
 20
-24.50046984900882
 30
0.0
  0
VERTEX
  5
DA6
  8
SAPA_LIGHT
 10
-24.999999999999119
 20
-24.500469849010472
 30
0.0
  0
SEQEND
  5
DA7
  8
SAPA_LIGHT
  0
POLYLINE
  5
A97
  8
SAPA_LIGHT
 66
     1
 10
0.0
 20
0.0
 30
0.0
  0
VERTEX
  5
DA8
  8
SAPA_LIGHT
 10
40.999999999999432
 20
67.619999999997731
 30
0.0
  0
VERTEX
  5
DA9
  8
SAPA_LIGHT
 10
10.99999999999943
 20
67.619999999997617
 30
0.0
  0
VERTEX
  5
DAA
  8
SAPA_LIGHT
 10
10.999999999999879
 20
40.859999999997278
 30
0.0
  0
VERTEX
  5
DAB
  8
SAPA_LIGHT
 10
40.999999999999368
 20
40.859999999997633
 30
0.0
  0
SEQEND
  5
DAC
  8
SAPA_LIGHT
  0
LINE
  5
AC3
  8
SAPA_ANSLUTNING
 10
-39.149999999999999
 20
331.90398971494619
 30
0.0
 11
-39.149999999999999
 21
341.90398971494619
 31
0.0
  0
LINE
  5
AC4
  8
SAPA_ANSLUTNING
 10
-38.40000000000002
 20
331.90398971494619
 30
0.0
 11
-39.900000000000013
 21
331.90398971494619
 31
0.0
  0
LINE
  5
AC5
  8
SAPA_ANSLUTNING
 10
-38.40000000000002
 20
341.90398971494619
 30
0.0
 11
-39.900000000000013
 21
341.90398971494619
 31
0.0
  0
LINE
  5
AC6
  8
SAPA_ANSLUTNING
 10
-39.149999999999999
 20
301.90398971494619
 30
0.0
 11
-39.149999999999999
 21
311.90398971494619
 31
0.0
  0
LINE
  5
AC7
  8
SAPA_ANSLUTNING
 10
-38.40000000000002
 20
301.90398971494619
 30
0.0
 11
-39.900000000000013
 21
301.90398971494619
 31
0.0
  0
LINE
  5
AC8
  8
SAPA_ANSLUTNING
 10
-38.40000000000002
 20
311.90398971494619
 30
0.0
 11
-39.900000000000013
 21
311.90398971494619
 31
0.0
  0
LINE
  5
AC9
  8
SAPA_ANSLUTNING
 10
-39.149999999999999
 20
271.90398971494619
 30
0.0
 11
-39.149999999999999
 21
281.90398971494619
 31
0.0
  0
LINE
  5
ACA
  8
SAPA_ANSLUTNING
 10
-38.40000000000002
 20
271.90398971494619
 30
0.0
 11
-39.900000000000013
 21
271.90398971494619
 31
0.0
  0
LINE
  5
ACB
  8
SAPA_ANSLUTNING
 10
-38.40000000000002
 20
281.90398971494619
 30
0.0
 11
-39.900000000000013
 21
281.90398971494619
 31
0.0
  0
LINE
  5
ACC
  8
SAPA_ANSLUTNING
 10
-39.149999999999999
 20
241.90398971494619
 30
0.0
 11
-39.149999999999999
 21
251.90398971494619
 31
0.0
  0
LINE
  5
ACD
  8
SAPA_ANSLUTNING
 10
-38.40000000000002
 20
241.90398971494619
 30
0.0
 11
-39.900000000000013
 21
241.90398971494619
 31
0.0
  0
LINE
  5
ACE
  8
SAPA_ANSLUTNING
 10
-38.40000000000002
 20
251.90398971494619
 30
0.0
 11
-39.900000000000013
 21
251.90398971494619
 31
0.0
  0
LINE
  5
ACF
  8
SAPA_ANSLUTNING
 10
-39.149999999999999
 20
211.90398971494619
 30
0.0
 11
-39.149999999999999
 21
221.90398971494619
 31
0.0
  0
LINE
  5
AD0
  8
SAPA_ANSLUTNING
 10
-38.40000000000002
 20
211.90398971494619
 30
0.0
 11
-39.900000000000013
 21
211.90398971494619
 31
0.0
  0
LINE
  5
AD1
  8
SAPA_ANSLUTNING
 10
-38.40000000000002
 20
221.90398971494619
 30
0.0
 11
-39.900000000000013
 21
221.90398971494619
 31
0.0
  0
LINE
  5
AD2
  8
SAPA_ANSLUTNING
 10
-39.149999999999991
 20
181.90398971494619
 30
0.0
 11
-39.149999999999991
 21
191.90398971494619
 31
0.0
  0
LINE
  5
AD3
  8
SAPA_ANSLUTNING
 10
-38.400000000000013
 20
181.90398971494619
 30
0.0
 11
-39.900000000000013
 21
181.90398971494619
 31
0.0
  0
LINE
  5
AD4
  8
SAPA_ANSLUTNING
 10
-38.400000000000013
 20
191.90398971494619
 30
0.0
 11
-39.900000000000013
 21
191.90398971494619
 31
0.0
  0
LINE
  5
AD5
  8
SAPA_ANSLUTNING
 10
-39.149999999999991
 20
151.90398971494619
 30
0.0
 11
-39.149999999999991
 21
161.90398971494619
 31
0.0
  0
LINE
  5
AD6
  8
SAPA_ANSLUTNING
 10
-38.400000000000013
 20
151.90398971494619
 30
0.0
 11
-39.900000000000013
 21
151.90398971494619
 31
0.0
  0
LINE
  5
AD7
  8
SAPA_ANSLUTNING
 10
-38.400000000000013
 20
161.90398971494619
 30
0.0
 11
-39.900000000000013
 21
161.90398971494619
 31
0.0
  0
LINE
  5
AD8
  8
SAPA_ANSLUTNING
 10
-39.149999999999991
 20
121.90398971494621
 30
0.0
 11
-39.149999999999991
 21
131.90398971494619
 31
0.0
  0
LINE
  5
AD9
  8
SAPA_ANSLUTNING
 10
-38.400000000000013
 20
121.90398971494621
 30
0.0
 11
-39.900000000000013
 21
121.90398971494621
 31
0.0
  0
LINE
  5
ADA
  8
SAPA_ANSLUTNING
 10
-38.400000000000013
 20
131.90398971494619
 30
0.0
 11
-39.900000000000013
 21
131.90398971494619
 31
0.0
  0
LINE
  5
ADB
  8
SAPA_ANSLUTNING
 10
-39.149999999999991
 20
91.903989714946192
 30
0.0
 11
-39.149999999999991
 21
101.90398971494621
 31
0.0
  0
LINE
  5
ADC
  8
SAPA_ANSLUTNING
 10
-38.400000000000013
 20
91.903989714946192
 30
0.0
 11
-39.900000000000013
 21
91.903989714946192
 31
0.0
  0
LINE
  5
ADD
  8
SAPA_ANSLUTNING
 10
-38.400000000000013
 20
101.90398971494621
 30
0.0
 11
-39.900000000000013
 21
101.90398971494621
 31
0.0
  0
POLYLINE
  5
C4A
  8
SAPA_PROFIL
 66
     1
 10
0.0
 20
0.0
 30
0.0
 70
     1
  0
VERTEX
  5
1156
  8
SAPA_PROFIL
 10
-10.99999999999954
 20
67.619999999997617
 30
0.0
  0
VERTEX
  5
1157
  8
SAPA_PROFIL
 10
-29.999999999999549
 20
67.619999999997617
 30
0.0
 42
-0.4142135623730999
  0
VERTEX
  5
1158
  8
SAPA_PROFIL
 10
-32.999999999999538
 20
70.619999999997617
 30
0.0
  0
VERTEX
  5
1159
  8
SAPA_PROFIL
 10
-32.999999999999538
 20
98.619999999997844
 30
0.0
 42
-0.4142135623730951
  0
VERTEX
  5
115A
  8
SAPA_PROFIL
 10
-29.999999999999549
 20
101.6199999999978
 30
0.0
  0
VERTEX
  5
115B
  8
SAPA_PROFIL
 10
-10.99999999999954
 20
101.6199999999978
 30
0.0
  0
VERTEX
  5
115C
  8
SAPA_PROFIL
 10
-10.99999999999954
 20
104.6199999999978
 30
0.0
  0
VERTEX
  5
115D
  8
SAPA_PROFIL
 10
-35.999999999999552
 20
104.6199999999978
 30
0.0
  0
VERTEX
  5
115E
  8
SAPA_PROFIL
 10
-35.999999999999552
 20
64.619999999997603
 30
0.0
  0
VERTEX
  5
115F
  8
SAPA_PROFIL
 10
-10.99999999999954
 20
64.619999999997603
 30
0.0
  0
SEQEND
  5
1160
  8
SAPA_PROFIL
  0
POLYLINE
  5
C4B
  8
SAPA_PROFIL
 66
     1
 10
0.0
 20
0.0
 30
0.0
 70
     1
  0
VERTEX
  5
1161
  8
SAPA_PROFIL
 10
-22.029836446936429
 20
78.747573217873509
 30
0.0
 42
0.5773502691895968
  0
VERTEX
  5
1162
  8
SAPA_PROFIL
 10
-22.02983644693597
 20
77.119445458758804
 30
0.0
  0
VERTEX
  5
1163
  8
SAPA_PROFIL
 10
-21.17596189432334
 20
76.626460740703763
 30
0.0
  0
VERTEX
  5
1164
  8
SAPA_PROFIL
 10
-22.300000000000072
 20
74.679569632028205
 30
0.0
  0
VERTEX
  5
1165
  8
SAPA_PROFIL
 10
-23.5
 20
74.679569632028205
 30
0.0
 42
0.4142135623729286
  0
VERTEX
  5
1166
  8
SAPA_PROFIL
 10
-23.800000000000072
 20
74.379569632028364
 30
0.0
  0
VERTEX
  5
1167
  8
SAPA_PROFIL
 10
-23.800000000000072
 20
73.979569632028273
 30
0.0
 42
0.4142135623732059
  0
VERTEX
  5
1168
  8
SAPA_PROFIL
 10
-23.5
 20
73.679569632028205
 30
0.0
  0
VERTEX
  5
1169
  8
SAPA_PROFIL
 10
-22.197677221672169
 20
73.679569632028546
 30
0.0
 42
-0.4142135623731506
  0
VERTEX
  5
116A
  8
SAPA_PROFIL
 10
-21.89767722167198
 20
73.379569632028478
 30
0.0
  0
VERTEX
  5
116B
  8
SAPA_PROFIL
 10
-21.89767722167198
 20
72.799530150991217
 30
0.0
 42
0.4142135623730951
  0
VERTEX
  5
116C
  8
SAPA_PROFIL
 10
-21.597677221672029
 20
72.499530150991149
 30
0.0
  0
VERTEX
  5
116D
  8
SAPA_PROFIL
 10
-19.189932926424831
 20
72.499530150991149
 30
0.0
  0
VERTEX
  5
116E
  8
SAPA_PROFIL
 10
-18.611293205911242
 20
72.958313389153631
 30
0.0
 42
0.7105995015649727
  0
VERTEX
  5
116F
  8
SAPA_PROFIL
 10
-18.797677221672071
 20
73.493389969588378
 30
0.0
  0
VERTEX
  5
1170
  8
SAPA_PROFIL
 10
-19.497677221671889
 20
73.493389969588378
 30
0.0
  0
VERTEX
  5
1171
  8
SAPA_PROFIL
 10
-19.49767722167201
 20
76.199530150990853
 30
0.0
 42
-0.4142135623731506
  0
VERTEX
  5
1172
  8
SAPA_PROFIL
 10
-19.197677221671938
 20
76.499530150990921
 30
0.0
  0
VERTEX
  5
1173
  8
SAPA_PROFIL
 10
-14.7976772216723
 20
76.499530150991021
 30
0.0
 42
-0.4142135623730951
  0
VERTEX
  5
1174
  8
SAPA_PROFIL
 10
-14.49767722167212
 20
76.199530150990952
 30
0.0
  0
VERTEX
  5
1175
  8
SAPA_PROFIL
 10
-14.49767722167212
 20
73.493389969588364
 30
0.0
  0
VERTEX
  5
1176
  8
SAPA_PROFIL
 10
-15.19767722167194
 20
73.493389969588478
 30
0.0
 42
0.7105995015650586
  0
VERTEX
  5
1177
  8
SAPA_PROFIL
 10
-15.38406123743289
 20
72.958313389153844
 30
0.0
  0
VERTEX
  5
1178
  8
SAPA_PROFIL
 10
-14.80542151691907
 20
72.499530150990921
 30
0.0
  0
VERTEX
  5
1179
  8
SAPA_PROFIL
 10
-6.3500000000000218
 20
72.499530150991021
 30
0.0
  0
VERTEX
  5
117A
  8
SAPA_PROFIL
 10
-6.3500000000000218
 20
71.499530150991021
 30
0.0
  0
VERTEX
  5
117B
  8
SAPA_PROFIL
 10
-5.3500000000000218
 20
71.499530150991021
 30
0.0
  0
VERTEX
  5
117C
  8
SAPA_PROFIL
 10
-5.3500000000000218
 20
72.499530150991021
 30
0.0
  0
VERTEX
  5
117D
  8
SAPA_PROFIL
 10
-2.4000000000000901
 20
72.499530150991021
 30
0.0
  0
VERTEX
  5
117E
  8
SAPA_PROFIL
 10
-2.4000000000000901
 20
73.499530150991021
 30
0.0
  0
VERTEX
  5
117F
  8
SAPA_PROFIL
 10
-0.5000000000002274
 20
73.499530150990907
 30
0.0
  0
VERTEX
  5
1180
  8
SAPA_PROFIL
 10
0.0
 20
73.999530150990793
 30
0.0
  0
VERTEX
  5
1181
  8
SAPA_PROFIL
 10
0.5000000000003411
 20
73.499530150990907
 30
0.0
  0
VERTEX
  5
1182
  8
SAPA_PROFIL
 10
2.400000000000087
 20
73.499530150990907
 30
0.0
  0
VERTEX
  5
1183
  8
SAPA_PROFIL
 10
2.400000000000087
 20
72.499530150991021
 30
0.0
  0
VERTEX
  5
1184
  8
SAPA_PROFIL
 10
5.350000000000132
 20
72.499530150991021
 30
0.0
  0
VERTEX
  5
1185
  8
SAPA_PROFIL
 10
5.350000000000132
 20
71.499530150991021
 30
0.0
  0
VERTEX
  5
1186
  8
SAPA_PROFIL
 10
6.350000000000132
 20
71.499530150991021
 30
0.0
  0
VERTEX
  5
1187
  8
SAPA_PROFIL
 10
6.350000000000132
 20
72.499530150991021
 30
0.0
  0
VERTEX
  5
1188
  8
SAPA_PROFIL
 10
14.80542151691929
 20
72.499530150990907
 30
0.0
  0
VERTEX
  5
1189
  8
SAPA_PROFIL
 10
15.384061237433
 20
72.958313389153844
 30
0.0
 42
0.7105995015650586
  0
VERTEX
  5
118A
  8
SAPA_PROFIL
 10
15.19767722167216
 20
73.493389969588478
 30
0.0
  0
VERTEX
  5
118B
  8
SAPA_PROFIL
 10
14.49767722167234
 20
73.493389969588364
 30
0.0
  0
VERTEX
  5
118C
  8
SAPA_PROFIL
 10
14.497677221672349
 20
76.199530150990952
 30
0.0
 42
-0.4142135623730951
  0
VERTEX
  5
118D
  8
SAPA_PROFIL
 10
14.79767722167241
 20
76.499530150991021
 30
0.0
  0
VERTEX
  5
118E
  8
SAPA_PROFIL
 10
19.197677221672159
 20
76.499530150990907
 30
0.0
 42
-0.4142135623731506
  0
VERTEX
  5
118F
  8
SAPA_PROFIL
 10
19.49767722167212
 20
76.199530150990839
 30
0.0
  0
VERTEX
  5
1190
  8
SAPA_PROFIL
 10
19.49767722167201
 20
73.493389969588364
 30
0.0
  0
VERTEX
  5
1191
  8
SAPA_PROFIL
 10
18.797677221672188
 20
73.493389969588478
 30
0.0
 42
0.7105995015649949
  0
VERTEX
  5
1192
  8
SAPA_PROFIL
 10
18.611293205911348
 20
72.958313389153616
 30
0.0
  0
VERTEX
  5
1193
  8
SAPA_PROFIL
 10
19.189932926424941
 20
72.499530150991134
 30
0.0
  0
VERTEX
  5
1194
  8
SAPA_PROFIL
 10
21.597677221672139
 20
72.499530150991134
 30
0.0
 42
0.4142135623730951
  0
VERTEX
  5
1195
  8
SAPA_PROFIL
 10
21.897677221672211
 20
72.799530150991203
 30
0.0
  0
VERTEX
  5
1196
  8
SAPA_PROFIL
 10
21.897677221672211
 20
73.379569632028463
 30
0.0
 42
-0.4142135623731506
  0
VERTEX
  5
1197
  8
SAPA_PROFIL
 10
22.197677221672279
 20
73.679569632028532
 30
0.0
  0
VERTEX
  5
1198
  8
SAPA_PROFIL
 10
23.500000000000231
 20
73.679569632028191
 30
0.0
 42
0.414213562373206
  0
VERTEX
  5
1199
  8
SAPA_PROFIL
 10
23.800000000000178
 20
73.979569632028259
 30
0.0
  0
VERTEX
  5
119A
  8
SAPA_PROFIL
 10
23.800000000000178
 20
74.37956963202835
 30
0.0
 42
0.4142135623729286
  0
VERTEX
  5
119B
  8
SAPA_PROFIL
 10
23.500000000000231
 20
74.679569632028191
 30
0.0
  0
VERTEX
  5
119C
  8
SAPA_PROFIL
 10
22.300000000000178
 20
74.679569632028191
 30
0.0
  0
VERTEX
  5
119D
  8
SAPA_PROFIL
 10
21.17596189432356
 20
76.626460740703763
 30
0.0
  0
VERTEX
  5
119E
  8
SAPA_PROFIL
 10
22.029836446936091
 20
77.11944545875879
 30
0.0
 42
0.5773502691896019
  0
VERTEX
  5
119F
  8
SAPA_PROFIL
 10
22.029836446936539
 20
78.747573217873494
 30
0.0
  0
VERTEX
  5
11A0
  8
SAPA_PROFIL
 10
20.959459605575152
 20
79.365555560118025
 30
0.0
 42
0.1316524948697527
  0
VERTEX
  5
11A1
  8
SAPA_PROFIL
 10
20.459459614829029
 20
79.499530150990907
 30
0.0
  0
VERTEX
  5
11A2
  8
SAPA_PROFIL
 10
-20.459459614828798
 20
79.499530150990921
 30
0.0
 42
0.1316524948697533
  0
VERTEX
  5
11A3
  8
SAPA_PROFIL
 10
-20.959459605575042
 20
79.365555560118054
 30
0.0
  0
SEQEND
  5
11A4
  8
SAPA_PROFIL
  0
POLYLINE
  5
C4C
  8
SAPA_PROFIL
 62
     4
 66
     1
 10
0.0
 20
0.0
 30
0.0
 70
     1
  0
VERTEX
  5
11A5
  8
SAPA_PROFIL
 62
     4
 10
-1.1499999999999631
 20
48.849530150991079
 30
0.0
  0
VERTEX
  5
11A6
  8
SAPA_PROFIL
 62
     4
 10
-1.1499999999999631
 20
46.649530150991033
 30
0.0
 42
1.0
  0
VERTEX
  5
11A7
  8
SAPA_PROFIL
 62
     4
 10
1.149999999999991
 20
46.649530150991033
 30
0.0
  0
VERTEX
  5
11A8
  8
SAPA_PROFIL
 62
     4
 10
1.1500000000001049
 20
48.849530150991079
 30
0.0
 42
1.0
  0
SEQEND
  5
11A9
  8
SAPA_PROFIL
 62
     4
  0
POLYLINE
  5
C4D
  8
SAPA_PROFIL
 62
     4
 66
     1
 10
0.0
 20
0.0
 30
0.0
 70
     1
  0
VERTEX
  5
11AA
  8
SAPA_PROFIL
 62
     4
 10
-3.9999999999999849
 20
63.999530150991063
 30
0.0
  0
VERTEX
  5
11AB
  8
SAPA_PROFIL
 62
     4
 10
-3.9999999999999849
 20
67.050362300027302
 30
0.0
  0
VERTEX
  5
11AC
  8
SAPA_PROFIL
 62
     4
 10
-3.9999999999999849
 20
70.378209807431404
 30
0.0
 42
-0.6681786379192966
  0
VERTEX
  5
11AD
  8
SAPA_PROFIL
 62
     4
 10
-3.146446609406766
 20
70.731763198024623
 30
0.0
  0
VERTEX
  5
11AE
  8
SAPA_PROFIL
 62
     4
 10
-1.0000000116217931
 20
68.585316590261513
 30
0.0
 42
0.1989123679837333
  0
VERTEX
  5
11AF
  8
SAPA_PROFIL
 62
     4
 10
-0.2928932287916837
 20
68.29242336980451
 30
0.0
  0
VERTEX
  5
11B0
  8
SAPA_PROFIL
 62
     4
 10
0.2928932088352525
 20
68.29242336980451
 30
0.0
 42
0.1989123667755704
  0
VERTEX
  5
11B1
  8
SAPA_PROFIL
 62
     4
 10
0.9999999883782209
 20
68.585316586974386
 30
0.0
  0
VERTEX
  5
11B2
  8
SAPA_PROFIL
 62
     4
 10
3.146446609406794
 20
70.731763198024623
 30
0.0
 42
-0.6681786379192936
  0
VERTEX
  5
11B3
  8
SAPA_PROFIL
 62
     4
 10
4.0
 20
70.378209807431404
 30
0.0
  0
VERTEX
  5
11B4
  8
SAPA_PROFIL
 62
     4
 10
4.0
 20
67.050362300027302
 30
0.0
  0
VERTEX
  5
11B5
  8
SAPA_PROFIL
 62
     4
 10
4.0000000000000142
 20
63.999530150991063
 30
0.0
 42
-0.4142135623730951
  0
VERTEX
  5
11B6
  8
SAPA_PROFIL
 62
     4
 10
3.5000000000000142
 20
63.49953015099107
 30
0.0
  0
VERTEX
  5
11B7
  8
SAPA_PROFIL
 62
     4
 10
-3.4999999999999849
 20
63.49953015099107
 30
0.0
 42
-0.4142135623730951
  0
SEQEND
  5
11B8
  8
SAPA_PROFIL
 62
     4
  0
POLYLINE
  5
C4E
  8
SAPA_PROFIL
 62
     4
 66
     1
 10
0.0
 20
0.0
 30
0.0
 70
     1
  0
VERTEX
  5
11B9
  8
SAPA_PROFIL
 62
     4
 10
2.5857864376267941
 20
53.459530150991071
 30
0.0
  0
VERTEX
  5
11BA
  8
SAPA_PROFIL
 62
     4
 10
1.1465310628469889
 20
52.060274776211031
 30
0.0
 42
-0.9251773977986363
  0
VERTEX
  5
11BB
  8
SAPA_PROFIL
 62
     4
 10
-1.146531062846847
 20
52.060274776211031
 30
0.0
  0
VERTEX
  5
11BC
  8
SAPA_PROFIL
 62
     4
 10
-2.5857864376267652
 20
53.459530150991071
 30
0.0
  0
VERTEX
  5
11BD
  8
SAPA_PROFIL
 62
     4
 10
-3.4999999999999849
 20
53.459530150991071
 30
0.0
 42
-0.4142135623730769
  0
VERTEX
  5
11BE
  8
SAPA_PROFIL
 62
     4
 10
-3.9999999999999849
 20
53.959530150991071
 30
0.0
  0
VERTEX
  5
11BF
  8
SAPA_PROFIL
 62
     4
 10
-3.9999999999999849
 20
61.999530150991063
 30
0.0
 42
-0.4142135623730951
  0
VERTEX
  5
11C0
  8
SAPA_PROFIL
 62
     4
 10
-3.4999999999999849
 20
62.499530150991063
 30
0.0
  0
VERTEX
  5
11C1
  8
SAPA_PROFIL
 62
     4
 10
3.5000000000000142
 20
62.499530150991063
 30
0.0
 42
-0.4142135623730951
  0
VERTEX
  5
11C2
  8
SAPA_PROFIL
 62
     4
 10
4.0000000000000142
 20
61.999530150991063
 30
0.0
  0
VERTEX
  5
11C3
  8
SAPA_PROFIL
 62
     4
 10
4.0000000000000142
 20
53.959530150991071
 30
0.0
 42
-0.4142135623730951
  0
VERTEX
  5
11C4
  8
SAPA_PROFIL
 62
     4
 10
3.5000000000000142
 20
53.459530150991071
 30
0.0
  0
SEQEND
  5
11C5
  8
SAPA_PROFIL
 62
     4
  0
POLYLINE
  5
C4F
  8
SAPA_PROFIL
 62
     4
 66
     1
 10
0.0
 20
0.0
 30
0.0
 70
     1
  0
VERTEX
  5
11C6
  8
SAPA_PROFIL
 62
     4
 10
-4.9999999999998721
 20
54.109530150991048
 30
0.0
 42
-1.0
  0
VERTEX
  5
11C7
  8
SAPA_PROFIL
 62
     4
 10
-6.2999999999999403
 20
54.109530150991048
 30
0.0
  0
VERTEX
  5
11C8
  8
SAPA_PROFIL
 62
     4
 10
-6.2999999999999403
 20
54.959530150991071
 30
0.0
  0
VERTEX
  5
11C9
  8
SAPA_PROFIL
 62
     4
 10
-6.2499999999998721
 20
54.959530150991071
 30
0.0
 42
1.0
  0
VERTEX
  5
11CA
  8
SAPA_PROFIL
 62
     4
 10
-6.2499999999998721
 20
55.459530150991071
 30
0.0
  0
VERTEX
  5
11CB
  8
SAPA_PROFIL
 62
     4
 10
-6.6999999999999167
 20
55.459530150991071
 30
0.0
 42
0.4142135623730951
  0
VERTEX
  5
11CC
  8
SAPA_PROFIL
 62
     4
 10
-6.9999999999998721
 20
55.159530150991003
 30
0.0
  0
VERTEX
  5
11CD
  8
SAPA_PROFIL
 62
     4
 10
-6.9999999999998721
 20
53.459530150991071
 30
0.0
 42
0.4225789089359373
  0
VERTEX
  5
11CE
  8
SAPA_PROFIL
 62
     4
 10
-5.9999999999998721
 20
52.499530150990942
 30
0.0
  0
VERTEX
  5
11CF
  8
SAPA_PROFIL
 62
     4
 10
-2.9999999999998721
 20
52.499530150990942
 30
0.0
  0
VERTEX
  5
11D0
  8
SAPA_PROFIL
 62
     4
 10
-2.1499999999999631
 20
51.649530150991041
 30
0.0
  0
VERTEX
  5
11D1
  8
SAPA_PROFIL
 62
     4
 10
-2.1499999999999631
 20
45.499530150991063
 30
0.0
 42
0.4142135623730951
  0
VERTEX
  5
11D2
  8
SAPA_PROFIL
 62
     4
 10
-1.1499999999999631
 20
44.499530150991063
 30
0.0
  0
VERTEX
  5
11D3
  8
SAPA_PROFIL
 62
     4
 10
1.149999999999991
 20
44.499530150991063
 30
0.0
 42
0.4142135623730951
  0
VERTEX
  5
11D4
  8
SAPA_PROFIL
 62
     4
 10
2.149999999999991
 20
45.499530150991063
 30
0.0
  0
VERTEX
  5
11D5
  8
SAPA_PROFIL
 62
     4
 10
2.149999999999991
 20
51.649530150990927
 30
0.0
  0
VERTEX
  5
11D6
  8
SAPA_PROFIL
 62
     4
 10
3.0000000000000142
 20
52.499530150990942
 30
0.0
  0
VERTEX
  5
11D7
  8
SAPA_PROFIL
 62
     4
 10
6.0000000000000142
 20
52.499530150990942
 30
0.0
 42
0.4225789089359373
  0
VERTEX
  5
11D8
  8
SAPA_PROFIL
 62
     4
 10
7.0000000000000284
 20
53.459530150991071
 30
0.0
  0
VERTEX
  5
11D9
  8
SAPA_PROFIL
 62
     4
 10
7.0000000000000284
 20
55.159530150991003
 30
0.0
 42
0.4142135623730951
  0
VERTEX
  5
11DA
  8
SAPA_PROFIL
 62
     4
 10
6.6999999999999451
 20
55.459530150991071
 30
0.0
  0
VERTEX
  5
11DB
  8
SAPA_PROFIL
 62
     4
 10
6.2500000000000142
 20
55.459530150991071
 30
0.0
 42
1.0
  0
VERTEX
  5
11DC
  8
SAPA_PROFIL
 62
     4
 10
6.2500000000000142
 20
54.959530150991071
 30
0.0
  0
VERTEX
  5
11DD
  8
SAPA_PROFIL
 62
     4
 10
6.3000000000000824
 20
54.959530150991071
 30
0.0
  0
VERTEX
  5
11DE
  8
SAPA_PROFIL
 62
     4
 10
6.3000000000000824
 20
54.109530150991048
 30
0.0
 42
-1.0
  0
VERTEX
  5
11DF
  8
SAPA_PROFIL
 62
     4
 10
5.0000000000000142
 20
54.109530150991048
 30
0.0
  0
VERTEX
  5
11E0
  8
SAPA_PROFIL
 62
     4
 10
5.0
 20
67.050362300027302
 30
0.0
  0
VERTEX
  5
11E1
  8
SAPA_PROFIL
 62
     4
 10
5.0
 20
72.499530150991063
 30
0.0
  0
VERTEX
  5
11E2
  8
SAPA_PROFIL
 62
     4
 10
3.5000000000000142
 20
72.499530150991063
 30
0.0
  0
VERTEX
  5
11E3
  8
SAPA_PROFIL
 62
     4
 10
0.353553390593234
 20
69.353083541584283
 30
0.0
 42
-0.4142135623730951
  0
VERTEX
  5
11E4
  8
SAPA_PROFIL
 62
     4
 10
-0.3535533905932056
 20
69.353083541584283
 30
0.0
  0
VERTEX
  5
11E5
  8
SAPA_PROFIL
 62
     4
 10
-3.4999999999999849
 20
72.499530150991063
 30
0.0
  0
VERTEX
  5
11E6
  8
SAPA_PROFIL
 62
     4
 10
-5.0000000000000142
 20
72.499530150991063
 30
0.0
  0
VERTEX
  5
11E7
  8
SAPA_PROFIL
 62
     4
 10
-4.9999999999999707
 20
67.050362300027302
 30
0.0
  0
VERTEX
  5
11E8
  8
SAPA_PROFIL
 62
     4
 10
-4.9999999999998721
 20
54.409530150991031
 30
0.0
  0
SEQEND
  5
11E9
  8
SAPA_PROFIL
 62
     4
  0
POLYLINE
  5
C50
  8
SAPA_PROFIL
  6
CONTINUOUS
 62
     7
 66
     1
 10
0.0
 20
0.0
 30
0.0
 70
   129
  0
VERTEX
  5
11EA
  8
SAPA_PROFIL
  6
CONTINUOUS
 62
     7
 10
3.4999999999999001
 20
31.49953015099118
 30
0.0
 42
0.4142135623730951
  0
VERTEX
  5
11EB
  8
SAPA_PROFIL
  6
CONTINUOUS
 62
     7
 10
2.4999999999999001
 20
32.499530150991177
 30
0.0
  0
VERTEX
  5
11EC
  8
SAPA_PROFIL
  6
CONTINUOUS
 62
     7
 10
-2.500000000000099
 20
32.499530150990147
 30
0.0
 42
0.4142135623730951
  0
VERTEX
  5
11ED
  8
SAPA_PROFIL
  6
CONTINUOUS
 62
     7
 10
-3.5000000000000919
 20
31.499530150990161
 30
0.0
  0
VERTEX
  5
11EE
  8
SAPA_PROFIL
  6
CONTINUOUS
 62
     7
 10
-3.500000000000103
 20
14.499530150990161
 30
0.0
 42
0.4142135623730951
  0
VERTEX
  5
11EF
  8
SAPA_PROFIL
  6
CONTINUOUS
 62
     7
 10
-1.500000000000103
 20
12.499530150990161
 30
0.0
  0
VERTEX
  5
11F0
  8
SAPA_PROFIL
  6
CONTINUOUS
 62
     7
 10
1.4999999999998961
 20
12.499530150990161
 30
0.0
 42
0.4142135623730951
  0
VERTEX
  5
11F1
  8
SAPA_PROFIL
  6
CONTINUOUS
 62
     7
 10
3.4999999999998961
 20
14.499530150990161
 30
0.0
  0
SEQEND
  5
11F2
  8
SAPA_PROFIL
  6
CONTINUOUS
 62
     7
  0
POLYLINE
  5
C51
  8
SAPA_PROFIL
  6
CONTINUOUS
 62
     7
 66
     1
 10
0.0
 20
0.0
 30
0.0
 70
   129
  0
VERTEX
  5
11F3
  8
SAPA_PROFIL
  6
CONTINUOUS
 62
     7
 10
22.899999999999888
 20
-22.50046984900882
 30
0.0
  0
VERTEX
  5
11F4
  8
SAPA_PROFIL
  6
CONTINUOUS
 62
     7
 10
-22.900000000000109
 20
-22.50046984900882
 30
0.0
 42
-0.4142135623730951
  0
VERTEX
  5
11F5
  8
SAPA_PROFIL
  6
CONTINUOUS
 62
     7
 10
-23.20000000000012
 20
-22.20046984900884
 30
0.0
  0
VERTEX
  5
11F6
  8
SAPA_PROFIL
  6
CONTINUOUS
 62
     7
 10
-23.199999999999122
 20
-9.3004698490088273
 30
0.0
 42
-0.4142135623731104
  0
VERTEX
  5
11F7
  8
SAPA_PROFIL
  6
CONTINUOUS
 62
     7
 10
-22.899999999999121
 20
-9.0004698490088142
 30
0.0
  0
VERTEX
  5
11F8
  8
SAPA_PROFIL
  6
CONTINUOUS
 62
     7
 10
-17.999999999999119
 20
-9.0004698490088142
 30
0.0
 42
0.4142135623730951
  0
VERTEX
  5
11F9
  8
SAPA_PROFIL
  6
CONTINUOUS
 62
     7
 10
-17.499999999999119
 20
-8.5004698490088142
 30
0.0
  0
VERTEX
  5
11FA
  8
SAPA_PROFIL
  6
CONTINUOUS
 62
     7
 10
-17.499999999999119
 20
-6.4004698490088501
 30
0.0
 42
0.4142135623730951
  0
VERTEX
  5
11FB
  8
SAPA_PROFIL
  6
CONTINUOUS
 62
     7
 10
-17.799999999999109
 20
-6.1004698490088378
 30
0.0
  0
VERTEX
  5
11FC
  8
SAPA_PROFIL
  6
CONTINUOUS
 62
     7
 10
-18.299999999999109
 20
-6.1004698490088378
 30
0.0
 42
0.4142135623730389
  0
VERTEX
  5
11FD
  8
SAPA_PROFIL
  6
CONTINUOUS
 62
     7
 10
-18.59999999999911
 20
-6.4004698490088501
 30
0.0
  0
VERTEX
  5
11FE
  8
SAPA_PROFIL
  6
CONTINUOUS
 62
     7
 10
-18.599999999999419
 20
-6.7370967736445593
 30
0.0
 42
-0.5643553431125487
  0
VERTEX
  5
11FF
  8
SAPA_PROFIL
  6
CONTINUOUS
 62
     7
 10
-22.924395043235119
 20
-4.8748648922418383
 30
0.0
  0
VERTEX
  5
1200
  8
SAPA_PROFIL
  6
CONTINUOUS
 62
     7
 10
-22.550000000002111
 20
-4.5004698490088151
 30
0.0
  0
VERTEX
  5
1201
  8
SAPA_PROFIL
  6
CONTINUOUS
 62
     7
 10
-22.924395043233339
 20
-4.1260748057724106
 30
0.0
 42
-0.5643553431119904
  0
VERTEX
  5
1202
  8
SAPA_PROFIL
  6
CONTINUOUS
 62
     7
 10
-18.59999999999911
 20
-2.2638429243748339
 30
0.0
  0
VERTEX
  5
1203
  8
SAPA_PROFIL
  6
CONTINUOUS
 62
     7
 10
-18.59999999999911
 20
-2.6004698490088671
 30
0.0
 42
0.4142135623730644
  0
VERTEX
  5
1204
  8
SAPA_PROFIL
  6
CONTINUOUS
 62
     7
 10
-18.299999999999109
 20
-2.9004698490088501
 30
0.0
  0
VERTEX
  5
1205
  8
SAPA_PROFIL
  6
CONTINUOUS
 62
     7
 10
-17.799999999999109
 20
-2.9004698490088501
 30
0.0
 42
0.4142135623730951
  0
VERTEX
  5
1206
  8
SAPA_PROFIL
  6
CONTINUOUS
 62
     7
 10
-17.499999999999119
 20
-2.6004698490088378
 30
0.0
  0
VERTEX
  5
1207
  8
SAPA_PROFIL
  6
CONTINUOUS
 62
     7
 10
-17.499999999999119
 20
-0.500469849008816
 30
0.0
 42
0.4142135623730951
  0
VERTEX
  5
1208
  8
SAPA_PROFIL
  6
CONTINUOUS
 62
     7
 10
-17.999999999999119
 20
-0.000469849008816
 30
0.0
  0
VERTEX
  5
1209
  8
SAPA_PROFIL
  6
CONTINUOUS
 62
     7
 10
-22.8999999999991
 20
-0.000469849008816
 30
0.0
 42
-0.4142135623731104
  0
VERTEX
  5
120A
  8
SAPA_PROFIL
  6
CONTINUOUS
 62
     7
 10
-23.199999999999111
 20
0.299530150991167
 30
0.0
  0
VERTEX
  5
120B
  8
SAPA_PROFIL
  6
CONTINUOUS
 62
     7
 10
-23.199999999999111
 20
10.199530150990149
 30
0.0
 42
-0.4142135623730951
  0
VERTEX
  5
120C
  8
SAPA_PROFIL
  6
CONTINUOUS
 62
     7
 10
-22.899999999999121
 20
10.49953015099118
 30
0.0
  0
VERTEX
  5
120D
  8
SAPA_PROFIL
  6
CONTINUOUS
 62
     7
 10
22.899999999999899
 20
10.49953015099117
 30
0.0
 42
-0.4142135623731206
  0
VERTEX
  5
120E
  8
SAPA_PROFIL
  6
CONTINUOUS
 62
     7
 10
23.199999999999889
 20
10.199530150991141
 30
0.0
  0
VERTEX
  5
120F
  8
SAPA_PROFIL
  6
CONTINUOUS
 62
     7
 10
23.199999999999878
 20
0.2995301509911599
 30
0.0
 42
-0.4142135623730951
  0
VERTEX
  5
1210
  8
SAPA_PROFIL
  6
CONTINUOUS
 62
     7
 10
22.899999999999899
 20
-0.0004698490088231
 30
0.0
  0
VERTEX
  5
1211
  8
SAPA_PROFIL
  6
CONTINUOUS
 62
     7
 10
17.99999999999989
 20
-0.0004698490088231
 30
0.0
 42
0.4142135623730951
  0
VERTEX
  5
1212
  8
SAPA_PROFIL
  6
CONTINUOUS
 62
     7
 10
17.49999999999989
 20
-0.5004698490088231
 30
0.0
  0
VERTEX
  5
1213
  8
SAPA_PROFIL
  6
CONTINUOUS
 62
     7
 10
17.49999999999989
 20
-2.6004698490088449
 30
0.0
 42
0.4142135623730951
  0
VERTEX
  5
1214
  8
SAPA_PROFIL
  6
CONTINUOUS
 62
     7
 10
17.799999999999869
 20
-2.9004698490088572
 30
0.0
  0
VERTEX
  5
1215
  8
SAPA_PROFIL
  6
CONTINUOUS
 62
     7
 10
18.299999999999869
 20
-2.9004698490088572
 30
0.0
 42
0.4142135623730951
  0
VERTEX
  5
1216
  8
SAPA_PROFIL
  6
CONTINUOUS
 62
     7
 10
18.599999999999881
 20
-2.6004698490088449
 30
0.0
  0
VERTEX
  5
1217
  8
SAPA_PROFIL
  6
CONTINUOUS
 62
     7
 10
18.599999999999881
 20
-2.263842924374841
 30
0.0
 42
-0.5643553431119905
  0
VERTEX
  5
1218
  8
SAPA_PROFIL
  6
CONTINUOUS
 62
     7
 10
22.924395043234121
 20
-4.1260748057723609
 30
0.0
  0
VERTEX
  5
1219
  8
SAPA_PROFIL
  6
CONTINUOUS
 62
     7
 10
22.550000000002889
 20
-4.5004698490088231
 30
0.0
  0
VERTEX
  5
121A
  8
SAPA_PROFIL
  6
CONTINUOUS
 62
     7
 10
22.92439504323589
 20
-4.8748648922418454
 30
0.0
 42
-0.5643553431125659
  0
VERTEX
  5
121B
  8
SAPA_PROFIL
  6
CONTINUOUS
 62
     7
 10
18.600000000000112
 20
-6.7370967736445087
 30
0.0
  0
VERTEX
  5
121C
  8
SAPA_PROFIL
  6
CONTINUOUS
 62
     7
 10
18.599999999999881
 20
-6.4004698490088572
 30
0.0
 42
0.4142135623730388
  0
VERTEX
  5
121D
  8
SAPA_PROFIL
  6
CONTINUOUS
 62
     7
 10
18.299999999999869
 20
-6.1004698490088449
 30
0.0
  0
VERTEX
  5
121E
  8
SAPA_PROFIL
  6
CONTINUOUS
 62
     7
 10
17.799999999999869
 20
-6.1004698490088449
 30
0.0
 42
0.4142135623730951
  0
VERTEX
  5
121F
  8
SAPA_PROFIL
  6
CONTINUOUS
 62
     7
 10
17.49999999999989
 20
-6.4004698490088572
 30
0.0
  0
VERTEX
  5
1220
  8
SAPA_PROFIL
  6
CONTINUOUS
 62
     7
 10
17.49999999999989
 20
-8.5004698490088231
 30
0.0
 42
0.4142135623730951
  0
VERTEX
  5
1221
  8
SAPA_PROFIL
  6
CONTINUOUS
 62
     7
 10
17.99999999999989
 20
-9.0004698490088231
 30
0.0
  0
VERTEX
  5
1222
  8
SAPA_PROFIL
  6
CONTINUOUS
 62
     7
 10
22.899999999999899
 20
-9.0004698490088231
 30
0.0
 42
-0.4142135623730951
  0
VERTEX
  5
1223
  8
SAPA_PROFIL
  6
CONTINUOUS
 62
     7
 10
23.199999999999878
 20
-9.3004698490088344
 30
0.0
  0
VERTEX
  5
1224
  8
SAPA_PROFIL
  6
CONTINUOUS
 62
     7
 10
23.199999999999871
 20
-22.20046984900884
 30
0.0
 42
-0.41421356237309
  0
SEQEND
  5
1225
  8
SAPA_PROFIL
  6
CONTINUOUS
 62
     7
  0
POLYLINE
  5
C52
  8
SAPA_PROFIL
  6
CONTINUOUS
 62
     7
 66
     1
 10
0.0
 20
0.0
 30
0.0
 70
   129
  0
VERTEX
  5
1226
  8
SAPA_PROFIL
  6
CONTINUOUS
 62
     7
 10
16.200000000001911
 20
30.299530150990169
 30
0.0
 42
0.414213562373109
  0
VERTEX
  5
1227
  8
SAPA_PROFIL
  6
CONTINUOUS
 62
     7
 10
16.50000000000189
 20
29.99953015099015
 30
0.0
  0
VERTEX
  5
1228
  8
SAPA_PROFIL
  6
CONTINUOUS
 62
     7
 10
22.900000000000869
 20
29.99953015099015
 30
0.0
 42
-0.4142135623731854
  0
VERTEX
  5
1229
  8
SAPA_PROFIL
  6
CONTINUOUS
 62
     7
 10
23.199999999999889
 20
29.699530150990171
 30
0.0
  0
VERTEX
  5
122A
  8
SAPA_PROFIL
  6
CONTINUOUS
 62
     7
 10
23.199999999999889
 20
15.299531408951159
 30
0.0
 42
-0.4142142825135553
  0
VERTEX
  5
122B
  8
SAPA_PROFIL
  6
CONTINUOUS
 62
     7
 10
22.899999262386881
 20
14.99953140895215
 30
0.0
  0
VERTEX
  5
122C
  8
SAPA_PROFIL
  6
CONTINUOUS
 62
     7
 10
21.50000122935641
 20
14.999534851144629
 30
0.0
 42
0.5661922251793411
  0
VERTEX
  5
122D
  8
SAPA_PROFIL
  6
CONTINUOUS
 62
     7
 10
21.05882426669454
 20
14.264239351100169
 30
0.0
 42
-0.5661914134523967
  0
VERTEX
  5
122E
  8
SAPA_PROFIL
  6
CONTINUOUS
 62
     7
 10
20.000002506759881
 20
12.49953015099015
 30
0.0
  0
VERTEX
  5
122F
  8
SAPA_PROFIL
  6
CONTINUOUS
 62
     7
 10
6.9999999999998961
 20
12.499530150990161
 30
0.0
 42
-0.4142135623730951
  0
VERTEX
  5
1230
  8
SAPA_PROFIL
  6
CONTINUOUS
 62
     7
 10
4.9999999999998961
 20
14.499530150990161
 30
0.0
  0
VERTEX
  5
1231
  8
SAPA_PROFIL
  6
CONTINUOUS
 62
     7
 10
4.9999999999999067
 20
52.199530150990142
 30
0.0
 42
0.4142135623730951
  0
VERTEX
  5
1232
  8
SAPA_PROFIL
  6
CONTINUOUS
 62
     7
 10
4.6999999999998963
 20
52.499530150990147
 30
0.0
  0
VERTEX
  5
1233
  8
SAPA_PROFIL
  6
CONTINUOUS
 62
     7
 10
3.0757359312879009
 20
52.499530150991177
 30
0.0
  0
VERTEX
  5
1234
  8
SAPA_PROFIL
  6
CONTINUOUS
 62
     7
 10
2.1378679656449071
 20
51.561662185346158
 30
0.0
 42
0.1989123673804444
  0
VERTEX
  5
1235
  8
SAPA_PROFIL
  6
CONTINUOUS
 62
     7
 10
2.0499999999998901
 20
51.349530150990802
 30
0.0
  0
VERTEX
  5
1236
  8
SAPA_PROFIL
  6
CONTINUOUS
 62
     7
 10
2.0500000000008991
 20
50.149530150990159
 30
0.0
  0
VERTEX
  5
1237
  8
SAPA_PROFIL
  6
CONTINUOUS
 62
     7
 10
2.700000000000891
 20
50.149530150990159
 30
0.0
  0
VERTEX
  5
1238
  8
SAPA_PROFIL
  6
CONTINUOUS
 62
     7
 10
2.0767196957479039
 20
48.77329555531616
 30
0.0
 42
0.5450207774087934
  0
VERTEX
  5
1239
  8
SAPA_PROFIL
  6
CONTINUOUS
 62
     7
 10
2.3500000000006689
 20
48.349530150991143
 30
0.0
  0
VERTEX
  5
123A
  8
SAPA_PROFIL
  6
CONTINUOUS
 62
     7
 10
2.700000000000891
 20
48.349530150990169
 30
0.0
  0
VERTEX
  5
123B
  8
SAPA_PROFIL
  6
CONTINUOUS
 62
     7
 10
2.0767196957479039
 20
46.973295555316163
 30
0.0
 42
0.5450207774089168
  0
VERTEX
  5
123C
  8
SAPA_PROFIL
  6
CONTINUOUS
 62
     7
 10
2.3500000000007542
 20
46.549530150990172
 30
0.0
  0
VERTEX
  5
123D
  8
SAPA_PROFIL
  6
CONTINUOUS
 62
     7
 10
2.700000000000891
 20
46.549530150990172
 30
0.0
  0
VERTEX
  5
123E
  8
SAPA_PROFIL
  6
CONTINUOUS
 62
     7
 10
2.0767196957478968
 20
45.173295555316137
 30
0.0
 42
0.5450207774088086
  0
VERTEX
  5
123F
  8
SAPA_PROFIL
  6
CONTINUOUS
 62
     7
 10
2.3500000000006618
 20
44.74953015099117
 30
0.0
  0
VERTEX
  5
1240
  8
SAPA_PROFIL
  6
CONTINUOUS
 62
     7
 10
2.700000000000883
 20
44.749530150990147
 30
0.0
  0
VERTEX
  5
1241
  8
SAPA_PROFIL
  6
CONTINUOUS
 62
     7
 10
2.0767196957478968
 20
43.373295555316162
 30
0.0
 42
0.5450207774088141
  0
VERTEX
  5
1242
  8
SAPA_PROFIL
  6
CONTINUOUS
 62
     7
 10
2.3500000000006618
 20
42.949530150990142
 30
0.0
  0
VERTEX
  5
1243
  8
SAPA_PROFIL
  6
CONTINUOUS
 62
     7
 10
2.700000000000883
 20
42.949530150990142
 30
0.0
  0
VERTEX
  5
1244
  8
SAPA_PROFIL
  6
CONTINUOUS
 62
     7
 10
2.0767196957478968
 20
41.573295555316172
 30
0.0
 42
0.5450207774087156
  0
VERTEX
  5
1245
  8
SAPA_PROFIL
  6
CONTINUOUS
 62
     7
 10
2.3500000000006618
 20
41.149530150991147
 30
0.0
  0
VERTEX
  5
1246
  8
SAPA_PROFIL
  6
CONTINUOUS
 62
     7
 10
2.700000000000883
 20
41.149530150990159
 30
0.0
  0
VERTEX
  5
1247
  8
SAPA_PROFIL
  6
CONTINUOUS
 62
     7
 10
2.0767196957478968
 20
39.773295555316167
 30
0.0
 42
0.5450207774088258
  0
VERTEX
  5
1248
  8
SAPA_PROFIL
  6
CONTINUOUS
 62
     7
 10
2.3500000000006902
 20
39.349530150990176
 30
0.0
  0
VERTEX
  5
1249
  8
SAPA_PROFIL
  6
CONTINUOUS
 62
     7
 10
2.700000000000883
 20
39.349530150990176
 30
0.0
  0
VERTEX
  5
124A
  8
SAPA_PROFIL
  6
CONTINUOUS
 62
     7
 10
2.0767196957478968
 20
37.973295555316163
 30
0.0
 42
0.5450207774088105
  0
VERTEX
  5
124B
  8
SAPA_PROFIL
  6
CONTINUOUS
 62
     7
 10
2.3500000000006618
 20
37.549530150990172
 30
0.0
  0
VERTEX
  5
124C
  8
SAPA_PROFIL
  6
CONTINUOUS
 62
     7
 10
2.700000000000883
 20
37.549530150990172
 30
0.0
  0
VERTEX
  5
124D
  8
SAPA_PROFIL
  6
CONTINUOUS
 62
     7
 10
2.0767196957478968
 20
36.173295555316152
 30
0.0
 42
0.5450207774088258
  0
VERTEX
  5
124E
  8
SAPA_PROFIL
  6
CONTINUOUS
 62
     7
 10
2.3500000000006902
 20
35.749530150990161
 30
0.0
  0
VERTEX
  5
124F
  8
SAPA_PROFIL
  6
CONTINUOUS
 62
     7
 10
2.700000000000883
 20
35.749530150990161
 30
0.0
  0
VERTEX
  5
1250
  8
SAPA_PROFIL
  6
CONTINUOUS
 62
     7
 10
2.700000000000883
 20
35.499530150990161
 30
0.0
 42
-0.4142135623730951
  0
VERTEX
  5
1251
  8
SAPA_PROFIL
  6
CONTINUOUS
 62
     7
 10
1.700000000000883
 20
34.499530150990161
 30
0.0
  0
VERTEX
  5
1252
  8
SAPA_PROFIL
  6
CONTINUOUS
 62
     7
 10
-1.7000000000001161
 20
34.499530150990161
 30
0.0
 42
-0.4142135623730951
  0
VERTEX
  5
1253
  8
SAPA_PROFIL
  6
CONTINUOUS
 62
     7
 10
-2.7000000000001161
 20
35.499530150990161
 30
0.0
  0
VERTEX
  5
1254
  8
SAPA_PROFIL
  6
CONTINUOUS
 62
     7
 10
-2.7000000000001161
 20
36.649530150990159
 30
0.0
  0
VERTEX
  5
1255
  8
SAPA_PROFIL
  6
CONTINUOUS
 62
     7
 10
-2.350000000000108
 20
36.649530150990159
 30
0.0
 42
0.5450207774091047
  0
VERTEX
  5
1256
  8
SAPA_PROFIL
  6
CONTINUOUS
 62
     7
 10
-2.076719695747911
 20
37.073295555315553
 30
0.0
  0
VERTEX
  5
1257
  8
SAPA_PROFIL
  6
CONTINUOUS
 62
     7
 10
-2.7000000000001161
 20
38.449530150990171
 30
0.0
  0
VERTEX
  5
1258
  8
SAPA_PROFIL
  6
CONTINUOUS
 62
     7
 10
-2.350000000000108
 20
38.449530150990171
 30
0.0
 42
0.5450207774091047
  0
VERTEX
  5
1259
  8
SAPA_PROFIL
  6
CONTINUOUS
 62
     7
 10
-2.076719695747911
 20
38.873295555315543
 30
0.0
  0
VERTEX
  5
125A
  8
SAPA_PROFIL
  6
CONTINUOUS
 62
     7
 10
-2.7000000000001161
 20
40.249530150990161
 30
0.0
  0
VERTEX
  5
125B
  8
SAPA_PROFIL
  6
CONTINUOUS
 62
     7
 10
-2.350000000000108
 20
40.249530150990161
 30
0.0
 42
0.5450207774093641
  0
VERTEX
  5
125C
  8
SAPA_PROFIL
  6
CONTINUOUS
 62
     7
 10
-2.0767196957479679
 20
40.673295555315661
 30
0.0
  0
VERTEX
  5
125D
  8
SAPA_PROFIL
  6
CONTINUOUS
 62
     7
 10
-2.7000000000001161
 20
42.049530150990172
 30
0.0
  0
VERTEX
  5
125E
  8
SAPA_PROFIL
  6
CONTINUOUS
 62
     7
 10
-2.350000000000108
 20
42.049530150990172
 30
0.0
 42
0.5450207774092309
  0
VERTEX
  5
125F
  8
SAPA_PROFIL
  6
CONTINUOUS
 62
     7
 10
-2.076719695747939
 20
42.473295555315588
 30
0.0
  0
VERTEX
  5
1260
  8
SAPA_PROFIL
  6
CONTINUOUS
 62
     7
 10
-2.7000000000001161
 20
43.849530150990176
 30
0.0
  0
VERTEX
  5
1261
  8
SAPA_PROFIL
  6
CONTINUOUS
 62
     7
 10
-2.350000000000108
 20
43.849530150990176
 30
0.0
 42
0.5450207774091023
  0
VERTEX
  5
1262
  8
SAPA_PROFIL
  6
CONTINUOUS
 62
     7
 10
-2.076719695747911
 20
44.27329555531653
 30
0.0
  0
VERTEX
  5
1263
  8
SAPA_PROFIL
  6
CONTINUOUS
 62
     7
 10
-2.7000000000001161
 20
45.649530150990159
 30
0.0
  0
VERTEX
  5
1264
  8
SAPA_PROFIL
  6
CONTINUOUS
 62
     7
 10
-2.350000000000108
 20
45.649530150990159
 30
0.0
 42
0.5450207774091114
  0
VERTEX
  5
1265
  8
SAPA_PROFIL
  6
CONTINUOUS
 62
     7
 10
-2.0767196957479039
 20
46.073295555315553
 30
0.0
  0
VERTEX
  5
1266
  8
SAPA_PROFIL
  6
CONTINUOUS
 62
     7
 10
-2.700000000000109
 20
47.449530150990142
 30
0.0
  0
VERTEX
  5
1267
  8
SAPA_PROFIL
  6
CONTINUOUS
 62
     7
 10
-2.3500000000001
 20
47.449530150990142
 30
0.0
 42
0.54502077740921
  0
VERTEX
  5
1268
  8
SAPA_PROFIL
  6
CONTINUOUS
 62
     7
 10
-2.0767196957479319
 20
47.873295555316624
 30
0.0
  0
VERTEX
  5
1269
  8
SAPA_PROFIL
  6
CONTINUOUS
 62
     7
 10
-2.700000000000109
 20
49.24953015099117
 30
0.0
  0
VERTEX
  5
126A
  8
SAPA_PROFIL
  6
CONTINUOUS
 62
     7
 10
-2.3500000000001
 20
49.24953015099117
 30
0.0
 42
0.5450207774093123
  0
VERTEX
  5
126B
  8
SAPA_PROFIL
  6
CONTINUOUS
 62
     7
 10
-2.0767196957479608
 20
49.673295555315661
 30
0.0
  0
VERTEX
  5
126C
  8
SAPA_PROFIL
  6
CONTINUOUS
 62
     7
 10
-2.700000000000109
 20
51.049530150990172
 30
0.0
  0
VERTEX
  5
126D
  8
SAPA_PROFIL
  6
CONTINUOUS
 62
     7
 10
-2.3500000000001
 20
51.04953015099116
 30
0.0
 42
0.668178637919434
  0
VERTEX
  5
126E
  8
SAPA_PROFIL
  6
CONTINUOUS
 62
     7
 10
-2.137867965644126
 20
51.561662185347132
 30
0.0
  0
VERTEX
  5
126F
  8
SAPA_PROFIL
  6
CONTINUOUS
 62
     7
 10
-3.0757359312880999
 20
52.499530150991177
 30
0.0
  0
VERTEX
  5
1270
  8
SAPA_PROFIL
  6
CONTINUOUS
 62
     7
 10
-4.7000000000001094
 20
52.499530150991177
 30
0.0
 42
0.4142135623730986
  0
VERTEX
  5
1271
  8
SAPA_PROFIL
  6
CONTINUOUS
 62
     7
 10
-5.0000000000001057
 20
52.199530150990142
 30
0.0
  0
VERTEX
  5
1272
  8
SAPA_PROFIL
  6
CONTINUOUS
 62
     7
 10
-5.0000000000000986
 20
14.499530150990161
 30
0.0
 42
-0.4142135623730951
  0
VERTEX
  5
1273
  8
SAPA_PROFIL
  6
CONTINUOUS
 62
     7
 10
-7.0000000000001057
 20
12.499530150990161
 30
0.0
  0
VERTEX
  5
1274
  8
SAPA_PROFIL
  6
CONTINUOUS
 62
     7
 10
-20.00000250675911
 20
12.499530150990161
 30
0.0
 42
-0.5661914134523486
  0
VERTEX
  5
1275
  8
SAPA_PROFIL
  6
CONTINUOUS
 62
     7
 10
-21.058824266693829
 20
14.264239351100009
 30
0.0
 42
0.5661922251792668
  0
VERTEX
  5
1276
  8
SAPA_PROFIL
  6
CONTINUOUS
 62
     7
 10
-21.500001229355551
 20
14.999534851144629
 30
0.0
  0
VERTEX
  5
1277
  8
SAPA_PROFIL
  6
CONTINUOUS
 62
     7
 10
-22.89999926238611
 20
14.99953140895216
 30
0.0
 42
-0.4142142825134858
  0
VERTEX
  5
1278
  8
SAPA_PROFIL
  6
CONTINUOUS
 62
     7
 10
-23.199999999999111
 20
15.29953140895117
 30
0.0
  0
VERTEX
  5
1279
  8
SAPA_PROFIL
  6
CONTINUOUS
 62
     7
 10
-23.200000000000099
 20
29.699530150990181
 30
0.0
 42
-0.4142135623730811
  0
VERTEX
  5
127A
  8
SAPA_PROFIL
  6
CONTINUOUS
 62
     7
 10
-22.900000000000091
 20
29.999530150990161
 30
0.0
  0
VERTEX
  5
127B
  8
SAPA_PROFIL
  6
CONTINUOUS
 62
     7
 10
-16.500000000001108
 20
29.999530150990161
 30
0.0
 42
0.4142135623731158
  0
VERTEX
  5
127C
  8
SAPA_PROFIL
  6
CONTINUOUS
 62
     7
 10
-16.200000000001111
 20
30.299530150990169
 30
0.0
  0
VERTEX
  5
127D
  8
SAPA_PROFIL
  6
CONTINUOUS
 62
     7
 10
-16.200000000000092
 20
34.199530150990178
 30
0.0
 42
-0.2134217652833566
  0
VERTEX
  5
127E
  8
SAPA_PROFIL
  6
CONTINUOUS
 62
     7
 10
-16.100000000001071
 20
34.423136948740201
 30
0.0
 42
0.213421765283343
  0
VERTEX
  5
127F
  8
SAPA_PROFIL
  6
CONTINUOUS
 62
     7
 10
-16.000000000001101
 20
34.646743746490174
 30
0.0
  0
VERTEX
  5
1280
  8
SAPA_PROFIL
  6
CONTINUOUS
 62
     7
 10
-16.000000000001101
 20
35.199530150990178
 30
0.0
 42
0.4142135623731228
  0
VERTEX
  5
1281
  8
SAPA_PROFIL
  6
CONTINUOUS
 62
     7
 10
-16.300000000001098
 20
35.499530150990161
 30
0.0
  0
VERTEX
  5
1282
  8
SAPA_PROFIL
  6
CONTINUOUS
 62
     7
 10
-18.000000000001101
 20
35.499530150990161
 30
0.0
  0
VERTEX
  5
1283
  8
SAPA_PROFIL
  6
CONTINUOUS
 62
     7
 10
-18.58638401576092
 20
35.034606731424851
 30
0.0
 42
0.7105995015649606
  0
VERTEX
  5
1284
  8
SAPA_PROFIL
  6
CONTINUOUS
 62
     7
 10
-18.400000000000102
 20
34.499530150990161
 30
0.0
  0
VERTEX
  5
1285
  8
SAPA_PROFIL
  6
CONTINUOUS
 62
     7
 10
-18.00000000000114
 20
34.499530150990161
 30
0.0
 42
-0.4142135623731366
  0
VERTEX
  5
1286
  8
SAPA_PROFIL
  6
CONTINUOUS
 62
     7
 10
-17.700000000001101
 20
34.199530150990178
 30
0.0
  0
VERTEX
  5
1287
  8
SAPA_PROFIL
  6
CONTINUOUS
 62
     7
 10
-17.700000000001101
 20
31.799530150990169
 30
0.0
 42
-0.4142135623730951
  0
VERTEX
  5
1288
  8
SAPA_PROFIL
  6
CONTINUOUS
 62
     7
 10
-18.000000000001101
 20
31.499530150990161
 30
0.0
  0
VERTEX
  5
1289
  8
SAPA_PROFIL
  6
CONTINUOUS
 62
     7
 10
-22.900000000000091
 20
31.499530150990161
 30
0.0
 42
-0.4142135623731088
  0
VERTEX
  5
128A
  8
SAPA_PROFIL
  6
CONTINUOUS
 62
     7
 10
-23.200000000000099
 20
31.799530150990169
 30
0.0
  0
VERTEX
  5
128B
  8
SAPA_PROFIL
  6
CONTINUOUS
 62
     7
 10
-23.200000000000099
 20
34.199530150990178
 30
0.0
 42
-0.4142135623731229
  0
VERTEX
  5
128C
  8
SAPA_PROFIL
  6
CONTINUOUS
 62
     7
 10
-22.900000000000109
 20
34.499530150990161
 30
0.0
  0
VERTEX
  5
128D
  8
SAPA_PROFIL
  6
CONTINUOUS
 62
     7
 10
-22.000000000001108
 20
34.499530150990161
 30
0.0
 42
0.7105995015650805
  0
VERTEX
  5
128E
  8
SAPA_PROFIL
  6
CONTINUOUS
 62
     7
 10
-21.813615984240101
 20
35.034606731425157
 30
0.0
  0
VERTEX
  5
128F
  8
SAPA_PROFIL
  6
CONTINUOUS
 62
     7
 10
-22.4000000000011
 20
35.499530150990161
 30
0.0
  0
VERTEX
  5
1290
  8
SAPA_PROFIL
  6
CONTINUOUS
 62
     7
 10
-24.700000000001111
 20
35.499530150990161
 30
0.0
 42
0.4142135623730951
  0
VERTEX
  5
1291
  8
SAPA_PROFIL
  6
CONTINUOUS
 62
     7
 10
-25.000000000001108
 20
35.199530150990178
 30
0.0
  0
VERTEX
  5
1292
  8
SAPA_PROFIL
  6
CONTINUOUS
 62
     7
 10
-24.999999999999119
 20
-24.00046984900882
 30
0.0
 42
0.4142135623730951
  0
VERTEX
  5
1293
  8
SAPA_PROFIL
  6
CONTINUOUS
 62
     7
 10
-24.499999999999119
 20
-24.50046984900883
 30
0.0
  0
VERTEX
  5
1294
  8
SAPA_PROFIL
  6
CONTINUOUS
 62
     7
 10
24.49999999999989
 20
-24.50046984900883
 30
0.0
 42
0.4142135623730951
  0
VERTEX
  5
1295
  8
SAPA_PROFIL
  6
CONTINUOUS
 62
     7
 10
24.99999999999989
 20
-24.00046984900882
 30
0.0
  0
VERTEX
  5
1296
  8
SAPA_PROFIL
  6
CONTINUOUS
 62
     7
 10
25.00000000000189
 20
35.199530150990149
 30
0.0
 42
0.4142135623731229
  0
VERTEX
  5
1297
  8
SAPA_PROFIL
  6
CONTINUOUS
 62
     7
 10
24.700000000001911
 20
35.499530150990161
 30
0.0
  0
VERTEX
  5
1298
  8
SAPA_PROFIL
  6
CONTINUOUS
 62
     7
 10
22.400000000001899
 20
35.499530150990161
 30
0.0
  0
VERTEX
  5
1299
  8
SAPA_PROFIL
  6
CONTINUOUS
 62
     7
 10
21.813615984241139
 20
35.034606731424901
 30
0.0
 42
0.7105995015650992
  0
VERTEX
  5
129A
  8
SAPA_PROFIL
  6
CONTINUOUS
 62
     7
 10
22.00000000000189
 20
34.499530150990161
 30
0.0
  0
VERTEX
  5
129B
  8
SAPA_PROFIL
  6
CONTINUOUS
 62
     7
 10
22.900000000000869
 20
34.499530150990161
 30
0.0
 42
-0.4142135623731158
  0
VERTEX
  5
129C
  8
SAPA_PROFIL
  6
CONTINUOUS
 62
     7
 10
23.200000000001911
 20
34.199530150990171
 30
0.0
  0
VERTEX
  5
129D
  8
SAPA_PROFIL
  6
CONTINUOUS
 62
     7
 10
23.200000000000891
 20
31.799530150990162
 30
0.0
 42
-0.4142135623731088
  0
VERTEX
  5
129E
  8
SAPA_PROFIL
  6
CONTINUOUS
 62
     7
 10
22.900000000000901
 20
31.49953015099015
 30
0.0
  0
VERTEX
  5
129F
  8
SAPA_PROFIL
  6
CONTINUOUS
 62
     7
 10
18.00000000000189
 20
31.49953015099015
 30
0.0
 42
-0.4142135623730882
  0
VERTEX
  5
12A0
  8
SAPA_PROFIL
  6
CONTINUOUS
 62
     7
 10
17.7000000000019
 20
31.799530150990162
 30
0.0
  0
VERTEX
  5
12A1
  8
SAPA_PROFIL
  6
CONTINUOUS
 62
     7
 10
17.7000000000019
 20
34.199530150990171
 30
0.0
 42
-0.4142135623731367
  0
VERTEX
  5
12A2
  8
SAPA_PROFIL
  6
CONTINUOUS
 62
     7
 10
18.00000000000189
 20
34.499530150990161
 30
0.0
  0
VERTEX
  5
12A3
  8
SAPA_PROFIL
  6
CONTINUOUS
 62
     7
 10
18.400000000000929
 20
34.499530150990161
 30
0.0
 42
0.7105995015649363
  0
VERTEX
  5
12A4
  8
SAPA_PROFIL
  6
CONTINUOUS
 62
     7
 10
18.58638401576188
 20
35.034606731425157
 30
0.0
  0
VERTEX
  5
12A5
  8
SAPA_PROFIL
  6
CONTINUOUS
 62
     7
 10
18.00000000000189
 20
35.499530150990161
 30
0.0
  0
VERTEX
  5
12A6
  8
SAPA_PROFIL
  6
CONTINUOUS
 62
     7
 10
16.30000000000193
 20
35.499530150990161
 30
0.0
 42
0.4142135623731159
  0
VERTEX
  5
12A7
  8
SAPA_PROFIL
  6
CONTINUOUS
 62
     7
 10
16.00000000000189
 20
35.199530150990171
 30
0.0
  0
VERTEX
  5
12A8
  8
SAPA_PROFIL
  6
CONTINUOUS
 62
     7
 10
16.00000000000189
 20
34.646743746490159
 30
0.0
 42
0.2134217652833529
  0
VERTEX
  5
12A9
  8
SAPA_PROFIL
  6
CONTINUOUS
 62
     7
 10
16.100000000000911
 20
34.423136948740137
 30
0.0
 42
-0.2134217652833564
  0
VERTEX
  5
12AA
  8
SAPA_PROFIL
  6
CONTINUOUS
 62
     7
 10
16.20000000000088
 20
34.199530150990171
 30
0.0
  0
SEQEND
  5
12AB
  8
SAPA_PROFIL
  6
CONTINUOUS
 62
     7
  0
POLYLINE
  5
C66
  8
SAPA_GLAS
 66
     1
 10
0.0
 20
0.0
 30
0.0
  0
VERTEX
  5
12C0
  8
SAPA_GLAS
 10
40.999999999999432
 20
49.619999999997731
 30
0.0
  0
VERTEX
  5
12C1
  8
SAPA_GLAS
 10
10.99999999999943
 20
49.619999999997511
 30
0.0
  0
VERTEX
  5
12C2
  8
SAPA_GLAS
 10
10.999999999999879
 20
40.859999999997278
 30
0.0
  0
VERTEX
  5
12C3
  8
SAPA_GLAS
 10
40.999999999999368
 20
40.859999999997633
 30
0.0
  0
SEQEND
  5
12C4
  8
SAPA_GLAS
  0
POLYLINE
  5
C67
  8
SAPA_GLAS
 66
     1
 10
0.0
 20
0.0
 30
0.0
  0
VERTEX
  5
12C5
  8
SAPA_GLAS
 10
10.99999999999973
 20
49.619999999997511
 30
0.0
  0
VERTEX
  5
12C6
  8
SAPA_GLAS
 10
10.99999999999965
 20
61.61999999999761
 30
0.0
  0
VERTEX
  5
12C7
  8
SAPA_GLAS
 10
20.999999999999432
 20
61.619999999997688
 30
0.0
  0
VERTEX
  5
12C8
  8
SAPA_GLAS
 10
20.999999999999879
 20
49.619999999997582
 30
0.0
  0
VERTEX
  5
12C9
  8
SAPA_GLAS
 10
10.99999999999973
 20
49.619999999997511
 30
0.0
  0
SEQEND
  5
12CA
  8
SAPA_GLAS
  0
POLYLINE
  5
C68
  8
SAPA_GLAS
 66
     1
 10
0.0
 20
0.0
 30
0.0
  0
VERTEX
  5
12CB
  8
SAPA_GLAS
 10
40.999999999999432
 20
67.619999999997731
 30
0.0
  0
VERTEX
  5
12CC
  8
SAPA_GLAS
 10
10.99999999999943
 20
67.619999999997617
 30
0.0
  0
VERTEX
  5
12CD
  8
SAPA_GLAS
 10
10.99999999999943
 20
61.61999999999761
 30
0.0
  0
VERTEX
  5
12CE
  8
SAPA_GLAS
 10
40.999999999999432
 20
61.619999999997837
 30
0.0
  0
SEQEND
  5
12CF
  8
SAPA_GLAS
  0
LINE
  5
C69
  8
SAPA_GLAS
 10
10.999999999999879
 20
45.239999999997387
 30
0.0
 11
40.999999999999368
 21
45.239999999997607
 31
0.0
  0
POLYLINE
  5
C71
  8
SAPA_FOGBAND
 66
     1
 10
0.0
 20
0.0
 30
0.0
 70
     1
  0
VERTEX
  5
1376
  8
SAPA_FOGBAND
 10
15.89435047379015
 20
40.690727555663102
 30
0.0
 42
0.4679153941829814
  0
VERTEX
  5
1377
  8
SAPA_FOGBAND
 10
15.65857338632236
 20
40.493961871815017
 30
0.0
  0
VERTEX
  5
1378
  8
SAPA_FOGBAND
 10
15.658384556282609
 20
35.942838045867013
 30
0.0
 42
0.6685323900181767
  0
VERTEX
  5
1379
  8
SAPA_FOGBAND
 10
15.99994416832555
 20
35.801555080675833
 30
0.0
 42
-0.1991665782226247
  0
VERTEX
  5
137A
  8
SAPA_FOGBAND
 10
16.07072397433398
 20
35.830913598093389
 30
0.0
  0
VERTEX
  5
137B
  8
SAPA_FOGBAND
 10
18.658384556282719
 20
35.830913598093623
 30
0.0
 42
-0.4142135623731784
  0
VERTEX
  5
137C
  8
SAPA_FOGBAND
 10
18.858384556282662
 20
35.630913598093571
 30
0.0
  0
VERTEX
  5
137D
  8
SAPA_FOGBAND
 10
18.858384556282662
 20
34.830913598093503
 30
0.0
 42
0.4142135623731368
  0
VERTEX
  5
137E
  8
SAPA_FOGBAND
 10
19.05838455628259
 20
34.630913598093457
 30
0.0
  0
VERTEX
  5
137F
  8
SAPA_FOGBAND
 10
19.458384556282681
 20
34.630913598093571
 30
0.0
 42
-0.4142135623733448
  0
VERTEX
  5
1380
  8
SAPA_FOGBAND
 10
19.658384556282499
 20
34.430913598093532
 30
0.0
  0
VERTEX
  5
1381
  8
SAPA_FOGBAND
 10
19.658384556282499
 20
33.359314789752027
 30
0.0
 42
-0.703825529076487
  0
VERTEX
  5
1382
  8
SAPA_FOGBAND
 10
19.481160581519131
 20
33.295781666723663
 30
0.0
  0
VERTEX
  5
1383
  8
SAPA_FOGBAND
 10
18.66728045533625
 20
34.285046090207061
 30
0.0
 42
0.9999999999999856
  0
VERTEX
  5
1384
  8
SAPA_FOGBAND
 10
18.049488657229059
 20
33.776781105979921
 30
0.0
  0
VERTEX
  5
1385
  8
SAPA_FOGBAND
 10
19.19308487173998
 20
32.386749560238627
 30
0.0
 42
0.2242387338110932
  0
VERTEX
  5
1386
  8
SAPA_FOGBAND
 10
20.15838455628273
 20
31.930913598093412
 30
0.0
 42
0.2242387338111004
  0
VERTEX
  5
1387
  8
SAPA_FOGBAND
 10
21.123684240825241
 20
32.386749560238627
 30
0.0
  0
VERTEX
  5
1388
  8
SAPA_FOGBAND
 10
22.26728045533628
 20
33.776781105979921
 30
0.0
 42
1.0000000000000899
  0
VERTEX
  5
1389
  8
SAPA_FOGBAND
 10
21.649488657228972
 20
34.285046090207061
 30
0.0
  0
VERTEX
  5
138A
  8
SAPA_FOGBAND
 10
20.835608531046091
 20
33.295781666723769
 30
0.0
 42
-0.7038255290763446
  0
VERTEX
  5
138B
  8
SAPA_FOGBAND
 10
20.65838455628273
 20
33.35931478975192
 30
0.0
  0
VERTEX
  5
138C
  8
SAPA_FOGBAND
 10
20.65838455628273
 20
34.430913598093532
 30
0.0
 42
-0.4142135623729703
  0
VERTEX
  5
138D
  8
SAPA_FOGBAND
 10
20.858384556282662
 20
34.630913598093571
 30
0.0
  0
VERTEX
  5
138E
  8
SAPA_FOGBAND
 10
21.258384556282628
 20
34.630913598093571
 30
0.0
 42
0.4142135623730117
  0
VERTEX
  5
138F
  8
SAPA_FOGBAND
 10
21.458384556282681
 20
34.830913598093503
 30
0.0
  0
VERTEX
  5
1390
  8
SAPA_FOGBAND
 10
21.458384556282571
 20
35.630913598093571
 30
0.0
 42
-0.4142135623731784
  0
VERTEX
  5
1391
  8
SAPA_FOGBAND
 10
21.658384556282609
 20
35.830913598093623
 30
0.0
  0
VERTEX
  5
1392
  8
SAPA_FOGBAND
 10
24.246045138231359
 20
35.830913598093282
 30
0.0
 42
-0.1991665782227297
  0
VERTEX
  5
1393
  8
SAPA_FOGBAND
 10
24.31682494423967
 20
35.801555080675833
 30
0.0
 42
0.6685323900181511
  0
VERTEX
  5
1394
  8
SAPA_FOGBAND
 10
24.658384556282609
 20
35.9428380458669
 30
0.0
  0
VERTEX
  5
1395
  8
SAPA_FOGBAND
 10
24.65857338507692
 20
40.493931852034159
 30
0.0
 42
0.4679406819625479
  0
VERTEX
  5
1396
  8
SAPA_FOGBAND
 10
24.422796297609128
 20
40.690714132226041
 30
0.0
  0
VERTEX
  5
1397
  8
SAPA_FOGBAND
 10
23.722833212511429
 20
40.563448116753868
 30
0.0
 42
0.3624646087620003
  0
VERTEX
  5
1398
  8
SAPA_FOGBAND
 10
23.558610300151489
 20
40.366674134734012
 30
0.0
  0
VERTEX
  5
1399
  8
SAPA_FOGBAND
 10
23.558610300151489
 20
40.251155165299572
 30
0.0
 42
-0.3515239862759624
  0
VERTEX
  5
139A
  8
SAPA_FOGBAND
 10
23.401996391715219
 20
40.055917753262861
 30
0.0
  0
VERTEX
  5
139B
  8
SAPA_FOGBAND
 10
21.87918654864302
 20
39.735729209227429
 30
0.0
 42
-0.751570456352482
  0
VERTEX
  5
139C
  8
SAPA_FOGBAND
 10
21.78893838433169
 20
39.905323805434023
 30
0.0
  0
VERTEX
  5
139D
  8
SAPA_FOGBAND
 10
23.219252310870839
 20
40.12835486826247
 30
0.0
 42
0.7197481174277197
  0
VERTEX
  5
139E
  8
SAPA_FOGBAND
 10
22.931886130291328
 20
40.72670972010598
 30
0.0
  0
VERTEX
  5
139F
  8
SAPA_FOGBAND
 10
20.791404622199821
 20
40.45850903031009
 30
0.0
 42
-0.5053637834253038
  0
VERTEX
  5
13A0
  8
SAPA_FOGBAND
 10
20.56461030015134
 20
40.54158940541538
 30
0.0
  0
VERTEX
  5
13A1
  8
SAPA_FOGBAND
 10
20.55061030015122
 20
40.589589405415829
 30
0.0
 42
0.3333333333331249
  0
VERTEX
  5
13A2
  8
SAPA_FOGBAND
 10
20.35861030015133
 20
40.733589405415607
 30
0.0
  0
VERTEX
  5
13A3
  8
SAPA_FOGBAND
 10
19.958610300151349
 20
40.733589405415728
 30
0.0
 42
0.3333333333331312
  0
VERTEX
  5
13A4
  8
SAPA_FOGBAND
 10
19.766610300151338
 20
40.58958940541595
 30
0.0
  0
VERTEX
  5
13A5
  8
SAPA_FOGBAND
 10
19.752610300151218
 20
40.541589405415607
 30
0.0
 42
-0.505363783425254
  0
VERTEX
  5
13A6
  8
SAPA_FOGBAND
 10
19.525815978102852
 20
40.458509030309983
 30
0.0
  0
VERTEX
  5
13A7
  8
SAPA_FOGBAND
 10
17.38533447001123
 20
40.726709720105873
 30
0.0
 42
0.7197481174279296
  0
VERTEX
  5
13A8
  8
SAPA_FOGBAND
 10
17.09796828943195
 20
40.12835486826247
 30
0.0
  0
VERTEX
  5
13A9
  8
SAPA_FOGBAND
 10
18.528282215970989
 20
39.905323805434129
 30
0.0
 42
-0.7515704563522813
  0
VERTEX
  5
13AA
  8
SAPA_FOGBAND
 10
18.438034051659539
 20
39.735729209227323
 30
0.0
  0
VERTEX
  5
13AB
  8
SAPA_FOGBAND
 10
16.91522420858746
 20
40.055917753262747
 30
0.0
 42
-0.3515239862759173
  0
VERTEX
  5
13AC
  8
SAPA_FOGBAND
 10
16.758610300151069
 20
40.251155165299672
 30
0.0
  0
VERTEX
  5
13AD
  8
SAPA_FOGBAND
 10
16.758610300151069
 20
40.366674134733898
 30
0.0
 42
0.3624646087620678
  0
VERTEX
  5
13AE
  8
SAPA_FOGBAND
 10
16.59438738779113
 20
40.563448116753868
 30
0.0
  0
SEQEND
  5
13AF
  8
SAPA_FOGBAND
  0
POLYLINE
  5
C72
  8
SAPA_FOGBAND
 66
     1
 10
0.0
 20
0.0
 30
0.0
 70
     1
  0
VERTEX
  5
13B0
  8
SAPA_FOGBAND
 10
15.697677221671819
 20
72.475600881618902
 30
0.0
 42
-0.4142135623731784
  0
VERTEX
  5
13B1
  8
SAPA_FOGBAND
 10
15.49767722167201
 20
72.275600881618857
 30
0.0
  0
VERTEX
  5
13B2
  8
SAPA_FOGBAND
 10
10.568148278062489
 20
72.27560088161863
 30
0.0
 42
0.2663342079579515
  0
VERTEX
  5
13B3
  8
SAPA_FOGBAND
 10
9.7051534157741344
 20
71.78081357708902
 30
0.0
  0
VERTEX
  5
13B4
  8
SAPA_FOGBAND
 10
6.85483023795598
 20
67.693043485127191
 30
0.0
 42
0.052861208559515
  0
VERTEX
  5
13B5
  8
SAPA_FOGBAND
 10
6.7680813905855066
 20
67.50085936017922
 30
0.0
 42
0.2389362379610746
  0
VERTEX
  5
13B6
  8
SAPA_FOGBAND
 10
7.0158745558475166
 20
66.257018808056046
 30
0.0
 42
0.4294697894411934
  0
VERTEX
  5
13B7
  8
SAPA_FOGBAND
 10
7.3057142385038096
 20
66.245375851495282
 30
0.0
  0
VERTEX
  5
13B8
  8
SAPA_FOGBAND
 10
10.85876019071668
 20
68.484597134760165
 30
0.0
 42
-0.1982170680849751
  0
VERTEX
  5
13B9
  8
SAPA_FOGBAND
 10
11.563972437512909
 20
68.775600881618857
 30
0.0
  0
VERTEX
  5
13BA
  8
SAPA_FOGBAND
 10
11.68263042392903
 20
68.775600881619084
 30
0.0
 42
-0.2084822249037384
  0
VERTEX
  5
13BB
  8
SAPA_FOGBAND
 10
12.41524292559563
 20
68.456246841279381
 30
0.0
  0
VERTEX
  5
13BC
  8
SAPA_FOGBAND
 10
16.362753589753648
 20
67.835613553438179
 30
0.0
  0
VERTEX
  5
13BD
  8
SAPA_FOGBAND
 10
16.91559561902443
 20
68.199145223693677
 30
0.0
  0
VERTEX
  5
13BE
  8
SAPA_FOGBAND
 10
13.605029815939019
 20
69.196621937978989
 30
0.0
 42
-0.6313983151680102
  0
VERTEX
  5
13BF
  8
SAPA_FOGBAND
 10
13.89542697455056
 20
69.653924082487265
 30
0.0
  0
VERTEX
  5
13C0
  8
SAPA_FOGBAND
 10
16.73399353426532
 20
69.307757428863624
 30
0.0
 42
-0.379100851898285
  0
VERTEX
  5
13C1
  8
SAPA_FOGBAND
 10
16.99767722167201
 20
69.009963665598661
 30
0.0
  0
VERTEX
  5
13C2
  8
SAPA_FOGBAND
 10
16.99767722167201
 20
68.775600881618857
 30
0.0
 42
0.4142135623730951
  0
VERTEX
  5
13C3
  8
SAPA_FOGBAND
 10
17.297677221672188
 20
68.475600881619116
 30
0.0
  0
VERTEX
  5
13C4
  8
SAPA_FOGBAND
 10
21.849398302582021
 20
68.475600881619116
 30
0.0
  0
VERTEX
  5
13C5
  8
SAPA_FOGBAND
 10
28.176686426850779
 20
67.953905543507403
 30
0.0
  0
VERTEX
  5
13C6
  8
SAPA_FOGBAND
 10
28.176686426850779
 20
67.953905543507403
 30
0.0
  0
VERTEX
  5
13C7
  8
SAPA_FOGBAND
 10
28.7645755651107
 20
68.370228266410095
 30
0.0
 42
-0.0144193411868444
  0
VERTEX
  5
13C8
  8
SAPA_FOGBAND
 10
28.627570427398609
 20
69.61467884818228
 30
0.0
  0
VERTEX
  5
13C9
  8
SAPA_FOGBAND
 10
23.49767722167201
 20
71.275600881619084
 30
0.0
  0
VERTEX
  5
13CA
  8
SAPA_FOGBAND
 10
23.49767722167201
 20
73.125600881618993
 30
0.0
 42
0.4142135623731212
  0
VERTEX
  5
13CB
  8
SAPA_FOGBAND
 10
23.347677221671919
 20
73.275600881619084
 30
0.0
  0
VERTEX
  5
13CC
  8
SAPA_FOGBAND
 10
22.231486297671498
 20
73.275600881618857
 30
0.0
 42
0.3812119866949899
  0
VERTEX
  5
13CD
  8
SAPA_FOGBAND
 10
22.082459494817272
 20
73.142659956358102
 30
0.0
  0
VERTEX
  5
13CE
  8
SAPA_FOGBAND
 10
21.99842510543624
 20
72.408541806879839
 30
0.0
 42
-0.3812119866949819
  0
VERTEX
  5
13CF
  8
SAPA_FOGBAND
 10
21.849398302581559
 20
72.275600881619084
 30
0.0
  0
VERTEX
  5
13D0
  8
SAPA_FOGBAND
 10
18.497677221671999
 20
72.275600881619084
 30
0.0
 42
-0.4142135623730951
  0
VERTEX
  5
13D1
  8
SAPA_FOGBAND
 10
18.29767722167173
 20
72.475600881618902
 30
0.0
  0
VERTEX
  5
13D2
  8
SAPA_FOGBAND
 10
18.297677221672188
 20
73.275600881618857
 30
0.0
 42
0.4142135623730951
  0
VERTEX
  5
13D3
  8
SAPA_FOGBAND
 10
18.097677221671908
 20
73.475600881618902
 30
0.0
  0
VERTEX
  5
13D4
  8
SAPA_FOGBAND
 10
17.697677221671821
 20
73.475600881618902
 30
0.0
 42
-0.4142135623731784
  0
VERTEX
  5
13D5
  8
SAPA_FOGBAND
 10
17.49767722167201
 20
73.675600881618934
 30
0.0
  0
VERTEX
  5
13D6
  8
SAPA_FOGBAND
 10
17.49767722167201
 20
74.747199689960325
 30
0.0
 42
-0.7038255290761633
  0
VERTEX
  5
13D7
  8
SAPA_FOGBAND
 10
17.674901196435371
 20
74.810732812988817
 30
0.0
  0
VERTEX
  5
13D8
  8
SAPA_FOGBAND
 10
18.488781322618362
 20
73.821468389505299
 30
0.0
 42
0.9999999999999552
  0
VERTEX
  5
13D9
  8
SAPA_FOGBAND
 10
19.10657312072556
 20
74.329733373732552
 30
0.0
  0
VERTEX
  5
13DA
  8
SAPA_FOGBAND
 10
17.962976906214521
 20
75.719764919474073
 30
0.0
 42
0.2242387338111004
  0
VERTEX
  5
13DB
  8
SAPA_FOGBAND
 10
16.99767722167201
 20
76.175600881618934
 30
0.0
 42
0.2242387338111007
  0
VERTEX
  5
13DC
  8
SAPA_FOGBAND
 10
16.032377537129491
 20
75.719764919474073
 30
0.0
  0
VERTEX
  5
13DD
  8
SAPA_FOGBAND
 10
14.888781322618451
 20
74.329733373732552
 30
0.0
 42
0.9999999999999548
  0
VERTEX
  5
13DE
  8
SAPA_FOGBAND
 10
15.506573120725649
 20
73.821468389505299
 30
0.0
  0
VERTEX
  5
13DF
  8
SAPA_FOGBAND
 10
16.320453246908642
 20
74.810732812988817
 30
0.0
 42
-0.7038255290761636
  0
VERTEX
  5
13E0
  8
SAPA_FOGBAND
 10
16.497677221671999
 20
74.747199689960325
 30
0.0
  0
VERTEX
  5
13E1
  8
SAPA_FOGBAND
 10
16.497677221671999
 20
73.675600881619175
 30
0.0
 42
-0.4142135623730117
  0
VERTEX
  5
13E2
  8
SAPA_FOGBAND
 10
16.297677221672188
 20
73.475600881619116
 30
0.0
  0
VERTEX
  5
13E3
  8
SAPA_FOGBAND
 10
15.89767722167209
 20
73.475600881618902
 30
0.0
 42
0.4142135623730951
  0
VERTEX
  5
13E4
  8
SAPA_FOGBAND
 10
15.697677221671819
 20
73.275600881619084
 30
0.0
  0
SEQEND
  5
13E5
  8
SAPA_FOGBAND
  0
POLYLINE
  5
C73
  8
SAPA_FOGBAND
 66
     1
 10
0.0
 20
0.0
 30
0.0
 70
     1
  0
VERTEX
  5
13E6
  8
SAPA_FOGBAND
 10
-15.69767722167194
 20
72.475600881618902
 30
0.0
 42
0.4142135623731784
  0
VERTEX
  5
13E7
  8
SAPA_FOGBAND
 10
-15.49767722167212
 20
72.275600881618857
 30
0.0
  0
VERTEX
  5
13E8
  8
SAPA_FOGBAND
 10
-10.56814827806261
 20
72.27560088161863
 30
0.0
 42
-0.2663342079579515
  0
VERTEX
  5
13E9
  8
SAPA_FOGBAND
 10
-9.7051534157742481
 20
71.78081357708902
 30
0.0
  0
VERTEX
  5
13EA
  8
SAPA_FOGBAND
 10
-6.8548302379560928
 20
67.693043485127191
 30
0.0
 42
-0.052861208559515
  0
VERTEX
  5
13EB
  8
SAPA_FOGBAND
 10
-6.7680813905856212
 20
67.50085936017922
 30
0.0
 42
-0.2389362379610746
  0
VERTEX
  5
13EC
  8
SAPA_FOGBAND
 10
-7.0158745558476312
 20
66.257018808056046
 30
0.0
 42
-0.4294697894411934
  0
VERTEX
  5
13ED
  8
SAPA_FOGBAND
 10
-7.3057142385039242
 20
66.245375851495282
 30
0.0
  0
VERTEX
  5
13EE
  8
SAPA_FOGBAND
 10
-10.85876019071679
 20
68.484597134760165
 30
0.0
 42
0.1982170680849751
  0
VERTEX
  5
13EF
  8
SAPA_FOGBAND
 10
-11.56397243751303
 20
68.775600881618857
 30
0.0
  0
VERTEX
  5
13F0
  8
SAPA_FOGBAND
 10
-11.68263042392914
 20
68.775600881619084
 30
0.0
 42
0.2084822249037384
  0
VERTEX
  5
13F1
  8
SAPA_FOGBAND
 10
-12.41524292559575
 20
68.456246841279381
 30
0.0
  0
VERTEX
  5
13F2
  8
SAPA_FOGBAND
 10
-16.362753589753758
 20
67.835613553438179
 30
0.0
  0
VERTEX
  5
13F3
  8
SAPA_FOGBAND
 10
-16.91559561902454
 20
68.199145223693677
 30
0.0
  0
VERTEX
  5
13F4
  8
SAPA_FOGBAND
 10
-13.60502981593913
 20
69.196621937978989
 30
0.0
 42
0.6313983151680102
  0
VERTEX
  5
13F5
  8
SAPA_FOGBAND
 10
-13.89542697455067
 20
69.653924082487265
 30
0.0
  0
VERTEX
  5
13F6
  8
SAPA_FOGBAND
 10
-16.733993534265441
 20
69.307757428863624
 30
0.0
 42
0.379100851898285
  0
VERTEX
  5
13F7
  8
SAPA_FOGBAND
 10
-16.99767722167212
 20
69.009963665598661
 30
0.0
  0
VERTEX
  5
13F8
  8
SAPA_FOGBAND
 10
-16.99767722167212
 20
68.775600881618857
 30
0.0
 42
-0.4142135623730951
  0
VERTEX
  5
13F9
  8
SAPA_FOGBAND
 10
-17.297677221672298
 20
68.475600881619116
 30
0.0
  0
VERTEX
  5
13FA
  8
SAPA_FOGBAND
 10
-21.849398302582131
 20
68.475600881619116
 30
0.0
  0
VERTEX
  5
13FB
  8
SAPA_FOGBAND
 10
-28.176686426850889
 20
67.953905543507403
 30
0.0
  0
VERTEX
  5
13FC
  8
SAPA_FOGBAND
 10
-28.176686426850889
 20
67.953905543507403
 30
0.0
  0
VERTEX
  5
13FD
  8
SAPA_FOGBAND
 10
-28.764575565110821
 20
68.370228266410095
 30
0.0
 42
0.0144193411868444
  0
VERTEX
  5
13FE
  8
SAPA_FOGBAND
 10
-28.627570427398719
 20
69.61467884818228
 30
0.0
  0
VERTEX
  5
13FF
  8
SAPA_FOGBAND
 10
-23.49767722167212
 20
71.275600881619084
 30
0.0
  0
VERTEX
  5
1400
  8
SAPA_FOGBAND
 10
-23.49767722167212
 20
73.125600881618993
 30
0.0
 42
-0.4142135623731212
  0
VERTEX
  5
1401
  8
SAPA_FOGBAND
 10
-23.347677221672029
 20
73.275600881619084
 30
0.0
  0
VERTEX
  5
1402
  8
SAPA_FOGBAND
 10
-22.231486297671609
 20
73.275600881618857
 30
0.0
 42
-0.3812119866949899
  0
VERTEX
  5
1403
  8
SAPA_FOGBAND
 10
-22.082459494817389
 20
73.142659956358102
 30
0.0
  0
VERTEX
  5
1404
  8
SAPA_FOGBAND
 10
-21.998425105436361
 20
72.408541806879839
 30
0.0
 42
0.3812119866949819
  0
VERTEX
  5
1405
  8
SAPA_FOGBAND
 10
-21.849398302581669
 20
72.275600881619084
 30
0.0
  0
VERTEX
  5
1406
  8
SAPA_FOGBAND
 10
-18.49767722167212
 20
72.275600881619084
 30
0.0
 42
0.4142135623730951
  0
VERTEX
  5
1407
  8
SAPA_FOGBAND
 10
-18.297677221671851
 20
72.475600881618902
 30
0.0
  0
VERTEX
  5
1408
  8
SAPA_FOGBAND
 10
-18.297677221672298
 20
73.275600881618857
 30
0.0
 42
-0.4142135623730951
  0
VERTEX
  5
1409
  8
SAPA_FOGBAND
 10
-18.097677221672029
 20
73.475600881618902
 30
0.0
  0
VERTEX
  5
140A
  8
SAPA_FOGBAND
 10
-17.697677221671938
 20
73.475600881618902
 30
0.0
 42
0.4142135623731784
  0
VERTEX
  5
140B
  8
SAPA_FOGBAND
 10
-17.49767722167212
 20
73.675600881618934
 30
0.0
  0
VERTEX
  5
140C
  8
SAPA_FOGBAND
 10
-17.49767722167212
 20
74.747199689960325
 30
0.0
 42
0.7038255290761633
  0
VERTEX
  5
140D
  8
SAPA_FOGBAND
 10
-17.674901196435481
 20
74.810732812988817
 30
0.0
  0
VERTEX
  5
140E
  8
SAPA_FOGBAND
 10
-18.488781322618479
 20
73.821468389505299
 30
0.0
 42
-0.9999999999999552
  0
VERTEX
  5
140F
  8
SAPA_FOGBAND
 10
-19.10657312072567
 20
74.329733373732552
 30
0.0
  0
VERTEX
  5
1410
  8
SAPA_FOGBAND
 10
-17.962976906214632
 20
75.719764919474073
 30
0.0
 42
-0.2242387338111004
  0
VERTEX
  5
1411
  8
SAPA_FOGBAND
 10
-16.99767722167212
 20
76.175600881618934
 30
0.0
 42
-0.2242387338111007
  0
VERTEX
  5
1412
  8
SAPA_FOGBAND
 10
-16.032377537129602
 20
75.719764919474073
 30
0.0
  0
VERTEX
  5
1413
  8
SAPA_FOGBAND
 10
-14.88878132261857
 20
74.329733373732552
 30
0.0
 42
-0.9999999999999548
  0
VERTEX
  5
1414
  8
SAPA_FOGBAND
 10
-15.50657312072576
 20
73.821468389505299
 30
0.0
  0
VERTEX
  5
1415
  8
SAPA_FOGBAND
 10
-16.320453246908752
 20
74.810732812988817
 30
0.0
 42
0.7038255290761636
  0
VERTEX
  5
1416
  8
SAPA_FOGBAND
 10
-16.49767722167212
 20
74.747199689960325
 30
0.0
  0
VERTEX
  5
1417
  8
SAPA_FOGBAND
 10
-16.49767722167212
 20
73.675600881619175
 30
0.0
 42
0.4142135623730117
  0
VERTEX
  5
1418
  8
SAPA_FOGBAND
 10
-16.297677221672298
 20
73.475600881619116
 30
0.0
  0
VERTEX
  5
1419
  8
SAPA_FOGBAND
 10
-15.897677221672209
 20
73.475600881618902
 30
0.0
 42
-0.4142135623730951
  0
VERTEX
  5
141A
  8
SAPA_FOGBAND
 10
-15.69767722167194
 20
73.275600881619084
 30
0.0
  0
SEQEND
  5
141B
  8
SAPA_FOGBAND
  0
DIMENSION
  5
C7C
  8
SAPA_MATT
  2
*D23
 10
1.5053309923310321
 20
406.21999999999781
 30
0.0
 11
-0.9958053713054056
 21
256.21999999999781
 31
0.0
 70
     0
  1
min 300
 13
-8.9771333159515034
 23
106.2199999999978
 33
0.0
 14
-40.0
 24
406.21999999999781
 34
0.0
 50
90.0
1001
ACAD
1000
DSTYLE
1002
{
1070
    40
1040
1.0
1002
}
  0
DIMENSION
  5
C7F
  8
SAPA_MATT
  2
*D22
 10
24.999999999999879
 20
-43.065444419200553
 30
0.0
 11
0.0000000000003785
 21
-40.565444419200553
 31
0.0
 70
     0
 13
-24.99999999999913
 23
-24.000469849008841
 33
0.0
 14
24.999999999999879
 24
-24.00046984900882
 34
0.0
1001
ACAD
1000
DSTYLE
1002
{
1070
    40
1040
1.0
1002
}
  0
VIEWPORT
  5
C4
 67
     1
  8
0
 10
143.06236603067589
 20
116.00969601843509
 30
0.0
 40
369.98580003443811
 41
256.8421457311839
 68
     1
 69
     1
1001
ACAD
1000
MVIEW
1002
{
1070
    16
1010
0.0
1020
0.0
1030
0.0
1010
0.0
1020
0.0
1030
1.0
1040
0.0
1040
256.8421457311839
1040
99.112914085388169
1040
143.07606935501099
1040
50.0
1040
0.0
1040
0.0
1070
     0
1070
     0
1070
     1
1070
     1
1070
     0
1070
     0
1070
     0
1070
     0
1040
0.0
1040
0.0
1040
0.0
1040
10.0
1040
10.0
1040
10.0
1040
10.0
1070
     0
1002
{
1002
}
1002
}
  0
ENDSEC
  0
EOF
