  0
SECTION
  2
HEADER
  9
$ACADVER
  1
AC1009
  9
$INSBASE
 10
0.0
 20
0.0
 30
0.0
  9
$EXTMIN
 10
-112.3283286202785
 20
-210.17988547077891
 30
0.0
  9
$EXTMAX
 10
81.181587957706228
 20
50.999999999999787
 30
0.1
  9
$LIMMIN
 10
0.0
 20
0.0
  9
$LIMMAX
 10
790.0
 20
790.0
  9
$ORTHOMODE
 70
     0
  9
$REGENMODE
 70
     1
  9
$FILLMODE
 70
     1
  9
$QTEXTMODE
 70
     0
  9
$MIRRTEXT
 70
     1
  9
$DRAGMODE
 70
     2
  9
$LTSCALE
 40
4.0
  9
$OSMODE
 70
   167
  9
$ATTMODE
 70
     1
  9
$TEXTSIZE
 40
3.5
  9
$TRACEWID
 40
0.05
  9
$TEXTSTYLE
  7
ISO
  9
$CLAYER
  8
0
  9
$CELTYPE
  6
BYLAYER
  9
$CECOLOR
 62
   256
  9
$DIMSCALE
 40
0.0
  9
$DIMASZ
 40
3.0
  9
$DIMEXO
 40
1.5
  9
$DIMDLI
 40
10.0
  9
$DIMRND
 40
0.0
  9
$DIMDLE
 40
0.0
  9
$DIMEXE
 40
1.5
  9
$DIMTP
 40
0.0
  9
$DIMTM
 40
0.0
  9
$DIMTXT
 40
3.0
  9
$DIMCEN
 40
-5.0
  9
$DIMTSZ
 40
0.0
  9
$DIMTOL
 70
     0
  9
$DIMLIM
 70
     0
  9
$DIMTIH
 70
     0
  9
$DIMTOH
 70
     0
  9
$DIMSE1
 70
     0
  9
$DIMSE2
 70
     0
  9
$DIMTAD
 70
     1
  9
$DIMZIN
 70
     8
  9
$DIMBLK
  1

  9
$DIMASO
 70
     1
  9
$DIMSHO
 70
     1
  9
$DIMPOST
  1

  9
$DIMAPOST
  1

  9
$DIMALT
 70
     0
  9
$DIMALTD
 70
     0
  9
$DIMALTF
 40
25.399999999999999
  9
$DIMLFAC
 40
-1.0
  9
$DIMTOFL
 70
     1
  9
$DIMTVP
 40
0.0
  9
$DIMTIX
 70
     0
  9
$DIMSOXD
 70
     0
  9
$DIMSAH
 70
     0
  9
$DIMBLK1
  1

  9
$DIMBLK2
  1

  9
$DIMSTYLE
  2
MASKIN
  9
$DIMCLRD
 70
   256
  9
$DIMCLRE
 70
   256
  9
$DIMCLRT
 70
     2
  9
$DIMTFAC
 40
1.0
  9
$DIMGAP
 40
1.0
  9
$LUNITS
 70
     2
  9
$LUPREC
 70
     8
  9
$SKETCHINC
 40
0.1
  9
$FILLETRAD
 40
0.0
  9
$AUNITS
 70
     0
  9
$AUPREC
 70
     8
  9
$MENU
  1
ACAD
  9
$ELEVATION
 40
0.0
  9
$PELEVATION
 40
0.0
  9
$THICKNESS
 40
0.0
  9
$LIMCHECK
 70
     0
  9
$BLIPMODE
 70
     0
  9
$CHAMFERA
 40
0.0
  9
$CHAMFERB
 40
0.0
  9
$SKPOLY
 70
     0
  9
$TDCREATE
 40
2454903.4498153818
  9
$TDUPDATE
 40
2458458.340021655
  9
$TDINDWG
 40
0.0594608218
  9
$TDUSRTIMER
 40
0.0594608218
  9
$USRTIMER
 70
     1
  9
$ANGBASE
 50
0.0
  9
$ANGDIR
 70
     0
  9
$PDMODE
 70
     0
  9
$PDSIZE
 40
0.0
  9
$PLINEWID
 40
0.0
  9
$COORDS
 70
     1
  9
$SPLFRAME
 70
     0
  9
$SPLINETYPE
 70
     6
  9
$SPLINESEGS
 70
     8
  9
$ATTDIA
 70
     1
  9
$ATTREQ
 70
     1
  9
$HANDLING
 70
     1
  9
$HANDSEED
  5
2769
  9
$SURFTAB1
 70
     6
  9
$SURFTAB2
 70
     6
  9
$SURFTYPE
 70
     6
  9
$SURFU
 70
     6
  9
$SURFV
 70
     6
  9
$UCSNAME
  2

  9
$UCSORG
 10
0.0
 20
0.0
 30
0.0
  9
$UCSXDIR
 10
1.0
 20
0.0
 30
0.0
  9
$UCSYDIR
 10
0.0
 20
1.0
 30
0.0
  9
$PUCSNAME
  2

  9
$PUCSORG
 10
0.0
 20
0.0
 30
0.0
  9
$PUCSXDIR
 10
1.0
 20
0.0
 30
0.0
  9
$PUCSYDIR
 10
0.0
 20
1.0
 30
0.0
  9
$USERI1
 70
     0
  9
$USERI2
 70
     0
  9
$USERI3
 70
     0
  9
$USERI4
 70
     0
  9
$USERI5
 70
     0
  9
$USERR1
 40
0.0
  9
$USERR2
 40
0.0
  9
$USERR3
 40
0.0
  9
$USERR4
 40
0.0
  9
$USERR5
 40
0.0
  9
$WORLDVIEW
 70
     1
  9
$SHADEDGE
 70
     3
  9
$SHADEDIF
 70
    70
  9
$TILEMODE
 70
     1
  9
$MAXACTVP
 70
    16
  9
$PLIMCHECK
 70
     0
  9
$PEXTMIN
 10
1.0000000000000000E+020
 20
1.0000000000000000E+020
 30
1.0000000000000000E+020
  9
$PEXTMAX
 10
-1.0000000000000000E+020
 20
-1.0000000000000000E+020
 30
-1.0000000000000000E+020
  9
$PLIMMIN
 10
-5.069427490234375
 20
-5.8737497329711914
  9
$PLIMMAX
 10
291.89889526367187
 20
204.0995779037475
  9
$UNITMODE
 70
     0
  9
$VISRETAIN
 70
     1
  9
$PLINEGEN
 70
     0
  9
$PSLTSCALE
 70
     1
  0
ENDSEC
  0
SECTION
  2
TABLES
  0
TABLE
  2
VPORT
 70
     1
  0
VPORT
  2
*ACTIVE
 70
     0
 10
0.0
 20
0.0
 11
1.0
 21
1.0
 12
123.6302941469733
 22
101.46231766629219
 13
0.0
 23
0.0
 14
1.0
 24
1.0
 15
0.0
 25
0.0
 16
0.0
 26
0.0
 36
1.0
 17
0.0
 27
0.0
 37
0.0
 40
519.02537839872309
 41
1.7265193370165739
 42
50.0
 43
0.0
 44
0.0
 50
0.0
 51
0.0
 71
     0
 72
   100
 73
     1
 74
     1
 75
     0
 76
     0
 77
     0
 78
     0
  0
ENDTAB
  0
TABLE
  2
LTYPE
 70
    42
  0
LTYPE
  2
CONTINUOUS
 70
     0
  3
Solid line
 72
    65
 73
     0
 40
0.0
  0
LTYPE
  2
BYGG-01473802$0$NEWDOT
 70
     0
  3
____ . ____ . ____ . ____ . ____ . ____ . ____
 72
    65
 73
     4
 40
2.0
 49
1.0
 49
-0.5
 49
0.0
 49
-0.5
  0
LTYPE
  2
BYGG-01473802$0$ZIGZAG
 70
     0
  3
Zig zag /\/\/\/\/\/\/\/\/\/\/\/\/\/\/\/\/\/\/\/\/\/\/\/
 72
    65
 73
     4
 40
20.32254
 49
0.00254
 49
-5.0800000000000001
 49
-10.16
 49
-5.0800000000000001
  0
LTYPE
  2
BYGG-014352$0$DASHDOT
 70
     0
  3
Dash dot __ . __ . __ . __ . __ . __ . __ . __
 72
    65
 73
     4
 40
1.0
 49
0.5
 49
-0.25
 49
0.0
 49
-0.25
  0
LTYPE
  2
BYGG-025060$0$NEWDOT
 70
     0
  3
____ . ____ . ____ . ____ . ____ . ____ . ____
 72
    65
 73
     4
 40
2.0
 49
1.0
 49
-0.5
 49
0.0
 49
-0.5
  0
LTYPE
  2
BYGG-012216$0$DASHDOT
 70
     0
  3
__ . __ . __ . __ . __ . __ . __ . __ . __ . __
 72
    65
 73
     4
 40
1.0
 49
0.5
 49
-0.25
 49
0.0
 49
-0.25
  0
LTYPE
  2
BYGG-024800$0$NEWDOT
 70
     0
  3
____ . ____ . ____ . ____ . ____ . ____ . ____
 72
    65
 73
     4
 40
2.0
 49
1.0
 49
-0.5
 49
0.0
 49
-0.5
  0
LTYPE
  2
BYGG-024807$0$NEWDOT
 70
     0
  3
____ . ____ . ____ . ____ . ____ . ____ . ____
 72
    65
 73
     4
 40
2.0
 49
1.0
 49
-0.5
 49
0.0
 49
-0.5
  0
LTYPE
  2
BYGG-024807$0$DASHDOT
 70
     0
  3
__ . __ . __ . __ . __ . __ . __ . __ . __ . __
 72
    65
 73
     4
 40
1.0
 49
0.5
 49
-0.25
 49
0.0
 49
-0.25
  0
LTYPE
  2
BYGG-033168$0$NEWDOT
 70
     0
  3
____ . ____ . ____ . ____ . ____ . ____ . ____
 72
    65
 73
     4
 40
2.0
 49
1.0
 49
-0.5
 49
0.0
 49
-0.5
  0
LTYPE
  2
BYGG-033168$0$DASHDOT
 70
     0
  3
__ . __ . __ . __ . __ . __ . __ . __ . __ . __
 72
    65
 73
     4
 40
1.0
 49
0.5
 49
-0.25
 49
0.0
 49
-0.25
  0
LTYPE
  2
BYGG-033168$0$DASHED
 70
     0
  3
__ __ __ __ __ __ __ __ __ __ __ __ __ __ __
 72
    65
 73
     2
 40
0.75
 49
0.5
 49
-0.25
  0
LTYPE
  2
BYGG-033168$0$PHANTOM
 70
     0
  3
Phantom ______  __  __  ______  __  __  ______
 72
    65
 73
     6
 40
63.5
 49
31.75
 49
-6.3499999999999988
 49
6.3499999999999988
 49
-6.3499999999999988
 49
6.3499999999999988
 49
-6.3499999999999988
  0
LTYPE
  2
BYGG-027036$0$NEWDOT
 70
     0
  3
____ . ____ . ____ . ____ . ____ . ____ . ____
 72
    65
 73
     4
 40
2.0
 49
1.0
 49
-0.5
 49
0.0
 49
-0.5
  0
LTYPE
  2
BYGG-027036$0$DASHDOT
 70
     0
  3
__ . __ . __ . __ . __ . __ . __ . __ . __ . __
 72
    65
 73
     4
 40
1.0
 49
0.5
 49
-0.25
 49
0.0
 49
-0.25
  0
LTYPE
  2
BYGG-027036$0$DASHED
 70
     0
  3
__ __ __ __ __ __ __ __ __ __ __ __ __ __ __
 72
    65
 73
     2
 40
0.75
 49
0.5
 49
-0.25
  0
LTYPE
  2
BYGG-027036$0$PHANTOM
 70
     0
  3
Phantom ______  __  __  ______  __  __  ______
 72
    65
 73
     6
 40
63.5
 49
31.75
 49
-6.3499999999999988
 49
6.3499999999999988
 49
-6.3499999999999988
 49
6.3499999999999988
 49
-6.3499999999999988
  0
LTYPE
  2
BYGG-027036$0$HIDDEN
 70
     0
  3
_ _ _ _ _ _ _ _ _ _ _ _ _ _ _ _ _ _ _ _ _ _ _
 72
    65
 73
     2
 40
0.375
 49
0.25
 49
-0.125
  0
LTYPE
  2
BYGG-027036$0$DOT
 70
     0
  3
...............................................
 72
    65
 73
     2
 40
0.25
 49
0.0
 49
-0.25
  0
LTYPE
  2
BYGG-027036$0$CENTER
 70
     0
  3
____ _ ____ _ ____ _ ____ _ ____ _ ____ _ ____
 72
    65
 73
     4
 40
0.6
 49
0.375
 49
-0.075
 49
0.075
 49
-0.075
  0
LTYPE
  2
BYGG-033291$0$NEWDOT
 70
     0
  3
____ . ____ . ____ . ____ . ____ . ____ . ____
 72
    65
 73
     4
 40
2.0
 49
1.0
 49
-0.5
 49
0.0
 49
-0.5
  0
LTYPE
  2
BYGG-033291$0$DASHDOT
 70
     0
  3
__ . __ . __ . __ . __ . __ . __ . __ . __ . __
 72
    65
 73
     4
 40
1.0
 49
0.5
 49
-0.25
 49
0.0
 49
-0.25
  0
LTYPE
  2
BYGG-033291$0$DASHED
 70
     0
  3
__ __ __ __ __ __ __ __ __ __ __ __ __ __ __
 72
    65
 73
     2
 40
0.75
 49
0.5
 49
-0.25
  0
LTYPE
  2
BYGG-033291$0$PHANTOM
 70
     0
  3
Phantom ______  __  __  ______  __  __  ______
 72
    65
 73
     6
 40
63.5
 49
31.75
 49
-6.3499999999999988
 49
6.3499999999999988
 49
-6.3499999999999988
 49
6.3499999999999988
 49
-6.3499999999999988
  0
LTYPE
  2
BYGG-029021$0$NEWDOT
 70
     0
  3
____ . ____ . ____ . ____ . ____ . ____ . ____
 72
    65
 73
     4
 40
2.0
 49
1.0
 49
-0.5
 49
0.0
 49
-0.5
  0
LTYPE
  2
BYGG-029021$0$DASHDOT
 70
     0
  3
__ . __ . __ . __ . __ . __ . __ . __ . __ . __
 72
    65
 73
     4
 40
1.0
 49
0.5
 49
-0.25
 49
0.0
 49
-0.25
  0
LTYPE
  2
BYGG-029021$0$DASHED
 70
     0
  3
__ __ __ __ __ __ __ __ __ __ __ __ __ __ __
 72
    65
 73
     2
 40
0.75
 49
0.5
 49
-0.25
  0
LTYPE
  2
BYGG-029021$0$PHANTOM
 70
     0
  3
Phantom ______  __  __  ______  __  __  ______
 72
    65
 73
     6
 40
63.5
 49
31.75
 49
-6.3499999999999988
 49
6.3499999999999988
 49
-6.3499999999999988
 49
6.3499999999999988
 49
-6.3499999999999988
  0
LTYPE
  2
BYGG-029021$0$DASHED2
 70
     0
  3
_ _ _ _ _ _ _ _ _ _ _ _ _ _ _ _ _ _ _ _ _ _ _ _ _ _ _ _ _ _ _
 72
    65
 73
     2
 40
0.375
 49
0.25
 49
-0.125
  0
LTYPE
  2
BYGG-01409101$0$DASHDOT
 70
     0
  3
__ . __ . __ . __ . __ . __ . __ . __ . __ . __
 72
    65
 73
     4
 40
1.0
 49
0.5
 49
-0.25
 49
0.0
 49
-0.25
  0
LTYPE
  2
BYGG-01409101$0$HIDDEN
 70
     0
  3
_ _ _ _ _ _ _ _ _ _ _ _ _ _ _ _ _ _ _ _ _ _ _
 72
    65
 73
     2
 40
0.375
 49
0.25
 49
-0.125
  0
LTYPE
  2
BYGG-030601$0$NEWDOT
 70
     0
  3
____ . ____ . ____ . ____ . ____ . ____ . ____
 72
    65
 73
     4
 40
2.0
 49
1.0
 49
-0.5
 49
0.0
 49
-0.5
  0
LTYPE
  2
BYGG-030601$0$ZIGZAG
 70
     0
  3
Zig zag /\/\/\/\/\/\/\/\/\/\/\/\/\/\/\/\/\/\/\/\/\/\/\/
 72
    65
 73
     4
 40
20.32254
 49
0.00254
 49
-5.0800000000000001
 49
-10.16
 49
-5.0800000000000001
  0
LTYPE
  2
BYGG-025060$0$DASHDOT
 70
     0
  3
__ . __ . __ . __ . __ . __ . __ . __ . __ . __
 72
    65
 73
     4
 40
1.0
 49
0.5
 49
-0.25
 49
0.0
 49
-0.25
  0
LTYPE
  2
BYGG-027036$0$ALF
 70
     0
  3
*alf,- - - - - - - - - - - - -
 72
    65
 73
     2
 40
0.3
 49
0.1
 49
-0.2
  0
LTYPE
  2
BYGG-027036$0$CENTRE2
 70
     0
  3
___ _ ___ _ ___ _ ___ _ ___ _ ___ _ ___ _ ___ _
 72
    65
 73
     4
 40
28.574999999999999
 49
19.050000000000001
 49
-3.1749999999999989
 49
3.1749999999999989
 49
-3.1749999999999989
  0
LTYPE
  2
BYGG-029021$0$PHANTOM2
 70
     0
  3
Phantom (.5x) ___ _ _ ___ _ _ ___ _ _ ___ _ _
 72
    65
 73
     6
 40
1.25
 49
0.625
 49
-0.125
 49
0.125
 49
-0.125
 49
0.125
 49
-0.125
  0
LTYPE
  2
BYGG-024800$0$DASHDOT
 70
     0
  3
__ . __ . __ . __ . __ . __ . __ . __ . __ . __
 72
    65
 73
     4
 40
1.0
 49
0.5
 49
-0.25
 49
0.0
 49
-0.25
  0
LTYPE
  2
BYGG-01409101$0$PHANTOM2
 70
     0
  3
Phantom (.5x) ___ _ _ ___ _ _ ___ _ _ ___ _ _
 72
    65
 73
     6
 40
1.25
 49
0.625
 49
-0.125
 49
0.125
 49
-0.125
 49
0.125
 49
-0.125
  0
LTYPE
  2
BYGG-030601$0$PHANTOM2
 70
     0
  3
Phantom (.5x) ___ _ _ ___ _ _ ___ _ _ ___ _ _
 72
    65
 73
     6
 40
1.25
 49
0.625
 49
-0.125
 49
0.125
 49
-0.125
 49
0.125
 49
-0.125
  0
LTYPE
  2
BYGG-014090$0$PHANTOM2
 70
     0
  3
Phantom (.5x) ___ _ _ ___ _ _ ___ _ _ ___ _ _
 72
    65
 73
     6
 40
1.25
 49
0.625
 49
-0.125
 49
0.125
 49
-0.125
 49
0.125
 49
-0.125
  0
LTYPE
  2
BYGG-01409301$0$PHANTOM2
 70
     0
  3
Phantom (.5x) ___ _ _ ___ _ _ ___ _ _ ___ _ _
 72
    65
 73
     6
 40
1.25
 49
0.625
 49
-0.125
 49
0.125
 49
-0.125
 49
0.125
 49
-0.125
  0
ENDTAB
  0
TABLE
  2
LAYER
 70
   225
  0
LAYER
  2
0
 70
     0
 62
     7
  6
CONTINUOUS
  0
LAYER
  2
DEFPOINTS
 70
     0
 62
     7
  6
CONTINUOUS
  0
LAYER
  2
SAPA_ARTIKELNR
 70
     0
 62
     4
  6
CONTINUOUS
  0
LAYER
  2
SAPA_LIGHT
 70
     1
 62
     1
  6
CONTINUOUS
  0
LAYER
  2
SAPA_PROFIL
 70
     0
 62
     7
  6
CONTINUOUS
  0
LAYER
  2
BYGG-027036$0$DIM
 70
     4
 62
     5
  6
CONTINUOUS
  0
LAYER
  2
BYGG-027036$0$KON
 70
     4
 62
     7
  6
CONTINUOUS
  0
LAYER
  2
SAPA_ISOLATOR
 70
     0
 62
     4
  6
CONTINUOUS
  0
LAYER
  2
SAPA_MATT
 70
     0
 62
     1
  6
CONTINUOUS
  0
LAYER
  2
SAPA_GLAS
 70
     0
 62
     4
  6
CONTINUOUS
  0
LAYER
  2
SAPA_FOGBAND
 70
     0
 62
     2
  6
CONTINUOUS
  0
ENDTAB
  0
TABLE
  2
STYLE
 70
    57
  0
STYLE
  2
STANDARD
 70
     0
 40
0.0
 41
1.0
 50
0.0
 71
     0
 42
0.2
  3
txt
  4

  0
STYLE
  2
ISO
 70
     0
 40
0.0
 41
1.0
 50
0.0
 71
     0
 42
3.5
  3
txt
  4

  0
STYLE
  2

 70
     1
 40
0.0
 41
1.0
 50
0.0
 71
     0
 42
0.2
  3
ltypeshp.shx
  4

  0
STYLE
  2
BYGG-019441$0$STANDARD
 70
     0
 40
0.0
 41
1.0
 50
0.0
 71
     0
 42
0.2
  3
txt
  4

  0
STYLE
  2
BYGG-019441$0$ISO
 70
     0
 40
0.0
 41
1.0
 50
0.0
 71
     0
 42
3.5
  3
txt
  4

  0
STYLE
  2
BYGG-019441$0$ANNOTATIVE
 70
     0
 40
0.0
 41
1.0
 50
0.0
 71
     0
 42
0.2
  3
txt
  4

  0
STYLE
  2
BYGG-01473802$0$STANDARD
 70
     0
 40
0.0
 41
1.0
 50
0.0
 71
     0
 42
0.2
  3
txt
  4

  0
STYLE
  2
BYGG-01473802$0$ISO
 70
     0
 40
0.0
 41
1.0
 50
0.0
 71
     0
 42
2.5
  3
isocp3.shx
  4

  0
STYLE
  2
BYGG-019435$0$STANDARD
 70
     0
 40
0.0
 41
1.0
 50
0.0
 71
     0
 42
0.2
  3
txt
  4

  0
STYLE
  2
BYGG-019435$0$ISO
 70
     0
 40
0.0
 41
1.0
 50
0.0
 71
     0
 42
3.5
  3
txt
  4

  0
STYLE
  2
BYGG-014352$0$STANDARD
 70
     0
 40
0.0
 41
1.0
 50
0.0
 71
     0
 42
0.2
  3
txt
  4

  0
STYLE
  2
BYGG-014352$0$ISO
 70
     0
 40
0.0
 41
1.0
 50
0.0
 71
     0
 42
3.5
  3
isocp3.shx
  4

  0
STYLE
  2
BYGG-014014$0$STANDARD
 70
     0
 40
0.0
 41
1.0
 50
0.0
 71
     0
 42
0.2
  3
txt
  4

  0
STYLE
  2
BYGG-019438$0$STANDARD
 70
     0
 40
0.0
 41
1.0
 50
0.0
 71
     0
 42
0.2
  3
txt
  4

  0
STYLE
  2
BYGG-019438$0$ISO
 70
     0
 40
0.0
 41
1.0
 50
0.0
 71
     0
 42
3.5
  3
txt
  4

  0
STYLE
  2
BYGG-033291$0$STANDARD
 70
     0
 40
0.0
 41
1.0
 50
0.0
 71
     0
 42
0.2
  3
txt
  4

  0
STYLE
  2
BYGG-033291$0$ISO
 70
     0
 40
0.0
 41
1.0
 50
0.0
 71
     0
 42
3.5
  3
txt
  4

  0
STYLE
  2
BYGG-025060$0$STANDARD
 70
     0
 40
0.0
 41
1.0
 50
0.0
 71
     0
 42
0.2
  3
txt
  4

  0
STYLE
  2
BYGG-025060$0$ISO
 70
     0
 40
0.0
 41
1.0
 50
0.0
 71
     0
 42
3.5
  3
txt
  4

  0
STYLE
  2
BYGG-012216$0$STANDARD
 70
     0
 40
0.0
 41
1.0
 50
0.0
 71
     0
 42
0.2
  3
txt
  4

  0
STYLE
  2
BYGG-012216$0$ISO
 70
     0
 40
0.0
 41
1.0
 50
0.0
 71
     0
 42
3.5
  3
txt
  4

  0
STYLE
  2
BYGG-028980$0$STANDARD
 70
     0
 40
0.0
 41
1.0
 50
0.0
 71
     0
 42
0.2
  3
txt
  4

  0
STYLE
  2
BYGG-028980$0$ISO
 70
     0
 40
0.0
 41
1.0
 50
0.0
 71
     0
 42
3.5
  3
txt
  4

  0
STYLE
  2
BYGG-033168$0$STANDARD
 70
     0
 40
0.0
 41
1.0
 50
0.0
 71
     0
 42
0.2
  3
txt
  4

  0
STYLE
  2
BYGG-033168$0$ISO
 70
     0
 40
0.0
 41
1.0
 50
0.0
 71
     0
 42
3.5
  3
txt
  4

  0
STYLE
  2
BYGG-027036$0$STANDARD
 70
     0
 40
0.0
 41
1.0
 50
0.0
 71
     0
 42
0.2
  3
txt
  4

  0
STYLE
  2
BYGG-027036$0$ISO
 70
     0
 40
0.0
 41
1.0
 50
0.0
 71
     0
 42
3.5
  3
txt
  4

  0
STYLE
  2
BYGG-027036$0$SIMPLEX
 70
     0
 40
0.0
 41
1.0
 50
0.0
 71
     0
 42
0.4
  3
simplex
  4

  0
STYLE
  2
BYGG-027036$0$ITALIC
 70
     0
 40
0.0
 41
1.0
 50
0.0
 71
     0
 42
0.4
  3
ITALIC
  4

  0
STYLE
  2
BYGG-027036$0$SYMBOL1
 70
     0
 40
0.0
 41
1.0
 50
0.0
 71
     0
 42
0.2
  3
SIMPLEX.SHX
  4

  0
STYLE
  2
BYGG-027036$0$MONOTXT
 70
     0
 40
0.2
 41
1.0
 50
0.0
 71
     0
 42
0.2
  3
MONOTXT
  4

  0
STYLE
  2
BYGG-027036$0$TIMES
 70
     0
 40
0.0
 41
1.0
 50
0.0
 71
     0
 42
100.0
  3
txt
  4

  0
STYLE
  2
BYGG-027036$0$ROMANS
 70
     0
 40
0.0
 41
1.0
 50
0.0
 71
     0
 42
5.0
  3
romans
  4

  0
STYLE
  2
BYGG-027036$0$SEACAD_ARIAL
 70
     0
 40
0.0
 41
1.0
 50
0.0
 71
     0
 42
0.2
  3
txt
  4

  0
STYLE
  2
BYGG-027036$0$ANNOTATIVE
 70
     0
 40
0.0
 41
1.0
 50
0.0
 71
     0
 42
0.2
  3
txt
  4

  0
STYLE
  2
BYGG-019610$0$STANDARD
 70
     0
 40
0.0
 41
1.0
 50
0.0
 71
     0
 42
0.2
  3
txt
  4

  0
STYLE
  2
BYGG-019610$0$ISO
 70
     0
 40
0.0
 41
1.0
 50
0.0
 71
     0
 42
3.5
  3
txt
  4

  0
STYLE
  2
BYGG-029021$0$STANDARD
 70
     0
 40
0.0
 41
1.0
 50
0.0
 71
     0
 42
0.2
  3
txt
  4

  0
STYLE
  2
BYGG-029021$0$ISO
 70
     0
 40
0.0
 41
1.0
 50
0.0
 71
     0
 42
3.5
  3
txt
  4

  0
STYLE
  2
BYGG-029021$0$ANNOTATION
 70
     0
 40
0.0
 41
1.0
 50
0.0
 71
     0
 42
0.2
  3
txt
  4

  0
STYLE
  2
BYGG-029021$0$COTATION
 70
     0
 40
0.0
 41
1.0
 50
0.0
 71
     0
 42
0.2
  3
txt
  4

  0
STYLE
  2
BYGG-029021$0$ANNOTATIVE
 70
     0
 40
0.0
 41
1.0
 50
0.0
 71
     0
 42
0.2
  3
txt
  4

  0
STYLE
  2
BYGG-024800$0$STANDARD
 70
     0
 40
0.0
 41
1.0
 50
0.0
 71
     0
 42
0.2
  3
txt
  4

  0
STYLE
  2
BYGG-024800$0$ISO
 70
     0
 40
0.0
 41
1.0
 50
0.0
 71
     0
 42
3.5
  3
txt
  4

  0
STYLE
  2
BYGG-024807$0$STANDARD
 70
     0
 40
0.0
 41
1.0
 50
0.0
 71
     0
 42
0.2
  3
txt
  4

  0
STYLE
  2
BYGG-024807$0$ISO
 70
     0
 40
0.0
 41
1.0
 50
0.0
 71
     0
 42
3.5
  3
txt
  4

  0
STYLE
  2
BYGG-024807$0$ANNOTATIVE
 70
     0
 40
0.0
 41
1.0
 50
0.0
 71
     0
 42
0.2
  3
txt
  4

  0
STYLE
  2
BYGG-01409101$0$STANDARD
 70
     0
 40
0.0
 41
1.0
 50
0.0
 71
     0
 42
0.4
  3
txt
  4

  0
STYLE
  2
BYGG-01409101$0$SIMPLEX
 70
     0
 40
0.0
 41
1.0
 50
0.0
 71
     0
 42
0.2
  3
simplex
  4

  0
STYLE
  2
BYGG-036634$0$STANDARD
 70
     0
 40
0.0
 41
1.0
 50
0.0
 71
     0
 42
0.2
  3
txt
  4

  0
STYLE
  2
BYGG-036634$0$ISO
 70
     0
 40
0.0
 41
1.0
 50
0.0
 71
     0
 42
3.5
  3
txt
  4

  0
STYLE
  2
BYGG-030601$0$STANDARD
 70
     0
 40
0.0
 41
1.0
 50
0.0
 71
     0
 42
0.2
  3
txt
  4

  0
STYLE
  2
BYGG-030601$0$ISO
 70
     0
 40
0.0
 41
1.0
 50
0.0
 71
     0
 42
3.5
  3
txt
  4

  0
STYLE
  2
BYGG-014090$0$STANDARD
 70
     0
 40
0.0
 41
1.0
 50
0.0
 71
     0
 42
0.2
  3
txt
  4

  0
STYLE
  2
BYGG-014090$0$SIMPLEX
 70
     0
 40
0.0
 41
1.0
 50
0.0
 71
     0
 42
0.2
  3
simplex
  4

  0
STYLE
  2
BYGG-01409301$0$STANDARD
 70
     0
 40
0.0
 41
1.0
 50
0.0
 71
     0
 42
0.4
  3
txt
  4

  0
STYLE
  2
BYGG-01409301$0$ANNOTATIVE
 70
     0
 40
0.0
 41
1.0
 50
0.0
 71
     0
 42
0.4
  3
txt
  4

  0
ENDTAB
  0
TABLE
  2
VIEW
 70
     0
  0
ENDTAB
  0
TABLE
  2
UCS
 70
     0
  0
ENDTAB
  0
TABLE
  2
APPID
 70
    52
  0
APPID
  2
ACAD
 70
     0
  0
APPID
  2
ACAD_DSTYLE_DIMTEXT_FILL
 70
     0
  0
APPID
  2
ACAD_DSTYLE_DIMEXT_LENGTH
 70
     0
  0
APPID
  2
ACAD_DSTYLE_DIMEXT_ENABLED
 70
     0
  0
APPID
  2
ACAD_DSTYLE_DIM_LINETYPE
 70
     0
  0
APPID
  2
ACAD_DSTYLE_DIM_EXT1_LINETYPE
 70
     0
  0
APPID
  2
ACAD_DSTYLE_DIM_EXT2_LINETYPE
 70
     0
  0
APPID
  2
ACAD_DSTYLE_DIMJOGGED_JOGA
 70
     0
  0
APPID
  2
ACAD_DSTYLE_DIMARC_LENGTH_
 70
     0
  0
APPID
  2
ACAD_PSEXT
 70
     0
  0
APPID
  2
ACAD_MLEADERVER
 70
     0
  0
APPID
  2
AME_SOL
 70
     0
  0
APPID
  2
DCO15
 70
     0
  0
APPID
  2
AMG_ARCHIVE11
 70
     0
  0
APPID
  2
ACAECLAYERSTANDARD
 70
     0
  0
APPID
  2
ACADANNOTATIVE
 70
     0
  0
APPID
  2
ACAD_EXEMPT_FROM_CAD_STANDARDS
 70
     0
  0
APPID
  2
ACDBDYNAMICBLOCKGUID
 70
     0
  0
APPID
  2
ACDBBLOCKREPETAG
 70
     0
  0
APPID
  2
ACAD_DSTYLE_DIMJAG
 70
     0
  0
APPID
  2
ACAD_DSTYLE_DIMTALN
 70
     0
  0
APPID
  2
RC_PROFILE
 70
     0
  0
APPID
  2
ACAUTHENVIRON
 70
     0
  0
APPID
  2
ACDBDYNAMICBLOCKTRUENAME
 70
     0
  0
APPID
  2
ACAD_NAV_VCDISPLAY
 70
     0
  0
APPID
  2
ACCMTRANSPARENCY
 70
     0
  0
APPID
  2
PE_URL
 70
     0
  0
APPID
  2
ACDBBLOCKREPBTAG
 70
     0
  0
APPID
  2
ACAD_DSTYLE_DIMRADIAL_EXTENSION
 70
     0
  0
APPID
  2
ACLAYERTOOLS
 70
     0
  0
APPID
  2
ACAD_OBJECT_CHANGE_GUID
 70
     0
  0
APPID
  2
AVE_RENDER
 70
     0
  0
APPID
  2
AVE_ENTITY_MATERIAL
 70
     0
  0
APPID
  2
AVE_FINISH
 70
     0
  0
APPID
  2
AVE_MATERIAL
 70
     0
  0
APPID
  2
AVE_GLOBAL
 70
     0
  0
APPID
  2
4M_RENDER
 70
     0
  0
APPID
  2
LIBMAN
 70
     0
  0
APPID
  2
AUTOBUILD
 70
     0
  0
APPID
  2
GRADIENTCOLOR1ACI
 70
     0
  0
APPID
  2
GRADIENTCOLOR2ACI
 70
     0
  0
APPID
  2
GENIUS_GENREC_14
 70
     0
  0
APPID
  2
GENIUS_GENOBJ-N-REC_13
 70
     0
  0
APPID
  2
GENIUS_GENODEF_13
 70
     0
  0
APPID
  2
GENIUS_GENTRA_14
 70
     0
  0
APPID
  2
GENIUS_GENOREF_13
 70
     0
  0
APPID
  2
GENIUS_GENSCREG_15
 70
     0
  0
APPID
  2
GENIUS_GENOBJ-N-SDF_13
 70
     0
  0
APPID
  2
ACADANNOPO
 70
     0
  0
APPID
  2
ACADBPTGRAPHNODEID
 70
     0
  0
APPID
  2
ACDBATTR
 70
     0
  0
APPID
  2
AEC_XDATA_BOUND_SPACE
 70
     0
  0
ENDTAB
  0
TABLE
  2
DIMSTYLE
 70
    49
  0
DIMSTYLE
  2
STANDARD
 70
     0
  3

  4

  5

  6

  7

 40
1.0
 41
0.18
 42
0.0625
 43
0.38
 44
0.18
 45
0.0
 46
0.0
 47
0.0
 48
0.0
140
0.18
141
0.09
142
0.0
143
25.399999999999999
144
1.0
145
0.0
146
1.0
147
0.09
 71
     0
 72
     0
 73
     1
 74
     1
 75
     0
 76
     0
 77
     0
 78
     0
170
     0
171
     2
172
     0
173
     0
174
     0
175
     0
176
     0
177
     0
178
     0
  0
DIMSTYLE
  2
MASKIN
 70
     0
  3

  4

  5

  6

  7

 40
0.0
 41
3.0
 42
1.5
 43
10.0
 44
1.5
 45
0.0
 46
0.0
 47
0.0
 48
0.0
140
3.0
141
-5.0
142
0.0
143
25.399999999999999
144
-1.0
145
0.0
146
1.0
147
1.0
 71
     0
 72
     0
 73
     0
 74
     0
 75
     0
 76
     0
 77
     1
 78
     8
170
     0
171
     0
172
     1
173
     0
174
     0
175
     0
176
   256
177
   256
178
     2
  0
DIMSTYLE
  2
BYGG-019441$0$STANDARD
 70
     0
  3

  4

  5

  6

  7

 40
1.0
 41
0.18
 42
0.0625
 43
0.38
 44
0.18
 45
0.0
 46
0.0
 47
0.0
 48
0.0
140
0.18
141
0.09
142
0.0
143
25.399999999999999
144
1.0
145
0.0
146
1.0
147
0.09
 71
     0
 72
     0
 73
     1
 74
     1
 75
     0
 76
     0
 77
     0
 78
     0
170
     0
171
     2
172
     0
173
     0
174
     0
175
     0
176
     0
177
     0
178
     0
  0
DIMSTYLE
  2
BYGG-019441$0$MASKIN
 70
     0
  3

  4

  5

  6

  7

 40
0.0
 41
3.0
 42
1.5
 43
10.0
 44
1.5
 45
0.0
 46
0.0
 47
0.0
 48
0.0
140
3.0
141
-5.0
142
0.0
143
25.399999999999999
144
-1.0
145
0.0
146
1.0
147
1.0
 71
     0
 72
     0
 73
     0
 74
     0
 75
     0
 76
     0
 77
     1
 78
     8
170
     0
171
     0
172
     1
173
     0
174
     0
175
     0
176
   256
177
   256
178
     2
  0
DIMSTYLE
  2
BYGG-019441$0$ANNOTATIVE
 70
     0
  3

  4

  5

  6

  7

 40
1.0
 41
0.18
 42
0.0625
 43
0.38
 44
0.18
 45
0.0
 46
0.0
 47
0.0
 48
0.0
140
0.18
141
0.09
142
0.0
143
25.399999999999999
144
1.0
145
0.0
146
1.0
147
0.09
 71
     0
 72
     0
 73
     1
 74
     1
 75
     0
 76
     0
 77
     0
 78
     0
170
     0
171
     2
172
     0
173
     0
174
     0
175
     0
176
     0
177
     0
178
     0
  0
DIMSTYLE
  2
BYGG-01473802$0$STANDARD
 70
     0
  3

  4

  5

  6

  7

 40
1.0
 41
0.18
 42
0.0625
 43
0.38
 44
0.18
 45
0.0
 46
0.0
 47
0.0
 48
0.0
140
0.18
141
0.09
142
0.0
143
25.399999999999999
144
1.0
145
0.0
146
1.0
147
0.09
 71
     0
 72
     0
 73
     1
 74
     1
 75
     0
 76
     0
 77
     0
 78
     0
170
     0
171
     2
172
     0
173
     0
174
     0
175
     0
176
     0
177
     0
178
     0
  0
DIMSTYLE
  2
BYGG-01473802$0$MASKIN
 70
     0
  3

  4

  5

  6

  7

 40
0.0
 41
3.0
 42
1.5
 43
10.0
 44
1.5
 45
0.0
 46
0.0
 47
0.0
 48
0.0
140
3.0
141
-5.0
142
0.0
143
25.399999999999999
144
-1.0
145
0.0
146
1.0
147
1.0
 71
     0
 72
     0
 73
     0
 74
     1
 75
     0
 76
     0
 77
     1
 78
     8
170
     0
171
     0
172
     1
173
     0
174
     0
175
     0
176
   256
177
   256
178
     2
  0
DIMSTYLE
  2
BYGG-019435$0$STANDARD
 70
     0
  3

  4

  5

  6

  7

 40
1.0
 41
0.18
 42
0.0625
 43
0.38
 44
0.18
 45
0.0
 46
0.0
 47
0.0
 48
0.0
140
0.18
141
0.09
142
0.0
143
25.399999999999999
144
1.0
145
0.0
146
1.0
147
0.09
 71
     0
 72
     0
 73
     1
 74
     1
 75
     0
 76
     0
 77
     0
 78
     0
170
     0
171
     2
172
     0
173
     0
174
     0
175
     0
176
     0
177
     0
178
     0
  0
DIMSTYLE
  2
BYGG-019435$0$MASKIN
 70
     0
  3

  4

  5

  6

  7

 40
0.0
 41
3.0
 42
1.5
 43
10.0
 44
1.5
 45
0.0
 46
0.0
 47
0.0
 48
0.0
140
3.0
141
-5.0
142
0.0
143
25.399999999999999
144
-1.0
145
0.0
146
1.0
147
1.0
 71
     0
 72
     0
 73
     0
 74
     0
 75
     0
 76
     0
 77
     1
 78
     8
170
     0
171
     0
172
     1
173
     0
174
     0
175
     0
176
   256
177
   256
178
     2
  0
DIMSTYLE
  2
BYGG-014352$0$MASKIN
 70
     0
  3

  4

  5

  6

  7

 40
0.0
 41
3.0
 42
1.5
 43
10.0
 44
1.5
 45
0.0
 46
0.0
 47
0.0
 48
0.0
140
3.0
141
-5.0
142
0.0
143
25.399999999999999
144
-1.0
145
0.0
146
1.0
147
1.0
 71
     0
 72
     0
 73
     0
 74
     0
 75
     0
 76
     0
 77
     1
 78
     8
170
     0
171
     0
172
     1
173
     0
174
     0
175
     0
176
   256
177
   256
178
   256
  0
DIMSTYLE
  2
BYGG-014014$0$STANDARD
 70
     0
  3

  4

  5

  6

  7

 40
1.0
 41
0.18
 42
0.0625
 43
0.38
 44
0.18
 45
0.0
 46
0.0
 47
0.0
 48
0.0
140
0.18
141
0.09
142
0.0
143
25.399999999999999
144
1.0
145
0.0
146
1.0
147
0.09
 71
     0
 72
     0
 73
     1
 74
     1
 75
     0
 76
     0
 77
     0
 78
     0
170
     0
171
     2
172
     0
173
     0
174
     0
175
     0
176
     0
177
     0
178
     0
  0
DIMSTYLE
  2
BYGG-019438$0$STANDARD
 70
     0
  3

  4

  5

  6

  7

 40
1.0
 41
0.18
 42
0.0625
 43
0.38
 44
0.18
 45
0.0
 46
0.0
 47
0.0
 48
0.0
140
0.18
141
0.09
142
0.0
143
25.399999999999999
144
1.0
145
0.0
146
1.0
147
0.09
 71
     0
 72
     0
 73
     1
 74
     1
 75
     0
 76
     0
 77
     0
 78
     0
170
     0
171
     2
172
     0
173
     0
174
     0
175
     0
176
     0
177
     0
178
     0
  0
DIMSTYLE
  2
BYGG-019438$0$MASKIN
 70
     0
  3

  4

  5

  6

  7

 40
0.0
 41
3.0
 42
1.5
 43
10.0
 44
1.5
 45
0.0
 46
0.0
 47
0.0
 48
0.0
140
3.0
141
-5.0
142
0.0
143
25.399999999999999
144
-1.0
145
0.0
146
1.0
147
1.0
 71
     0
 72
     0
 73
     0
 74
     0
 75
     0
 76
     0
 77
     1
 78
     8
170
     0
171
     0
172
     1
173
     0
174
     0
175
     0
176
   256
177
   256
178
     2
  0
DIMSTYLE
  2
BYGG-033291$0$STANDARD
 70
     0
  3

  4

  5

  6

  7

 40
1.0
 41
0.18
 42
0.0625
 43
0.38
 44
0.18
 45
0.0
 46
0.0
 47
0.0
 48
0.0
140
0.18
141
0.09
142
0.0
143
25.399999999999999
144
1.0
145
0.0
146
1.0
147
0.09
 71
     0
 72
     0
 73
     1
 74
     1
 75
     0
 76
     0
 77
     0
 78
     0
170
     0
171
     2
172
     0
173
     0
174
     0
175
     0
176
     0
177
     0
178
     0
  0
DIMSTYLE
  2
BYGG-033291$0$MASKIN
 70
     0
  3

  4

  5

  6

  7

 40
0.0
 41
3.0
 42
1.5
 43
10.0
 44
1.5
 45
0.0
 46
0.0
 47
0.0
 48
0.0
140
3.0
141
-5.0
142
0.0
143
25.399999999999999
144
-1.0
145
0.0
146
1.0
147
1.0
 71
     0
 72
     0
 73
     0
 74
     0
 75
     0
 76
     0
 77
     1
 78
     8
170
     0
171
     0
172
     1
173
     0
174
     0
175
     0
176
   256
177
   256
178
     2
  0
DIMSTYLE
  2
BYGG-025060$0$MASKIN
 70
     0
  3

  4

  5

  6

  7

 40
0.0
 41
3.0
 42
1.5
 43
10.0
 44
1.5
 45
0.0
 46
0.0
 47
0.0
 48
0.0
140
3.0
141
-5.0
142
0.0
143
25.399999999999999
144
-1.0
145
0.0
146
1.0
147
1.0
 71
     0
 72
     0
 73
     0
 74
     0
 75
     0
 76
     0
 77
     1
 78
     8
170
     0
171
     0
172
     1
173
     0
174
     0
175
     0
176
   256
177
   256
178
     2
  0
DIMSTYLE
  2
BYGG-025060$0$STANDARD
 70
     0
  3

  4

  5

  6

  7

 40
1.0
 41
0.18
 42
0.0625
 43
0.38
 44
0.18
 45
0.0
 46
0.0
 47
0.0
 48
0.0
140
0.18
141
0.09
142
0.0
143
25.399999999999999
144
1.0
145
0.0
146
1.0
147
0.09
 71
     0
 72
     0
 73
     1
 74
     1
 75
     0
 76
     0
 77
     0
 78
     0
170
     0
171
     2
172
     0
173
     0
174
     0
175
     0
176
     0
177
     0
178
     0
  0
DIMSTYLE
  2
BYGG-012216$0$MASKIN
 70
     0
  3

  4

  5

  6

  7

 40
0.0
 41
3.0
 42
1.5
 43
10.0
 44
1.5
 45
0.0
 46
0.0
 47
0.0
 48
0.0
140
3.0
141
-5.0
142
0.0
143
25.399999999999999
144
-1.0
145
0.0
146
1.0
147
1.0
 71
     0
 72
     0
 73
     0
 74
     0
 75
     0
 76
     0
 77
     1
 78
     8
170
     0
171
     0
172
     1
173
     0
174
     0
175
     0
176
   256
177
   256
178
     2
  0
DIMSTYLE
  2
BYGG-012216$0$STANDARD
 70
     0
  3

  4

  5

  6

  7

 40
1.0
 41
0.18
 42
0.0625
 43
0.38
 44
0.18
 45
0.0
 46
0.0
 47
0.0
 48
0.0
140
0.18
141
0.09
142
0.0
143
25.399999999999999
144
1.0
145
0.0
146
1.0
147
0.09
 71
     0
 72
     0
 73
     1
 74
     1
 75
     0
 76
     0
 77
     0
 78
     0
170
     0
171
     2
172
     0
173
     0
174
     0
175
     0
176
     0
177
     0
178
     0
  0
DIMSTYLE
  2
BYGG-028980$0$STANDARD
 70
     0
  3

  4

  5

  6

  7

 40
1.0
 41
0.18
 42
0.0625
 43
0.38
 44
0.18
 45
0.0
 46
0.0
 47
0.0
 48
0.0
140
0.18
141
0.09
142
0.0
143
25.399999999999999
144
1.0
145
0.0
146
1.0
147
0.09
 71
     0
 72
     0
 73
     1
 74
     1
 75
     0
 76
     0
 77
     0
 78
     0
170
     0
171
     2
172
     0
173
     0
174
     0
175
     0
176
     0
177
     0
178
     0
  0
DIMSTYLE
  2
BYGG-028980$0$MASKIN
 70
     0
  3

  4

  5

  6

  7

 40
0.0
 41
3.0
 42
1.5
 43
10.0
 44
1.5
 45
0.0
 46
0.0
 47
0.0
 48
0.0
140
3.0
141
-5.0
142
0.0
143
25.399999999999999
144
-1.0
145
0.0
146
1.0
147
1.0
 71
     0
 72
     0
 73
     0
 74
     0
 75
     0
 76
     0
 77
     1
 78
     8
170
     0
171
     0
172
     1
173
     0
174
     0
175
     0
176
   256
177
   256
178
     2
  0
DIMSTYLE
  2
BYGG-033168$0$STANDARD
 70
     0
  3

  4

  5

  6

  7

 40
1.0
 41
0.18
 42
0.0625
 43
0.38
 44
0.18
 45
0.0
 46
0.0
 47
0.0
 48
0.0
140
0.18
141
0.09
142
0.0
143
25.399999999999999
144
1.0
145
0.0
146
1.0
147
0.09
 71
     0
 72
     0
 73
     1
 74
     1
 75
     0
 76
     0
 77
     0
 78
     0
170
     0
171
     2
172
     0
173
     0
174
     0
175
     0
176
     0
177
     0
178
     0
  0
DIMSTYLE
  2
BYGG-033168$0$MASKIN
 70
     0
  3

  4

  5

  6

  7

 40
0.0
 41
3.0
 42
1.5
 43
10.0
 44
1.5
 45
0.0
 46
0.0
 47
0.0
 48
0.0
140
3.0
141
-5.0
142
0.0
143
25.399999999999999
144
-1.0
145
0.0
146
1.0
147
1.0
 71
     0
 72
     0
 73
     0
 74
     0
 75
     0
 76
     0
 77
     1
 78
     8
170
     0
171
     0
172
     1
173
     0
174
     0
175
     0
176
   256
177
   256
178
     2
  0
DIMSTYLE
  2
BYGG-027036$0$STANDARD
 70
     0
  3

  4

  5

  6

  7

 40
1.0
 41
0.18
 42
0.0625
 43
0.38
 44
0.18
 45
0.0
 46
0.0
 47
0.0
 48
0.0
140
0.18
141
0.09
142
0.0
143
25.399999999999999
144
1.0
145
0.0
146
1.0
147
0.09
 71
     0
 72
     0
 73
     1
 74
     1
 75
     0
 76
     0
 77
     0
 78
     0
170
     0
171
     2
172
     0
173
     0
174
     0
175
     0
176
     0
177
     0
178
     0
  0
DIMSTYLE
  2
BYGG-027036$0$MASKIN
 70
     0
  3

  4

  5

  6

  7

 40
0.0
 41
3.0
 42
1.5
 43
10.0
 44
1.5
 45
0.0
 46
0.0
 47
0.0
 48
0.0
140
3.0
141
-5.0
142
0.0
143
25.399999999999999
144
-1.0
145
0.0
146
1.0
147
1.0
 71
     0
 72
     0
 73
     0
 74
     0
 75
     0
 76
     0
 77
     1
 78
     8
170
     0
171
     0
172
     1
173
     0
174
     0
175
     0
176
   256
177
   256
178
     2
  0
DIMSTYLE
  2
BYGG-027036$0$STANDARD$4
 70
     0
  3

  4

  5

  6

  7

 40
1.0
 41
2.5
 42
2.0
 43
3.75
 44
1.0
 45
0.0
 46
0.0
 47
0.0
 48
0.0
140
5.0
141
3.0
142
0.0
143
0.0394
144
1.0
145
1.0
146
1.0
147
1.0
 71
     0
 72
     0
 73
     1
 74
     0
 75
     0
 76
     0
 77
     1
 78
     8
170
     0
171
     2
172
     1
173
     0
174
     0
175
     0
176
     5
177
     5
178
     5
  0
DIMSTYLE
  2
BYGG-027036$0$STANDARD$2
 70
     0
  3

  4

  5

  6

  7

 40
1.0
 41
2.5
 42
2.0
 43
3.75
 44
1.0
 45
0.0
 46
0.0
 47
0.0
 48
0.0
140
5.0
141
3.0
142
0.0
143
0.0394
144
1.0
145
1.0
146
1.0
147
1.0
 71
     0
 72
     0
 73
     1
 74
     0
 75
     0
 76
     0
 77
     1
 78
     8
170
     0
171
     2
172
     1
173
     0
174
     0
175
     0
176
     5
177
     5
178
     5
  0
DIMSTYLE
  2
BYGG-027036$0$DMST_1
 70
     0
  3

  4

  5

  6

  7

 40
1.0
 41
0.3500000000000001
 42
0.0
 43
7.0
 44
0.2
 45
0.0
 46
0.0
 47
0.0
 48
0.0
140
0.3500000000000001
141
0.0
142
0.0
143
25.399999999999999
144
1.0
145
0.0
146
1.0
147
0.09
 71
     0
 72
     0
 73
     0
 74
     0
 75
     0
 76
     0
 77
     1
 78
     9
170
     0
171
     2
172
     0
173
     0
174
     0
175
     0
176
     1
177
     1
178
     2
  0
DIMSTYLE
  2
BYGG-027036$0$ANNOTATIVE
 70
     0
  3

  4

  5

  6

  7

 40
1.0
 41
0.18
 42
0.0625
 43
0.38
 44
0.18
 45
0.0
 46
0.0
 47
0.0
 48
0.0
140
0.18
141
0.09
142
0.0
143
25.399999999999999
144
1.0
145
0.0
146
1.0
147
0.09
 71
     0
 72
     0
 73
     1
 74
     1
 75
     0
 76
     0
 77
     0
 78
     0
170
     0
171
     2
172
     0
173
     0
174
     0
175
     0
176
     0
177
     0
178
     0
  0
DIMSTYLE
  2
BYGG-019610$0$STANDARD
 70
     0
  3

  4

  5

  6

  7

 40
1.0
 41
0.18
 42
0.0625
 43
0.38
 44
0.18
 45
0.0
 46
0.0
 47
0.0
 48
0.0
140
0.18
141
0.09
142
0.0
143
25.399999999999999
144
1.0
145
0.0
146
1.0
147
0.09
 71
     0
 72
     0
 73
     1
 74
     1
 75
     0
 76
     0
 77
     0
 78
     0
170
     0
171
     2
172
     0
173
     0
174
     0
175
     0
176
     0
177
     0
178
     0
  0
DIMSTYLE
  2
BYGG-019610$0$MASKIN
 70
     0
  3

  4

  5

  6

  7

 40
0.0
 41
3.0
 42
1.5
 43
10.0
 44
1.5
 45
0.0
 46
0.0
 47
0.0
 48
0.0
140
3.0
141
-5.0
142
0.0
143
25.399999999999999
144
-1.0
145
0.0
146
1.0
147
1.0
 71
     0
 72
     0
 73
     0
 74
     0
 75
     0
 76
     0
 77
     1
 78
     8
170
     0
171
     0
172
     1
173
     0
174
     0
175
     0
176
   256
177
   256
178
     2
  0
DIMSTYLE
  2
BYGG-029021$0$STANDARD
 70
     0
  3

  4

  5

  6

  7

 40
1.0
 41
0.18
 42
0.0625
 43
0.38
 44
0.18
 45
0.0
 46
0.0
 47
0.0
 48
0.0
140
0.18
141
0.09
142
0.0
143
25.399999999999999
144
1.0
145
0.0
146
1.0
147
0.09
 71
     0
 72
     0
 73
     1
 74
     1
 75
     0
 76
     0
 77
     0
 78
     0
170
     0
171
     2
172
     0
173
     0
174
     0
175
     0
176
     0
177
     0
178
     0
  0
DIMSTYLE
  2
BYGG-029021$0$MASKIN
 70
     0
  3

  4

  5

  6

  7

 40
0.0
 41
3.0
 42
1.5
 43
10.0
 44
1.5
 45
0.0
 46
0.0
 47
0.0
 48
0.0
140
3.0
141
-5.0
142
0.0
143
25.399999999999999
144
-1.0
145
0.0
146
1.0
147
1.0
 71
     0
 72
     0
 73
     0
 74
     0
 75
     0
 76
     0
 77
     1
 78
     8
170
     0
171
     0
172
     1
173
     0
174
     0
175
     0
176
   256
177
   256
178
     2
  0
DIMSTYLE
  2
BYGG-029021$0$MASKIN1
 70
     0
  3

  4

  5

  6

  7

 40
0.0
 41
3.0
 42
1.5
 43
10.0
 44
1.5
 45
0.0
 46
0.0
 47
0.0
 48
0.0
140
3.0
141
-5.0
142
0.0
143
25.399999999999999
144
-1.0
145
0.0
146
1.0
147
1.0
 71
     0
 72
     0
 73
     0
 74
     0
 75
     0
 76
     0
 77
     1
 78
     8
170
     0
171
     0
172
     1
173
     0
174
     0
175
     0
176
   256
177
   256
178
   256
  0
DIMSTYLE
  2
BYGG-029021$0$COTATION_HUT
 70
     0
  3

  4

  5

  6

  7

 40
1.0
 41
0.25
 42
0.1
 43
3.75
 44
0.18
 45
0.0
 46
0.0
 47
0.0
 48
0.0
140
0.25
141
2.5
142
0.0
143
25.399999999999999
144
1.0
145
0.05
146
0.7000000000000002
147
0.09
 71
     1
 72
     0
 73
     0
 74
     0
 75
     0
 76
     0
 77
     1
 78
     0
170
     0
171
     2
172
     1
173
     0
174
     0
175
     0
176
     0
177
     0
178
     0
  0
DIMSTYLE
  2
BYGG-029021$0$ANNOTATIVE
 70
     0
  3

  4

  5

  6

  7

 40
1.0
 41
0.18
 42
0.0625
 43
0.38
 44
0.18
 45
0.0
 46
0.0
 47
0.0
 48
0.0
140
0.18
141
0.09
142
0.0
143
25.399999999999999
144
1.0
145
0.0
146
1.0
147
0.09
 71
     0
 72
     0
 73
     1
 74
     1
 75
     0
 76
     0
 77
     0
 78
     0
170
     0
171
     2
172
     0
173
     0
174
     0
175
     0
176
     0
177
     0
178
     0
  0
DIMSTYLE
  2
BYGG-024800$0$MASKIN
 70
     0
  3

  4

  5

  6

  7

 40
0.0
 41
3.0
 42
1.5
 43
10.0
 44
1.5
 45
0.0
 46
0.0
 47
0.0
 48
0.0
140
3.0
141
-5.0
142
0.0
143
25.399999999999999
144
-1.0
145
0.0
146
1.0
147
1.0
 71
     0
 72
     0
 73
     0
 74
     0
 75
     0
 76
     0
 77
     1
 78
     8
170
     0
171
     0
172
     1
173
     0
174
     0
175
     0
176
   256
177
   256
178
     2
  0
DIMSTYLE
  2
BYGG-024800$0$STANDARD
 70
     0
  3

  4

  5

  6

  7

 40
1.0
 41
0.18
 42
0.0625
 43
0.38
 44
0.18
 45
0.0
 46
0.0
 47
0.0
 48
0.0
140
0.18
141
0.09
142
0.0
143
25.399999999999999
144
1.0
145
0.0
146
1.0
147
0.09
 71
     0
 72
     0
 73
     1
 74
     1
 75
     0
 76
     0
 77
     0
 78
     0
170
     0
171
     2
172
     0
173
     0
174
     0
175
     0
176
     0
177
     0
178
     0
  0
DIMSTYLE
  2
BYGG-024807$0$MASKIN
 70
     0
  3

  4

  5

  6

  7

 40
0.0
 41
3.0
 42
1.5
 43
10.0
 44
1.5
 45
0.0
 46
0.0
 47
0.0
 48
0.0
140
3.0
141
-5.0
142
0.0
143
25.399999999999999
144
-1.0
145
0.0
146
1.0
147
1.0
 71
     0
 72
     0
 73
     0
 74
     0
 75
     0
 76
     0
 77
     1
 78
     8
170
     0
171
     0
172
     1
173
     0
174
     0
175
     0
176
   256
177
   256
178
     2
  0
DIMSTYLE
  2
BYGG-024807$0$STANDARD
 70
     0
  3

  4

  5

  6

  7

 40
1.0
 41
0.18
 42
0.0625
 43
0.38
 44
0.18
 45
0.0
 46
0.0
 47
0.0
 48
0.0
140
0.18
141
0.09
142
0.0
143
25.399999999999999
144
1.0
145
0.0
146
1.0
147
0.09
 71
     0
 72
     0
 73
     1
 74
     1
 75
     0
 76
     0
 77
     0
 78
     0
170
     0
171
     2
172
     0
173
     0
174
     0
175
     0
176
     0
177
     0
178
     0
  0
DIMSTYLE
  2
BYGG-024807$0$ANNOTATIVE
 70
     0
  3

  4

  5

  6

  7

 40
1.0
 41
0.18
 42
0.0625
 43
0.38
 44
0.18
 45
0.0
 46
0.0
 47
0.0
 48
0.0
140
0.18
141
0.09
142
0.0
143
25.399999999999999
144
1.0
145
0.0
146
1.0
147
0.09
 71
     0
 72
     0
 73
     1
 74
     1
 75
     0
 76
     0
 77
     0
 78
     0
170
     0
171
     2
172
     0
173
     0
174
     0
175
     0
176
     0
177
     0
178
     0
  0
DIMSTYLE
  2
BYGG-01409101$0$STANDARD
 70
     0
  3

  4

  5

  6

  7

 40
1.0
 41
0.18
 42
0.0625
 43
0.38
 44
0.18
 45
0.0
 46
0.0
 47
0.0
 48
0.0
140
0.18
141
0.09
142
0.0
143
25.399999999999999
144
1.0
145
0.0
146
1.0
147
0.09
 71
     0
 72
     0
 73
     1
 74
     1
 75
     0
 76
     0
 77
     0
 78
     0
170
     0
171
     2
172
     0
173
     0
174
     0
175
     0
176
     0
177
     0
178
     0
  0
DIMSTYLE
  2
BYGG-036634$0$STANDARD
 70
     0
  3

  4

  5

  6

  7

 40
1.0
 41
0.18
 42
0.0625
 43
0.38
 44
0.18
 45
0.0
 46
0.0
 47
0.0
 48
0.0
140
0.18
141
0.09
142
0.0
143
25.399999999999999
144
1.0
145
0.0
146
1.0
147
0.09
 71
     0
 72
     0
 73
     1
 74
     1
 75
     0
 76
     0
 77
     0
 78
     0
170
     0
171
     2
172
     0
173
     0
174
     0
175
     0
176
     0
177
     0
178
     0
  0
DIMSTYLE
  2
BYGG-036634$0$MASKIN
 70
     0
  3

  4

  5

  6

  7

 40
0.0
 41
3.0
 42
1.5
 43
10.0
 44
1.5
 45
0.0
 46
0.0
 47
0.0
 48
0.0
140
3.0
141
-5.0
142
0.0
143
25.399999999999999
144
-1.0
145
0.0
146
1.0
147
1.0
 71
     0
 72
     0
 73
     0
 74
     0
 75
     0
 76
     0
 77
     1
 78
     8
170
     0
171
     0
172
     1
173
     0
174
     0
175
     0
176
   256
177
   256
178
     2
  0
DIMSTYLE
  2
BYGG-030601$0$STANDARD
 70
     0
  3

  4

  5

  6

  7

 40
1.0
 41
0.18
 42
0.0625
 43
0.38
 44
0.18
 45
0.0
 46
0.0
 47
0.0
 48
0.0
140
0.18
141
0.09
142
0.0
143
25.399999999999999
144
1.0
145
0.0
146
1.0
147
0.09
 71
     0
 72
     0
 73
     1
 74
     1
 75
     0
 76
     0
 77
     0
 78
     0
170
     0
171
     2
172
     0
173
     0
174
     0
175
     0
176
     0
177
     0
178
     0
  0
DIMSTYLE
  2
BYGG-030601$0$MASKIN
 70
     0
  3

  4

  5

  6

  7

 40
0.0
 41
3.0
 42
1.5
 43
10.0
 44
1.5
 45
0.0
 46
0.0
 47
0.0
 48
0.0
140
3.0
141
-5.0
142
0.0
143
25.399999999999999
144
-1.0
145
0.0
146
1.0
147
1.0
 71
     0
 72
     0
 73
     0
 74
     0
 75
     0
 76
     0
 77
     1
 78
     8
170
     0
171
     0
172
     1
173
     0
174
     0
175
     0
176
   256
177
   256
178
     2
  0
DIMSTYLE
  2
BYGG-014090$0$STANDARD
 70
     0
  3

  4

  5

  6

  7

 40
1.0
 41
0.18
 42
0.0625
 43
0.38
 44
0.18
 45
0.0
 46
0.0
 47
0.0
 48
0.0
140
0.18
141
0.09
142
0.0
143
25.399999999999999
144
1.0
145
0.0
146
1.0
147
0.09
 71
     0
 72
     0
 73
     1
 74
     1
 75
     0
 76
     0
 77
     0
 78
     0
170
     0
171
     2
172
     0
173
     0
174
     0
175
     0
176
     0
177
     0
178
     0
  0
DIMSTYLE
  2
BYGG-01409301$0$STANDARD
 70
     0
  3

  4

  5

  6

  7

 40
1.0
 41
0.18
 42
0.0625
 43
0.38
 44
0.18
 45
0.0
 46
0.0
 47
0.0
 48
0.0
140
0.18
141
0.09
142
0.0
143
25.399999999999999
144
1.0
145
0.0
146
1.0
147
0.09
 71
     0
 72
     0
 73
     1
 74
     1
 75
     0
 76
     0
 77
     0
 78
     0
170
     0
171
     2
172
     0
173
     0
174
     0
175
     0
176
     0
177
     0
178
     0
  0
DIMSTYLE
  2
BYGG-01409301$0$ANNOTATIVE
 70
     0
  3

  4

  5

  6

  7

 40
1.0
 41
0.18
 42
0.0625
 43
0.38
 44
0.18
 45
0.0
 46
0.0
 47
0.0
 48
0.0
140
0.18
141
0.09
142
0.0
143
25.399999999999999
144
1.0
145
0.0
146
1.0
147
0.09
 71
     0
 72
     0
 73
     1
 74
     1
 75
     0
 76
     0
 77
     0
 78
     0
170
     0
171
     2
172
     0
173
     0
174
     0
175
     0
176
     0
177
     0
178
     0
  0
ENDTAB
  0
ENDSEC
  0
SECTION
  2
BLOCKS
  0
BLOCK
  8
0
  2
$MODEL_SPACE
 70
     0
 10
0.0
 20
0.0
 30
0.0
  3
$MODEL_SPACE
  1

  0
ENDBLK
  5
37
  8
0
  0
BLOCK
 67
     1
  8
0
  2
$PAPER_SPACE
 70
     0
 10
0.0
 20
0.0
 30
0.0
  3
$PAPER_SPACE
  1

  0
ENDBLK
  5
35
 67
     1
  8
0
  0
BLOCK
  8
0
  2
BYGG-027036$0$RH
 70
     2
 10
0.0
 20
0.0
 30
0.0
  3
BYGG-027036$0$RH
  1

  0
ATTDEF
  5
1114
  8
BYGG-027036$0$KON
 10
11.0
 20
2.2999999999999989
 30
0.0
 40
0.4400000000000001
  1

  7
BYGG-027036$0$SIMPLEX
 72
     4
 11
11.0
 21
2.2999999999999989
 31
0.0
  3
Benämning
  2
BENÄMNING
 70
     0
  0
ATTDEF
  5
1116
  8
BYGG-027036$0$KON
 10
11.0
 20
1.5
 30
0.0
 40
0.4400000000000001
  1

  7
BYGG-027036$0$SIMPLEX
 72
     4
 11
11.0
 21
1.5
 31
0.0
  3
Gummi-hårdhet-färg
  2
GUMMI-HÅRDHET-FÄRG
 70
     0
  0
ATTDEF
  5
1117
  8
BYGG-027036$0$KON
 10
11.0
 20
0.7
 30
0.0
 40
0.4400000000000001
  1

  7
BYGG-027036$0$SIMPLEX
 72
     4
 11
11.0
 21
0.7
 31
0.0
  3
Kund
  2
KUND
 70
     0
  0
ATTDEF
  5
1118
  8
BYGG-027036$0$KON
 10
18.399999999999999
 20
0.8
 30
0.0
 40
0.4
  1

  7
BYGG-027036$0$SIMPLEX
 72
     4
 11
18.399999999999999
 21
0.8
 31
0.0
  3
Rit.Nr:
  2
RIT.NR:
 70
     0
  0
ATTDEF
  5
1119
  8
BYGG-027036$0$KON
 10
18.399999999999999
 20
3.2000000000000002
 30
0.0
 40
0.4
  1

  7
BYGG-027036$0$SIMPLEX
 72
     4
 11
18.399999999999999
 21
3.2000000000000002
 31
0.0
  3
Det.Nr:
  2
DET.NR:
 70
     0
  0
ATTDEF
  5
111A
  8
BYGG-027036$0$KON
 10
18.800000000000001
 20
2.0
 30
0.0
 40
0.4
  1

  7
BYGG-027036$0$SIMPLEX
 72
     4
 11
18.800000000000001
 21
2.0
 31
0.0
  3
Skala:
  2
SKALA:
 70
     1
  0
ATTDEF
  5
111B
  8
BYGG-027036$0$KON
 10
3.6000000000000001
 20
1.8999999999999999
 30
0.0
 40
0.3
  1

  7
BYGG-027036$0$SIMPLEX
 72
     4
 11
3.6000000000000001
 21
1.8999999999999999
 31
0.0
  3
Datum
  2
DATUM
 70
     0
  0
ATTDEF
  5
111C
  8
BYGG-027036$0$KON
 10
3.399999999999999
 20
0.9
 30
0.0
 40
0.4
  1

  7
BYGG-027036$0$SIMPLEX
 72
     4
 11
3.399999999999999
 21
0.9
 31
0.0
  3
Ritad av:
  2
RITAD:
 70
     1
  0
ATTDEF
  5
111D
  8
BYGG-027036$0$KON
 10
3.1999999999999988
 20
5.2999999999999989
 30
0.0
 40
0.4
  1

  7
BYGG-027036$0$SIMPLEX
  3
Säljare:
  2
SÄLJARE
 70
     1
  0
ENDBLK
  5
111E
  8
0
  0
BLOCK
  8
0
  2
*D120
 70
     1
 10
0.0
 20
0.0
 30
0.0
  3
*D120
  1

  0
LINE
  5
1760
  8
SAPA_MATT
 10
63.200939698017777
 20
24.999999999999659
 30
0.0
 11
81.181587957706228
 21
24.999999999999659
 31
0.0
  0
LINE
  5
1761
  8
SAPA_MATT
 10
63.20093969801772
 20
-24.999999999999321
 30
0.0
 11
81.181587957706228
 21
-24.999999999999321
 31
0.0
  0
LINE
  5
1762
  8
SAPA_MATT
 10
79.681587957706242
 20
21.999999999999648
 30
0.0
 11
79.681587957706242
 21
-21.999999999999321
 31
0.0
  0
SOLID
  5
1763
  8
SAPA_MATT
 10
79.181587957706242
 20
21.999999999999648
 30
0.0
 11
80.181587957706242
 21
21.999999999999648
 31
0.0
 12
79.681587957706242
 22
24.999999999999659
 32
0.0
 13
79.681587957706242
 23
24.999999999999659
 33
0.0
  0
SOLID
  5
1764
  8
SAPA_MATT
 10
79.181587957706242
 20
-21.999999999999321
 30
0.0
 11
80.181587957706242
 21
-21.999999999999321
 31
0.0
 12
79.681587957706242
 22
-24.999999999999321
 32
0.0
 13
79.681587957706242
 23
-24.999999999999321
 33
0.0
  0
INSERT
  5
1765
  8
0
  2
*U132
 10
0.0
 20
0.0
 30
0.0
  0
POINT
  5
1766
  8
DEFPOINTS
 62
     0
 10
61.700939698017777
 20
24.999999999999659
 30
0.0
  0
POINT
  5
1767
  8
DEFPOINTS
 62
     0
 10
61.70093969801772
 20
-24.999999999999321
 30
0.0
  0
POINT
  5
1768
  8
DEFPOINTS
 62
     0
 10
79.681587957706242
 20
-24.999999999999321
 30
0.0
  0
ENDBLK
  5
16FE
  8
0
  0
BLOCK
  8
0
  2
*D121
 70
     1
 10
0.0
 20
0.0
 30
0.0
  3
*D121
  1

  0
LINE
  5
1757
  8
SAPA_MATT
 10
-78.546446609404995
 20
16.000000000000131
 30
0.0
 11
-108.3283286202785
 21
16.000000000000139
 31
0.0
  0
LINE
  5
1758
  8
SAPA_MATT
 10
-78.546446609434525
 20
-16.000000000000149
 30
0.0
 11
-108.3283286202785
 21
-16.000000000000139
 31
0.0
  0
LINE
  5
1759
  8
SAPA_MATT
 10
-106.8283286202785
 20
13.00000000000014
 30
0.0
 11
-106.8283286202785
 21
-13.000000000000149
 31
0.0
  0
SOLID
  5
175A
  8
SAPA_MATT
 10
-107.3283286202785
 20
13.00000000000014
 30
0.0
 11
-106.3283286202785
 21
13.00000000000014
 31
0.0
 12
-106.8283286202785
 22
16.000000000000139
 32
0.0
 13
-106.8283286202785
 23
16.000000000000139
 33
0.0
  0
SOLID
  5
175B
  8
SAPA_MATT
 10
-107.3283286202785
 20
-13.000000000000149
 30
0.0
 11
-106.3283286202785
 21
-13.000000000000149
 31
0.0
 12
-106.8283286202785
 22
-16.000000000000139
 32
0.0
 13
-106.8283286202785
 23
-16.000000000000139
 33
0.0
  0
INSERT
  5
175C
  8
0
  2
*U131
 10
0.0
 20
0.0
 30
0.0
  0
POINT
  5
175D
  8
DEFPOINTS
 62
     0
 10
-77.046446609404995
 20
16.000000000000131
 30
0.0
  0
POINT
  5
175E
  8
DEFPOINTS
 62
     0
 10
-77.046446609434525
 20
-16.000000000000149
 30
0.0
  0
POINT
  5
175F
  8
DEFPOINTS
 62
     0
 10
-106.8283286202785
 20
-16.000000000000139
 30
0.0
  0
ENDBLK
  5
170A
  8
0
  0
BLOCK
  8
0
  2
*D122
 70
     1
 10
0.0
 20
0.0
 30
0.0
  3
*D122
  1

  0
LINE
  5
2651
  8
SAPA_MATT
 10
-78.546446609434525
 20
-16.000000000000149
 30
0.0
 11
-108.3283286202785
 21
-16.000000000000139
 31
0.0
  0
LINE
  5
2652
  8
SAPA_MATT
 10
-65.999946820780622
 20
-76.00000000000118
 30
0.0
 11
-108.3283286202785
 21
-76.000000000001165
 31
0.0
  0
LINE
  5
2653
  8
SAPA_MATT
 10
-106.8283286202785
 20
-19.000000000000139
 30
0.0
 11
-106.8283286202785
 21
-73.000000000001165
 31
0.0
  0
SOLID
  5
2654
  8
SAPA_MATT
 10
-107.3283286202785
 20
-19.000000000000139
 30
0.0
 11
-106.3283286202785
 21
-19.000000000000139
 31
0.0
 12
-106.8283286202785
 22
-16.000000000000139
 32
0.0
 13
-106.8283286202785
 23
-16.000000000000139
 33
0.0
  0
SOLID
  5
2655
  8
SAPA_MATT
 10
-107.3283286202785
 20
-73.000000000001165
 30
0.0
 11
-106.3283286202785
 21
-73.000000000001165
 31
0.0
 12
-106.8283286202785
 22
-76.000000000001165
 32
0.0
 13
-106.8283286202785
 23
-76.000000000001165
 33
0.0
  0
TEXT
  8
SAPA_MATT
  40
3
  5
2662
  62
2
  72
0
  71
0
 10
-115.328
 20
-51.3100
 30
0.000000
  1
60
  7
ISO
  0
POINT
  5
2657
  8
DEFPOINTS
 62
     0
 10
-77.046446609434525
 20
-16.000000000000149
 30
0.0
  0
POINT
  5
2658
  8
DEFPOINTS
 62
     0
 10
-64.499946820780622
 20
-76.00000000000118
 30
0.0
  0
POINT
  5
2659
  8
DEFPOINTS
 62
     0
 10
-106.8283286202785
 20
-76.000000000001165
 30
0.0
  0
ENDBLK
  5
1716
  8
0
  0
BLOCK
  8
0
  2
*D123
 70
     1
 10
0.0
 20
0.0
 30
0.0
  3
*D123
  1

  0
LINE
  5
2646
  8
SAPA_MATT
 10
-65.999946820780622
 20
-76.00000000000118
 30
0.0
 11
-108.3283286202785
 21
-76.000000000001165
 31
0.0
  0
LINE
  5
2647
  8
SAPA_MATT
 10
-71.699949142376113
 20
-81.000000003941025
 30
0.0
 11
-108.3283286202785
 21
-81.000000003941025
 31
0.0
  0
LINE
  5
2648
  8
SAPA_MATT
 10
-106.8283286202785
 20
-73.000000000001165
 30
0.0
 11
-106.8283286202785
 21
-70.000000000001165
 31
0.0
  0
LINE
  5
2649
  8
SAPA_MATT
 10
-106.8283286202785
 20
-84.000000003941011
 30
0.0
 11
-106.8283286202785
 21
-87.000000003941011
 31
0.0
  0
LINE
  5
264A
  8
SAPA_MATT
 10
-106.8283286202785
 20
-76.000000000001165
 30
0.0
 11
-106.8283286202785
 21
-81.000000003941025
 31
0.0
  0
SOLID
  5
264B
  8
SAPA_MATT
 10
-107.3283286202785
 20
-73.000000000001165
 30
0.0
 11
-106.3283286202785
 21
-73.000000000001165
 31
0.0
 12
-106.8283286202785
 22
-76.000000000001165
 32
0.0
 13
-106.8283286202785
 23
-76.000000000001165
 33
0.0
  0
SOLID
  5
264C
  8
SAPA_MATT
 10
-107.3283286202785
 20
-84.000000003941011
 30
0.0
 11
-106.3283286202785
 21
-84.000000003941011
 31
0.0
 12
-106.8283286202785
 22
-81.000000003941025
 32
0.0
 13
-106.8283286202785
 23
-81.000000003941025
 33
0.0
  0
TEXT
  8
SAPA_MATT
  40
3
  5
2663
  62
2
  72
0
  71
0
 10
-115.328
 20
-83.8100
 30
0.000000
  1
5
  7
ISO
  0
POINT
  5
264E
  8
DEFPOINTS
 62
     0
 10
-64.499946820780622
 20
-76.00000000000118
 30
0.0
  0
POINT
  5
264F
  8
DEFPOINTS
 62
     0
 10
-70.199949142376113
 20
-81.000000003941025
 30
0.0
  0
POINT
  5
2650
  8
DEFPOINTS
 62
     0
 10
-106.8283286202785
 20
-81.000000003941025
 30
0.0
  0
ENDBLK
  5
1722
  8
0
  0
BLOCK
  8
0
  2
*D124
 70
     1
 10
0.0
 20
0.0
 30
0.0
  3
*D124
  1

  0
LINE
  5
263D
  8
SAPA_MATT
 10
-71.699949142376113
 20
-81.000000003941025
 30
0.0
 11
-108.3283286202785
 21
-81.000000003941025
 31
0.0
  0
LINE
  5
263E
  8
SAPA_MATT
 10
-73.199947648271831
 20
-170.0000000037293
 30
0.0
 11
-108.3283286202785
 21
-170.0000000037293
 31
0.0
  0
LINE
  5
263F
  8
SAPA_MATT
 10
-106.8283286202785
 20
-84.000000003941011
 30
0.0
 11
-106.8283286202785
 21
-167.0000000037293
 31
0.0
  0
SOLID
  5
2640
  8
SAPA_MATT
 10
-107.3283286202785
 20
-84.000000003941011
 30
0.0
 11
-106.3283286202785
 21
-84.000000003941011
 31
0.0
 12
-106.8283286202785
 22
-81.000000003941025
 32
0.0
 13
-106.8283286202785
 23
-81.000000003941025
 33
0.0
  0
SOLID
  5
2641
  8
SAPA_MATT
 10
-107.3283286202785
 20
-167.0000000037293
 30
0.0
 11
-106.3283286202785
 21
-167.0000000037293
 31
0.0
 12
-106.8283286202785
 22
-170.0000000037293
 32
0.0
 13
-106.8283286202785
 23
-170.0000000037293
 33
0.0
  0
TEXT
  8
SAPA_MATT
  40
3
  5
2664
  62
2
  72
0
  71
0
 10
-115.328
 20
-130.810
 30
0.000000
  1
89
  7
ISO
  0
POINT
  5
2643
  8
DEFPOINTS
 62
     0
 10
-70.199949142376113
 20
-81.000000003941025
 30
0.0
  0
POINT
  5
2644
  8
DEFPOINTS
 62
     0
 10
-71.699947648271831
 20
-170.0000000037293
 30
0.0
  0
POINT
  5
2645
  8
DEFPOINTS
 62
     0
 10
-106.8283286202785
 20
-170.0000000037293
 30
0.0
  0
ENDBLK
  5
1730
  8
0
  0
BLOCK
  8
0
  2
*U125
 70
     1
 10
0.0
 20
0.0
 30
0.0
  3
*U125
  1

  0
TEXT
  5
17C1
  8
SAPA_ARTIKELNR
 10
-89.664925162157033
 20
-7.4905679408580896
 30
0.0
 40
3.5
  1
42651
 50
90.0
  7
ISO
  0
ENDBLK
  5
17C3
  8
0
  0
BLOCK
  8
0
  2
*U126
 70
     1
 10
0.0
 20
0.0
 30
0.0
  3
*U126
  1

  0
TEXT
  5
17C5
  8
SAPA_ARTIKELNR
 10
70.198269956214972
 20
-7.4905679408580896
 30
0.0
 40
3.5
  1
68292
 50
90.0
  7
ISO
  0
ENDBLK
  5
17C7
  8
0
  0
BLOCK
  8
0
  2
*U127
 70
     1
 10
0.0
 20
0.0
 30
0.0
  3
*U127
  1

  0
TEXT
  5
1809
  8
SAPA_ARTIKELNR
 10
23.283214618520589
 20
-67.987037288704329
 30
0.0
 40
3.5
  1
86423
 50
89.999999999999986
  7
ISO
  0
ENDBLK
  5
180B
  8
0
  0
BLOCK
  8
0
  2
*U128
 70
     1
 10
0.0
 20
0.0
 30
0.0
  3
*U128
  1

  0
TEXT
  5
180D
  8
SAPA_ARTIKELNR
 10
23.681367153349608
 20
-130.09241255572931
 30
0.0
 40
3.5
  1
86424
 50
89.999999999999986
  7
ISO
  0
ENDBLK
  5
180F
  8
0
  0
BLOCK
  8
0
  2
*U129
 70
     1
 10
0.0
 20
0.0
 30
0.0
  3
*U129
  1

  0
SOLID
  5
1A80
  8
SAPA_PROFIL
  6
CONTINUOUS
 62
     2
 10
-67.317340025554543
 20
-86.581507495362402
 30
0.1
 11
-67.494116720851196
 21
-86.654730800065764
 31
0.1
 12
-67.140563330257919
 22
-86.654730800065764
 32
0.1
 13
-67.140563330257919
 23
-86.654730800065764
 33
0.1
210
0.0
220
0.0
230
1.0
  0
SOLID
  5
1A81
  8
SAPA_PROFIL
  6
CONTINUOUS
 62
     2
 10
-67.494116720851196
 20
-86.654730800065764
 30
0.1
 11
-67.567340025554557
 21
-86.831507495362402
 31
0.1
 12
-67.067340025554557
 22
-86.831507495362402
 32
0.1
 13
-67.067340025554557
 23
-86.831507495362402
 33
0.1
210
0.0
220
0.0
230
1.0
  0
SOLID
  5
1A82
  8
SAPA_PROFIL
  6
CONTINUOUS
 62
     2
 10
67.494116720851196
 20
-86.654730800065764
 30
-0.1
 11
67.140563330257919
 21
-86.654730800065764
 31
-0.1
 12
67.067340025554557
 22
-86.831507495362402
 32
-0.1
 13
67.067340025554557
 23
-86.831507495362402
 33
-0.1
210
0.0
220
0.0
230
-1.0
  0
SOLID
  5
1A83
  8
SAPA_PROFIL
  6
CONTINUOUS
 62
     2
 10
67.494116720851196
 20
-87.008284190659055
 30
-0.1
 11
67.140563330257919
 21
-87.008284190659055
 31
-0.1
 12
67.317340025554543
 22
-87.081507495362402
 32
-0.1
 13
67.317340025554543
 23
-87.081507495362402
 33
-0.1
210
0.0
220
0.0
230
-1.0
  0
SOLID
  5
1A84
  8
SAPA_PROFIL
  6
CONTINUOUS
 62
     2
 10
-67.567340025554557
 20
-86.831507495362402
 30
0.1
 11
-67.494116720851196
 21
-87.008284190659055
 31
0.1
 12
-67.140563330257919
 22
-87.008284190659055
 32
0.1
 13
-67.140563330257919
 23
-87.008284190659055
 33
0.1
210
0.0
220
0.0
230
1.0
  0
SOLID
  5
1A85
  8
SAPA_PROFIL
  6
CONTINUOUS
 62
     2
 10
67.567340025554557
 20
-86.831507495362402
 30
-0.1
 11
67.067340025554557
 21
-86.831507495362402
 31
-0.1
 12
67.140563330257919
 22
-87.008284190659055
 32
-0.1
 13
67.140563330257919
 23
-87.008284190659055
 33
-0.1
210
0.0
220
0.0
230
-1.0
  0
LINE
  5
1A86
  8
SAPA_PROFIL
  6
CONTINUOUS
 62
     2
 10
-67.317340025554543
 20
-86.581507495362402
 30
0.1
 11
-67.494116720851196
 21
-86.654730800065764
 31
0.1
  0
LINE
  5
1A87
  8
SAPA_PROFIL
  6
CONTINUOUS
 62
     2
 10
-67.140563330257919
 20
-86.654730800065764
 30
0.1
 11
-67.317340025554543
 21
-86.581507495362402
 31
0.1
  0
LINE
  5
1A88
  8
SAPA_PROFIL
  6
CONTINUOUS
 62
     2
 10
-67.494116720851196
 20
-86.654730800065764
 30
0.1
 11
-67.567340025554557
 21
-86.831507495362402
 31
0.1
  0
LINE
  5
1A89
  8
SAPA_PROFIL
  6
CONTINUOUS
 62
     2
 10
-67.140563330257919
 20
-86.654730800065764
 30
0.1
 11
-67.067340025554557
 21
-86.831507495362402
 31
0.1
  0
LINE
  5
1A8A
  8
SAPA_PROFIL
  6
CONTINUOUS
 62
     2
 10
-67.140563330257919
 20
-87.008284190659055
 30
0.1
 11
-67.317340025554543
 21
-87.081507495362402
 31
0.1
  0
LINE
  5
1A8B
  8
SAPA_PROFIL
  6
CONTINUOUS
 62
     2
 10
-67.317340025554543
 20
-87.081507495362402
 30
0.1
 11
-67.494116720851196
 21
-87.008284190659055
 31
0.1
  0
LINE
  5
1A8C
  8
SAPA_PROFIL
  6
CONTINUOUS
 62
     2
 10
-67.567340025554557
 20
-86.831507495362402
 30
0.1
 11
-67.494116720851196
 21
-87.008284190659055
 31
0.1
  0
LINE
  5
1A8D
  8
SAPA_PROFIL
  6
CONTINUOUS
 62
     2
 10
-67.067340025554557
 20
-86.831507495362402
 30
0.1
 11
-67.140563330257919
 21
-87.008284190659055
 31
0.1
  0
ENDBLK
  5
1A8F
  8
0
  0
BLOCK
  8
0
  2
*U130
 70
     1
 10
0.0
 20
0.0
 30
0.0
  3
*U130
  1

  0
SOLID
  5
206F
  8
SAPA_PROFIL
  6
CONTINUOUS
 62
     2
 10
-67.317340025554543
 20
-86.581507495362402
 30
0.1
 11
-67.494116720851196
 21
-86.654730800065764
 31
0.1
 12
-67.140563330257919
 22
-86.654730800065764
 32
0.1
 13
-67.140563330257919
 23
-86.654730800065764
 33
0.1
210
0.0
220
0.0
230
1.0
  0
SOLID
  5
2070
  8
SAPA_PROFIL
  6
CONTINUOUS
 62
     2
 10
-67.494116720851196
 20
-86.654730800065764
 30
0.1
 11
-67.567340025554557
 21
-86.831507495362402
 31
0.1
 12
-67.067340025554557
 22
-86.831507495362402
 32
0.1
 13
-67.067340025554557
 23
-86.831507495362402
 33
0.1
210
0.0
220
0.0
230
1.0
  0
SOLID
  5
2071
  8
SAPA_PROFIL
  6
CONTINUOUS
 62
     2
 10
67.494116720851196
 20
-86.654730800065764
 30
-0.1
 11
67.140563330257919
 21
-86.654730800065764
 31
-0.1
 12
67.067340025554557
 22
-86.831507495362402
 32
-0.1
 13
67.067340025554557
 23
-86.831507495362402
 33
-0.1
210
0.0
220
0.0
230
-1.0
  0
SOLID
  5
2072
  8
SAPA_PROFIL
  6
CONTINUOUS
 62
     2
 10
67.494116720851196
 20
-87.008284190659055
 30
-0.1
 11
67.140563330257919
 21
-87.008284190659055
 31
-0.1
 12
67.317340025554543
 22
-87.081507495362402
 32
-0.1
 13
67.317340025554543
 23
-87.081507495362402
 33
-0.1
210
0.0
220
0.0
230
-1.0
  0
SOLID
  5
2073
  8
SAPA_PROFIL
  6
CONTINUOUS
 62
     2
 10
-67.567340025554557
 20
-86.831507495362402
 30
0.1
 11
-67.494116720851196
 21
-87.008284190659055
 31
0.1
 12
-67.140563330257919
 22
-87.008284190659055
 32
0.1
 13
-67.140563330257919
 23
-87.008284190659055
 33
0.1
210
0.0
220
0.0
230
1.0
  0
SOLID
  5
2074
  8
SAPA_PROFIL
  6
CONTINUOUS
 62
     2
 10
67.567340025554557
 20
-86.831507495362402
 30
-0.1
 11
67.067340025554557
 21
-86.831507495362402
 31
-0.1
 12
67.140563330257919
 22
-87.008284190659055
 32
-0.1
 13
67.140563330257919
 23
-87.008284190659055
 33
-0.1
210
0.0
220
0.0
230
-1.0
  0
LINE
  5
2075
  8
SAPA_PROFIL
  6
CONTINUOUS
 62
     2
 10
-67.317340025554543
 20
-86.581507495362402
 30
0.1
 11
-67.494116720851196
 21
-86.654730800065764
 31
0.1
  0
LINE
  5
2076
  8
SAPA_PROFIL
  6
CONTINUOUS
 62
     2
 10
-67.140563330257919
 20
-86.654730800065764
 30
0.1
 11
-67.317340025554543
 21
-86.581507495362402
 31
0.1
  0
LINE
  5
2077
  8
SAPA_PROFIL
  6
CONTINUOUS
 62
     2
 10
-67.494116720851196
 20
-86.654730800065764
 30
0.1
 11
-67.567340025554557
 21
-86.831507495362402
 31
0.1
  0
LINE
  5
2078
  8
SAPA_PROFIL
  6
CONTINUOUS
 62
     2
 10
-67.140563330257919
 20
-86.654730800065764
 30
0.1
 11
-67.067340025554557
 21
-86.831507495362402
 31
0.1
  0
LINE
  5
2079
  8
SAPA_PROFIL
  6
CONTINUOUS
 62
     2
 10
-67.140563330257919
 20
-87.008284190659055
 30
0.1
 11
-67.317340025554543
 21
-87.081507495362402
 31
0.1
  0
LINE
  5
207A
  8
SAPA_PROFIL
  6
CONTINUOUS
 62
     2
 10
-67.317340025554543
 20
-87.081507495362402
 30
0.1
 11
-67.494116720851196
 21
-87.008284190659055
 31
0.1
  0
LINE
  5
207B
  8
SAPA_PROFIL
  6
CONTINUOUS
 62
     2
 10
-67.567340025554557
 20
-86.831507495362402
 30
0.1
 11
-67.494116720851196
 21
-87.008284190659055
 31
0.1
  0
LINE
  5
207C
  8
SAPA_PROFIL
  6
CONTINUOUS
 62
     2
 10
-67.067340025554557
 20
-86.831507495362402
 30
0.1
 11
-67.140563330257919
 21
-87.008284190659055
 31
0.1
  0
ENDBLK
  5
207E
  8
0
  0
BLOCK
  8
0
  2
*U131
 70
     1
 10
0.0
 20
0.0
 30
0.0
  3
*U131
  1

  0
TEXT
  5
265B
  8
SAPA_MATT
 62
     2
 10
-107.8283286202785
 20
-2.100000000000021
 30
0.0
 40
3.0
  1
32
 50
90.0
  7
ISO
  0
ENDBLK
  5
265D
  8
0
  0
BLOCK
  8
0
  2
*U132
 70
     1
 10
0.0
 20
0.0
 30
0.0
  3
*U132
  1

  0
TEXT
  5
265F
  8
SAPA_MATT
 62
     2
 10
78.681587957706242
 20
-2.0999999999998189
 30
0.0
 40
3.0
  1
50
 50
90.0
  7
ISO
  0
ENDBLK
  5
2661
  8
0
  0
ENDSEC
  0
SECTION
  2
ENTITIES
  0
LINE
  5
6AA
  8
SAPA_PROFIL
 10
64.200939698017464
 20
24.999999999999709
 30
0.0
 11
64.200939698018033
 21
-24.999999999999272
 31
0.0
  0
INSERT
  5
6CF
  8
0
  2
*U125
 10
0.0
 20
0.0
 30
0.0
  0
INSERT
  5
6D0
  8
0
  2
*U126
 10
0.0
 20
0.0
 30
0.0
  0
POLYLINE
  5
701
  8
SAPA_LIGHT
 66
     1
 10
0.0
 20
0.0
 30
0.0
  0
VERTEX
  5
17C8
  8
SAPA_LIGHT
 10
62.20093969801777
 20
24.999999999999659
 30
0.0
  0
VERTEX
  5
17C9
  8
SAPA_LIGHT
 10
62.200939698017763
 20
-24.999999999999321
 30
0.0
  0
VERTEX
  5
17CA
  8
SAPA_LIGHT
 10
-46.853932708650639
 20
-24.9999999999993
 30
0.0
  0
VERTEX
  5
17CB
  8
SAPA_LIGHT
 10
-46.853932708650632
 20
-5.0000000000003419
 30
0.0
  0
VERTEX
  5
17CC
  8
SAPA_LIGHT
 10
-72.499999999998636
 20
-5.0000000000003411
 30
0.0
  0
VERTEX
  5
17CD
  8
SAPA_LIGHT
 10
-72.499999999998622
 20
-16.00000000000038
 30
0.0
  0
VERTEX
  5
17CE
  8
SAPA_LIGHT
 10
-77.292893218811855
 20
-15.999999999999931
 30
0.0
  0
VERTEX
  5
17CF
  8
SAPA_LIGHT
 10
-77.64644660940462
 20
-15.85355339059315
 30
0.0
  0
VERTEX
  5
17D0
  8
SAPA_LIGHT
 10
-86.207106781184976
 20
-7.2928932188130506
 30
0.0
  0
VERTEX
  5
17D1
  8
SAPA_LIGHT
 10
-86.499999999998394
 20
-6.5857864376264788
 30
0.0
  0
VERTEX
  5
17D2
  8
SAPA_LIGHT
 10
-86.499999999998394
 20
6.58578643762708
 30
0.0
  0
VERTEX
  5
17D3
  8
SAPA_LIGHT
 10
-86.207106781184976
 20
7.2928932188136333
 30
0.0
  0
VERTEX
  5
17D4
  8
SAPA_LIGHT
 10
-77.646446609404848
 20
15.853553390593291
 30
0.0
  0
VERTEX
  5
17D5
  8
SAPA_LIGHT
 10
-77.292893218811628
 20
16.000000000000071
 30
0.0
  0
VERTEX
  5
17D6
  8
SAPA_LIGHT
 10
-72.499999999998636
 20
16.000000000000071
 30
0.0
  0
VERTEX
  5
17D7
  8
SAPA_LIGHT
 10
-72.499999999999659
 20
5.0000000000003428
 30
0.0
  0
VERTEX
  5
17D8
  8
SAPA_LIGHT
 10
-45.499999999998629
 20
5.0000000000003473
 30
0.0
  0
VERTEX
  5
17D9
  8
SAPA_LIGHT
 10
-45.499999999998629
 20
25.000000000000679
 30
0.0
  0
VERTEX
  5
17DA
  8
SAPA_LIGHT
 10
62.20093969801777
 20
25.000000000000671
 30
0.0
  0
SEQEND
  5
17DB
  8
SAPA_LIGHT
  0
POLYLINE
  5
703
  8
SAPA_LIGHT
 66
     1
 10
0.0
 20
0.0
 30
0.0
  0
VERTEX
  5
17DC
  8
SAPA_LIGHT
 10
-72.499999999998664
 20
50.999999999999758
 30
0.0
  0
VERTEX
  5
17DD
  8
SAPA_LIGHT
 10
-72.499999999998622
 20
10.99999999999976
 30
0.0
  0
VERTEX
  5
17DE
  8
SAPA_LIGHT
 10
-45.499999999998629
 20
10.99999999999976
 30
0.0
  0
VERTEX
  5
17DF
  8
SAPA_LIGHT
 10
-45.499999999996952
 20
50.999999999999758
 30
0.0
  0
SEQEND
  5
17E0
  8
SAPA_LIGHT
  0
POLYLINE
  5
89C
  8
SAPA_LIGHT
 66
     1
 10
0.0
 20
0.0
 30
0.0
  0
VERTEX
  5
17E1
  8
SAPA_LIGHT
 10
-72.199947651673767
 20
-9.0000000001066809
 30
0.0
  0
VERTEX
  5
17E2
  8
SAPA_LIGHT
 10
-46.853932708650632
 20
-9.0000000001066898
 30
0.0
  0
VERTEX
  5
17E3
  8
SAPA_LIGHT
 10
-46.853932708650639
 20
-31.00000000000118
 30
0.0
  0
VERTEX
  5
17E4
  8
SAPA_LIGHT
 10
1.800052393360253
 20
-31.00000000000118
 30
0.0
  0
VERTEX
  5
17E5
  8
SAPA_LIGHT
 10
1.800052393360253
 20
-170.14926190805971
 30
0.0
  0
VERTEX
  5
17E6
  8
SAPA_LIGHT
 10
-36.249947679034598
 20
-170.14926190805971
 30
0.0
  0
VERTEX
  5
17E7
  8
SAPA_LIGHT
 10
-36.249947679034612
 20
-148.7887370907612
 30
0.0
  0
VERTEX
  5
17E8
  8
SAPA_LIGHT
 10
-63.249947679034598
 20
-148.7887370907612
 30
0.0
  0
VERTEX
  5
17E9
  8
SAPA_LIGHT
 10
-63.249947679034619
 20
-170.0000000039413
 30
0.0
  0
VERTEX
  5
17EA
  8
SAPA_LIGHT
 10
-72.199947648242798
 20
-170.00000000394121
 30
0.0
  0
VERTEX
  5
17EB
  8
SAPA_LIGHT
 10
-72.199947651673767
 20
-9.0000000001066809
 30
0.0
  0
SEQEND
  5
17EC
  8
SAPA_LIGHT
  0
POLYLINE
  5
89D
  8
SAPA_LIGHT
 66
     1
 10
0.0
 20
0.0
 30
0.0
  0
VERTEX
  5
17ED
  8
SAPA_LIGHT
 10
-63.249947679034591
 20
-183.14926190804599
 30
0.0
  0
VERTEX
  5
17EE
  8
SAPA_LIGHT
 10
-63.249947679034577
 20
-153.14926190804599
 30
0.0
  0
VERTEX
  5
17EF
  8
SAPA_LIGHT
 10
-36.249947679034612
 20
-153.14926190804599
 30
0.0
  0
VERTEX
  5
17F0
  8
SAPA_LIGHT
 10
-36.249947679034598
 20
-183.14926190804599
 30
0.0
  0
SEQEND
  5
17F1
  8
SAPA_LIGHT
  0
INSERT
  5
C30
  8
0
  2
*U127
 10
0.0
 20
0.0
 30
0.0
  0
INSERT
  5
C31
  8
0
  2
*U128
 10
0.0
 20
0.0
 30
0.0
  0
INSERT
  5
14B1
  8
BYGG-027036$0$KON
 66
     1
  2
BYGG-027036$0$RH
 10
386.93657317286039
 20
-559.9835905005225
 30
0.0
 43
-1.0
 50
270.0
210
0.0
220
0.0
230
-1.0
  0
ATTRIB
  5
14B2
  8
BYGG-027036$0$KON
 10
-392.2365731728604
 20
-563.18359050052266
 30
0.0
 40
0.3999999999999772
  1
GGFJ
 50
270.0
  7
BYGG-027036$0$SIMPLEX
 71
     4
  2
SÄLJARE
 70
     1
  0
ATTRIB
  5
14B3
  8
BYGG-027036$0$KON
 10
-388.83657317286031
 20
-563.58359050052263
 30
0.0
 40
0.3000000000000114
  1

 50
270.0
  7
BYGG-027036$0$SIMPLEX
 71
     4
 72
     4
 11
-388.83657317286031
 21
-563.58359050052263
 31
0.0
  2
DATUM
 70
     0
  0
ATTRIB
  5
14B4
  8
BYGG-027036$0$KON
 10
-387.83657317286031
 20
-563.38359050052247
 30
0.0
 40
0.3999999999999772
  1

 50
270.0
  7
BYGG-027036$0$SIMPLEX
 71
     4
 72
     4
 11
-387.83657317286031
 21
-563.38359050052247
 31
0.0
  2
RITAD:
 70
     1
  0
ATTRIB
  5
14B5
  8
BYGG-027036$0$KON
 10
-389.23657317286029
 20
-570.98359050052261
 30
0.0
 40
0.4399999999999978
  1

 50
270.0
  7
BYGG-027036$0$SIMPLEX
 71
     4
 72
     4
 11
-389.23657317286029
 21
-570.98359050052261
 31
0.0
  2
BENÄMNING
 70
     0
  0
ATTRIB
  5
14B6
  8
BYGG-027036$0$KON
 10
-388.43657317286028
 20
-570.98359050052261
 30
0.0
 40
0.4399999999999978
  1

 50
270.0
  7
BYGG-027036$0$SIMPLEX
 71
     4
 72
     4
 11
-388.43657317286028
 21
-570.98359050052261
 31
0.0
  2
GUMMI-HÅRDHET-FÄRG
 70
     0
  0
ATTRIB
  5
14B7
  8
BYGG-027036$0$KON
 10
-387.63657317286032
 20
-570.98359050052261
 30
0.0
 40
0.4399999999999978
  1

 50
270.0
  7
BYGG-027036$0$SIMPLEX
 71
     4
 72
     4
 11
-387.63657317286032
 21
-570.98359050052261
 31
0.0
  2
KUND
 70
     0
  0
ATTRIB
  5
14B8
  8
BYGG-027036$0$KON
 10
-388.93657317286028
 20
-578.78359050052245
 30
0.0
 40
0.3999999999999772
  1

 50
270.0
  7
BYGG-027036$0$SIMPLEX
 71
     4
 72
     4
 11
-388.93657317286028
 21
-578.78359050052245
 31
0.0
  2
SKALA:
 70
     1
  0
ATTRIB
  5
14B9
  8
BYGG-027036$0$KON
 10
-387.7365731728604
 20
-578.38359050052259
 30
0.0
 40
0.3999999999999772
  1

 50
270.0
  7
BYGG-027036$0$SIMPLEX
 71
     4
 72
     4
 11
-387.7365731728604
 21
-578.38359050052259
 31
0.0
  2
RIT.NR:
 70
     0
  0
ATTRIB
  5
14BA
  8
BYGG-027036$0$KON
 10
-390.13657317286032
 20
-578.38359050052259
 30
0.0
 40
0.3999999999999772
  1

 50
270.0
  7
BYGG-027036$0$SIMPLEX
 71
     4
 72
     4
 11
-390.13657317286032
 21
-578.38359050052259
 31
0.0
  2
DET.NR:
 70
     0
  0
SEQEND
  5
14D4
  8
BYGG-027036$0$KON
  0
INSERT
  5
14BB
  8
BYGG-027036$0$KON
 66
     1
  2
BYGG-027036$0$RH
 10
386.93657317286039
 20
-559.9835905005225
 30
0.0
 43
-1.0
 50
270.0
210
0.0
220
0.0
230
-1.0
  0
ATTRIB
  5
14BC
  8
BYGG-027036$0$KON
 10
-389.23657317286029
 20
-570.98359050052261
 30
0.0
 40
0.4399999999999978
  1

 50
270.0
  7
BYGG-027036$0$SIMPLEX
 71
     4
 72
     4
 11
-389.23657317286029
 21
-570.98359050052261
 31
0.0
  2
BENÄMNING
 70
     0
  0
ATTRIB
  5
14BD
  8
BYGG-027036$0$KON
 10
-388.43657317286028
 20
-570.98359050052261
 30
0.0
 40
0.4399999999999978
  1

 50
270.0
  7
BYGG-027036$0$SIMPLEX
 71
     4
 72
     4
 11
-388.43657317286028
 21
-570.98359050052261
 31
0.0
  2
GUMMI-HÅRDHET-FÄRG
 70
     0
  0
ATTRIB
  5
14BE
  8
BYGG-027036$0$KON
 10
-387.63657317286032
 20
-570.98359050052261
 30
0.0
 40
0.4399999999999978
  1

 50
270.0
  7
BYGG-027036$0$SIMPLEX
 71
     4
 72
     4
 11
-387.63657317286032
 21
-570.98359050052261
 31
0.0
  2
KUND
 70
     0
  0
ATTRIB
  5
14BF
  8
BYGG-027036$0$KON
 10
-387.7365731728604
 20
-578.38359050052259
 30
0.0
 40
0.3999999999999772
  1

 50
270.0
  7
BYGG-027036$0$SIMPLEX
 71
     4
 72
     4
 11
-387.7365731728604
 21
-578.38359050052259
 31
0.0
  2
RIT.NR:
 70
     0
  0
ATTRIB
  5
14C0
  8
BYGG-027036$0$KON
 10
-390.13657317286032
 20
-578.38359050052259
 30
0.0
 40
0.3999999999999772
  1

 50
270.0
  7
BYGG-027036$0$SIMPLEX
 71
     4
 72
     4
 11
-390.13657317286032
 21
-578.38359050052259
 31
0.0
  2
DET.NR:
 70
     0
  0
ATTRIB
  5
14C1
  8
BYGG-027036$0$KON
 10
-388.93657317286028
 20
-578.78359050052245
 30
0.0
 40
0.3999999999999772
  1

 50
270.0
  7
BYGG-027036$0$SIMPLEX
 71
     4
 72
     4
 11
-388.93657317286028
 21
-578.78359050052245
 31
0.0
  2
SKALA:
 70
     1
  0
ATTRIB
  5
14C2
  8
BYGG-027036$0$KON
 10
-388.83657317286031
 20
-563.58359050052263
 30
0.0
 40
0.3000000000000114
  1

 50
270.0
  7
BYGG-027036$0$SIMPLEX
 71
     4
 72
     4
 11
-388.83657317286031
 21
-563.58359050052263
 31
0.0
  2
DATUM
 70
     0
  0
ATTRIB
  5
14C3
  8
BYGG-027036$0$KON
 10
-387.83657317286031
 20
-563.38359050052247
 30
0.0
 40
0.3999999999999772
  1

 50
270.0
  7
BYGG-027036$0$SIMPLEX
 71
     4
 72
     4
 11
-387.83657317286031
 21
-563.38359050052247
 31
0.0
  2
RITAD:
 70
     1
  0
ATTRIB
  5
14C4
  8
BYGG-027036$0$KON
 10
-392.2365731728604
 20
-563.18359050052266
 30
0.0
 40
0.3999999999999772
  1

 50
270.0
  7
BYGG-027036$0$SIMPLEX
 71
     4
  2
SÄLJARE
 70
     1
  0
SEQEND
  5
14D5
  8
BYGG-027036$0$KON
  0
INSERT
  5
14C5
  8
BYGG-027036$0$DIM
 66
     1
  2
BYGG-027036$0$RH
 10
386.93657317286039
 20
-559.9835905005225
 30
0.0
 43
-1.0
 50
270.0
210
0.0
220
0.0
230
-1.0
  0
ATTRIB
  5
14C6
  8
BYGG-027036$0$KON
 10
-389.23657317286029
 20
-570.98359050052261
 30
0.0
 40
0.4399999999999978
  1

 50
270.0
  7
BYGG-027036$0$SIMPLEX
 71
     4
 72
     4
 11
-389.23657317286029
 21
-570.98359050052261
 31
0.0
  2
BENÄMNING
 70
     0
  0
ATTRIB
  5
14C7
  8
BYGG-027036$0$KON
 10
-388.43657317286028
 20
-570.98359050052261
 30
0.0
 40
0.4399999999999978
  1

 50
270.0
  7
BYGG-027036$0$SIMPLEX
 71
     4
 72
     4
 11
-388.43657317286028
 21
-570.98359050052261
 31
0.0
  2
GUMMI-HÅRDHET-FÄRG
 70
     0
  0
ATTRIB
  5
14C8
  8
BYGG-027036$0$KON
 10
-387.63657317286032
 20
-570.98359050052261
 30
0.0
 40
0.4399999999999978
  1

 50
270.0
  7
BYGG-027036$0$SIMPLEX
 71
     4
 72
     4
 11
-387.63657317286032
 21
-570.98359050052261
 31
0.0
  2
KUND
 70
     0
  0
ATTRIB
  5
14C9
  8
BYGG-027036$0$KON
 10
-387.7365731728604
 20
-578.38359050052259
 30
0.0
 40
0.3999999999999772
  1

 50
270.0
  7
BYGG-027036$0$SIMPLEX
 71
     4
 72
     4
 11
-387.7365731728604
 21
-578.38359050052259
 31
0.0
  2
RIT.NR:
 70
     0
  0
ATTRIB
  5
14CA
  8
BYGG-027036$0$KON
 10
-390.13657317286032
 20
-578.38359050052259
 30
0.0
 40
0.3999999999999772
  1

 50
270.0
  7
BYGG-027036$0$SIMPLEX
 71
     4
 72
     4
 11
-390.13657317286032
 21
-578.38359050052259
 31
0.0
  2
DET.NR:
 70
     0
  0
ATTRIB
  5
14CB
  8
BYGG-027036$0$KON
 10
-388.93657317286028
 20
-578.78359050052245
 30
0.0
 40
0.3999999999999772
  1

 50
270.0
  7
BYGG-027036$0$SIMPLEX
 71
     4
 72
     4
 11
-388.93657317286028
 21
-578.78359050052245
 31
0.0
  2
SKALA:
 70
     1
  0
ATTRIB
  5
14CC
  8
BYGG-027036$0$KON
 10
-388.83657317286031
 20
-563.58359050052263
 30
0.0
 40
0.3000000000000114
  1

 50
270.0
  7
BYGG-027036$0$SIMPLEX
 71
     4
 72
     4
 11
-388.83657317286031
 21
-563.58359050052263
 31
0.0
  2
DATUM
 70
     0
  0
ATTRIB
  5
14CD
  8
BYGG-027036$0$KON
 10
-387.83657317286031
 20
-563.38359050052247
 30
0.0
 40
0.3999999999999772
  1

 50
270.0
  7
BYGG-027036$0$SIMPLEX
 71
     4
 72
     4
 11
-387.83657317286031
 21
-563.38359050052247
 31
0.0
  2
RITAD:
 70
     1
  0
ATTRIB
  5
14CE
  8
BYGG-027036$0$KON
 10
-392.2365731728604
 20
-563.18359050052266
 30
0.0
 40
0.3999999999999772
  1

 50
270.0
  7
BYGG-027036$0$SIMPLEX
 71
     4
  2
SÄLJARE
 70
     1
  0
SEQEND
  5
14D6
  8
BYGG-027036$0$DIM
  0
CIRCLE
  5
1622
  8
SAPA_PROFIL
 62
     2
 10
-69.358006485421754
 20
-166.6679648116725
 30
0.0
 40
0.8999999999999985
  0
POLYLINE
  5
1623
  8
SAPA_PROFIL
 62
     2
 66
     1
 10
0.0
 20
0.0
 30
0.0
  0
VERTEX
  5
1E46
  8
SAPA_PROFIL
 62
     2
 10
-68.050000073848764
 20
-168.06796481167251
 30
0.0
  0
VERTEX
  5
1E47
  8
SAPA_PROFIL
 62
     2
 10
-69.140918884001493
 20
-167.87560639168009
 30
0.0
  0
VERTEX
  5
1E48
  8
SAPA_PROFIL
 62
     2
 10
-69.256618423521502
 20
-168.30740295158171
 30
0.0
 42
-0.4430158954262519
  0
VERTEX
  5
1E49
  8
SAPA_PROFIL
 62
     2
 10
-69.520094851628471
 20
-168.44287999912581
 30
0.0
  0
VERTEX
  5
1E4A
  8
SAPA_PROFIL
 62
     2
 10
-70.79058259954661
 20
-167.96593180590679
 30
0.0
 42
-0.3125358528825162
  0
VERTEX
  5
1E4B
  8
SAPA_PROFIL
 62
     2
 10
-71.050000073848295
 20
-167.59145009277739
 30
0.0
  0
VERTEX
  5
1E4C
  8
SAPA_PROFIL
 62
     2
 10
-71.050000073848651
 20
-165.7212947768671
 30
0.0
 42
-0.3125358528825104
  0
VERTEX
  5
1E4D
  8
SAPA_PROFIL
 62
     2
 10
-70.79058259954644
 20
-165.34681306373761
 30
0.0
  0
VERTEX
  5
1E4E
  8
SAPA_PROFIL
 62
     2
 10
-69.520094851628244
 20
-164.8698648705186
 30
0.0
 42
-0.4430158954262519
  0
VERTEX
  5
1E4F
  8
SAPA_PROFIL
 62
     2
 10
-69.256618423521374
 20
-165.0053419180627
 30
0.0
  0
VERTEX
  5
1E50
  8
SAPA_PROFIL
 62
     2
 10
-69.140918884001323
 20
-165.43713847796451
 30
0.0
  0
VERTEX
  5
1E51
  8
SAPA_PROFIL
 62
     2
 10
-68.050000073848594
 20
-165.2448724348223
 30
0.0
  0
SEQEND
  5
1E52
  8
SAPA_PROFIL
 62
     2
  0
POLYLINE
  5
1624
  8
SAPA_PROFIL
 62
     2
 66
     1
 10
0.0
 20
0.0
 30
0.0
 70
     1
  0
VERTEX
  5
1E53
  8
SAPA_PROFIL
 62
     2
 10
-68.050000073848764
 20
-168.05637243482221
 30
0.0
 42
0.285714285714282
  0
VERTEX
  5
1E54
  8
SAPA_PROFIL
 62
     2
 10
-68.050000073848594
 20
-165.2563724348222
 30
0.0
  0
VERTEX
  5
1E55
  8
SAPA_PROFIL
 62
     2
 10
-68.050000073848025
 20
-163.18259226543441
 30
0.0
 42
-0.3882600129940275
  0
VERTEX
  5
1E56
  8
SAPA_PROFIL
 62
     2
 10
-67.77678934756841
 20
-162.88379076809309
 30
0.0
  0
VERTEX
  5
1E57
  8
SAPA_PROFIL
 62
     2
 10
-63.876789347568319
 20
-162.41758084416679
 30
0.0
 42
-0.4406523138893894
  0
VERTEX
  5
1E58
  8
SAPA_PROFIL
 62
     2
 10
-63.550000073848423
 20
-162.71638234150859
 30
0.0
  0
VERTEX
  5
1E59
  8
SAPA_PROFIL
 62
     2
 10
-63.550000073848537
 20
-164.42617433842901
 30
0.0
 42
-0.3394542588634375
  0
VERTEX
  5
1E5A
  8
SAPA_PROFIL
 62
     2
 10
-63.772354360317529
 20
-164.7159520863155
 30
0.0
  0
VERTEX
  5
1E5B
  8
SAPA_PROFIL
 62
     2
 10
-63.989940142485182
 20
-164.9183318142469
 30
0.0
 42
0.3394542588633663
  0
VERTEX
  5
1E5C
  8
SAPA_PROFIL
 62
     2
 10
-64.212294428954181
 20
-165.2081095621337
 30
0.0
  0
VERTEX
  5
1E5D
  8
SAPA_PROFIL
 62
     2
 10
-64.212294428954351
 20
-168.10463530751159
 30
0.0
 42
0.3394542588634373
  0
VERTEX
  5
1E5E
  8
SAPA_PROFIL
 62
     2
 10
-63.989940142485409
 20
-168.3944130553981
 30
0.0
  0
VERTEX
  5
1E5F
  8
SAPA_PROFIL
 62
     2
 10
-63.77235436031782
 20
-168.59679278332959
 30
0.0
 42
-0.3394542588633662
  0
VERTEX
  5
1E60
  8
SAPA_PROFIL
 62
     2
 10
-63.550000073848821
 20
-168.88657053121631
 30
0.0
  0
VERTEX
  5
1E61
  8
SAPA_PROFIL
 62
     2
 10
-63.550000073848942
 20
-170.5963625281365
 30
0.0
 42
-0.4406523138893994
  0
VERTEX
  5
1E62
  8
SAPA_PROFIL
 62
     2
 10
-63.876789347568881
 20
-170.8951640254781
 30
0.0
  0
VERTEX
  5
1E63
  8
SAPA_PROFIL
 62
     2
 10
-67.776789347568922
 20
-170.4289541015516
 30
0.0
 42
-0.3882600129940462
  0
VERTEX
  5
1E64
  8
SAPA_PROFIL
 62
     2
 10
-68.050000073848935
 20
-170.13015260421011
 30
0.0
  0
VERTEX
  5
1E65
  8
SAPA_PROFIL
 62
     2
 10
-68.050000073848764
 20
-168.06796481167251
 30
0.0
  0
SEQEND
  5
1E66
  8
SAPA_PROFIL
 62
     2
  0
POLYLINE
  5
1625
  8
SAPA_PROFIL
  6
CONTINUOUS
 66
     1
 10
0.0
 20
0.0
 30
0.0
 70
     1
  0
VERTEX
  5
1E67
  8
SAPA_PROFIL
  6
CONTINUOUS
 10
10.107797028340171
 20
-165.5831128815384
 30
0.0
  0
VERTEX
  5
1E68
  8
SAPA_PROFIL
  6
CONTINUOUS
 10
10.527360517732181
 20
-150.44457742493131
 30
0.0
 42
0.2061234514950211
  0
VERTEX
  5
1E69
  8
SAPA_PROFIL
  6
CONTINUOUS
 10
10.38110582714242
 20
-150.07717188706991
 30
0.0
  0
VERTEX
  5
1E6A
  8
SAPA_PROFIL
  6
CONTINUOUS
 10
8.4503805474092957
 20
-148.14644660733711
 30
0.0
 42
-0.1989123673797024
  0
VERTEX
  5
1E6B
  8
SAPA_PROFIL
  6
CONTINUOUS
 10
8.3039339380024728
 20
-147.79289321674381
 30
0.0
  0
VERTEX
  5
1E6C
  8
SAPA_PROFIL
  6
CONTINUOUS
 10
8.3039339380024728
 20
-143.61211517687889
 30
0.0
 42
-0.6681786379193032
  0
VERTEX
  5
1E6D
  8
SAPA_PROFIL
  6
CONTINUOUS
 10
8.7307106332991111
 20
-143.43533848158219
 30
0.0
  0
VERTEX
  5
1E6E
  8
SAPA_PROFIL
  6
CONTINUOUS
 10
9.7179096725207899
 20
-144.4225375208039
 30
0.0
 42
-0.4584832902918763
  0
VERTEX
  5
1E6F
  8
SAPA_PROFIL
  6
CONTINUOUS
 10
9.6053077286724147
 20
-145.9337363355188
 30
0.0
 42
0.2378770156285958
  0
VERTEX
  5
1E70
  8
SAPA_PROFIL
  6
CONTINUOUS
 10
9.5039339380052184
 20
-146.13475934390141
 30
0.0
  0
VERTEX
  5
1E71
  8
SAPA_PROFIL
  6
CONTINUOUS
 10
9.5039339380029872
 20
-147.2958369418956
 30
0.0
 42
0.1989123673801665
  0
VERTEX
  5
1E72
  8
SAPA_PROFIL
  6
CONTINUOUS
 10
9.6503805474096964
 20
-147.64939033248979
 30
0.0
  0
VERTEX
  5
1E73
  8
SAPA_PROFIL
  6
CONTINUOUS
 10
10.00099021285015
 20
-147.99999999793039
 30
0.0
  0
VERTEX
  5
1E74
  8
SAPA_PROFIL
  6
CONTINUOUS
 10
10.42794704044209
 20
-148.42680759047639
 30
0.0
 42
0.1988669396406054
  0
VERTEX
  5
1E75
  8
SAPA_PROFIL
  6
CONTINUOUS
 10
10.60469283308819
 20
-148.49999999793039
 30
0.0
  0
VERTEX
  5
1E76
  8
SAPA_PROFIL
  6
CONTINUOUS
 10
10.751166039925151
 20
-148.49999999793039
 30
0.0
 42
0.4142135623733282
  0
VERTEX
  5
1E77
  8
SAPA_PROFIL
  6
CONTINUOUS
 10
11.00116503992515
 20
-148.25000099793019
 30
0.0
  0
VERTEX
  5
1E78
  8
SAPA_PROFIL
  6
CONTINUOUS
 10
11.00116503992515
 20
-148.24999999793059
 30
0.0
 42
-0.4142135623732616
  0
VERTEX
  5
1E79
  8
SAPA_PROFIL
  6
CONTINUOUS
 10
11.2511650399251
 20
-147.99999999793039
 30
0.0
  0
VERTEX
  5
1E7A
  8
SAPA_PROFIL
  6
CONTINUOUS
 10
11.75006484635904
 20
-147.99999999793039
 30
0.0
 42
-0.4209003450991805
  0
VERTEX
  5
1E7B
  8
SAPA_PROFIL
  6
CONTINUOUS
 10
12.00000000582196
 20
-148.25569350865021
 30
0.0
 42
0.0067990255081984
  0
VERTEX
  5
1E7C
  8
SAPA_PROFIL
  6
CONTINUOUS
 10
11.80503094641338
 20
-169.49779016963771
 30
0.0
 42
-0.4155086472897409
  0
VERTEX
  5
1E7D
  8
SAPA_PROFIL
  6
CONTINUOUS
 10
11.30503582977823
 20
-169.9999999979438
 30
0.0
  0
VERTEX
  5
1E7E
  8
SAPA_PROFIL
  6
CONTINUOUS
 10
-26.394621398208411
 20
-169.99999999793039
 30
0.0
 42
-0.4142135623716549
  0
VERTEX
  5
1E7F
  8
SAPA_PROFIL
  6
CONTINUOUS
 10
-26.69462139820973
 20
-169.69999999793041
 30
0.0
  0
VERTEX
  5
1E80
  8
SAPA_PROFIL
  6
CONTINUOUS
 10
-26.69462139820951
 20
-168.499999997945
 30
0.0
 42
-0.4142135623732907
  0
VERTEX
  5
1E81
  8
SAPA_PROFIL
  6
CONTINUOUS
 10
-26.394621398209321
 20
-168.19999999794501
 30
0.0
  0
VERTEX
  5
1E82
  8
SAPA_PROFIL
  6
CONTINUOUS
 10
-25.1946213982099
 20
-168.19999999794589
 30
0.0
 42
0.4142135623732116
  0
VERTEX
  5
1E83
  8
SAPA_PROFIL
  6
CONTINUOUS
 10
-24.694621398209701
 20
-167.69999999794589
 30
0.0
  0
VERTEX
  5
1E84
  8
SAPA_PROFIL
  6
CONTINUOUS
 10
-24.694621398209708
 20
-158.79999999793171
 30
0.0
 42
-0.4142135623733198
  0
VERTEX
  5
1E85
  8
SAPA_PROFIL
  6
CONTINUOUS
 10
-24.394621398209519
 20
-158.4999999979317
 30
0.0
  0
VERTEX
  5
1E86
  8
SAPA_PROFIL
  6
CONTINUOUS
 10
-23.69462139820951
 20
-158.49999999793201
 30
0.0
 42
-0.4142135623728995
  0
VERTEX
  5
1E87
  8
SAPA_PROFIL
  6
CONTINUOUS
 10
-23.394621398209701
 20
-158.79999999793199
 30
0.0
  0
VERTEX
  5
1E88
  8
SAPA_PROFIL
  6
CONTINUOUS
 10
-23.3946213982098
 20
-167.9999999979353
 30
0.0
 42
0.4142135623716508
  0
VERTEX
  5
1E89
  8
SAPA_PROFIL
  6
CONTINUOUS
 10
-22.894621398209789
 20
-168.49999999793039
 30
0.0
  0
VERTEX
  5
1E8A
  8
SAPA_PROFIL
  6
CONTINUOUS
 10
-5.4960660619949202
 20
-168.49999999793039
 30
0.0
 42
0.41421356237163
  0
VERTEX
  5
1E8B
  8
SAPA_PROFIL
  6
CONTINUOUS
 10
-4.9960660619974213
 20
-167.99999999793039
 30
0.0
  0
VERTEX
  5
1E8C
  8
SAPA_PROFIL
  6
CONTINUOUS
 10
-4.996066061997424
 20
-146.0858270785659
 30
0.0
 42
0.4663076581592616
  0
VERTEX
  5
1E8D
  8
SAPA_PROFIL
  6
CONTINUOUS
 10
-5.3481605152974216
 20
-145.79038475266231
 30
0.0
  0
VERTEX
  5
1E8E
  8
SAPA_PROFIL
  6
CONTINUOUS
 10
-5.9439716086961019
 20
-145.89544232383389
 30
0.0
 42
-0.7332303362587812
  0
VERTEX
  5
1E8F
  8
SAPA_PROFIL
  6
CONTINUOUS
 10
-6.2081980963535406
 20
-145.38786796357451
 30
0.0
  0
VERTEX
  5
1E90
  8
SAPA_PROFIL
  6
CONTINUOUS
 10
-4.2081980963560284
 20
-143.38786796357701
 30
0.0
 42
-0.6681786379237062
  0
VERTEX
  5
1E91
  8
SAPA_PROFIL
  6
CONTINUOUS
 10
-3.696066061997541
 20
-143.5999999979305
 30
0.0
  0
VERTEX
  5
1E92
  8
SAPA_PROFIL
  6
CONTINUOUS
 10
-3.6960660619975232
 20
-167.99999999793039
 30
0.0
 42
0.4142135623716217
  0
VERTEX
  5
1E93
  8
SAPA_PROFIL
  6
CONTINUOUS
 10
-3.1960660619950221
 20
-168.49999999793039
 30
0.0
  0
VERTEX
  5
1E94
  8
SAPA_PROFIL
  6
CONTINUOUS
 10
7.1089485412407782
 20
-168.49999999793039
 30
0.0
 42
0.40612121347231
  0
SEQEND
  5
1E95
  8
SAPA_PROFIL
  6
CONTINUOUS
  0
POLYLINE
  5
1626
  8
SAPA_PROFIL
 62
     2
 10
-30.344621411521846
 20
-165.8999999979454
 30
0.0
 66
     1
 70
     8
  0
VERTEX
  8
SAPA_PROFIL
  5
2665
 10
-30.3446
 20
-165.900
 30
0.000000
  70
    32
  0
VERTEX
  8
SAPA_PROFIL
  5
2666
 10
-30.4428
 20
-165.896
 30
0.000000
  70
    32
  0
VERTEX
  8
SAPA_PROFIL
  5
2667
 10
-30.5407
 20
-165.883
 30
0.000000
  70
    32
  0
VERTEX
  8
SAPA_PROFIL
  5
2668
 10
-30.6381
 20
-165.862
 30
0.000000
  70
    32
  0
VERTEX
  8
SAPA_PROFIL
  5
2669
 10
-30.7348
 20
-165.833
 30
0.000000
  70
    32
  0
VERTEX
  8
SAPA_PROFIL
  5
266A
 10
-30.8306
 20
-165.795
 30
0.000000
  70
    32
  0
VERTEX
  8
SAPA_PROFIL
  5
266B
 10
-30.9252
 20
-165.749
 30
0.000000
  70
    32
  0
VERTEX
  8
SAPA_PROFIL
  5
266C
 10
-31.0184
 20
-165.695
 30
0.000000
  70
    32
  0
VERTEX
  8
SAPA_PROFIL
  5
266D
 10
-31.1100
 20
-165.634
 30
0.000000
  70
    32
  0
VERTEX
  8
SAPA_PROFIL
  5
266E
 10
-31.1997
 20
-165.564
 30
0.000000
  70
    32
  0
VERTEX
  8
SAPA_PROFIL
  5
266F
 10
-31.2874
 20
-165.487
 30
0.000000
  70
    32
  0
VERTEX
  8
SAPA_PROFIL
  5
2670
 10
-31.3728
 20
-165.402
 30
0.000000
  70
    32
  0
VERTEX
  8
SAPA_PROFIL
  5
2671
 10
-31.4558
 20
-165.310
 30
0.000000
  70
    32
  0
VERTEX
  8
SAPA_PROFIL
  5
2672
 10
-31.5360
 20
-165.211
 30
0.000000
  70
    32
  0
VERTEX
  8
SAPA_PROFIL
  5
2673
 10
-31.6134
 20
-165.106
 30
0.000000
  70
    32
  0
VERTEX
  8
SAPA_PROFIL
  5
2674
 10
-31.6877
 20
-164.993
 30
0.000000
  70
    32
  0
VERTEX
  8
SAPA_PROFIL
  5
2675
 10
-31.7588
 20
-164.875
 30
0.000000
  70
    32
  0
VERTEX
  8
SAPA_PROFIL
  5
2676
 10
-31.8265
 20
-164.750
 30
0.000000
  70
    32
  0
VERTEX
  8
SAPA_PROFIL
  5
2677
 10
-31.8906
 20
-164.620
 30
0.000000
  70
    32
  0
VERTEX
  8
SAPA_PROFIL
  5
2678
 10
-31.9510
 20
-164.485
 30
0.000000
  70
    32
  0
VERTEX
  8
SAPA_PROFIL
  5
2679
 10
-32.0076
 20
-164.344
 30
0.000000
  70
    32
  0
VERTEX
  8
SAPA_PROFIL
  5
267A
 10
-32.0601
 20
-164.199
 30
0.000000
  70
    32
  0
VERTEX
  8
SAPA_PROFIL
  5
267B
 10
-32.1085
 20
-164.050
 30
0.000000
  70
    32
  0
VERTEX
  8
SAPA_PROFIL
  5
267C
 10
-32.1526
 20
-163.896
 30
0.000000
  70
    32
  0
VERTEX
  8
SAPA_PROFIL
  5
267D
 10
-32.1924
 20
-163.739
 30
0.000000
  70
    32
  0
VERTEX
  8
SAPA_PROFIL
  5
267E
 10
-32.2277
 20
-163.579
 30
0.000000
  70
    32
  0
VERTEX
  8
SAPA_PROFIL
  5
267F
 10
-32.2585
 20
-163.416
 30
0.000000
  70
    32
  0
VERTEX
  8
SAPA_PROFIL
  5
2680
 10
-32.2847
 20
-163.250
 30
0.000000
  70
    32
  0
VERTEX
  8
SAPA_PROFIL
  5
2681
 10
-32.3062
 20
-163.083
 30
0.000000
  70
    32
  0
VERTEX
  8
SAPA_PROFIL
  5
2682
 10
-32.3230
 20
-162.914
 30
0.000000
  70
    32
  0
VERTEX
  8
SAPA_PROFIL
  5
2683
 10
-32.3350
 20
-162.743
 30
0.000000
  70
    32
  0
VERTEX
  8
SAPA_PROFIL
  5
2684
 10
-32.3422
 20
-162.572
 30
0.000000
  70
    32
  0
VERTEX
  8
SAPA_PROFIL
  5
2685
 10
-32.3446
 20
-162.400
 30
0.000000
  70
    32
  0
VERTEX
  8
SAPA_PROFIL
  5
2686
 10
-32.3422
 20
-162.228
 30
0.000000
  70
    32
  0
VERTEX
  8
SAPA_PROFIL
  5
2687
 10
-32.3350
 20
-162.057
 30
0.000000
  70
    32
  0
VERTEX
  8
SAPA_PROFIL
  5
2688
 10
-32.3230
 20
-161.886
 30
0.000000
  70
    32
  0
VERTEX
  8
SAPA_PROFIL
  5
2689
 10
-32.3062
 20
-161.717
 30
0.000000
  70
    32
  0
VERTEX
  8
SAPA_PROFIL
  5
268A
 10
-32.2847
 20
-161.550
 30
0.000000
  70
    32
  0
VERTEX
  8
SAPA_PROFIL
  5
268B
 10
-32.2585
 20
-161.384
 30
0.000000
  70
    32
  0
VERTEX
  8
SAPA_PROFIL
  5
268C
 10
-32.2277
 20
-161.221
 30
0.000000
  70
    32
  0
VERTEX
  8
SAPA_PROFIL
  5
268D
 10
-32.1924
 20
-161.061
 30
0.000000
  70
    32
  0
VERTEX
  8
SAPA_PROFIL
  5
268E
 10
-32.1526
 20
-160.904
 30
0.000000
  70
    32
  0
VERTEX
  8
SAPA_PROFIL
  5
268F
 10
-32.1085
 20
-160.750
 30
0.000000
  70
    32
  0
VERTEX
  8
SAPA_PROFIL
  5
2690
 10
-32.0601
 20
-160.601
 30
0.000000
  70
    32
  0
VERTEX
  8
SAPA_PROFIL
  5
2691
 10
-32.0076
 20
-160.456
 30
0.000000
  70
    32
  0
VERTEX
  8
SAPA_PROFIL
  5
2692
 10
-31.9510
 20
-160.315
 30
0.000000
  70
    32
  0
VERTEX
  8
SAPA_PROFIL
  5
2693
 10
-31.8906
 20
-160.180
 30
0.000000
  70
    32
  0
VERTEX
  8
SAPA_PROFIL
  5
2694
 10
-31.8265
 20
-160.050
 30
0.000000
  70
    32
  0
VERTEX
  8
SAPA_PROFIL
  5
2695
 10
-31.7588
 20
-159.925
 30
0.000000
  70
    32
  0
VERTEX
  8
SAPA_PROFIL
  5
2696
 10
-31.6877
 20
-159.807
 30
0.000000
  70
    32
  0
VERTEX
  8
SAPA_PROFIL
  5
2697
 10
-31.6134
 20
-159.694
 30
0.000000
  70
    32
  0
VERTEX
  8
SAPA_PROFIL
  5
2698
 10
-31.5360
 20
-159.589
 30
0.000000
  70
    32
  0
VERTEX
  8
SAPA_PROFIL
  5
2699
 10
-31.4558
 20
-159.490
 30
0.000000
  70
    32
  0
VERTEX
  8
SAPA_PROFIL
  5
269A
 10
-31.3728
 20
-159.398
 30
0.000000
  70
    32
  0
VERTEX
  8
SAPA_PROFIL
  5
269B
 10
-31.2874
 20
-159.313
 30
0.000000
  70
    32
  0
VERTEX
  8
SAPA_PROFIL
  5
269C
 10
-31.1997
 20
-159.236
 30
0.000000
  70
    32
  0
VERTEX
  8
SAPA_PROFIL
  5
269D
 10
-31.1100
 20
-159.166
 30
0.000000
  70
    32
  0
VERTEX
  8
SAPA_PROFIL
  5
269E
 10
-31.0184
 20
-159.105
 30
0.000000
  70
    32
  0
VERTEX
  8
SAPA_PROFIL
  5
269F
 10
-30.9252
 20
-159.051
 30
0.000000
  70
    32
  0
VERTEX
  8
SAPA_PROFIL
  5
26A0
 10
-30.8306
 20
-159.005
 30
0.000000
  70
    32
  0
VERTEX
  8
SAPA_PROFIL
  5
26A1
 10
-30.7348
 20
-158.967
 30
0.000000
  70
    32
  0
VERTEX
  8
SAPA_PROFIL
  5
26A2
 10
-30.6381
 20
-158.938
 30
0.000000
  70
    32
  0
VERTEX
  8
SAPA_PROFIL
  5
26A3
 10
-30.5407
 20
-158.917
 30
0.000000
  70
    32
  0
VERTEX
  8
SAPA_PROFIL
  5
26A4
 10
-30.4428
 20
-158.904
 30
0.000000
  70
    32
  0
VERTEX
  8
SAPA_PROFIL
  5
26A5
 10
-30.3446
 20
-158.900
 30
0.000000
  70
    32
  0
VERTEX
  8
SAPA_PROFIL
  5
26A6
 10
-30.2465
 20
-158.904
 30
0.000000
  70
    32
  0
VERTEX
  8
SAPA_PROFIL
  5
26A7
 10
-30.1486
 20
-158.917
 30
0.000000
  70
    32
  0
VERTEX
  8
SAPA_PROFIL
  5
26A8
 10
-30.0512
 20
-158.938
 30
0.000000
  70
    32
  0
VERTEX
  8
SAPA_PROFIL
  5
26A9
 10
-29.9544
 20
-158.967
 30
0.000000
  70
    32
  0
VERTEX
  8
SAPA_PROFIL
  5
26AA
 10
-29.8587
 20
-159.005
 30
0.000000
  70
    32
  0
VERTEX
  8
SAPA_PROFIL
  5
26AB
 10
-29.7641
 20
-159.051
 30
0.000000
  70
    32
  0
VERTEX
  8
SAPA_PROFIL
  5
26AC
 10
-29.6708
 20
-159.105
 30
0.000000
  70
    32
  0
VERTEX
  8
SAPA_PROFIL
  5
26AD
 10
-29.5793
 20
-159.166
 30
0.000000
  70
    32
  0
VERTEX
  8
SAPA_PROFIL
  5
26AE
 10
-29.4895
 20
-159.236
 30
0.000000
  70
    32
  0
VERTEX
  8
SAPA_PROFIL
  5
26AF
 10
-29.4018
 20
-159.313
 30
0.000000
  70
    32
  0
VERTEX
  8
SAPA_PROFIL
  5
26B0
 10
-29.3164
 20
-159.398
 30
0.000000
  70
    32
  0
VERTEX
  8
SAPA_PROFIL
  5
26B1
 10
-29.2335
 20
-159.490
 30
0.000000
  70
    32
  0
VERTEX
  8
SAPA_PROFIL
  5
26B2
 10
-29.1532
 20
-159.589
 30
0.000000
  70
    32
  0
VERTEX
  8
SAPA_PROFIL
  5
26B3
 10
-29.0758
 20
-159.694
 30
0.000000
  70
    32
  0
VERTEX
  8
SAPA_PROFIL
  5
26B4
 10
-29.0015
 20
-159.807
 30
0.000000
  70
    32
  0
VERTEX
  8
SAPA_PROFIL
  5
26B5
 10
-28.9304
 20
-159.925
 30
0.000000
  70
    32
  0
VERTEX
  8
SAPA_PROFIL
  5
26B6
 10
-28.8627
 20
-160.050
 30
0.000000
  70
    32
  0
VERTEX
  8
SAPA_PROFIL
  5
26B7
 10
-28.7986
 20
-160.180
 30
0.000000
  70
    32
  0
VERTEX
  8
SAPA_PROFIL
  5
26B8
 10
-28.7382
 20
-160.315
 30
0.000000
  70
    32
  0
VERTEX
  8
SAPA_PROFIL
  5
26B9
 10
-28.6817
 20
-160.456
 30
0.000000
  70
    32
  0
VERTEX
  8
SAPA_PROFIL
  5
26BA
 10
-28.6292
 20
-160.601
 30
0.000000
  70
    32
  0
VERTEX
  8
SAPA_PROFIL
  5
26BB
 10
-28.5808
 20
-160.750
 30
0.000000
  70
    32
  0
VERTEX
  8
SAPA_PROFIL
  5
26BC
 10
-28.5366
 20
-160.904
 30
0.000000
  70
    32
  0
VERTEX
  8
SAPA_PROFIL
  5
26BD
 10
-28.4969
 20
-161.061
 30
0.000000
  70
    32
  0
VERTEX
  8
SAPA_PROFIL
  5
26BE
 10
-28.4615
 20
-161.221
 30
0.000000
  70
    32
  0
VERTEX
  8
SAPA_PROFIL
  5
26BF
 10
-28.4307
 20
-161.384
 30
0.000000
  70
    32
  0
VERTEX
  8
SAPA_PROFIL
  5
26C0
 10
-28.4046
 20
-161.550
 30
0.000000
  70
    32
  0
VERTEX
  8
SAPA_PROFIL
  5
26C1
 10
-28.3831
 20
-161.717
 30
0.000000
  70
    32
  0
VERTEX
  8
SAPA_PROFIL
  5
26C2
 10
-28.3663
 20
-161.886
 30
0.000000
  70
    32
  0
VERTEX
  8
SAPA_PROFIL
  5
26C3
 10
-28.3543
 20
-162.057
 30
0.000000
  70
    32
  0
VERTEX
  8
SAPA_PROFIL
  5
26C4
 10
-28.3470
 20
-162.228
 30
0.000000
  70
    32
  0
VERTEX
  8
SAPA_PROFIL
  5
26C5
 10
-28.3446
 20
-162.400
 30
0.000000
  70
    32
  0
VERTEX
  8
SAPA_PROFIL
  5
26C6
 10
-28.3470
 20
-162.572
 30
0.000000
  70
    32
  0
VERTEX
  8
SAPA_PROFIL
  5
26C7
 10
-28.3543
 20
-162.743
 30
0.000000
  70
    32
  0
VERTEX
  8
SAPA_PROFIL
  5
26C8
 10
-28.3663
 20
-162.914
 30
0.000000
  70
    32
  0
VERTEX
  8
SAPA_PROFIL
  5
26C9
 10
-28.3831
 20
-163.083
 30
0.000000
  70
    32
  0
VERTEX
  8
SAPA_PROFIL
  5
26CA
 10
-28.4046
 20
-163.250
 30
0.000000
  70
    32
  0
VERTEX
  8
SAPA_PROFIL
  5
26CB
 10
-28.4307
 20
-163.416
 30
0.000000
  70
    32
  0
VERTEX
  8
SAPA_PROFIL
  5
26CC
 10
-28.4615
 20
-163.579
 30
0.000000
  70
    32
  0
VERTEX
  8
SAPA_PROFIL
  5
26CD
 10
-28.4969
 20
-163.739
 30
0.000000
  70
    32
  0
VERTEX
  8
SAPA_PROFIL
  5
26CE
 10
-28.5366
 20
-163.896
 30
0.000000
  70
    32
  0
VERTEX
  8
SAPA_PROFIL
  5
26CF
 10
-28.5808
 20
-164.050
 30
0.000000
  70
    32
  0
VERTEX
  8
SAPA_PROFIL
  5
26D0
 10
-28.6292
 20
-164.199
 30
0.000000
  70
    32
  0
VERTEX
  8
SAPA_PROFIL
  5
26D1
 10
-28.6817
 20
-164.344
 30
0.000000
  70
    32
  0
VERTEX
  8
SAPA_PROFIL
  5
26D2
 10
-28.7382
 20
-164.485
 30
0.000000
  70
    32
  0
VERTEX
  8
SAPA_PROFIL
  5
26D3
 10
-28.7986
 20
-164.620
 30
0.000000
  70
    32
  0
VERTEX
  8
SAPA_PROFIL
  5
26D4
 10
-28.8627
 20
-164.750
 30
0.000000
  70
    32
  0
VERTEX
  8
SAPA_PROFIL
  5
26D5
 10
-28.9304
 20
-164.875
 30
0.000000
  70
    32
  0
VERTEX
  8
SAPA_PROFIL
  5
26D6
 10
-29.0015
 20
-164.993
 30
0.000000
  70
    32
  0
VERTEX
  8
SAPA_PROFIL
  5
26D7
 10
-29.0758
 20
-165.106
 30
0.000000
  70
    32
  0
VERTEX
  8
SAPA_PROFIL
  5
26D8
 10
-29.1532
 20
-165.211
 30
0.000000
  70
    32
  0
VERTEX
  8
SAPA_PROFIL
  5
26D9
 10
-29.2335
 20
-165.310
 30
0.000000
  70
    32
  0
VERTEX
  8
SAPA_PROFIL
  5
26DA
 10
-29.3164
 20
-165.402
 30
0.000000
  70
    32
  0
VERTEX
  8
SAPA_PROFIL
  5
26DB
 10
-29.4018
 20
-165.487
 30
0.000000
  70
    32
  0
VERTEX
  8
SAPA_PROFIL
  5
26DC
 10
-29.4895
 20
-165.564
 30
0.000000
  70
    32
  0
VERTEX
  8
SAPA_PROFIL
  5
26DD
 10
-29.5793
 20
-165.634
 30
0.000000
  70
    32
  0
VERTEX
  8
SAPA_PROFIL
  5
26DE
 10
-29.6708
 20
-165.695
 30
0.000000
  70
    32
  0
VERTEX
  8
SAPA_PROFIL
  5
26DF
 10
-29.7641
 20
-165.749
 30
0.000000
  70
    32
  0
VERTEX
  8
SAPA_PROFIL
  5
26E0
 10
-29.8587
 20
-165.795
 30
0.000000
  70
    32
  0
VERTEX
  8
SAPA_PROFIL
  5
26E1
 10
-29.9544
 20
-165.833
 30
0.000000
  70
    32
  0
VERTEX
  8
SAPA_PROFIL
  5
26E2
 10
-30.0512
 20
-165.862
 30
0.000000
  70
    32
  0
VERTEX
  8
SAPA_PROFIL
  5
26E3
 10
-30.1486
 20
-165.883
 30
0.000000
  70
    32
  0
VERTEX
  8
SAPA_PROFIL
  5
26E4
 10
-30.2465
 20
-165.896
 30
0.000000
  70
    32
  0
VERTEX
  8
SAPA_PROFIL
  5
26E5
 10
-30.3446
 20
-165.900
 30
0.000000
  70
    32
  0
SEQEND
  8
SAPA_PROFIL
  5
26E6
  0
POLYLINE
  5
1627
  8
SAPA_PROFIL
 62
     2
 66
     1
 10
0.0
 20
0.0
 30
0.0
 70
     1
  0
VERTEX
  5
1E96
  8
SAPA_PROFIL
 62
     2
 10
-24.694621398209328
 20
-157.58121923431941
 30
0.0
  0
VERTEX
  5
1E97
  8
SAPA_PROFIL
 62
     2
 10
-24.694621398209328
 20
-167.89999999794529
 30
0.0
 42
-0.4142135623730951
  0
VERTEX
  5
1E98
  8
SAPA_PROFIL
 62
     2
 10
-24.99462139820934
 20
-168.1999999979453
 30
0.0
  0
VERTEX
  5
1E99
  8
SAPA_PROFIL
 62
     2
 10
-26.694621398209339
 20
-168.1999999979453
 30
0.0
  0
VERTEX
  5
1E9A
  8
SAPA_PROFIL
 62
     2
 10
-26.694621398209339
 20
-170.01370008986569
 30
0.0
 42
-0.4005932428724212
  0
VERTEX
  5
1E9B
  8
SAPA_PROFIL
 62
     2
 10
-26.98060882685008
 20
-170.31337265758569
 30
0.0
  0
VERTEX
  5
1E9C
  8
SAPA_PROFIL
 62
     2
 10
-36.180608826850083
 20
-170.7996725656653
 30
0.0
 42
-0.427966335106886
  0
VERTEX
  5
1E9D
  8
SAPA_PROFIL
 62
     2
 10
-36.49462139820934
 20
-170.49999999794531
 30
0.0
  0
VERTEX
  5
1E9E
  8
SAPA_PROFIL
 62
     2
 10
-36.49462139820934
 20
-156.81953534864661
 30
0.0
 42
-0.0195279011117891
  0
VERTEX
  5
1E9F
  8
SAPA_PROFIL
 62
     2
 10
-36.493097205211889
 20
-156.78052419853341
 30
0.0
  0
VERTEX
  5
1EA0
  8
SAPA_PROFIL
 62
     2
 10
-35.66677617471337
 20
-148.7719776977188
 30
0.0
 42
-0.3915187749346392
  0
VERTEX
  5
1EA1
  8
SAPA_PROFIL
 62
     2
 10
-34.669824560708271
 20
-147.8499999979453
 30
0.0
  0
VERTEX
  5
1EA2
  8
SAPA_PROFIL
 62
     2
 10
-32.37512794354506
 20
-147.8499999979453
 30
0.0
 42
-0.2613472755167645
  0
VERTEX
  5
1EA3
  8
SAPA_PROFIL
 62
     2
 10
-31.94841625097245
 20
-148.08939084342111
 30
0.0
  0
VERTEX
  5
1EA4
  8
SAPA_PROFIL
 62
     2
 10
-24.841198013064119
 20
-157.060000925271
 30
0.0
 42
-0.1379343940649207
  0
SEQEND
  5
1EA5
  8
SAPA_PROFIL
 62
     2
  0
POLYLINE
  5
1628
  8
SAPA_PROFIL
 66
     1
 10
0.0
 20
0.0
 30
0.0
 70
     1
  0
VERTEX
  5
1EA6
  8
SAPA_PROFIL
 10
-8.4999999929717962
 20
-97.545009244861106
 30
0.0
  0
VERTEX
  5
1EA7
  8
SAPA_PROFIL
 10
-8.4999999929717962
 20
-101.3977956493613
 30
0.0
 42
-0.4142135623731784
  0
VERTEX
  5
1EA8
  8
SAPA_PROFIL
 10
-8.7999999929718626
 20
-101.6977956493614
 30
0.0
  0
VERTEX
  5
1EA9
  8
SAPA_PROFIL
 10
-9.0999999929722151
 20
-101.6977956493613
 30
0.0
  0
VERTEX
  5
1EAA
  8
SAPA_PROFIL
 10
-10.69999999297184
 20
-100.7740352186579
 30
0.0
 42
0.5773502691887984
  0
VERTEX
  5
1EAB
  8
SAPA_PROFIL
 10
-10.9999999929718
 20
-100.9472402994149
 30
0.0
  0
VERTEX
  5
1EAC
  8
SAPA_PROFIL
 10
-10.999999992971791
 20
-102.3328809454699
 30
0.0
 42
0.2679491924311038
  0
VERTEX
  5
1EAD
  8
SAPA_PROFIL
 10
-10.49999999297196
 20
-103.1989063492543
 30
0.0
  0
VERTEX
  5
1EAE
  8
SAPA_PROFIL
 10
-8.7499999955850001
 20
-104.20926931882749
 30
0.0
 42
-0.2679491932396976
  0
VERTEX
  5
1EAF
  8
SAPA_PROFIL
 10
-8.4999999955849717
 20
-104.6422820222287
 30
0.0
  0
VERTEX
  5
1EB0
  8
SAPA_PROFIL
 10
-8.4999999955849361
 20
-137.2803847556597
 30
0.0
  0
VERTEX
  5
1EB1
  8
SAPA_PROFIL
 10
-8.1999999955849372
 20
-137.7999999979304
 30
0.0
  0
VERTEX
  5
1EB2
  8
SAPA_PROFIL
 10
-8.4999999955849361
 20
-138.31961524020099
 30
0.0
  0
VERTEX
  5
1EB3
  8
SAPA_PROFIL
 10
-8.4999999955849361
 20
-138.6577179736324
 30
0.0
 42
-0.2679491916226445
  0
VERTEX
  5
1EB4
  8
SAPA_PROFIL
 10
-8.7499999929718442
 20
-139.0907306755247
 30
0.0
  0
VERTEX
  5
1EB5
  8
SAPA_PROFIL
 10
-10.499999992971841
 20
-140.10109364660661
 30
0.0
 42
0.2679491924311319
  0
VERTEX
  5
1EB6
  8
SAPA_PROFIL
 10
-10.99999999297178
 20
-140.96711905039101
 30
0.0
  0
VERTEX
  5
1EB7
  8
SAPA_PROFIL
 10
-10.99999999297178
 20
-142.3527596964461
 30
0.0
 42
0.5773502691893683
  0
VERTEX
  5
1EB8
  8
SAPA_PROFIL
 10
-10.699999992971829
 20
-142.52596477720309
 30
0.0
  0
VERTEX
  5
1EB9
  8
SAPA_PROFIL
 10
-9.0999999929717958
 20
-141.6022043464996
 30
0.0
  0
VERTEX
  5
1EBA
  8
SAPA_PROFIL
 10
-8.7999999929718555
 20
-141.6022043464996
 30
0.0
 42
-0.4142135623732059
  0
VERTEX
  5
1EBB
  8
SAPA_PROFIL
 10
-8.4999999929717873
 20
-141.90220434649979
 30
0.0
  0
VERTEX
  5
1EBC
  8
SAPA_PROFIL
 10
-8.4999999929717873
 20
-145.75499075099989
 30
0.0
 42
0.2134217652834387
  0
VERTEX
  5
1EBD
  8
SAPA_PROFIL
 10
-8.3999999929716651
 20
-145.97859754875
 30
0.0
 42
-0.7625858545243238
  0
VERTEX
  5
1EBE
  8
SAPA_PROFIL
 10
-8.5845791951691481
 20
-146.30892362976701
 30
0.0
  0
VERTEX
  5
1EBF
  8
SAPA_PROFIL
 10
-8.7759621951628688
 20
-146.25084999277789
 30
0.0
  0
VERTEX
  5
1EC0
  8
SAPA_PROFIL
 10
-10.66180588702392
 20
-145.1662855458062
 30
0.0
  0
VERTEX
  5
1EC1
  8
SAPA_PROFIL
 10
-10.65124452079694
 20
-144.84452781758799
 30
0.0
 42
0.5773502691897466
  0
VERTEX
  5
1EC2
  8
SAPA_PROFIL
 10
-10.945400821051781
 20
-144.66157407747781
 30
0.0
  0
VERTEX
  5
1EC3
  8
SAPA_PROFIL
 10
-11.23008310428343
 20
-144.81370798858649
 30
0.0
 42
0.221694662643019
  0
VERTEX
  5
1EC4
  8
SAPA_PROFIL
 10
-11.63589200943821
 20
-145.3545878200633
 30
0.0
  0
VERTEX
  5
1EC5
  8
SAPA_PROFIL
 10
-12.01733860556593
 20
-147.16781829072161
 30
0.0
 42
0.476975532698164
  0
VERTEX
  5
1EC6
  8
SAPA_PROFIL
 10
-11.715085781059461
 20
-147.53947516566751
 30
0.0
  0
VERTEX
  5
1EC7
  8
SAPA_PROFIL
 10
-10.21198470029745
 20
-147.5393915577838
 30
0.0
  0
VERTEX
  5
1EC8
  8
SAPA_PROFIL
 10
-10.19746629105035
 20
-147.49154580778529
 30
0.0
 42
-0.4142135623730951
  0
VERTEX
  5
1EC9
  8
SAPA_PROFIL
 10
-9.8232813355745421
 20
-147.29158176327789
 30
0.0
  0
VERTEX
  5
1ECA
  8
SAPA_PROFIL
 10
-8.5078676157291611
 20
-147.79999999793051
 30
0.0
  0
VERTEX
  5
1ECB
  8
SAPA_PROFIL
 10
-5.509716754555618
 20
-147.7999999979304
 30
0.0
 42
0.2562769736732418
  0
VERTEX
  5
1ECC
  8
SAPA_PROFIL
 10
-5.3410442503442752
 20
-147.70746899961489
 30
0.0
  0
VERTEX
  5
1ECD
  8
SAPA_PROFIL
 10
-4.5469912441676641
 20
-146.4612035004572
 30
0.0
 42
0.5920056181180006
  0
VERTEX
  5
1ECE
  8
SAPA_PROFIL
 10
-4.8000000004847356
 20
-145.9999999979305
 30
0.0
  0
VERTEX
  5
1ECF
  8
SAPA_PROFIL
 10
-6.2000000004847129
 20
-145.9999999979305
 30
0.0
 42
-0.4142135623731505
  0
VERTEX
  5
1ED0
  8
SAPA_PROFIL
 10
-6.5000000004847527
 20
-145.69999999793049
 30
0.0
  0
VERTEX
  5
1ED1
  8
SAPA_PROFIL
 10
-6.5000000004846106
 20
-143.2999999979306
 30
0.0
 42
-0.4142135623729841
  0
VERTEX
  5
1ED2
  8
SAPA_PROFIL
 10
-6.2000000004847129
 20
-142.99999999793059
 30
0.0
  0
VERTEX
  5
1ED3
  8
SAPA_PROFIL
 10
11.199999999515351
 20
-142.99999999793059
 30
0.0
 42
-0.4142135623730882
  0
VERTEX
  5
1ED4
  8
SAPA_PROFIL
 10
11.49999999951536
 20
-143.2999999979306
 30
0.0
  0
VERTEX
  5
1ED5
  8
SAPA_PROFIL
 10
11.499999999515341
 20
-145.69999999793069
 30
0.0
 42
-0.4142135623730118
  0
VERTEX
  5
1ED6
  8
SAPA_PROFIL
 10
11.199999999515271
 20
-145.9999999979305
 30
0.0
  0
VERTEX
  5
1ED7
  8
SAPA_PROFIL
 10
9.7999999995152578
 20
-145.9999999979305
 30
0.0
 42
0.5877032589249656
  0
VERTEX
  5
1ED8
  8
SAPA_PROFIL
 10
9.5449537822051482
 20
-146.4579602050581
 30
0.0
  0
VERTEX
  5
1ED9
  8
SAPA_PROFIL
 10
10.44135275944735
 20
-147.90530680268239
 30
0.0
 42
0.2596812337301635
  0
VERTEX
  5
1EDA
  8
SAPA_PROFIL
 10
10.611383570987449
 20
-147.99999999793059
 30
0.0
  0
VERTEX
  5
1EDB
  8
SAPA_PROFIL
 10
13.30000000434687
 20
-147.99999999793059
 30
0.0
 42
0.4142135623732095
  0
VERTEX
  5
1EDC
  8
SAPA_PROFIL
 10
13.500000004346861
 20
-147.7999999979306
 30
0.0
  0
VERTEX
  5
1EDD
  8
SAPA_PROFIL
 10
13.50000000434685
 20
-104.9999985037804
 30
0.0
 42
0.4142135623730067
  0
VERTEX
  5
1EDE
  8
SAPA_PROFIL
 10
11.500001498497349
 20
-102.9999999979304
 30
0.0
  0
VERTEX
  5
1EDF
  8
SAPA_PROFIL
 10
5.7999992572719332
 20
-102.9999999979304
 30
0.0
 42
-0.4142135623729993
  0
VERTEX
  5
1EE0
  8
SAPA_PROFIL
 10
4.80000000434684
 20
-102.00000074500539
 30
0.0
  0
VERTEX
  5
1EE1
  8
SAPA_PROFIL
 10
4.8000000043469369
 20
-94.498980997930332
 30
0.0
 42
0.4142135623730951
  0
VERTEX
  5
1EE2
  8
SAPA_PROFIL
 10
3.8000000043469231
 20
-93.498980997930417
 30
0.0
  0
VERTEX
  5
1EE3
  8
SAPA_PROFIL
 10
3.302224854931946
 20
-93.498980997930417
 30
0.0
 42
0.4142135623729598
  0
VERTEX
  5
1EE4
  8
SAPA_PROFIL
 10
3.1022250043468449
 20
-93.698980848515433
 30
0.0
  0
VERTEX
  5
1EE5
  8
SAPA_PROFIL
 10
3.1022250043469302
 20
-95.296831561109087
 30
0.0
 42
-0.414645992438811
  0
VERTEX
  5
1EE6
  8
SAPA_PROFIL
 10
2.9019297678863971
 20
-95.496831343197556
 30
0.0
  0
VERTEX
  5
1EE7
  8
SAPA_PROFIL
 10
-8.5036965589539371
 20
-95.498387850139423
 30
0.0
  0
VERTEX
  5
1EE8
  8
SAPA_PROFIL
 10
-9.8232813355745385
 20
-96.008418232582727
 30
0.0
 42
-0.4142135623730951
  0
VERTEX
  5
1EE9
  8
SAPA_PROFIL
 10
-10.19746629105035
 20
-95.808454188075316
 30
0.0
  0
VERTEX
  5
1EEA
  8
SAPA_PROFIL
 10
-10.21198470029745
 20
-95.760608438076844
 30
0.0
  0
VERTEX
  5
1EEB
  8
SAPA_PROFIL
 10
-11.715085781059461
 20
-95.760524830193205
 30
0.0
 42
0.4769755326981641
  0
VERTEX
  5
1EEC
  8
SAPA_PROFIL
 10
-12.01733860556593
 20
-96.132181705139061
 30
0.0
  0
VERTEX
  5
1EED
  8
SAPA_PROFIL
 10
-11.63589200943821
 20
-97.945412175797316
 30
0.0
 42
0.2216946626430191
  0
VERTEX
  5
1EEE
  8
SAPA_PROFIL
 10
-11.230083104283411
 20
-98.486292007274102
 30
0.0
  0
VERTEX
  5
1EEF
  8
SAPA_PROFIL
 10
-10.945400821051759
 20
-98.638425918382879
 30
0.0
 42
0.5773502691897466
  0
VERTEX
  5
1EF0
  8
SAPA_PROFIL
 10
-10.651244520796951
 20
-98.455472178272686
 30
0.0
  0
VERTEX
  5
1EF1
  8
SAPA_PROFIL
 10
-10.66180588702392
 20
-98.133714450054441
 30
0.0
  0
VERTEX
  5
1EF2
  8
SAPA_PROFIL
 10
-8.7759621951628652
 20
-97.049150003082701
 30
0.0
  0
VERTEX
  5
1EF3
  8
SAPA_PROFIL
 10
-8.5845791951691446
 20
-96.991076366093623
 30
0.0
 42
-0.7625858545243257
  0
VERTEX
  5
1EF4
  8
SAPA_PROFIL
 10
-8.3999999929716616
 20
-97.321402447110614
 30
0.0
 42
0.2134217652834391
  0
SEQEND
  5
1EF5
  8
SAPA_PROFIL
  0
POLYLINE
  5
1629
  8
SAPA_PROFIL
 66
     1
 10
0.0
 20
0.0
 30
0.0
 70
     1
  0
VERTEX
  5
1EF6
  8
SAPA_PROFIL
 10
11.50000000756504
 20
-104.9999999979304
 30
0.0
  0
VERTEX
  5
1EF7
  8
SAPA_PROFIL
 10
11.50000000756504
 20
-106.9999999979304
 30
0.0
  0
VERTEX
  5
1EF8
  8
SAPA_PROFIL
 10
11.400000007565129
 20
-106.9999999979303
 30
0.0
 42
0.4142135623732199
  0
VERTEX
  5
1EF9
  8
SAPA_PROFIL
 10
11.20000000756505
 20
-107.19999999793031
 30
0.0
  0
VERTEX
  5
1EFA
  8
SAPA_PROFIL
 10
11.20000000756494
 20
-108.7999999979303
 30
0.0
 42
0.4142135623727933
  0
VERTEX
  5
1EFB
  8
SAPA_PROFIL
 10
11.40000000756484
 20
-108.9999999979304
 30
0.0
  0
VERTEX
  5
1EFC
  8
SAPA_PROFIL
 10
11.50000000756504
 20
-108.9999999979304
 30
0.0
  0
VERTEX
  5
1EFD
  8
SAPA_PROFIL
 10
11.500000007565051
 20
-137.2999999979304
 30
0.0
  0
VERTEX
  5
1EFE
  8
SAPA_PROFIL
 10
11.400000007565049
 20
-137.2999999979306
 30
0.0
 42
0.4142135623730847
  0
VERTEX
  5
1EFF
  8
SAPA_PROFIL
 10
11.200000007565061
 20
-137.49999999793059
 30
0.0
  0
VERTEX
  5
1F00
  8
SAPA_PROFIL
 10
11.200000007565169
 20
-139.09999999793061
 30
0.0
 42
0.4142135623730847
  0
VERTEX
  5
1F01
  8
SAPA_PROFIL
 10
11.400000007565049
 20
-139.29999999793051
 30
0.0
  0
VERTEX
  5
1F02
  8
SAPA_PROFIL
 10
11.500000007565051
 20
-139.29999999793051
 30
0.0
  0
VERTEX
  5
1F03
  8
SAPA_PROFIL
 10
11.500000007565051
 20
-140.99999999793059
 30
0.0
 42
-0.4142135623730675
  0
VERTEX
  5
1F04
  8
SAPA_PROFIL
 10
11.200000007565061
 20
-141.2999999979304
 30
0.0
  0
VERTEX
  5
1F05
  8
SAPA_PROFIL
 10
-6.3999999924349353
 20
-141.2999999979304
 30
0.0
 42
-0.4142135623730673
  0
VERTEX
  5
1F06
  8
SAPA_PROFIL
 10
-6.699999992434889
 20
-140.99999999793059
 30
0.0
  0
VERTEX
  5
1F07
  8
SAPA_PROFIL
 10
-6.699999992434889
 20
-139.29999999793031
 30
0.0
  0
VERTEX
  5
1F08
  8
SAPA_PROFIL
 10
-6.3999999924348776
 20
-139.29999999793051
 30
0.0
 42
0.4142135623731367
  0
VERTEX
  5
1F09
  8
SAPA_PROFIL
 10
-6.199999992434889
 20
-139.09999999793041
 30
0.0
  0
VERTEX
  5
1F0A
  8
SAPA_PROFIL
 10
-6.199999992434833
 20
-137.49999999793059
 30
0.0
 42
0.4142135623732407
  0
VERTEX
  5
1F0B
  8
SAPA_PROFIL
 10
-6.399999992435049
 20
-137.29999999793051
 30
0.0
  0
VERTEX
  5
1F0C
  8
SAPA_PROFIL
 10
-6.6999999924349458
 20
-137.2999999979306
 30
0.0
  0
VERTEX
  5
1F0D
  8
SAPA_PROFIL
 10
-6.6999999924349529
 20
-108.9999999979302
 30
0.0
  0
VERTEX
  5
1F0E
  8
SAPA_PROFIL
 10
-6.3999999924348847
 20
-108.9999999979304
 30
0.0
 42
0.4142135623732199
  0
VERTEX
  5
1F0F
  8
SAPA_PROFIL
 10
-6.1999999924348961
 20
-108.7999999979303
 30
0.0
  0
VERTEX
  5
1F10
  8
SAPA_PROFIL
 10
-6.1999999924349822
 20
-107.19999999793031
 30
0.0
 42
0.4142135623733448
  0
VERTEX
  5
1F11
  8
SAPA_PROFIL
 10
-6.3999999924350561
 20
-106.9999999979304
 30
0.0
  0
VERTEX
  5
1F12
  8
SAPA_PROFIL
 10
-6.6999999924348961
 20
-106.9999999979304
 30
0.0
  0
VERTEX
  5
1F13
  8
SAPA_PROFIL
 10
-6.6999999924348996
 20
-97.49999999793063
 30
0.0
 42
-0.4142135623732061
  0
VERTEX
  5
1F14
  8
SAPA_PROFIL
 10
-6.3999999924348892
 20
-97.199999997930533
 30
0.0
  0
VERTEX
  5
1F15
  8
SAPA_PROFIL
 10
2.8000000043469369
 20
-97.199999997930533
 30
0.0
 42
-0.4142135623732059
  0
VERTEX
  5
1F16
  8
SAPA_PROFIL
 10
3.100000004346922
 20
-97.49999999793063
 30
0.0
  0
VERTEX
  5
1F17
  8
SAPA_PROFIL
 10
3.100000004346922
 20
-102.00000074500529
 30
0.0
 42
0.414213562373052
  0
VERTEX
  5
1F18
  8
SAPA_PROFIL
 10
5.7999992572717627
 20
-104.69999999793031
 30
0.0
  0
VERTEX
  5
1F19
  8
SAPA_PROFIL
 10
11.20000000756505
 20
-104.69999999793031
 30
0.0
 42
-0.4142135623732891
  0
SEQEND
  5
1F1A
  8
SAPA_PROFIL
  0
POLYLINE
  5
162A
  8
SAPA_PROFIL
 66
     1
 10
0.0
 20
0.0
 30
0.1
 70
     1
  0
VERTEX
  5
1F1B
  8
SAPA_PROFIL
 10
-48.499999992889542
 20
-103.2003825292539
 30
0.1
 42
0.2679491924311119
  0
VERTEX
  5
1F1C
  8
SAPA_PROFIL
 10
-47.999999992889641
 20
-102.33435712546959
 30
0.1
  0
VERTEX
  5
1F1D
  8
SAPA_PROFIL
 10
-47.999999992889748
 20
-100.9487164794145
 30
0.1
 42
0.5773502691897603
  0
VERTEX
  5
1F1E
  8
SAPA_PROFIL
 10
-48.29999999288971
 20
-100.7755113986577
 30
0.1
  0
VERTEX
  5
1F1F
  8
SAPA_PROFIL
 10
-49.899999992889391
 20
-101.699271829361
 30
0.1
  0
VERTEX
  5
1F20
  8
SAPA_PROFIL
 10
-50.199999992889573
 20
-101.699271829361
 30
0.1
 42
-0.4142135623728995
  0
VERTEX
  5
1F21
  8
SAPA_PROFIL
 10
-50.499999992889641
 20
-101.3992718293611
 30
0.1
  0
VERTEX
  5
1F22
  8
SAPA_PROFIL
 10
-50.499999992889578
 20
-97.546485424861075
 30
0.1
 42
0.2134217652834313
  0
VERTEX
  5
1F23
  8
SAPA_PROFIL
 10
-50.599999992889707
 20
-97.322878627110981
 30
0.1
 42
-0.7625858545243313
  0
VERTEX
  5
1F24
  8
SAPA_PROFIL
 10
-50.415420790692231
 20
-96.992552546093947
 30
0.1
  0
VERTEX
  5
1F25
  8
SAPA_PROFIL
 10
-50.22403779069851
 20
-97.050626183083025
 30
0.1
  0
VERTEX
  5
1F26
  8
SAPA_PROFIL
 10
-48.338194098837462
 20
-98.135190630054794
 30
0.1
  0
VERTEX
  5
1F27
  8
SAPA_PROFIL
 10
-48.34875546506445
 20
-98.456948358273053
 30
0.1
 42
0.5773502691897454
  0
VERTEX
  5
1F28
  8
SAPA_PROFIL
 10
-48.054599164809602
 20
-98.639902098383203
 30
0.1
  0
VERTEX
  5
1F29
  8
SAPA_PROFIL
 10
-47.769916881577949
 20
-98.487768187274469
 30
0.1
 42
0.2216946626430149
  0
VERTEX
  5
1F2A
  8
SAPA_PROFIL
 10
-47.364107976423163
 20
-97.946888355797654
 30
0.1
  0
VERTEX
  5
1F2B
  8
SAPA_PROFIL
 10
-46.982661380295447
 20
-96.133657885139428
 30
0.1
 42
0.476975532698164
  0
VERTEX
  5
1F2C
  8
SAPA_PROFIL
 10
-47.284914204801908
 20
-95.762001010193515
 30
0.1
  0
VERTEX
  5
1F2D
  8
SAPA_PROFIL
 10
-48.78801528556393
 20
-95.762084618077182
 30
0.1
  0
VERTEX
  5
1F2E
  8
SAPA_PROFIL
 10
-48.802533694811032
 20
-95.809930368075669
 30
0.1
 42
-0.4142135623730875
  0
VERTEX
  5
1F2F
  8
SAPA_PROFIL
 10
-49.176718650286837
 20
-96.009894412583066
 30
0.1
  0
VERTEX
  5
1F30
  8
SAPA_PROFIL
 10
-50.49595165204888
 20
-95.499999994019333
 30
0.1
  0
VERTEX
  5
1F31
  8
SAPA_PROFIL
 10
-70.231478389545714
 20
-95.499999994019333
 30
0.1
 42
-0.3821712090170728
  0
VERTEX
  5
1F32
  8
SAPA_PROFIL
 10
-70.529644584647642
 20
-95.233119778113576
 30
0.1
  0
VERTEX
  5
1F33
  8
SAPA_PROFIL
 10
-71.055484119612643
 20
-88.655148994019356
 30
0.1
 42
-0.4469990000000183
  0
VERTEX
  5
1F34
  8
SAPA_PROFIL
 10
-70.55854011961263
 20
-88.099948994019371
 30
0.1
  0
VERTEX
  5
1F35
  8
SAPA_PROFIL
 10
-68.799999992889624
 20
-88.099948994019329
 30
0.1
 42
0.414213999999998
  0
VERTEX
  5
1F36
  8
SAPA_PROFIL
 10
-67.799999992889624
 20
-87.099948994019371
 30
0.1
  0
VERTEX
  5
1F37
  8
SAPA_PROFIL
 10
-67.799999992889639
 20
-86.832404994019356
 30
0.1
 42
0.2896899999999924
  0
VERTEX
  5
1F38
  8
SAPA_PROFIL
 10
-68.371427992889636
 20
-85.928896994019311
 30
0.1
 42
0.5507599999999715
  0
VERTEX
  5
1F39
  8
SAPA_PROFIL
 10
-68.799999992889624
 20
-86.199948994019337
 30
0.1
  0
VERTEX
  5
1F3A
  8
SAPA_PROFIL
 10
-68.799999992889624
 20
-86.49994899401932
 30
0.1
 42
-0.4142140000001125
  0
VERTEX
  5
1F3B
  8
SAPA_PROFIL
 10
-68.999999992889641
 20
-86.699948994019337
 30
0.1
  0
VERTEX
  5
1F3C
  8
SAPA_PROFIL
 10
-70.099999992889664
 20
-86.699948994019337
 30
0.1
 42
-0.4142139999999939
  0
VERTEX
  5
1F3D
  8
SAPA_PROFIL
 10
-71.099999992889664
 20
-85.699948994019337
 30
0.1
  0
VERTEX
  5
1F3E
  8
SAPA_PROFIL
 10
-71.099999992889664
 20
-83.399999994019367
 30
0.1
 42
-0.4142139999999918
  0
VERTEX
  5
1F3F
  8
SAPA_PROFIL
 10
-70.099999992889664
 20
-82.399999994019353
 30
0.1
  0
VERTEX
  5
1F40
  8
SAPA_PROFIL
 10
-68.999999992889641
 20
-82.399999994019339
 30
0.1
 42
-0.4142139999999378
  0
VERTEX
  5
1F41
  8
SAPA_PROFIL
 10
-68.799999992889624
 20
-82.599999994019356
 30
0.1
  0
VERTEX
  5
1F42
  8
SAPA_PROFIL
 10
-68.799999992889596
 20
-82.899948994019326
 30
0.1
 42
0.5507599999999796
  0
VERTEX
  5
1F43
  8
SAPA_PROFIL
 10
-68.37142799288965
 20
-83.171001994019335
 30
0.1
 42
0.2896900000000027
  0
VERTEX
  5
1F44
  8
SAPA_PROFIL
 10
-67.799999992889624
 20
-82.267493994019333
 30
0.1
  0
VERTEX
  5
1F45
  8
SAPA_PROFIL
 10
-67.799999992889653
 20
-81.999999994019333
 30
0.1
 42
0.4142140000000064
  0
VERTEX
  5
1F46
  8
SAPA_PROFIL
 10
-68.799999992889624
 20
-80.999999994019333
 30
0.1
  0
VERTEX
  5
1F47
  8
SAPA_PROFIL
 10
-70.499999992889627
 20
-80.99999999401939
 30
0.1
 42
0.4142139999999918
  0
VERTEX
  5
1F48
  8
SAPA_PROFIL
 10
-72.499999992889641
 20
-82.999999994019333
 30
0.1
  0
VERTEX
  5
1F49
  8
SAPA_PROFIL
 10
-72.49999999288957
 20
-169.4999999940193
 30
0.1
 42
0.414213999999996
  0
VERTEX
  5
1F4A
  8
SAPA_PROFIL
 10
-71.999999992889599
 20
-169.9999999940193
 30
0.1
  0
VERTEX
  5
1F4B
  8
SAPA_PROFIL
 10
-68.29999999288961
 20
-169.99999999401919
 30
0.1
 42
0.4142139999999107
  0
VERTEX
  5
1F4C
  8
SAPA_PROFIL
 10
-67.999999992889627
 20
-169.69999999401929
 30
0.1
  0
VERTEX
  5
1F4D
  8
SAPA_PROFIL
 10
-67.999999992889599
 20
-168.93245499401931
 30
0.1
 42
0.2896899999999864
  0
VERTEX
  5
1F4E
  8
SAPA_PROFIL
 10
-68.571427992889596
 20
-168.02894699401929
 30
0.1
 42
0.5507600000000558
  0
VERTEX
  5
1F4F
  8
SAPA_PROFIL
 10
-68.999999992889613
 20
-168.29999999401929
 30
0.1
  0
VERTEX
  5
1F50
  8
SAPA_PROFIL
 10
-68.999999992889613
 20
-168.4999999940193
 30
0.1
 42
-0.414214000000073
  0
VERTEX
  5
1F51
  8
SAPA_PROFIL
 10
-69.29999999288961
 20
-168.79999999401929
 30
0.1
  0
VERTEX
  5
1F52
  8
SAPA_PROFIL
 10
-70.79999999288961
 20
-168.79999999401929
 30
0.1
 42
-0.414213999999996
  0
VERTEX
  5
1F53
  8
SAPA_PROFIL
 10
-71.29999999288961
 20
-168.29999999401929
 30
0.1
  0
VERTEX
  5
1F54
  8
SAPA_PROFIL
 10
-71.29999999288961
 20
-164.9999999940193
 30
0.1
 42
-0.4142140000000002
  0
VERTEX
  5
1F55
  8
SAPA_PROFIL
 10
-70.79999999288961
 20
-164.49999999401919
 30
0.1
  0
VERTEX
  5
1F56
  8
SAPA_PROFIL
 10
-69.29999999288961
 20
-164.49999999401919
 30
0.1
 42
-0.4142140000000209
  0
VERTEX
  5
1F57
  8
SAPA_PROFIL
 10
-68.999999992889613
 20
-164.79999999401929
 30
0.1
  0
VERTEX
  5
1F58
  8
SAPA_PROFIL
 10
-68.999999992889684
 20
-164.99999999401919
 30
0.1
 42
0.5507600000000054
  0
VERTEX
  5
1F59
  8
SAPA_PROFIL
 10
-68.571427992889582
 20
-165.2710519940193
 30
0.1
 42
0.2896899999999876
  0
VERTEX
  5
1F5A
  8
SAPA_PROFIL
 10
-67.999999992889613
 20
-164.36754399401929
 30
0.1
  0
VERTEX
  5
1F5B
  8
SAPA_PROFIL
 10
-67.999999992889627
 20
-163.3700729940193
 30
0.1
 42
0.0436609999999812
  0
VERTEX
  5
1F5C
  8
SAPA_PROFIL
 10
-68.00759599288962
 20
-163.28324799401929
 30
0.1
  0
VERTEX
  5
1F5D
  8
SAPA_PROFIL
 10
-68.28444199288964
 20
-161.71317599401931
 30
0.1
 42
0.839099999999979
  0
VERTEX
  5
1F5E
  8
SAPA_PROFIL
 10
-69.269249992889627
 20
-161.71317599401931
 30
0.1
  0
VERTEX
  5
1F5F
  8
SAPA_PROFIL
 10
-69.476194992889603
 20
-162.8868239940193
 30
0.1
 42
-0.363970000000042
  0
VERTEX
  5
1F60
  8
SAPA_PROFIL
 10
-69.968598992889625
 20
-163.29999999401929
 30
0.1
  0
VERTEX
  5
1F61
  8
SAPA_PROFIL
 10
-70.7799999928896
 20
-163.29999999401929
 30
0.1
 42
-0.4373279999999794
  0
VERTEX
  5
1F62
  8
SAPA_PROFIL
 10
-71.278468992889628
 20
-162.76090499401931
 30
0.1
  0
VERTEX
  5
1F63
  8
SAPA_PROFIL
 10
-70.711670506493761
 20
-148.28784672060289
 30
0.1
 42
-0.4023941355298093
  0
VERTEX
  5
1F64
  8
SAPA_PROFIL
 10
-70.411916777667443
 20
-147.99999999401919
 30
0.1
  0
VERTEX
  5
1F65
  8
SAPA_PROFIL
 10
-69.611382992889617
 20
-147.99999999401919
 30
0.1
 42
0.2596810000001062
  0
VERTEX
  5
1F66
  8
SAPA_PROFIL
 10
-69.441351992889622
 20
-147.90530699401921
 30
0.1
  0
VERTEX
  5
1F67
  8
SAPA_PROFIL
 10
-68.544952992889534
 20
-146.4579599940194
 30
0.1
 42
0.5877030000000574
  0
VERTEX
  5
1F68
  8
SAPA_PROFIL
 10
-68.799999992889667
 20
-145.99999999401919
 30
0.1
  0
VERTEX
  5
1F69
  8
SAPA_PROFIL
 10
-70.199999992889616
 20
-145.99999999401919
 30
0.1
 42
-0.4142139999999773
  0
VERTEX
  5
1F6A
  8
SAPA_PROFIL
 10
-70.499999992889627
 20
-145.69999999401929
 30
0.1
  0
VERTEX
  5
1F6B
  8
SAPA_PROFIL
 10
-70.499999992889627
 20
-143.29999999401929
 30
0.1
 42
-0.4142140000000855
  0
VERTEX
  5
1F6C
  8
SAPA_PROFIL
 10
-70.199999992889616
 20
-142.99999999401919
 30
0.1
  0
VERTEX
  5
1F6D
  8
SAPA_PROFIL
 10
-52.799999992889639
 20
-142.99999999401919
 30
0.1
 42
-0.4142140000001167
  0
VERTEX
  5
1F6E
  8
SAPA_PROFIL
 10
-52.499999992889627
 20
-143.29999999401929
 30
0.1
  0
VERTEX
  5
1F6F
  8
SAPA_PROFIL
 10
-52.499999992889627
 20
-145.69999999401929
 30
0.1
 42
-0.4142140000000127
  0
VERTEX
  5
1F70
  8
SAPA_PROFIL
 10
-52.799999992889639
 20
-145.99999999401919
 30
0.1
  0
VERTEX
  5
1F71
  8
SAPA_PROFIL
 10
-54.199999992889609
 20
-145.99999999401919
 30
0.1
 42
0.5920054160710117
  0
VERTEX
  5
1F72
  8
SAPA_PROFIL
 10
-54.453008505647389
 20
-146.46120333213409
 30
0.1
  0
VERTEX
  5
1F73
  8
SAPA_PROFIL
 10
-53.658955475825742
 20
-147.7074689883471
 30
0.1
 42
0.2562769852931595
  0
VERTEX
  5
1F74
  8
SAPA_PROFIL
 10
-53.490282966927111
 20
-147.7999999940192
 30
0.1
  0
VERTEX
  5
1F75
  8
SAPA_PROFIL
 10
-50.495951652048568
 20
-147.7999999940192
 30
0.1
  0
VERTEX
  5
1F76
  8
SAPA_PROFIL
 10
-49.176718650286887
 20
-147.29010557545561
 30
0.1
 42
-0.4142135623730875
  0
VERTEX
  5
1F77
  8
SAPA_PROFIL
 10
-48.802533694811068
 20
-147.49006961996301
 30
0.1
  0
VERTEX
  5
1F78
  8
SAPA_PROFIL
 10
-48.788015285563972
 20
-147.5379153699615
 30
0.1
  0
VERTEX
  5
1F79
  8
SAPA_PROFIL
 10
-47.284914204801957
 20
-147.53799897784509
 30
0.1
 42
0.4769755326981641
  0
VERTEX
  5
1F7A
  8
SAPA_PROFIL
 10
-46.98266138029549
 20
-147.16634210289931
 30
0.1
  0
VERTEX
  5
1F7B
  8
SAPA_PROFIL
 10
-47.364107976423192
 20
-145.353111632241
 30
0.1
 42
0.2216946626430149
  0
VERTEX
  5
1F7C
  8
SAPA_PROFIL
 10
-47.76991688157802
 20
-144.81223180076429
 30
0.1
  0
VERTEX
  5
1F7D
  8
SAPA_PROFIL
 10
-48.054599164809652
 20
-144.6600978896555
 30
0.1
 42
0.5773502691897454
  0
VERTEX
  5
1F7E
  8
SAPA_PROFIL
 10
-48.348755465064478
 20
-144.84305162976571
 30
0.1
  0
VERTEX
  5
1F7F
  8
SAPA_PROFIL
 10
-48.338194098837512
 20
-145.1648093579839
 30
0.1
  0
VERTEX
  5
1F80
  8
SAPA_PROFIL
 10
-50.224037790698532
 20
-146.24937380495561
 30
0.1
  0
VERTEX
  5
1F81
  8
SAPA_PROFIL
 10
-50.415420790692252
 20
-146.3074474419447
 30
0.1
 42
-0.7625858545243333
  0
VERTEX
  5
1F82
  8
SAPA_PROFIL
 10
-50.599999992889742
 20
-145.9771213609277
 30
0.1
 42
0.2134217652834462
  0
VERTEX
  5
1F83
  8
SAPA_PROFIL
 10
-50.499999992889641
 20
-145.75351456317759
 30
0.1
  0
VERTEX
  5
1F84
  8
SAPA_PROFIL
 10
-50.499999992889641
 20
-141.90072815867751
 30
0.1
 42
-0.4142135623729119
  0
VERTEX
  5
1F85
  8
SAPA_PROFIL
 10
-50.199999992889559
 20
-141.60072815867761
 30
0.1
  0
VERTEX
  5
1F86
  8
SAPA_PROFIL
 10
-49.899999992889377
 20
-141.60072815867761
 30
0.1
  0
VERTEX
  5
1F87
  8
SAPA_PROFIL
 10
-48.299999992889752
 20
-142.52448858938101
 30
0.1
 42
0.5773502691897497
  0
VERTEX
  5
1F88
  8
SAPA_PROFIL
 10
-47.999999992889627
 20
-142.35128350862411
 30
0.1
  0
VERTEX
  5
1F89
  8
SAPA_PROFIL
 10
-47.999999992889457
 20
-140.96564286256901
 30
0.1
 42
0.2679491924311136
  0
VERTEX
  5
1F8A
  8
SAPA_PROFIL
 10
-48.499999992889471
 20
-140.09961745878451
 30
0.1
  0
VERTEX
  5
1F8B
  8
SAPA_PROFIL
 10
-50.249999992889663
 20
-139.0892544877025
 30
0.1
 42
-0.2679491924310958
  0
VERTEX
  5
1F8C
  8
SAPA_PROFIL
 10
-50.499999992889641
 20
-138.65624178581021
 30
0.1
  0
VERTEX
  5
1F8D
  8
SAPA_PROFIL
 10
-50.499999992889641
 20
-138.31961523628991
 30
0.1
  0
VERTEX
  5
1F8E
  8
SAPA_PROFIL
 10
-50.79999999288961
 20
-137.7999999940192
 30
0.1
  0
VERTEX
  5
1F8F
  8
SAPA_PROFIL
 10
-50.499999992889641
 20
-137.28038475174861
 30
0.1
  0
VERTEX
  5
1F90
  8
SAPA_PROFIL
 10
-50.499999992889641
 20
-104.6437582022284
 30
0.1
 42
-0.2679491924311033
  0
VERTEX
  5
1F91
  8
SAPA_PROFIL
 10
-50.24999999288967
 20
-104.2107455003362
 30
0.1
  0
SEQEND
  5
1F92
  8
SAPA_PROFIL
  0
POLYLINE
  5
162B
  8
SAPA_PROFIL
 66
     1
 10
0.0
 20
0.0
 30
0.1
 70
     1
  0
VERTEX
  5
1F93
  8
SAPA_PROFIL
 10
-52.799999992889639
 20
-139.0999999940193
 30
0.1
  0
VERTEX
  5
1F94
  8
SAPA_PROFIL
 10
-52.799999992889639
 20
-137.4999999940193
 30
0.1
 42
-0.4142135623730951
  0
VERTEX
  5
1F95
  8
SAPA_PROFIL
 10
-52.599999992889622
 20
-137.29999999401929
 30
0.1
  0
VERTEX
  5
1F96
  8
SAPA_PROFIL
 10
-52.2999999090163
 20
-137.29999999401929
 30
0.1
  0
VERTEX
  5
1F97
  8
SAPA_PROFIL
 10
-52.299999909016307
 20
-101.19999999401929
 30
0.1
  0
VERTEX
  5
1F98
  8
SAPA_PROFIL
 10
-52.599999992889629
 20
-101.19999999401929
 30
0.1
 42
-0.4142135623730951
  0
VERTEX
  5
1F99
  8
SAPA_PROFIL
 10
-52.799999992889639
 20
-100.9999999940193
 30
0.1
  0
VERTEX
  5
1F9A
  8
SAPA_PROFIL
 10
-52.799999992889639
 20
-99.399999994019325
 30
0.1
 42
-0.4142135623730951
  0
VERTEX
  5
1F9B
  8
SAPA_PROFIL
 10
-52.599999992889629
 20
-99.199999994019322
 30
0.1
  0
VERTEX
  5
1F9C
  8
SAPA_PROFIL
 10
-52.299999909016307
 20
-99.199999994019322
 30
0.1
  0
VERTEX
  5
1F9D
  8
SAPA_PROFIL
 10
-52.299999909016293
 20
-97.499999994019333
 30
0.1
 42
0.4142135623730951
  0
VERTEX
  5
1F9E
  8
SAPA_PROFIL
 10
-52.599999909016297
 20
-97.199999994019336
 30
0.1
  0
VERTEX
  5
1F9F
  8
SAPA_PROFIL
 10
-70.19999999288963
 20
-97.199999994019336
 30
0.1
 42
0.4142135623730951
  0
VERTEX
  5
1FA0
  8
SAPA_PROFIL
 10
-70.499999992889641
 20
-97.499999994019333
 30
0.1
  0
VERTEX
  5
1FA1
  8
SAPA_PROFIL
 10
-70.499999992889641
 20
-99.199999994019322
 30
0.1
  0
VERTEX
  5
1FA2
  8
SAPA_PROFIL
 10
-70.399999992889605
 20
-99.199999994019322
 30
0.1
 42
-0.4142135623730951
  0
VERTEX
  5
1FA3
  8
SAPA_PROFIL
 10
-70.19999999288963
 20
-99.399999994019325
 30
0.1
  0
VERTEX
  5
1FA4
  8
SAPA_PROFIL
 10
-70.19999999288963
 20
-100.9999999940193
 30
0.1
 42
-0.4142135623730951
  0
VERTEX
  5
1FA5
  8
SAPA_PROFIL
 10
-70.399999992889605
 20
-101.19999999401929
 30
0.1
  0
VERTEX
  5
1FA6
  8
SAPA_PROFIL
 10
-70.499999992889641
 20
-101.19999999401929
 30
0.1
  0
VERTEX
  5
1FA7
  8
SAPA_PROFIL
 10
-70.499999992889627
 20
-137.29999999401929
 30
0.1
  0
VERTEX
  5
1FA8
  8
SAPA_PROFIL
 10
-70.399999992889605
 20
-137.29999999401929
 30
0.1
 42
-0.4142135623730951
  0
VERTEX
  5
1FA9
  8
SAPA_PROFIL
 10
-70.199999992889616
 20
-137.4999999940193
 30
0.1
  0
VERTEX
  5
1FAA
  8
SAPA_PROFIL
 10
-70.199999992889616
 20
-139.0999999940193
 30
0.1
 42
-0.4142135623730951
  0
VERTEX
  5
1FAB
  8
SAPA_PROFIL
 10
-70.39999999288959
 20
-139.29999999401929
 30
0.1
  0
VERTEX
  5
1FAC
  8
SAPA_PROFIL
 10
-70.499999992889627
 20
-139.29999999401929
 30
0.1
  0
VERTEX
  5
1FAD
  8
SAPA_PROFIL
 10
-70.499999992889613
 20
-140.9999999940193
 30
0.1
 42
0.4142135623730951
  0
VERTEX
  5
1FAE
  8
SAPA_PROFIL
 10
-70.199999992889616
 20
-141.29999999401929
 30
0.1
  0
VERTEX
  5
1FAF
  8
SAPA_PROFIL
 10
-52.59999990901629
 20
-141.29999999401929
 30
0.1
 42
0.4142135623730951
  0
VERTEX
  5
1FB0
  8
SAPA_PROFIL
 10
-52.2999999090163
 20
-140.9999999940193
 30
0.1
  0
VERTEX
  5
1FB1
  8
SAPA_PROFIL
 10
-52.2999999090163
 20
-139.29999999401929
 30
0.1
  0
VERTEX
  5
1FB2
  8
SAPA_PROFIL
 10
-52.599999992889622
 20
-139.29999999401929
 30
0.1
 42
-0.4142135623730951
  0
SEQEND
  5
1FB3
  8
SAPA_PROFIL
  0
POLYLINE
  5
162C
  8
SAPA_PROFIL
 62
     4
 66
     1
 10
0.0
 20
0.0
 30
0.0
  0
VERTEX
  5
1FB4
  8
SAPA_PROFIL
 62
     4
 10
-20.4506708706175
 20
-145.0966328846379
 30
0.0
 42
0.5571646428658034
  0
VERTEX
  5
1FB5
  8
SAPA_PROFIL
 62
     4
 10
-20.987631374754329
 20
-144.22891397048241
 30
0.0
  0
VERTEX
  5
1FB6
  8
SAPA_PROFIL
 62
     4
 10
-38.012368611275527
 20
-144.22891397048281
 30
0.0
 42
0.5571645048035741
  0
VERTEX
  5
1FB7
  8
SAPA_PROFIL
 62
     4
 10
-38.549329228236587
 20
-145.09663265834899
 30
0.0
  0
VERTEX
  5
1FB8
  8
SAPA_PROFIL
 62
     4
 10
-37.718622140689888
 20
-146.76277331441699
 30
0.0
 42
0.284385813979063
  0
VERTEX
  5
1FB9
  8
SAPA_PROFIL
 62
     4
 10
-37.450141832209539
 20
-146.9289139704845
 30
0.0
  0
VERTEX
  5
1FBA
  8
SAPA_PROFIL
 62
     4
 10
-21.549858153820232
 20
-146.9289139704845
 30
0.0
 42
0.2843858139786238
  0
VERTEX
  5
1FBB
  8
SAPA_PROFIL
 62
     4
 10
-21.281377845339939
 20
-146.7627733144175
 30
0.0
  0
VERTEX
  5
1FBC
  8
SAPA_PROFIL
 62
     4
 10
-20.450670757792778
 20
-145.0966326583482
 30
0.0
  0
SEQEND
  5
1FBD
  8
SAPA_PROFIL
 62
     4
  0
POLYLINE
  5
162D
  8
SAPA_PROFIL
 62
     4
 66
     1
 10
0.0
 20
0.0
 30
0.0
 70
     1
  0
VERTEX
  5
1FBE
  8
SAPA_PROFIL
 62
     4
 10
-43.917611177682183
 20
-147.2857454849821
 30
0.0
  0
VERTEX
  5
1FBF
  8
SAPA_PROFIL
 62
     4
 10
-44.181634456058177
 20
-147.69230568098621
 30
0.0
 42
-0.2539676464751066
  0
VERTEX
  5
1FC0
  8
SAPA_PROFIL
 62
     4
 10
-44.433235626442887
 20
-147.82891397048229
 30
0.0
  0
VERTEX
  5
1FC1
  8
SAPA_PROFIL
 62
     4
 10
-45.814735211648241
 20
-147.82891397048229
 30
0.0
 42
-0.3152987888790479
  0
VERTEX
  5
1FC2
  8
SAPA_PROFIL
 62
     4
 10
-46.284581522040547
 20
-147.4999240421441
 30
0.0
  0
VERTEX
  5
1FC3
  8
SAPA_PROFIL
 62
     4
 10
-47.180250462949161
 20
-145.03909385169291
 30
0.0
 42
0.2694959974287434
  0
VERTEX
  5
1FC4
  8
SAPA_PROFIL
 62
     4
 10
-47.411769509350513
 20
-144.845961877349
 30
0.0
 42
0.0612686379508233
  0
VERTEX
  5
1FC5
  8
SAPA_PROFIL
 62
     4
 10
-47.704444942203793
 20
-144.83237850671841
 30
0.0
  0
VERTEX
  5
1FC6
  8
SAPA_PROFIL
 62
     4
 10
-48.053863119512059
 20
-144.63064182798959
 30
0.0
 42
0.5773502691891679
  0
VERTEX
  5
1FC7
  8
SAPA_PROFIL
 62
     4
 10
-48.368863119511651
 20
-144.81250716278419
 30
0.0
  0
VERTEX
  5
1FC8
  8
SAPA_PROFIL
 62
     4
 10
-48.368863119511893
 20
-145.0796216909105
 30
0.0
  0
VERTEX
  5
1FC9
  8
SAPA_PROFIL
 62
     4
 10
-49.76739082014614
 20
-145.88830515221881
 30
0.0
 42
-0.1318219888653519
  0
VERTEX
  5
1FCA
  8
SAPA_PROFIL
 62
     4
 10
-49.917563922618477
 20
-145.92859754875619
 30
0.0
  0
VERTEX
  5
1FCB
  8
SAPA_PROFIL
 62
     4
 10
-50.099999993055263
 20
-145.92859754874979
 30
0.0
 42
-0.4142135623724291
  0
VERTEX
  5
1FCC
  8
SAPA_PROFIL
 62
     4
 10
-50.499999993055809
 20
-145.52859754875021
 30
0.0
  0
VERTEX
  5
1FCD
  8
SAPA_PROFIL
 62
     4
 10
-50.499999993054452
 20
-142.12859754874921
 30
0.0
 42
-0.4142135623744271
  0
VERTEX
  5
1FCE
  8
SAPA_PROFIL
 62
     4
 10
-50.099999993055263
 20
-141.72859754874821
 30
0.0
  0
VERTEX
  5
1FCF
  8
SAPA_PROFIL
 62
     4
 10
-49.92038475078396
 20
-141.72859754874759
 30
0.0
 42
-0.1316524975874005
  0
VERTEX
  5
1FD0
  8
SAPA_PROFIL
 62
     4
 10
-49.770384750787137
 20
-141.7687899276132
 30
0.0
  0
VERTEX
  5
1FD1
  8
SAPA_PROFIL
 62
     4
 10
-48.166246853784891
 20
-142.69493937426569
 30
0.0
 42
0.1316524975875904
  0
VERTEX
  5
1FD2
  8
SAPA_PROFIL
 62
     4
 10
-47.666246853783171
 20
-142.8289139704805
 30
0.0
  0
VERTEX
  5
1FD3
  8
SAPA_PROFIL
 62
     4
 10
-47.249999993055802
 20
-142.8289139704805
 30
0.0
 42
0.4142135623730951
  0
VERTEX
  5
1FD4
  8
SAPA_PROFIL
 62
     4
 10
-46.249999993055809
 20
-141.8289139704805
 30
0.0
  0
VERTEX
  5
1FD5
  8
SAPA_PROFIL
 62
     4
 10
-46.249999993055809
 20
-138.8289139704832
 30
0.0
 42
-0.9999996830128083
  0
VERTEX
  5
1FD6
  8
SAPA_PROFIL
 62
     4
 10
-45.249999993055802
 20
-138.82891397048141
 30
0.0
  0
VERTEX
  5
1FD7
  8
SAPA_PROFIL
 62
     4
 10
-45.249999993055802
 20
-141.82891397048141
 30
0.0
 42
0.4142135623730951
  0
VERTEX
  5
1FD8
  8
SAPA_PROFIL
 62
     4
 10
-44.249999993055809
 20
-142.82891397048141
 30
0.0
  0
VERTEX
  5
1FD9
  8
SAPA_PROFIL
 62
     4
 10
-14.749999992971221
 20
-142.82891397048141
 30
0.0
 42
0.4142135623730951
  0
VERTEX
  5
1FDA
  8
SAPA_PROFIL
 62
     4
 10
-13.749999992971221
 20
-141.82891397048141
 30
0.0
  0
VERTEX
  5
1FDB
  8
SAPA_PROFIL
 62
     4
 10
-13.749999992971221
 20
-138.8289139704832
 30
0.0
 42
-0.9999999999999998
  0
VERTEX
  5
1FDC
  8
SAPA_PROFIL
 62
     4
 10
-12.749999992971221
 20
-138.8289139704832
 30
0.0
  0
VERTEX
  5
1FDD
  8
SAPA_PROFIL
 62
     4
 10
-12.749999992971221
 20
-141.82891397048141
 30
0.0
 42
0.4142135623736278
  0
VERTEX
  5
1FDE
  8
SAPA_PROFIL
 62
     4
 10
-11.749999992971221
 20
-142.82891397048141
 30
0.0
  0
VERTEX
  5
1FDF
  8
SAPA_PROFIL
 62
     4
 10
-11.333753132244761
 20
-142.82891397048141
 30
0.0
 42
0.1316524975874375
  0
VERTEX
  5
1FE0
  8
SAPA_PROFIL
 62
     4
 10
-10.833753132244571
 20
-142.6949393742654
 30
0.0
  0
VERTEX
  5
1FE1
  8
SAPA_PROFIL
 62
     4
 10
-9.2296152352426191
 20
-141.7687899276132
 30
0.0
 42
-0.1316524975874
  0
VERTEX
  5
1FE2
  8
SAPA_PROFIL
 62
     4
 10
-9.0796152352430752
 20
-141.72859754874759
 30
0.0
  0
VERTEX
  5
1FE3
  8
SAPA_PROFIL
 62
     4
 10
-8.8999999929717717
 20
-141.72859754874821
 30
0.0
 42
-0.4142135623744271
  0
VERTEX
  5
1FE4
  8
SAPA_PROFIL
 62
     4
 10
-8.4999999929725902
 20
-142.12859754874921
 30
0.0
  0
VERTEX
  5
1FE5
  8
SAPA_PROFIL
 62
     4
 10
-8.4999999929712242
 20
-145.52859754875021
 30
0.0
 42
-0.4142135623724291
  0
VERTEX
  5
1FE6
  8
SAPA_PROFIL
 62
     4
 10
-8.8999999929717717
 20
-145.92859754874979
 30
0.0
  0
VERTEX
  5
1FE7
  8
SAPA_PROFIL
 62
     4
 10
-9.0824360634085508
 20
-145.92859754875619
 30
0.0
 42
-0.1318219888653524
  0
VERTEX
  5
1FE8
  8
SAPA_PROFIL
 62
     4
 10
-9.2326091658808949
 20
-145.88830515221881
 30
0.0
  0
VERTEX
  5
1FE9
  8
SAPA_PROFIL
 62
     4
 10
-10.631136866360549
 20
-145.07962169099449
 30
0.0
  0
VERTEX
  5
1FEA
  8
SAPA_PROFIL
 62
     4
 10
-10.631136866360549
 20
-144.8125071627814
 30
0.0
 42
0.577350269189159
  0
VERTEX
  5
1FEB
  8
SAPA_PROFIL
 62
     4
 10
-10.946136866360151
 20
-144.63064182798689
 30
0.0
  0
VERTEX
  5
1FEC
  8
SAPA_PROFIL
 62
     4
 10
-11.29555504357881
 20
-144.83237850666401
 30
0.0
 42
0.0612687673629489
  0
VERTEX
  5
1FED
  8
SAPA_PROFIL
 62
     4
 10
-11.588230476679019
 20
-144.84596187735019
 30
0.0
 42
0.2694959974285039
  0
VERTEX
  5
1FEE
  8
SAPA_PROFIL
 62
     4
 10
-11.81974952307954
 20
-145.0390938516941
 30
0.0
  0
VERTEX
  5
1FEF
  8
SAPA_PROFIL
 62
     4
 10
-12.715418463989209
 20
-147.49992404214731
 30
0.0
 42
-0.3152987888784035
  0
VERTEX
  5
1FF0
  8
SAPA_PROFIL
 62
     4
 10
-13.18526477438243
 20
-147.82891397048391
 30
0.0
  0
VERTEX
  5
1FF1
  8
SAPA_PROFIL
 62
     4
 10
-14.56676435958687
 20
-147.82891397048229
 30
0.0
 42
-0.2539676464741841
  0
VERTEX
  5
1FF2
  8
SAPA_PROFIL
 62
     4
 10
-14.81836552997094
 20
-147.692305680987
 30
0.0
  0
VERTEX
  5
1FF3
  8
SAPA_PROFIL
 62
     4
 10
-15.08238880834759
 20
-147.2857454849821
 30
0.0
 42
-0.5862177598324623
  0
VERTEX
  5
1FF4
  8
SAPA_PROFIL
 62
     4
 10
-14.82664699310924
 20
-146.8289139704855
 30
0.0
  0
VERTEX
  5
1FF5
  8
SAPA_PROFIL
 62
     4
 10
-13.885472312599431
 20
-146.8289139704932
 30
0.0
 42
0.3152987888813165
  0
VERTEX
  5
1FF6
  8
SAPA_PROFIL
 62
     4
 10
-13.41562600220167
 20
-146.49992404215641
 30
0.0
  0
VERTEX
  5
1FF7
  8
SAPA_PROFIL
 62
     4
 10
-12.97886172107772
 20
-145.29992404214519
 30
0.0
 42
0.5205670505515651
  0
VERTEX
  5
1FF8
  8
SAPA_PROFIL
 62
     4
 10
-13.44870803147094
 20
-144.6289139704825
 30
0.0
  0
VERTEX
  5
1FF9
  8
SAPA_PROFIL
 62
     4
 10
-18.46514897213979
 20
-144.62891397048239
 30
0.0
 42
0.3702522326300203
  0
VERTEX
  5
1FFA
  8
SAPA_PROFIL
 62
     4
 10
-18.76167233393312
 20
-144.88337392314821
 30
0.0
 42
0.0982365330332397
  0
VERTEX
  5
1FFB
  8
SAPA_PROFIL
 62
     4
 10
-18.85212509214406
 20
-146.57106069814321
 30
0.0
 42
0.3735060174783164
  0
VERTEX
  5
1FFC
  8
SAPA_PROFIL
 62
     4
 10
-18.555100424233078
 20
-146.8289139704832
 30
0.0
  0
VERTEX
  5
1FFD
  8
SAPA_PROFIL
 62
     4
 10
-18.12664699311042
 20
-146.82891397048411
 30
0.0
 42
-0.5920056181162531
  0
VERTEX
  5
1FFE
  8
SAPA_PROFIL
 62
     4
 10
-17.873638236793031
 20
-147.290117473012
 30
0.0
  0
VERTEX
  5
1FFF
  8
SAPA_PROFIL
 62
     4
 10
-18.134822312948732
 20
-147.6923056809903
 30
0.0
 42
-0.2539676464746725
  0
VERTEX
  5
2000
  8
SAPA_PROFIL
 62
     4
 10
-18.386423483332489
 20
-147.8289139704857
 30
0.0
  0
VERTEX
  5
2001
  8
SAPA_PROFIL
 62
     4
 10
-40.61357650269818
 20
-147.82891397048411
 30
0.0
 42
-0.2539676464741819
  0
VERTEX
  5
2002
  8
SAPA_PROFIL
 62
     4
 10
-40.865177673081028
 20
-147.6923056809903
 30
0.0
  0
VERTEX
  5
2003
  8
SAPA_PROFIL
 62
     4
 10
-41.126361749234839
 20
-147.290117473012
 30
0.0
 42
-0.5920055144124249
  0
VERTEX
  5
2004
  8
SAPA_PROFIL
 62
     4
 10
-40.87335299291933
 20
-146.82891397048411
 30
0.0
  0
VERTEX
  5
2005
  8
SAPA_PROFIL
 62
     4
 10
-40.44489951562911
 20
-146.82891399575911
 30
0.0
 42
0.3735060174775405
  0
VERTEX
  5
2006
  8
SAPA_PROFIL
 62
     4
 10
-40.147874847719422
 20
-146.57106072341901
 30
0.0
 42
0.0355900683670349
  0
VERTEX
  5
2007
  8
SAPA_PROFIL
 62
     4
 10
-40.103981283687169
 20
-145.9551871366192
 30
0.0
 42
0.0624282003873116
  0
VERTEX
  5
2008
  8
SAPA_PROFIL
 62
     4
 10
-40.238327605930117
 20
-144.88337394842409
 30
0.0
 42
0.3702522326309292
  0
VERTEX
  5
2009
  8
SAPA_PROFIL
 62
     4
 10
-40.534850967723493
 20
-144.62891399575841
 30
0.0
  0
VERTEX
  5
200A
  8
SAPA_PROFIL
 62
     4
 10
-45.551291954557001
 20
-144.62891397048219
 30
0.0
 42
0.5205670505515692
  0
VERTEX
  5
200B
  8
SAPA_PROFIL
 62
     4
 10
-46.021138264950217
 20
-145.29992404214519
 30
0.0
  0
VERTEX
  5
200C
  8
SAPA_PROFIL
 62
     4
 10
-45.584373983825273
 20
-146.4999240421547
 30
0.0
 42
0.3152987888807539
  0
VERTEX
  5
200D
  8
SAPA_PROFIL
 62
     4
 10
-45.114527673429421
 20
-146.82891397049229
 30
0.0
  0
VERTEX
  5
200E
  8
SAPA_PROFIL
 62
     4
 10
-44.173352992920329
 20
-146.8289139704855
 30
0.0
 42
-0.5862175119221242
  0
VERTEX
  5
200F
  8
SAPA_PROFIL
 62
     4
 10
-43.917611061938381
 20
-147.28574529624061
 30
0.0
 42
0.0000002084758573
  0
SEQEND
  5
2010
  8
SAPA_PROFIL
 62
     4
  0
POLYLINE
  5
162E
  8
SAPA_PROFIL
 62
     4
 66
     1
 10
0.0
 20
0.0
 30
0.0
  0
VERTEX
  5
2011
  8
SAPA_PROFIL
 62
     4
 10
-20.450670870617401
 20
-98.203367111222889
 30
0.0
 42
-0.5571646428658034
  0
VERTEX
  5
2012
  8
SAPA_PROFIL
 62
     4
 10
-20.98763137475423
 20
-99.071086025378463
 30
0.0
  0
VERTEX
  5
2013
  8
SAPA_PROFIL
 62
     4
 10
-38.012368611275427
 20
-99.07108602537798
 30
0.0
 42
-0.5571645048035741
  0
VERTEX
  5
2014
  8
SAPA_PROFIL
 62
     4
 10
-38.549329228236488
 20
-98.203367337511835
 30
0.0
  0
VERTEX
  5
2015
  8
SAPA_PROFIL
 62
     4
 10
-37.718622140689789
 20
-96.537226681443784
 30
0.0
 42
-0.284385813979063
  0
VERTEX
  5
2016
  8
SAPA_PROFIL
 62
     4
 10
-37.450141832209439
 20
-96.371086025376357
 30
0.0
  0
VERTEX
  5
2017
  8
SAPA_PROFIL
 62
     4
 10
-21.549858153820121
 20
-96.371086025376357
 30
0.0
 42
-0.2843858139786238
  0
VERTEX
  5
2018
  8
SAPA_PROFIL
 62
     4
 10
-21.28137784533984
 20
-96.537226681443286
 30
0.0
  0
VERTEX
  5
2019
  8
SAPA_PROFIL
 62
     4
 10
-20.450670757792679
 20
-98.203367337512631
 30
0.0
  0
SEQEND
  5
201A
  8
SAPA_PROFIL
 62
     4
  0
POLYLINE
  5
162F
  8
SAPA_PROFIL
 62
     4
 66
     1
 10
0.0
 20
0.0
 30
0.0
 70
     1
  0
VERTEX
  5
201B
  8
SAPA_PROFIL
 62
     4
 10
-43.917611177682069
 20
-96.014254510878771
 30
0.0
  0
VERTEX
  5
201C
  8
SAPA_PROFIL
 62
     4
 10
-44.181634456058077
 20
-95.607694314874635
 30
0.0
 42
0.2539676464751066
  0
VERTEX
  5
201D
  8
SAPA_PROFIL
 62
     4
 10
-44.433235626442787
 20
-95.471086025378526
 30
0.0
  0
VERTEX
  5
201E
  8
SAPA_PROFIL
 62
     4
 10
-45.814735211648141
 20
-95.471086025378526
 30
0.0
 42
0.3152987888790479
  0
VERTEX
  5
201F
  8
SAPA_PROFIL
 62
     4
 10
-46.284581522040448
 20
-95.800075953716686
 30
0.0
  0
VERTEX
  5
2020
  8
SAPA_PROFIL
 62
     4
 10
-47.180250462949061
 20
-98.260906144167976
 30
0.0
 42
-0.2694959974287434
  0
VERTEX
  5
2021
  8
SAPA_PROFIL
 62
     4
 10
-47.411769509350407
 20
-98.45403811851186
 30
0.0
 42
-0.0612686379508233
  0
VERTEX
  5
2022
  8
SAPA_PROFIL
 62
     4
 10
-47.704444942203693
 20
-98.467621489142374
 30
0.0
  0
VERTEX
  5
2023
  8
SAPA_PROFIL
 62
     4
 10
-48.053863119511952
 20
-98.669358167871195
 30
0.0
 42
-0.5773502691891679
  0
VERTEX
  5
2024
  8
SAPA_PROFIL
 62
     4
 10
-48.368863119511538
 20
-98.487492833076629
 30
0.0
  0
VERTEX
  5
2025
  8
SAPA_PROFIL
 62
     4
 10
-48.368863119511794
 20
-98.220378304950316
 30
0.0
  0
VERTEX
  5
2026
  8
SAPA_PROFIL
 62
     4
 10
-49.767390820146041
 20
-97.411694843641996
 30
0.0
 42
0.1318219888653519
  0
VERTEX
  5
2027
  8
SAPA_PROFIL
 62
     4
 10
-49.917563922618378
 20
-97.3714024471046
 30
0.0
  0
VERTEX
  5
2028
  8
SAPA_PROFIL
 62
     4
 10
-50.099999993055171
 20
-97.371402447110967
 30
0.0
 42
0.4142135623724291
  0
VERTEX
  5
2029
  8
SAPA_PROFIL
 62
     4
 10
-50.49999999305571
 20
-97.771402447110603
 30
0.0
  0
VERTEX
  5
202A
  8
SAPA_PROFIL
 62
     4
 10
-50.499999993054338
 20
-101.1714024471116
 30
0.0
 42
0.4142135623744271
  0
VERTEX
  5
202B
  8
SAPA_PROFIL
 62
     4
 10
-50.099999993055171
 20
-101.5714024471126
 30
0.0
  0
VERTEX
  5
202C
  8
SAPA_PROFIL
 62
     4
 10
-49.92038475078386
 20
-101.5714024471132
 30
0.0
 42
0.1316524975874005
  0
VERTEX
  5
202D
  8
SAPA_PROFIL
 62
     4
 10
-49.770384750787038
 20
-101.5312100682476
 30
0.0
  0
VERTEX
  5
202E
  8
SAPA_PROFIL
 62
     4
 10
-48.166246853784791
 20
-100.6050606215951
 30
0.0
 42
-0.1316524975875904
  0
VERTEX
  5
202F
  8
SAPA_PROFIL
 62
     4
 10
-47.666246853783079
 20
-100.4710860253803
 30
0.0
  0
VERTEX
  5
2030
  8
SAPA_PROFIL
 62
     4
 10
-47.24999999305571
 20
-100.4710860253803
 30
0.0
 42
-0.4142135623730951
  0
VERTEX
  5
2031
  8
SAPA_PROFIL
 62
     4
 10
-46.24999999305571
 20
-101.4710860253803
 30
0.0
  0
VERTEX
  5
2032
  8
SAPA_PROFIL
 62
     4
 10
-46.24999999305571
 20
-104.4710860253776
 30
0.0
 42
0.9999996830128083
  0
VERTEX
  5
2033
  8
SAPA_PROFIL
 62
     4
 10
-45.249999993055702
 20
-104.47108602537941
 30
0.0
  0
VERTEX
  5
2034
  8
SAPA_PROFIL
 62
     4
 10
-45.249999993055702
 20
-101.47108602537941
 30
0.0
 42
-0.4142135623730951
  0
VERTEX
  5
2035
  8
SAPA_PROFIL
 62
     4
 10
-44.24999999305571
 20
-100.47108602537941
 30
0.0
  0
VERTEX
  5
2036
  8
SAPA_PROFIL
 62
     4
 10
-14.74999999297113
 20
-100.47108602537941
 30
0.0
 42
-0.4142135623730951
  0
VERTEX
  5
2037
  8
SAPA_PROFIL
 62
     4
 10
-13.749999992971119
 20
-101.47108602537941
 30
0.0
  0
VERTEX
  5
2038
  8
SAPA_PROFIL
 62
     4
 10
-13.749999992971119
 20
-104.4710860253776
 30
0.0
 42
0.9999999999999998
  0
VERTEX
  5
2039
  8
SAPA_PROFIL
 62
     4
 10
-12.74999999297113
 20
-104.4710860253776
 30
0.0
  0
VERTEX
  5
203A
  8
SAPA_PROFIL
 62
     4
 10
-12.74999999297113
 20
-101.47108602537941
 30
0.0
 42
-0.4142135623736278
  0
VERTEX
  5
203B
  8
SAPA_PROFIL
 62
     4
 10
-11.749999992971119
 20
-100.47108602537941
 30
0.0
  0
VERTEX
  5
203C
  8
SAPA_PROFIL
 62
     4
 10
-11.333753132244659
 20
-100.47108602537941
 30
0.0
 42
-0.1316524975874375
  0
VERTEX
  5
203D
  8
SAPA_PROFIL
 62
     4
 10
-10.833753132244469
 20
-100.6050606215955
 30
0.0
  0
VERTEX
  5
203E
  8
SAPA_PROFIL
 62
     4
 10
-9.2296152352425196
 20
-101.5312100682476
 30
0.0
 42
0.1316524975874
  0
VERTEX
  5
203F
  8
SAPA_PROFIL
 62
     4
 10
-9.0796152352429758
 20
-101.5714024471132
 30
0.0
  0
VERTEX
  5
2040
  8
SAPA_PROFIL
 62
     4
 10
-8.8999999929716722
 20
-101.5714024471126
 30
0.0
 42
0.4142135623744271
  0
VERTEX
  5
2041
  8
SAPA_PROFIL
 62
     4
 10
-8.4999999929724908
 20
-101.1714024471116
 30
0.0
  0
VERTEX
  5
2042
  8
SAPA_PROFIL
 62
     4
 10
-8.4999999929711265
 20
-97.771402447110631
 30
0.0
 42
0.4142135623724291
  0
VERTEX
  5
2043
  8
SAPA_PROFIL
 62
     4
 10
-8.8999999929716722
 20
-97.371402447110995
 30
0.0
  0
VERTEX
  5
2044
  8
SAPA_PROFIL
 62
     4
 10
-9.0824360634084513
 20
-97.371402447104614
 30
0.0
 42
0.1318219888653524
  0
VERTEX
  5
2045
  8
SAPA_PROFIL
 62
     4
 10
-9.2326091658807954
 20
-97.411694843641996
 30
0.0
  0
VERTEX
  5
2046
  8
SAPA_PROFIL
 62
     4
 10
-10.63113686636045
 20
-98.220378304866344
 30
0.0
  0
VERTEX
  5
2047
  8
SAPA_PROFIL
 62
     4
 10
-10.63113686636045
 20
-98.487492833079386
 30
0.0
 42
-0.577350269189159
  0
VERTEX
  5
2048
  8
SAPA_PROFIL
 62
     4
 10
-10.94613686636005
 20
-98.669358167873938
 30
0.0
  0
VERTEX
  5
2049
  8
SAPA_PROFIL
 62
     4
 10
-11.295555043578711
 20
-98.46762148919683
 30
0.0
 42
-0.0612687673629489
  0
VERTEX
  5
204A
  8
SAPA_PROFIL
 62
     4
 10
-11.58823047667892
 20
-98.454038118510624
 30
0.0
 42
-0.2694959974285039
  0
VERTEX
  5
204B
  8
SAPA_PROFIL
 62
     4
 10
-11.819749523079439
 20
-98.260906144166697
 30
0.0
  0
VERTEX
  5
204C
  8
SAPA_PROFIL
 62
     4
 10
-12.71541846398911
 20
-95.800075953713517
 30
0.0
 42
0.3152987888784035
  0
VERTEX
  5
204D
  8
SAPA_PROFIL
 62
     4
 10
-13.185264774382331
 20
-95.471086025376934
 30
0.0
  0
VERTEX
  5
204E
  8
SAPA_PROFIL
 62
     4
 10
-14.56676435958677
 20
-95.471086025378526
 30
0.0
 42
0.2539676464741841
  0
VERTEX
  5
204F
  8
SAPA_PROFIL
 62
     4
 10
-14.818365529970849
 20
-95.607694314873811
 30
0.0
  0
VERTEX
  5
2050
  8
SAPA_PROFIL
 62
     4
 10
-15.08238880834749
 20
-96.014254510878786
 30
0.0
 42
0.5862177598324623
  0
VERTEX
  5
2051
  8
SAPA_PROFIL
 62
     4
 10
-14.82664699310914
 20
-96.471086025375286
 30
0.0
  0
VERTEX
  5
2052
  8
SAPA_PROFIL
 62
     4
 10
-13.88547231259933
 20
-96.471086025367626
 30
0.0
 42
-0.3152987888813165
  0
VERTEX
  5
2053
  8
SAPA_PROFIL
 62
     4
 10
-13.41562600220157
 20
-96.800075953704379
 30
0.0
  0
VERTEX
  5
2054
  8
SAPA_PROFIL
 62
     4
 10
-12.978861721077619
 20
-98.000075953715594
 30
0.0
 42
-0.5205670505515651
  0
VERTEX
  5
2055
  8
SAPA_PROFIL
 62
     4
 10
-13.44870803147084
 20
-98.671086025378358
 30
0.0
  0
VERTEX
  5
2056
  8
SAPA_PROFIL
 62
     4
 10
-18.465148972139691
 20
-98.671086025378386
 30
0.0
 42
-0.3702522326300203
  0
VERTEX
  5
2057
  8
SAPA_PROFIL
 62
     4
 10
-18.761672333933021
 20
-98.416626072712674
 30
0.0
 42
-0.0982365330332397
  0
VERTEX
  5
2058
  8
SAPA_PROFIL
 62
     4
 10
-18.852125092143961
 20
-96.728939297717673
 30
0.0
 42
-0.3735060174783164
  0
VERTEX
  5
2059
  8
SAPA_PROFIL
 62
     4
 10
-18.555100424232979
 20
-96.47108602537763
 30
0.0
  0
VERTEX
  5
205A
  8
SAPA_PROFIL
 62
     4
 10
-18.126646993110331
 20
-96.471086025376721
 30
0.0
 42
0.5920056181162531
  0
VERTEX
  5
205B
  8
SAPA_PROFIL
 62
     4
 10
-17.873638236792921
 20
-96.009882522848798
 30
0.0
  0
VERTEX
  5
205C
  8
SAPA_PROFIL
 62
     4
 10
-18.134822312948629
 20
-95.607694314870514
 30
0.0
 42
0.2539676464746725
  0
VERTEX
  5
205D
  8
SAPA_PROFIL
 62
     4
 10
-18.38642348333239
 20
-95.471086025375115
 30
0.0
  0
VERTEX
  5
205E
  8
SAPA_PROFIL
 62
     4
 10
-40.613576502698074
 20
-95.471086025376707
 30
0.0
 42
0.2539676464741819
  0
VERTEX
  5
205F
  8
SAPA_PROFIL
 62
     4
 10
-40.865177673080943
 20
-95.607694314870486
 30
0.0
  0
VERTEX
  5
2060
  8
SAPA_PROFIL
 62
     4
 10
-41.126361749234739
 20
-96.009882522848827
 30
0.0
 42
0.5920055144124249
  0
VERTEX
  5
2061
  8
SAPA_PROFIL
 62
     4
 10
-40.873352992919237
 20
-96.471086025376707
 30
0.0
  0
VERTEX
  5
2062
  8
SAPA_PROFIL
 62
     4
 10
-40.444899515629011
 20
-96.471086000101707
 30
0.0
 42
-0.3735060174775405
  0
VERTEX
  5
2063
  8
SAPA_PROFIL
 62
     4
 10
-40.147874847719322
 20
-96.728939272441806
 30
0.0
 42
-0.0355900683670349
  0
VERTEX
  5
2064
  8
SAPA_PROFIL
 62
     4
 10
-40.103981283687077
 20
-97.344812859241586
 30
0.0
 42
-0.0624282003873116
  0
VERTEX
  5
2065
  8
SAPA_PROFIL
 62
     4
 10
-40.23832760593001
 20
-98.416626047436708
 30
0.0
 42
-0.3702522326309292
  0
VERTEX
  5
2066
  8
SAPA_PROFIL
 62
     4
 10
-40.534850967723393
 20
-98.671086000102434
 30
0.0
  0
VERTEX
  5
2067
  8
SAPA_PROFIL
 62
     4
 10
-45.551291954556902
 20
-98.671086025378571
 30
0.0
 42
-0.5205670505515692
  0
VERTEX
  5
2068
  8
SAPA_PROFIL
 62
     4
 10
-46.021138264950118
 20
-98.000075953715594
 30
0.0
  0
VERTEX
  5
2069
  8
SAPA_PROFIL
 62
     4
 10
-45.584373983825166
 20
-96.800075953706155
 30
0.0
 42
-0.3152987888807539
  0
VERTEX
  5
206A
  8
SAPA_PROFIL
 62
     4
 10
-45.114527673429322
 20
-96.471086025368535
 30
0.0
  0
VERTEX
  5
206B
  8
SAPA_PROFIL
 62
     4
 10
-44.173352992920229
 20
-96.471086025375357
 30
0.0
 42
0.5862175119221242
  0
VERTEX
  5
206C
  8
SAPA_PROFIL
 62
     4
 10
-43.917611061938281
 20
-96.014254699620224
 30
0.0
 42
-0.0000002084758573
  0
SEQEND
  5
206D
  8
SAPA_PROFIL
 62
     4
  0
CIRCLE
  5
1630
  8
SAPA_PROFIL
 62
     2
 10
-67.317340025554543
 20
-86.831507495362402
 30
0.1
 40
0.25
  0
INSERT
  5
1631
  8
SAPA_PROFIL
  6
CONTINUOUS
 62
     2
  2
*U130
 10
0.0
 20
0.0
 30
0.0
1001
ACAD
1002
{
1000
R14_HATCH_DATA
1000
1631
1011
1.0
1021
0.0
1031
0.0
1021
0.0
1031
0.0
1011
0.0
1021
0.0
1031
0.0
1021
1.0
1031
0.0
1011
0.0
1021
0.0
1031
0.0
1021
0.0
1031
1.0
1040
0.1
1010
0.0
1020
0.0
1030
1.0
1000
SOLID
1070
     1
1070
     1
1071
        1
1071
        7
1070
     1
1070
     1
1071
        2
1040
-67.067340025554557
1040
-86.831507495362402
1040
1.0
1040
-67.567340025554557
1040
-86.831507495362402
1040
1.0
1071
        1
1005
1630
1070
     0
1070
     1
1040
0.0095408196840103
1071
        1
1040
-67.217340025554549
1040
-86.831507495362402
1040
0.1
1002
}
  0
POLYLINE
  5
1632
  8
SAPA_PROFIL
 62
     2
 66
     1
 10
0.0
 20
0.0
 30
0.1
 70
     1
  0
VERTEX
  5
207F
  8
SAPA_PROFIL
 62
     2
 10
-69.991719264420439
 20
-84.499974494019369
 30
0.1
  0
VERTEX
  5
2080
  8
SAPA_PROFIL
 62
     2
 10
-69.991719264420439
 20
-84.399974494019361
 30
0.1
 42
-0.4142135623730959
  0
VERTEX
  5
2081
  8
SAPA_PROFIL
 62
     2
 10
-69.291719264420436
 20
-83.699974494019372
 30
0.1
  0
VERTEX
  5
2082
  8
SAPA_PROFIL
 62
     2
 10
-68.191719264420414
 20
-83.699974494019372
 30
0.1
 42
-0.4142135623730961
  0
VERTEX
  5
2083
  8
SAPA_PROFIL
 62
     2
 10
-67.991719264420439
 20
-83.899974494019375
 30
0.1
  0
VERTEX
  5
2084
  8
SAPA_PROFIL
 62
     2
 10
-67.991719264420439
 20
-84.999974494019355
 30
0.1
 42
-0.4142135623730956
  0
VERTEX
  5
2085
  8
SAPA_PROFIL
 62
     2
 10
-68.191719264420442
 20
-85.199974494019372
 30
0.1
  0
VERTEX
  5
2086
  8
SAPA_PROFIL
 62
     2
 10
-69.291719264420436
 20
-85.199974494019358
 30
0.1
 42
-0.4142135623730946
  0
SEQEND
  5
2087
  8
SAPA_PROFIL
 62
     2
  0
POLYLINE
  5
1633
  8
SAPA_PROFIL
 62
     2
 66
     1
 10
0.0
 20
0.0
 30
0.1
  0
VERTEX
  5
2088
  8
SAPA_PROFIL
 62
     2
 10
-68.691719264420442
 20
-85.999974494019369
 30
0.1
  0
VERTEX
  5
2089
  8
SAPA_PROFIL
 62
     2
 10
-68.043953699147352
 20
-85.999974494019369
 30
0.1
 42
-0.4416942457848117
  0
VERTEX
  5
208A
  8
SAPA_PROFIL
 62
     2
 10
-67.844816219654419
 20
-86.218528853647285
 30
0.1
  0
VERTEX
  5
208B
  8
SAPA_PROFIL
 62
     2
 10
-67.934532284912464
 20
-87.181420134391459
 30
0.1
 42
0.4416942457848106
  0
VERTEX
  5
208C
  8
SAPA_PROFIL
 62
     2
 10
-67.735394805419531
 20
-87.399974494019375
 30
0.1
  0
VERTEX
  5
208D
  8
SAPA_PROFIL
 62
     2
 10
-67.18541246582798
 20
-87.399974494019375
 30
0.1
 42
0.5445962197109637
  0
VERTEX
  5
208E
  8
SAPA_PROFIL
 62
     2
 10
-66.729675556766111
 20
-86.694295448614284
 30
0.1
  0
VERTEX
  5
208F
  8
SAPA_PROFIL
 62
     2
 10
-66.891719264420445
 20
-86.335244295329019
 30
0.1
  0
VERTEX
  5
2090
  8
SAPA_PROFIL
 62
     2
 10
-66.891719264420431
 20
-84.862285056581143
 30
0.1
 42
0.336437923496554
  0
VERTEX
  5
2091
  8
SAPA_PROFIL
 62
     2
 10
-67.079226082262167
 20
-83.790541326966306
 30
0.1
  0
VERTEX
  5
2092
  8
SAPA_PROFIL
 62
     2
 10
-67.079226082262167
 20
-83.228677691142579
 30
0.1
 42
-0.1919812372740513
  0
VERTEX
  5
2093
  8
SAPA_PROFIL
 62
     2
 10
-66.942093704244911
 20
-82.884690643542555
 30
0.1
  0
VERTEX
  5
2094
  8
SAPA_PROFIL
 62
     2
 10
-66.570616227954872
 20
-82.492823713139245
 30
0.1
 42
-0.9249153594910841
  0
VERTEX
  5
2095
  8
SAPA_PROFIL
 62
     2
 10
-64.336921412875569
 20
-84.158601641661477
 30
0.1
  0
VERTEX
  5
2096
  8
SAPA_PROFIL
 62
     2
 10
-64.870469468127212
 20
-85.243146581330237
 30
0.1
 42
0.4184584792862776
  0
VERTEX
  5
2097
  8
SAPA_PROFIL
 62
     2
 10
-64.466717347707487
 20
-85.829848897901655
 30
0.1
 42
0.3891337693453737
  0
VERTEX
  5
2098
  8
SAPA_PROFIL
 62
     2
 10
-64.238628039764876
 20
-85.684682006361186
 30
0.1
  0
VERTEX
  5
2099
  8
SAPA_PROFIL
 62
     2
 10
-63.675722987276998
 20
-84.598785915796185
 30
0.1
 42
0.8864286961344978
  0
VERTEX
  5
209A
  8
SAPA_PROFIL
 62
     2
 10
-67.034921742797721
 20
-81.927006013859625
 30
0.1
  0
VERTEX
  5
209B
  8
SAPA_PROFIL
 62
     2
 10
-67.150289716086832
 20
-81.496446875978378
 30
0.1
 42
0.9163311740174273
  0
VERTEX
  5
209C
  8
SAPA_PROFIL
 62
     2
 10
-67.935137925839143
 20
-81.634836791118445
 30
0.1
  0
VERTEX
  5
209D
  8
SAPA_PROFIL
 62
     2
 10
-67.843475479631607
 20
-82.682543345469838
 30
0.1
 42
-0.4400105308918339
  0
VERTEX
  5
209E
  8
SAPA_PROFIL
 62
     2
 10
-68.042714419249947
 20
-82.899974494019347
 30
0.1
  0
VERTEX
  5
209F
  8
SAPA_PROFIL
 62
     2
 10
-68.891719264420431
 20
-82.899974494019347
 30
0.1
  0
VERTEX
  5
20A0
  8
SAPA_PROFIL
 62
     2
 10
-68.891719264420431
 20
-82.499974494019355
 30
0.1
 42
0.569380983920789
  0
VERTEX
  5
20A1
  8
SAPA_PROFIL
 62
     2
 10
-69.187535636123087
 20
-82.324420448455783
 30
0.1
  0
VERTEX
  5
20A2
  8
SAPA_PROFIL
 62
     2
 10
-70.479168379528389
 20
-83.029386048354851
 30
0.1
 42
0.274387813087548
  0
VERTEX
  5
20A3
  8
SAPA_PROFIL
 62
     2
 10
-70.791719264420436
 20
-83.556048185045569
 30
0.1
  0
VERTEX
  5
20A4
  8
SAPA_PROFIL
 62
     2
 10
-70.791719264420436
 20
-85.343900802993147
 30
0.1
 42
0.274387813087548
  0
VERTEX
  5
20A5
  8
SAPA_PROFIL
 62
     2
 10
-70.479168379528389
 20
-85.870562939683865
 30
0.1
  0
VERTEX
  5
20A6
  8
SAPA_PROFIL
 62
     2
 10
-69.187535636123087
 20
-86.575528539582947
 30
0.1
 42
0.5693809839207892
  0
VERTEX
  5
20A7
  8
SAPA_PROFIL
 62
     2
 10
-68.891719264420445
 20
-86.399974494019375
 30
0.1
  0
VERTEX
  5
20A8
  8
SAPA_PROFIL
 62
     2
 10
-68.891719264420445
 20
-85.999974494019369
 30
0.1
  0
VERTEX
  5
20A9
  8
SAPA_PROFIL
 62
     2
 10
-68.042714419249961
 20
-85.999974494019369
 30
0.1
  0
SEQEND
  5
20AA
  8
SAPA_PROFIL
 62
     2
  0
POLYLINE
  5
1634
  8
SAPA_PROFIL
 66
     1
 10
0.0
 20
0.0
 30
0.0
 70
     1
  0
VERTEX
  5
20AB
  8
SAPA_PROFIL
 10
-8.4999999990094324
 20
-81.453514569158429
 30
0.0
 42
0.2134217652834387
  0
VERTEX
  5
20AC
  8
SAPA_PROFIL
 10
-8.3999999990093244
 20
-81.677121366908537
 30
0.0
 42
-0.7625858545243219
  0
VERTEX
  5
20AD
  8
SAPA_PROFIL
 10
-8.5845792012068003
 20
-82.007447447925557
 30
0.0
  0
VERTEX
  5
20AE
  8
SAPA_PROFIL
 10
-8.7759622012005192
 20
-81.949373810936464
 30
0.0
  0
VERTEX
  5
20AF
  8
SAPA_PROFIL
 10
-10.661805893061571
 20
-80.864809363964724
 30
0.0
  0
VERTEX
  5
20B0
  8
SAPA_PROFIL
 10
-10.65124452683459
 20
-80.543051635746465
 30
0.0
 42
0.5773502691897439
  0
VERTEX
  5
20B1
  8
SAPA_PROFIL
 10
-10.945400827089429
 20
-80.360097895636301
 30
0.0
  0
VERTEX
  5
20B2
  8
SAPA_PROFIL
 10
-11.23008311032107
 20
-80.512231806745035
 30
0.0
 42
0.2216946626430187
  0
VERTEX
  5
20B3
  8
SAPA_PROFIL
 10
-11.63589201547587
 20
-81.053111638221836
 30
0.0
  0
VERTEX
  5
20B4
  8
SAPA_PROFIL
 10
-12.017338611603581
 20
-82.866342108880076
 30
0.0
 42
0.4769755326981641
  0
VERTEX
  5
20B5
  8
SAPA_PROFIL
 10
-11.715085787097109
 20
-83.237998983825975
 30
0.0
  0
VERTEX
  5
20B6
  8
SAPA_PROFIL
 10
-10.211984706335111
 20
-83.237915375942322
 30
0.0
  0
VERTEX
  5
20B7
  8
SAPA_PROFIL
 10
-10.197466297088001
 20
-83.190069625943835
 30
0.0
 42
-0.4142135623730944
  0
VERTEX
  5
20B8
  8
SAPA_PROFIL
 10
-9.8232813416121942
 20
-82.990105581436438
 30
0.0
  0
VERTEX
  5
20B9
  8
SAPA_PROFIL
 10
-8.5040483398507831
 20
-83.499999999999915
 30
0.0
  0
VERTEX
  5
20BA
  8
SAPA_PROFIL
 10
11.23147839764672
 20
-83.499999999999986
 30
0.0
 42
-0.38217120901707
  0
VERTEX
  5
20BB
  8
SAPA_PROFIL
 10
11.529644592748641
 20
-83.766880215905715
 30
0.0
  0
VERTEX
  5
20BC
  8
SAPA_PROFIL
 10
12.05548412771363
 20
-90.344850999999949
 30
0.0
 42
-0.4469990000000265
  0
VERTEX
  5
20BD
  8
SAPA_PROFIL
 10
11.558540127713581
 20
-90.900051000000076
 30
0.0
  0
VERTEX
  5
20BE
  8
SAPA_PROFIL
 10
9.8000000009905879
 20
-90.900050999999976
 30
0.0
 42
0.4142139999999868
  0
VERTEX
  5
20BF
  8
SAPA_PROFIL
 10
8.8000000009906163
 20
-91.900050999999905
 30
0.0
  0
VERTEX
  5
20C0
  8
SAPA_PROFIL
 10
8.8000000009905737
 20
-92.167595000000006
 30
0.0
 42
0.2896899999999956
  0
VERTEX
  5
20C1
  8
SAPA_PROFIL
 10
9.3714280009906492
 20
-93.071102999999994
 30
0.0
 42
0.5507599999999603
  0
VERTEX
  5
20C2
  8
SAPA_PROFIL
 10
9.8000000009905879
 20
-92.800050999999954
 30
0.0
  0
VERTEX
  5
20C3
  8
SAPA_PROFIL
 10
9.8000000009905843
 20
-92.500050999999985
 30
0.0
 42
-0.4142140000001095
  0
VERTEX
  5
20C4
  8
SAPA_PROFIL
 10
10.00000000099063
 20
-92.300050999999897
 30
0.0
  0
VERTEX
  5
20C5
  8
SAPA_PROFIL
 10
11.100000000990599
 20
-92.300050999999968
 30
0.0
 42
-0.4142139999999826
  0
VERTEX
  5
20C6
  8
SAPA_PROFIL
 10
12.100000000990541
 20
-93.300050999999925
 30
0.0
  0
VERTEX
  5
20C7
  8
SAPA_PROFIL
 10
12.10000000099059
 20
-95.600000000000023
 30
0.0
 42
-0.4142139999999877
  0
VERTEX
  5
20C8
  8
SAPA_PROFIL
 10
11.100000000990651
 20
-96.599999999999994
 30
0.0
  0
VERTEX
  5
20C9
  8
SAPA_PROFIL
 10
10.00000000099058
 20
-96.600000000000037
 30
0.0
 42
-0.4142139999999481
  0
VERTEX
  5
20CA
  8
SAPA_PROFIL
 10
9.8000000009906252
 20
-96.399999999999935
 30
0.0
  0
VERTEX
  5
20CB
  8
SAPA_PROFIL
 10
9.8000000009905825
 20
-96.100051000000022
 30
0.0
 42
0.5507600000000124
  0
VERTEX
  5
20CC
  8
SAPA_PROFIL
 10
9.3714280009905835
 20
-95.828997999999956
 30
0.0
 42
0.2896899999999978
  0
VERTEX
  5
20CD
  8
SAPA_PROFIL
 10
8.8000000009905612
 20
-96.732505999999887
 30
0.0
  0
VERTEX
  5
20CE
  8
SAPA_PROFIL
 10
8.8000000009905861
 20
-97.0
 30
0.0
 42
0.4142140000000002
  0
VERTEX
  5
20CF
  8
SAPA_PROFIL
 10
9.8000000009906003
 20
-98.0
 30
0.0
  0
VERTEX
  5
20D0
  8
SAPA_PROFIL
 10
11.50000000099058
 20
-98.000000000000043
 30
0.0
 42
0.4142139999999887
  0
VERTEX
  5
20D1
  8
SAPA_PROFIL
 10
13.50000000099063
 20
-95.999999999999972
 30
0.0
  0
VERTEX
  5
20D2
  8
SAPA_PROFIL
 10
13.500000000990569
 20
-31.200000000000038
 30
0.0
 42
0.4142135623730847
  0
VERTEX
  5
20D3
  8
SAPA_PROFIL
 10
13.30000000099057
 20
-31.000000000000039
 30
0.0
  0
VERTEX
  5
20D4
  8
SAPA_PROFIL
 10
10.61138300099061
 20
-31.00000000000005
 30
0.0
 42
0.2596810000000924
  0
VERTEX
  5
20D5
  8
SAPA_PROFIL
 10
10.44135200099058
 20
-31.09469300000006
 30
0.0
  0
VERTEX
  5
20D6
  8
SAPA_PROFIL
 10
9.5449530009905779
 20
-32.542039999999993
 30
0.0
 42
0.5877030000000333
  0
VERTEX
  5
20D7
  8
SAPA_PROFIL
 10
9.8000000009906394
 20
-33.000000000000071
 30
0.0
  0
VERTEX
  5
20D8
  8
SAPA_PROFIL
 10
11.20000000099061
 20
-33.000000000000057
 30
0.0
 42
-0.4142139999999517
  0
VERTEX
  5
20D9
  8
SAPA_PROFIL
 10
11.500000000990591
 20
-33.299999999999983
 30
0.0
  0
VERTEX
  5
20DA
  8
SAPA_PROFIL
 10
11.500000000990561
 20
-35.699999999999989
 30
0.0
 42
-0.4142140000000525
  0
VERTEX
  5
20DB
  8
SAPA_PROFIL
 10
11.20000000099061
 20
-36.0
 30
0.0
  0
VERTEX
  5
20DC
  8
SAPA_PROFIL
 10
-6.1999999990093677
 20
-36.000000000000057
 30
0.0
 42
-0.4142140000001183
  0
VERTEX
  5
20DD
  8
SAPA_PROFIL
 10
-6.4999999990095496
 20
-35.69999999999996
 30
0.0
  0
VERTEX
  5
20DE
  8
SAPA_PROFIL
 10
-6.499999999009443
 20
-33.299999999999962
 30
0.0
 42
-0.4142140000000144
  0
VERTEX
  5
20DF
  8
SAPA_PROFIL
 10
-6.1999999990094246
 20
-33.000000000000107
 30
0.0
  0
VERTEX
  5
20E0
  8
SAPA_PROFIL
 10
-4.7999999990093913
 20
-33.000000000000057
 30
0.0
 42
0.5920054160710128
  0
VERTEX
  5
20E1
  8
SAPA_PROFIL
 10
-4.5469914862516596
 20
-32.538796661885158
 30
0.0
  0
VERTEX
  5
20E2
  8
SAPA_PROFIL
 10
-5.3410445160732731
 20
-31.292531005672171
 30
0.0
 42
0.2562769852931535
  0
VERTEX
  5
20E3
  8
SAPA_PROFIL
 10
-5.5097170249718959
 20
-31.200000000000081
 30
0.0
  0
VERTEX
  5
20E4
  8
SAPA_PROFIL
 10
-8.5040483398502751
 20
-31.20000000000006
 30
0.0
  0
VERTEX
  5
20E5
  8
SAPA_PROFIL
 10
-9.8232813416121765
 20
-31.709894418563739
 30
0.0
 42
-0.4142135623730948
  0
VERTEX
  5
20E6
  8
SAPA_PROFIL
 10
-10.19746629708799
 20
-31.509930374056339
 30
0.0
  0
VERTEX
  5
20E7
  8
SAPA_PROFIL
 10
-10.211984706335089
 20
-31.462084624057859
 30
0.0
  0
VERTEX
  5
20E8
  8
SAPA_PROFIL
 10
-11.715085787097101
 20
-31.46200101617422
 30
0.0
 42
0.4769755326981646
  0
VERTEX
  5
20E9
  8
SAPA_PROFIL
 10
-12.017338611603559
 20
-31.833657891120069
 30
0.0
  0
VERTEX
  5
20EA
  8
SAPA_PROFIL
 10
-11.635892015475831
 20
-33.646888361778323
 30
0.0
 42
0.2216946626430189
  0
VERTEX
  5
20EB
  8
SAPA_PROFIL
 10
-11.230083110321051
 20
-34.18776819325511
 30
0.0
  0
VERTEX
  5
20EC
  8
SAPA_PROFIL
 10
-10.945400827089401
 20
-34.339902104363887
 30
0.0
 42
0.5773502691897443
  0
VERTEX
  5
20ED
  8
SAPA_PROFIL
 10
-10.65124452683459
 20
-34.156948364253701
 30
0.0
  0
VERTEX
  5
20EE
  8
SAPA_PROFIL
 10
-10.66180589306156
 20
-33.835190636035449
 30
0.0
  0
VERTEX
  5
20EF
  8
SAPA_PROFIL
 10
-8.7759622012005032
 20
-32.750626189063709
 30
0.0
  0
VERTEX
  5
20F0
  8
SAPA_PROFIL
 10
-8.5845792012067896
 20
-32.692552552074631
 30
0.0
 42
-0.7625858545243274
  0
VERTEX
  5
20F1
  8
SAPA_PROFIL
 10
-8.3999999990092853
 20
-33.022878633091629
 30
0.0
 42
0.2134217652834391
  0
VERTEX
  5
20F2
  8
SAPA_PROFIL
 10
-8.4999999990094075
 20
-33.246485430841751
 30
0.0
  0
VERTEX
  5
20F3
  8
SAPA_PROFIL
 10
-8.4999999990094288
 20
-37.099271835341767
 30
0.0
 42
-0.4142135623729077
  0
VERTEX
  5
20F4
  8
SAPA_PROFIL
 10
-8.7999999990095041
 20
-37.399271835341672
 30
0.0
  0
VERTEX
  5
20F5
  8
SAPA_PROFIL
 10
-9.099999999009686
 20
-37.399271835341722
 30
0.0
  0
VERTEX
  5
20F6
  8
SAPA_PROFIL
 10
-10.699999999009311
 20
-36.475511404638439
 30
0.0
 42
0.5773502691897674
  0
VERTEX
  5
20F7
  8
SAPA_PROFIL
 10
-10.999999999009431
 20
-36.648716485395198
 30
0.0
  0
VERTEX
  5
20F8
  8
SAPA_PROFIL
 10
-10.999999999009431
 20
-38.034357131450349
 30
0.0
 42
0.2679491924311062
  0
VERTEX
  5
20F9
  8
SAPA_PROFIL
 10
-10.499999999009621
 20
-38.900382535234783
 30
0.0
  0
VERTEX
  5
20FA
  8
SAPA_PROFIL
 10
-8.7499999990093773
 20
-39.910745506316857
 30
0.0
 42
-0.267949192431108
  0
VERTEX
  5
20FB
  8
SAPA_PROFIL
 10
-8.499999999009427
 20
-40.343758208209067
 30
0.0
  0
VERTEX
  5
20FC
  8
SAPA_PROFIL
 10
-8.4999999990094182
 20
-74.356241791790922
 30
0.0
 42
-0.2679491924311069
  0
VERTEX
  5
20FD
  8
SAPA_PROFIL
 10
-8.7499999990093986
 20
-74.789254493683131
 30
0.0
  0
VERTEX
  5
20FE
  8
SAPA_PROFIL
 10
-10.499999999009541
 20
-75.79961746476522
 30
0.0
 42
0.2679491924311082
  0
VERTEX
  5
20FF
  8
SAPA_PROFIL
 10
-10.99999999900942
 20
-76.665642868549625
 30
0.0
  0
VERTEX
  5
2100
  8
SAPA_PROFIL
 10
-10.99999999900942
 20
-78.051283514604734
 30
0.0
 42
0.5773502691897738
  0
VERTEX
  5
2101
  8
SAPA_PROFIL
 10
-10.69999999900935
 20
-78.224488595361521
 30
0.0
  0
VERTEX
  5
2102
  8
SAPA_PROFIL
 10
-9.0999999990096772
 20
-77.300728164658267
 30
0.0
  0
VERTEX
  5
2103
  8
SAPA_PROFIL
 10
-8.7999999990094953
 20
-77.300728164658267
 30
0.0
 42
-0.4142135623729009
  0
VERTEX
  5
2104
  8
SAPA_PROFIL
 10
-8.4999999990093631
 20
-77.600728164658136
 30
0.0
  0
SEQEND
  5
2105
  8
SAPA_PROFIL
  0
POLYLINE
  5
1635
  8
SAPA_PROFIL
 66
     1
 10
0.0
 20
0.0
 30
0.0
 70
     1
  0
VERTEX
  5
2106
  8
SAPA_PROFIL
 10
-6.3999999990094043
 20
-79.800000000000026
 30
0.0
 42
0.4142135623730951
  0
VERTEX
  5
2107
  8
SAPA_PROFIL
 10
-6.1999999990093579
 20
-79.600000000000023
 30
0.0
  0
VERTEX
  5
2108
  8
SAPA_PROFIL
 10
-6.1999999990094148
 20
-78.0
 30
0.0
 42
0.4142135623730951
  0
VERTEX
  5
2109
  8
SAPA_PROFIL
 10
-6.3999999990094043
 20
-77.799999999999955
 30
0.0
  0
VERTEX
  5
210A
  8
SAPA_PROFIL
 10
-6.700000082882732
 20
-77.799999999999955
 30
0.0
  0
VERTEX
  5
210B
  8
SAPA_PROFIL
 10
-6.70000008288274
 20
-41.699999999999989
 30
0.0
  0
VERTEX
  5
210C
  8
SAPA_PROFIL
 10
-6.3999999990094123
 20
-41.70000000000001
 30
0.0
 42
0.4142135623730951
  0
VERTEX
  5
210D
  8
SAPA_PROFIL
 10
-6.1999999990093659
 20
-41.5
 30
0.0
  0
VERTEX
  5
210E
  8
SAPA_PROFIL
 10
-6.1999999990094237
 20
-39.899999999999977
 30
0.0
 42
0.4142135623730951
  0
VERTEX
  5
210F
  8
SAPA_PROFIL
 10
-6.3999999990094132
 20
-39.699999999999989
 30
0.0
  0
VERTEX
  5
2110
  8
SAPA_PROFIL
 10
-6.7000000828827408
 20
-39.699999999999989
 30
0.0
  0
VERTEX
  5
2111
  8
SAPA_PROFIL
 10
-6.7000000828826911
 20
-38.0
 30
0.0
 42
-0.4142135623730951
  0
VERTEX
  5
2112
  8
SAPA_PROFIL
 10
-6.4000000828827304
 20
-37.699999999999989
 30
0.0
  0
VERTEX
  5
2113
  8
SAPA_PROFIL
 10
11.20000000099061
 20
-37.700000000000017
 30
0.0
 42
-0.414213562373095
  0
VERTEX
  5
2114
  8
SAPA_PROFIL
 10
11.500000000990561
 20
-38.0
 30
0.0
  0
VERTEX
  5
2115
  8
SAPA_PROFIL
 10
11.500000000990561
 20
-39.699999999999989
 30
0.0
  0
VERTEX
  5
2116
  8
SAPA_PROFIL
 10
11.40000000099054
 20
-39.699999999999989
 30
0.0
 42
0.4142135623730951
  0
VERTEX
  5
2117
  8
SAPA_PROFIL
 10
11.20000000099061
 20
-39.899999999999977
 30
0.0
  0
VERTEX
  5
2118
  8
SAPA_PROFIL
 10
11.200000000990549
 20
-41.5
 30
0.0
 42
0.4142135623730951
  0
VERTEX
  5
2119
  8
SAPA_PROFIL
 10
11.40000000099054
 20
-41.699999999999989
 30
0.0
  0
VERTEX
  5
211A
  8
SAPA_PROFIL
 10
11.500000000990561
 20
-41.699999999999989
 30
0.0
  0
VERTEX
  5
211B
  8
SAPA_PROFIL
 10
11.500000000990569
 20
-77.799999999999955
 30
0.0
  0
VERTEX
  5
211C
  8
SAPA_PROFIL
 10
11.40000000099055
 20
-77.800000000000011
 30
0.0
 42
0.4142135623730951
  0
VERTEX
  5
211D
  8
SAPA_PROFIL
 10
11.20000000099062
 20
-78.0
 30
0.0
  0
VERTEX
  5
211E
  8
SAPA_PROFIL
 10
11.20000000099057
 20
-79.600000000000023
 30
0.0
 42
0.4142135623730898
  0
VERTEX
  5
211F
  8
SAPA_PROFIL
 10
11.40000000099055
 20
-79.799999999999955
 30
0.0
  0
VERTEX
  5
2120
  8
SAPA_PROFIL
 10
11.500000000990569
 20
-79.799999999999955
 30
0.0
  0
VERTEX
  5
2121
  8
SAPA_PROFIL
 10
11.50000000099063
 20
-81.5
 30
0.0
 42
-0.4142135623730953
  0
VERTEX
  5
2122
  8
SAPA_PROFIL
 10
11.20000000099062
 20
-81.799999999999955
 30
0.0
  0
VERTEX
  5
2123
  8
SAPA_PROFIL
 10
-6.4000000828827197
 20
-81.800000000000011
 30
0.0
 42
-0.4142135623730951
  0
VERTEX
  5
2124
  8
SAPA_PROFIL
 10
-6.7000000828827311
 20
-81.5
 30
0.0
  0
VERTEX
  5
2125
  8
SAPA_PROFIL
 10
-6.700000082882732
 20
-79.799999999999955
 30
0.0
  0
SEQEND
  5
2126
  8
SAPA_PROFIL
  0
POLYLINE
  5
1636
  8
SAPA_PROFIL
 66
     1
 10
0.0
 20
0.0
 30
0.0
 70
     1
  0
VERTEX
  5
2127
  8
SAPA_PROFIL
 10
-50.499999999009397
 20
-33.246485430841638
 30
0.0
  0
VERTEX
  5
2128
  8
SAPA_PROFIL
 10
-50.499999999009397
 20
-37.099271835341689
 30
0.0
 42
0.414213562372901
  0
VERTEX
  5
2129
  8
SAPA_PROFIL
 10
-50.199999999009329
 20
-37.399271835341558
 30
0.0
  0
VERTEX
  5
212A
  8
SAPA_PROFIL
 10
-49.899999999009147
 20
-37.399271835341622
 30
0.0
  0
VERTEX
  5
212B
  8
SAPA_PROFIL
 10
-48.299999999009479
 20
-36.475511404638333
 30
0.0
 42
-0.5773502691897976
  0
VERTEX
  5
212C
  8
SAPA_PROFIL
 10
-47.99999999900939
 20
-36.648716485395092
 30
0.0
  0
VERTEX
  5
212D
  8
SAPA_PROFIL
 10
-47.99999999900939
 20
-38.034357131450243
 30
0.0
 42
-0.2679491924311222
  0
VERTEX
  5
212E
  8
SAPA_PROFIL
 10
-48.499999999009262
 20
-38.900382535234662
 30
0.0
  0
VERTEX
  5
212F
  8
SAPA_PROFIL
 10
-50.249999999009418
 20
-39.910745506316751
 30
0.0
 42
0.2679491924310994
  0
VERTEX
  5
2130
  8
SAPA_PROFIL
 10
-50.499999999009432
 20
-40.343758208208961
 30
0.0
  0
VERTEX
  5
2131
  8
SAPA_PROFIL
 10
-50.499999999009397
 20
-74.35624179179085
 30
0.0
 42
0.2679491924311005
  0
VERTEX
  5
2132
  8
SAPA_PROFIL
 10
-50.249999999009432
 20
-74.78925449368306
 30
0.0
  0
VERTEX
  5
2133
  8
SAPA_PROFIL
 10
-48.499999999009233
 20
-75.79961746476512
 30
0.0
 42
-0.2679491924311199
  0
VERTEX
  5
2134
  8
SAPA_PROFIL
 10
-47.999999999009397
 20
-76.665642868549554
 30
0.0
  0
VERTEX
  5
2135
  8
SAPA_PROFIL
 10
-47.99999999900939
 20
-78.051283514604691
 30
0.0
 42
-0.5773502691897738
  0
VERTEX
  5
2136
  8
SAPA_PROFIL
 10
-48.299999999009472
 20
-78.224488595361478
 30
0.0
  0
VERTEX
  5
2137
  8
SAPA_PROFIL
 10
-49.899999999009147
 20
-77.300728164658167
 30
0.0
  0
VERTEX
  5
2138
  8
SAPA_PROFIL
 10
-50.199999999009329
 20
-77.300728164658167
 30
0.0
 42
0.414213562372901
  0
VERTEX
  5
2139
  8
SAPA_PROFIL
 10
-50.499999999009461
 20
-77.600728164658094
 30
0.0
  0
VERTEX
  5
213A
  8
SAPA_PROFIL
 10
-50.499999999009397
 20
-81.453514569158159
 30
0.0
 42
-0.2134217652834299
  0
VERTEX
  5
213B
  8
SAPA_PROFIL
 10
-50.599999999009519
 20
-81.677121366908253
 30
0.0
 42
0.7625858545243327
  0
VERTEX
  5
213C
  8
SAPA_PROFIL
 10
-50.415420796812057
 20
-82.007447447925287
 30
0.0
  0
VERTEX
  5
213D
  8
SAPA_PROFIL
 10
-50.224037796818337
 20
-81.949373810936194
 30
0.0
  0
VERTEX
  5
213E
  8
SAPA_PROFIL
 10
-48.338194104957282
 20
-80.864809363964454
 30
0.0
  0
VERTEX
  5
213F
  8
SAPA_PROFIL
 10
-48.348755471184262
 20
-80.543051635746181
 30
0.0
 42
-0.5773502691897466
  0
VERTEX
  5
2140
  8
SAPA_PROFIL
 10
-48.054599170929421
 20
-80.360097895636031
 30
0.0
  0
VERTEX
  5
2141
  8
SAPA_PROFIL
 10
-47.769916887697768
 20
-80.512231806744765
 30
0.0
 42
-0.221694662643014
  0
VERTEX
  5
2142
  8
SAPA_PROFIL
 10
-47.36410798254299
 20
-81.053111638221566
 30
0.0
  0
VERTEX
  5
2143
  8
SAPA_PROFIL
 10
-46.982661386415273
 20
-82.866342108879806
 30
0.0
 42
-0.4769755326981641
  0
VERTEX
  5
2144
  8
SAPA_PROFIL
 10
-47.284914210921741
 20
-83.237998983825705
 30
0.0
  0
VERTEX
  5
2145
  8
SAPA_PROFIL
 10
-48.788015291683749
 20
-83.237915375942052
 30
0.0
  0
VERTEX
  5
2146
  8
SAPA_PROFIL
 10
-48.802533700930852
 20
-83.190069625943565
 30
0.0
 42
0.4142135623730878
  0
VERTEX
  5
2147
  8
SAPA_PROFIL
 10
-49.176718656406671
 20
-82.990105581436168
 30
0.0
  0
VERTEX
  5
2148
  8
SAPA_PROFIL
 10
-50.49595165816848
 20
-83.499999999999844
 30
0.0
  0
VERTEX
  5
2149
  8
SAPA_PROFIL
 10
-61.899999915161843
 20
-83.499999999999872
 30
0.0
 42
0.4142135623730847
  0
VERTEX
  5
214A
  8
SAPA_PROFIL
 10
-62.099999915161838
 20
-83.699999999999875
 30
0.0
  0
VERTEX
  5
214B
  8
SAPA_PROFIL
 10
-62.099999915161831
 20
-85.299999997930456
 30
0.0
 42
-0.4142135623730951
  0
VERTEX
  5
214C
  8
SAPA_PROFIL
 10
-62.299999915161841
 20
-85.499999997930473
 30
0.0
  0
VERTEX
  5
214D
  8
SAPA_PROFIL
 10
-62.799999915162331
 20
-85.499999997930473
 30
0.0
 42
-0.4142135623730951
  0
VERTEX
  5
214E
  8
SAPA_PROFIL
 10
-63.799999915161898
 20
-84.499999997930828
 30
0.0
  0
VERTEX
  5
214F
  8
SAPA_PROFIL
 10
-63.799999915161898
 20
-76.999999250856135
 30
0.0
 42
0.4142135623730951
  0
VERTEX
  5
2150
  8
SAPA_PROFIL
 10
-64.799999168087496
 20
-75.999999997930544
 30
0.0
  0
VERTEX
  5
2151
  8
SAPA_PROFIL
 10
-70.499999999009404
 20
-75.999999997930402
 30
0.0
 42
-0.4142135623730951
  0
VERTEX
  5
2152
  8
SAPA_PROFIL
 10
-72.499999999009404
 20
-73.999999997930402
 30
0.0
  0
VERTEX
  5
2153
  8
SAPA_PROFIL
 10
-72.49999999900939
 20
-9.4999999999999272
 30
0.0
 42
-0.4142139999999795
  0
VERTEX
  5
2154
  8
SAPA_PROFIL
 10
-71.999999999009376
 20
-8.9999999999999272
 30
0.0
  0
VERTEX
  5
2155
  8
SAPA_PROFIL
 10
-68.299999999009373
 20
-8.9999999999999467
 30
0.0
 42
-0.414213999999917
  0
VERTEX
  5
2156
  8
SAPA_PROFIL
 10
-67.99999999900939
 20
-9.2999999999998728
 30
0.0
  0
VERTEX
  5
2157
  8
SAPA_PROFIL
 10
-67.99999999900939
 20
-10.06754499999991
 30
0.0
 42
-0.2896899999999867
  0
VERTEX
  5
2158
  8
SAPA_PROFIL
 10
-68.571427999009373
 20
-10.97105299999987
 30
0.0
 42
-0.5507600000000635
  0
VERTEX
  5
2159
  8
SAPA_PROFIL
 10
-68.99999999900939
 20
-10.699999999999919
 30
0.0
  0
VERTEX
  5
215A
  8
SAPA_PROFIL
 10
-68.99999999900939
 20
-10.499999999999931
 30
0.0
 42
0.4142140000000558
  0
VERTEX
  5
215B
  8
SAPA_PROFIL
 10
-69.299999999009344
 20
-10.199999999999861
 30
0.0
  0
VERTEX
  5
215C
  8
SAPA_PROFIL
 10
-70.799999999009373
 20
-10.1999999999999
 30
0.0
 42
0.4142139999999795
  0
VERTEX
  5
215D
  8
SAPA_PROFIL
 10
-71.299999999009358
 20
-10.699999999999919
 30
0.0
  0
VERTEX
  5
215E
  8
SAPA_PROFIL
 10
-71.299999999009373
 20
-13.999999999999959
 30
0.0
 42
0.4142140000000003
  0
VERTEX
  5
215F
  8
SAPA_PROFIL
 10
-70.799999999009373
 20
-14.5
 30
0.0
  0
VERTEX
  5
2160
  8
SAPA_PROFIL
 10
-69.299999999009373
 20
-14.49999999999995
 30
0.0
 42
0.4142140000000143
  0
VERTEX
  5
2161
  8
SAPA_PROFIL
 10
-68.999999999009333
 20
-14.199999999999889
 30
0.0
  0
VERTEX
  5
2162
  8
SAPA_PROFIL
 10
-68.99999999900939
 20
-13.999999999999959
 30
0.0
 42
-0.5507599999999967
  0
VERTEX
  5
2163
  8
SAPA_PROFIL
 10
-68.571427999009373
 20
-13.72894799999996
 30
0.0
 42
-0.2896899999999865
  0
VERTEX
  5
2164
  8
SAPA_PROFIL
 10
-67.99999999900939
 20
-14.63245599999988
 30
0.0
  0
VERTEX
  5
2165
  8
SAPA_PROFIL
 10
-67.99999999900939
 20
-15.629926999999871
 30
0.0
 42
-0.0436609999999814
  0
VERTEX
  5
2166
  8
SAPA_PROFIL
 10
-68.007595999009396
 20
-15.71675199999984
 30
0.0
  0
VERTEX
  5
2167
  8
SAPA_PROFIL
 10
-68.284441999009346
 20
-17.286823999999871
 30
0.0
 42
-0.839099999999982
  0
VERTEX
  5
2168
  8
SAPA_PROFIL
 10
-69.269249999009403
 20
-17.286823999999871
 30
0.0
  0
VERTEX
  5
2169
  8
SAPA_PROFIL
 10
-69.476194999009365
 20
-16.113175999999871
 30
0.0
 42
0.3639700000000465
  0
VERTEX
  5
216A
  8
SAPA_PROFIL
 10
-69.968598999009416
 20
-15.69999999999987
 30
0.0
  0
VERTEX
  5
216B
  8
SAPA_PROFIL
 10
-70.779999999009362
 20
-15.69999999999987
 30
0.0
 42
0.4373279999999983
  0
VERTEX
  5
216C
  8
SAPA_PROFIL
 10
-71.278468999009419
 20
-16.239094999999882
 30
0.0
  0
VERTEX
  5
216D
  8
SAPA_PROFIL
 10
-70.711670512613537
 20
-30.712153273416281
 30
0.0
 42
0.4023941355297885
  0
VERTEX
  5
216E
  8
SAPA_PROFIL
 10
-70.411916783787206
 20
-31.0
 30
0.0
  0
VERTEX
  5
216F
  8
SAPA_PROFIL
 10
-69.611382999009365
 20
-30.999999999999972
 30
0.0
 42
-0.2596810000001162
  0
VERTEX
  5
2170
  8
SAPA_PROFIL
 10
-69.441351999009385
 20
-31.094692999999971
 30
0.0
  0
VERTEX
  5
2171
  8
SAPA_PROFIL
 10
-68.544952999009382
 20
-32.542039999999872
 30
0.0
 42
-0.5877030000000189
  0
VERTEX
  5
2172
  8
SAPA_PROFIL
 10
-68.799999999009401
 20
-32.999999999999972
 30
0.0
  0
VERTEX
  5
2173
  8
SAPA_PROFIL
 10
-70.199999999009378
 20
-32.999999999999972
 30
0.0
 42
0.4142139999999518
  0
VERTEX
  5
2174
  8
SAPA_PROFIL
 10
-70.499999999009361
 20
-33.299999999999869
 30
0.0
  0
VERTEX
  5
2175
  8
SAPA_PROFIL
 10
-70.49999999900939
 20
-35.699999999999882
 30
0.0
 42
0.4142140000000629
  0
VERTEX
  5
2176
  8
SAPA_PROFIL
 10
-70.199999999009378
 20
-35.999999999999922
 30
0.0
  0
VERTEX
  5
2177
  8
SAPA_PROFIL
 10
-52.799999999009401
 20
-35.99999999999995
 30
0.0
 42
0.4142140000001044
  0
VERTEX
  5
2178
  8
SAPA_PROFIL
 10
-52.499999999009312
 20
-35.699999999999882
 30
0.0
  0
VERTEX
  5
2179
  8
SAPA_PROFIL
 10
-52.49999999900939
 20
-33.299999999999883
 30
0.0
 42
0.4142140000000074
  0
VERTEX
  5
217A
  8
SAPA_PROFIL
 10
-52.799999999009401
 20
-33.000000000000007
 30
0.0
  0
VERTEX
  5
217B
  8
SAPA_PROFIL
 10
-54.199999999009378
 20
-33.000000000000007
 30
0.0
 42
-0.5920054160709848
  0
VERTEX
  5
217C
  8
SAPA_PROFIL
 10
-54.453008511767138
 20
-32.538796661885051
 30
0.0
  0
VERTEX
  5
217D
  8
SAPA_PROFIL
 10
-53.658955481945469
 20
-31.292531005672089
 30
0.0
 42
-0.2562769852931301
  0
VERTEX
  5
217E
  8
SAPA_PROFIL
 10
-53.490282973046881
 20
-31.19999999999996
 30
0.0
  0
VERTEX
  5
217F
  8
SAPA_PROFIL
 10
-50.495951658167868
 20
-31.19999999999996
 30
0.0
  0
VERTEX
  5
2180
  8
SAPA_PROFIL
 10
-49.176718656406663
 20
-31.70989441856339
 30
0.0
 42
0.4142135623730872
  0
VERTEX
  5
2181
  8
SAPA_PROFIL
 10
-48.802533700930837
 20
-31.50993037405599
 30
0.0
  0
VERTEX
  5
2182
  8
SAPA_PROFIL
 10
-48.788015291683742
 20
-31.4620846240575
 30
0.0
  0
VERTEX
  5
2183
  8
SAPA_PROFIL
 10
-47.284914210921727
 20
-31.462001016173879
 30
0.0
 42
-0.4769755326981643
  0
VERTEX
  5
2184
  8
SAPA_PROFIL
 10
-46.982661386415259
 20
-31.833657891119721
 30
0.0
  0
VERTEX
  5
2185
  8
SAPA_PROFIL
 10
-47.364107982542961
 20
-33.646888361777997
 30
0.0
 42
-0.221694662643016
  0
VERTEX
  5
2186
  8
SAPA_PROFIL
 10
-47.769916887697782
 20
-34.187768193254762
 30
0.0
  0
VERTEX
  5
2187
  8
SAPA_PROFIL
 10
-48.054599170929421
 20
-34.339902104363517
 30
0.0
 42
-0.5773502691897466
  0
VERTEX
  5
2188
  8
SAPA_PROFIL
 10
-48.348755471184241
 20
-34.156948364253353
 30
0.0
  0
VERTEX
  5
2189
  8
SAPA_PROFIL
 10
-48.338194104957282
 20
-33.835190636035101
 30
0.0
  0
VERTEX
  5
218A
  8
SAPA_PROFIL
 10
-50.22403779681833
 20
-32.750626189063361
 30
0.0
  0
VERTEX
  5
218B
  8
SAPA_PROFIL
 10
-50.41542079681205
 20
-32.692552552074268
 30
0.0
 42
0.7625858545243331
  0
VERTEX
  5
218C
  8
SAPA_PROFIL
 10
-50.599999999009519
 20
-33.022878633091267
 30
0.0
 42
-0.2134217652834442
  0
SEQEND
  5
218D
  8
SAPA_PROFIL
  0
POLYLINE
  5
1637
  8
SAPA_PROFIL
 66
     1
 10
0.0
 20
0.0
 30
0.0
 70
     1
  0
VERTEX
  5
218E
  8
SAPA_PROFIL
 10
-52.599999999009398
 20
-71.999999957930456
 30
0.0
 42
-0.4142135623730951
  0
VERTEX
  5
218F
  8
SAPA_PROFIL
 10
-52.799999999009408
 20
-71.799999957930439
 30
0.0
  0
VERTEX
  5
2190
  8
SAPA_PROFIL
 10
-52.799999999009387
 20
-70.199999957930387
 30
0.0
 42
-0.4142135623730951
  0
VERTEX
  5
2191
  8
SAPA_PROFIL
 10
-52.599999999009398
 20
-69.999999957930385
 30
0.0
  0
VERTEX
  5
2192
  8
SAPA_PROFIL
 10
-52.299999915136098
 20
-69.999999957930385
 30
0.0
  0
VERTEX
  5
2193
  8
SAPA_PROFIL
 10
-52.299999915136091
 20
-41.699999999999882
 30
0.0
  0
VERTEX
  5
2194
  8
SAPA_PROFIL
 10
-52.599999999009391
 20
-41.699999999999882
 30
0.0
 42
-0.4142135623730951
  0
VERTEX
  5
2195
  8
SAPA_PROFIL
 10
-52.799999999009401
 20
-41.499999999999893
 30
0.0
  0
VERTEX
  5
2196
  8
SAPA_PROFIL
 10
-52.79999999900938
 20
-39.899999999999871
 30
0.0
 42
-0.4142135623730951
  0
VERTEX
  5
2197
  8
SAPA_PROFIL
 10
-52.599999999009391
 20
-39.699999999999882
 30
0.0
  0
VERTEX
  5
2198
  8
SAPA_PROFIL
 10
-52.299999915136091
 20
-39.699999999999882
 30
0.0
  0
VERTEX
  5
2199
  8
SAPA_PROFIL
 10
-52.299999915136091
 20
-37.999999999999901
 30
0.0
 42
0.4142135623730951
  0
VERTEX
  5
219A
  8
SAPA_PROFIL
 10
-52.599999915136053
 20
-37.699999999999882
 30
0.0
  0
VERTEX
  5
219B
  8
SAPA_PROFIL
 10
-70.199999999009393
 20
-37.699999999999882
 30
0.0
 42
0.4142135623730951
  0
VERTEX
  5
219C
  8
SAPA_PROFIL
 10
-70.499999999009404
 20
-37.999999999999893
 30
0.0
  0
VERTEX
  5
219D
  8
SAPA_PROFIL
 10
-70.499999999009404
 20
-39.699999999999882
 30
0.0
  0
VERTEX
  5
219E
  8
SAPA_PROFIL
 10
-70.399999999009381
 20
-39.699999999999882
 30
0.0
 42
-0.4142135623730951
  0
VERTEX
  5
219F
  8
SAPA_PROFIL
 10
-70.199999999009393
 20
-39.899999999999856
 30
0.0
  0
VERTEX
  5
21A0
  8
SAPA_PROFIL
 10
-70.199999999009393
 20
-41.499999999999879
 30
0.0
 42
-0.4142135623730951
  0
VERTEX
  5
21A1
  8
SAPA_PROFIL
 10
-70.399999999009381
 20
-41.699999999999868
 30
0.0
  0
VERTEX
  5
21A2
  8
SAPA_PROFIL
 10
-70.499999999009404
 20
-41.699999999999868
 30
0.0
  0
VERTEX
  5
21A3
  8
SAPA_PROFIL
 10
-70.499999999009404
 20
-69.999999957930385
 30
0.0
  0
VERTEX
  5
21A4
  8
SAPA_PROFIL
 10
-70.399999999009381
 20
-69.999999957930385
 30
0.0
 42
-0.4142135623730951
  0
VERTEX
  5
21A5
  8
SAPA_PROFIL
 10
-70.199999999009393
 20
-70.199999957930387
 30
0.0
  0
VERTEX
  5
21A6
  8
SAPA_PROFIL
 10
-70.199999999009407
 20
-71.799999957930439
 30
0.0
 42
-0.4142135623730951
  0
VERTEX
  5
21A7
  8
SAPA_PROFIL
 10
-70.399999999009381
 20
-71.999999957930399
 30
0.0
  0
VERTEX
  5
21A8
  8
SAPA_PROFIL
 10
-70.499999999009404
 20
-71.999999957930399
 30
0.0
  0
VERTEX
  5
21A9
  8
SAPA_PROFIL
 10
-70.499999999009404
 20
-73.999999997930431
 30
0.0
 42
0.4142135623732158
  0
VERTEX
  5
21AA
  8
SAPA_PROFIL
 10
-70.199999999009421
 20
-74.299999997930527
 30
0.0
  0
VERTEX
  5
21AB
  8
SAPA_PROFIL
 10
-64.799999168087496
 20
-74.29999999793047
 30
0.0
 42
-0.4142135623730951
  0
VERTEX
  5
21AC
  8
SAPA_PROFIL
 10
-62.099999915161831
 20
-76.999999250856135
 30
0.0
  0
VERTEX
  5
21AD
  8
SAPA_PROFIL
 10
-62.099999915161831
 20
-81.499999999999886
 30
0.0
 42
0.4142135623730951
  0
VERTEX
  5
21AE
  8
SAPA_PROFIL
 10
-61.799999915161848
 20
-81.799999999999883
 30
0.0
  0
VERTEX
  5
21AF
  8
SAPA_PROFIL
 10
-52.599999915136053
 20
-81.799999999999883
 30
0.0
 42
0.4142135623730951
  0
VERTEX
  5
21B0
  8
SAPA_PROFIL
 10
-52.299999915136098
 20
-81.499999999999872
 30
0.0
  0
VERTEX
  5
21B1
  8
SAPA_PROFIL
 10
-52.299999915136098
 20
-71.999999957930399
 30
0.0
  0
SEQEND
  5
21B2
  8
SAPA_PROFIL
  0
POLYLINE
  5
1638
  8
SAPA_PROFIL
 62
     4
 66
     1
 10
0.0
 20
0.0
 30
0.0
  0
VERTEX
  5
21B3
  8
SAPA_PROFIL
 62
     4
 10
-38.549329121449098
 20
-33.932281085846917
 30
0.0
 42
0.5571646428658034
  0
VERTEX
  5
21B4
  8
SAPA_PROFIL
 62
     4
 10
-38.012368617312269
 20
-34.800000000002463
 30
0.0
  0
VERTEX
  5
21B5
  8
SAPA_PROFIL
 62
     4
 10
-20.987631380791068
 20
-34.800000000002001
 30
0.0
 42
0.5571645048035741
  0
VERTEX
  5
21B6
  8
SAPA_PROFIL
 62
     4
 10
-20.450670763830018
 20
-33.932281312135842
 30
0.0
  0
VERTEX
  5
21B7
  8
SAPA_PROFIL
 62
     4
 10
-21.28137785137671
 20
-32.266140656067797
 30
0.0
 42
0.284385813979063
  0
VERTEX
  5
21B8
  8
SAPA_PROFIL
 62
     4
 10
-21.54985815985706
 20
-32.100000000000371
 30
0.0
  0
VERTEX
  5
21B9
  8
SAPA_PROFIL
 62
     4
 10
-37.450141838246381
 20
-32.100000000000371
 30
0.0
 42
0.2843858139786238
  0
VERTEX
  5
21BA
  8
SAPA_PROFIL
 62
     4
 10
-37.718622146726659
 20
-32.2661406560673
 30
0.0
  0
VERTEX
  5
21BB
  8
SAPA_PROFIL
 62
     4
 10
-38.54932923427382
 20
-33.932281312136638
 30
0.0
  0
SEQEND
  5
21BC
  8
SAPA_PROFIL
 62
     4
  0
POLYLINE
  5
1639
  8
SAPA_PROFIL
 62
     4
 66
     1
 10
0.0
 20
0.0
 30
0.0
 70
     1
  0
VERTEX
  5
21BD
  8
SAPA_PROFIL
 62
     4
 10
-15.082388814384419
 20
-31.743168485502789
 30
0.0
  0
VERTEX
  5
21BE
  8
SAPA_PROFIL
 62
     4
 10
-14.818365536008409
 20
-31.336608289498649
 30
0.0
 42
-0.2539676464751066
  0
VERTEX
  5
21BF
  8
SAPA_PROFIL
 62
     4
 10
-14.566764365623699
 20
-31.20000000000255
 30
0.0
  0
VERTEX
  5
21C0
  8
SAPA_PROFIL
 62
     4
 10
-13.18526478041835
 20
-31.20000000000255
 30
0.0
 42
-0.3152987888790479
  0
VERTEX
  5
21C1
  8
SAPA_PROFIL
 62
     4
 10
-12.715418470026041
 20
-31.52898992834071
 30
0.0
  0
VERTEX
  5
21C2
  8
SAPA_PROFIL
 62
     4
 10
-11.819749529117439
 20
-33.989820118791982
 30
0.0
 42
0.2694959974287434
  0
VERTEX
  5
21C3
  8
SAPA_PROFIL
 62
     4
 10
-11.58823048271608
 20
-34.182952093135867
 30
0.0
 42
0.0612686379508233
  0
VERTEX
  5
21C4
  8
SAPA_PROFIL
 62
     4
 10
-11.2955550498628
 20
-34.196535463766402
 30
0.0
  0
VERTEX
  5
21C5
  8
SAPA_PROFIL
 62
     4
 10
-10.94613687255454
 20
-34.398272142495223
 30
0.0
 42
0.5773502691891679
  0
VERTEX
  5
21C6
  8
SAPA_PROFIL
 62
     4
 10
-10.631136872554951
 20
-34.21640680770065
 30
0.0
  0
VERTEX
  5
21C7
  8
SAPA_PROFIL
 62
     4
 10
-10.631136872554711
 20
-33.94929227957433
 30
0.0
  0
VERTEX
  5
21C8
  8
SAPA_PROFIL
 62
     4
 10
-9.2326091719204584
 20
-33.140608818266017
 30
0.0
 42
-0.1318219888653519
  0
VERTEX
  5
21C9
  8
SAPA_PROFIL
 62
     4
 10
-9.0824360694481143
 20
-33.100316421728621
 30
0.0
  0
VERTEX
  5
21CA
  8
SAPA_PROFIL
 62
     4
 10
-8.8999999990113352
 20
-33.100316421734988
 30
0.0
 42
-0.4142135623724291
  0
VERTEX
  5
21CB
  8
SAPA_PROFIL
 62
     4
 10
-8.4999999990107895
 20
-33.500316421734617
 30
0.0
  0
VERTEX
  5
21CC
  8
SAPA_PROFIL
 62
     4
 10
-8.4999999990121538
 20
-36.900316421735631
 30
0.0
 42
-0.4142135623744271
  0
VERTEX
  5
21CD
  8
SAPA_PROFIL
 62
     4
 10
-8.8999999990113352
 20
-37.300316421736632
 30
0.0
  0
VERTEX
  5
21CE
  8
SAPA_PROFIL
 62
     4
 10
-9.0796152412826352
 20
-37.300316421737257
 30
0.0
 42
-0.1316524975874005
  0
VERTEX
  5
21CF
  8
SAPA_PROFIL
 62
     4
 10
-9.2296152412794541
 20
-37.260124042871666
 30
0.0
  0
VERTEX
  5
21D0
  8
SAPA_PROFIL
 62
     4
 10
-10.833753138281709
 20
-36.333974596219129
 30
0.0
 42
0.1316524975875904
  0
VERTEX
  5
21D1
  8
SAPA_PROFIL
 62
     4
 10
-11.33375313828342
 20
-36.200000000004373
 30
0.0
  0
VERTEX
  5
21D2
  8
SAPA_PROFIL
 62
     4
 10
-11.74999999901079
 20
-36.200000000004373
 30
0.0
 42
0.4142135623730951
  0
VERTEX
  5
21D3
  8
SAPA_PROFIL
 62
     4
 10
-12.74999999901079
 20
-37.200000000004373
 30
0.0
  0
VERTEX
  5
21D4
  8
SAPA_PROFIL
 62
     4
 10
-12.74999999901079
 20
-40.20000000000163
 30
0.0
 42
-0.9999996830128083
  0
VERTEX
  5
21D5
  8
SAPA_PROFIL
 62
     4
 10
-13.74999999901079
 20
-40.200000000003449
 30
0.0
  0
VERTEX
  5
21D6
  8
SAPA_PROFIL
 62
     4
 10
-13.74999999901079
 20
-37.200000000003463
 30
0.0
 42
0.4142135623730951
  0
VERTEX
  5
21D7
  8
SAPA_PROFIL
 62
     4
 10
-14.74999999901079
 20
-36.200000000003463
 30
0.0
  0
VERTEX
  5
21D8
  8
SAPA_PROFIL
 62
     4
 10
-44.249999999095373
 20
-36.200000000003463
 30
0.0
 42
0.4142135623730951
  0
VERTEX
  5
21D9
  8
SAPA_PROFIL
 62
     4
 10
-45.249999999095373
 20
-37.20000000000347
 30
0.0
  0
VERTEX
  5
21DA
  8
SAPA_PROFIL
 62
     4
 10
-45.249999999095373
 20
-40.200000000001651
 30
0.0
 42
-0.9999999999999998
  0
VERTEX
  5
21DB
  8
SAPA_PROFIL
 62
     4
 10
-46.249999999095373
 20
-40.200000000001651
 30
0.0
  0
VERTEX
  5
21DC
  8
SAPA_PROFIL
 62
     4
 10
-46.249999999095373
 20
-37.20000000000347
 30
0.0
 42
0.4142135623736278
  0
VERTEX
  5
21DD
  8
SAPA_PROFIL
 62
     4
 10
-47.249999999095373
 20
-36.20000000000347
 30
0.0
  0
VERTEX
  5
21DE
  8
SAPA_PROFIL
 62
     4
 10
-47.666246859821833
 20
-36.20000000000347
 30
0.0
 42
0.1316524975874375
  0
VERTEX
  5
21DF
  8
SAPA_PROFIL
 62
     4
 10
-48.166246859822031
 20
-36.333974596219512
 30
0.0
  0
VERTEX
  5
21E0
  8
SAPA_PROFIL
 62
     4
 10
-49.770384756823979
 20
-37.260124042871681
 30
0.0
 42
-0.1316524975874
  0
VERTEX
  5
21E1
  8
SAPA_PROFIL
 62
     4
 10
-49.92038475682353
 20
-37.300316421737271
 30
0.0
  0
VERTEX
  5
21E2
  8
SAPA_PROFIL
 62
     4
 10
-50.09999999909482
 20
-37.300316421736639
 30
0.0
 42
-0.4142135623744271
  0
VERTEX
  5
21E3
  8
SAPA_PROFIL
 62
     4
 10
-50.499999999094008
 20
-36.900316421735639
 30
0.0
  0
VERTEX
  5
21E4
  8
SAPA_PROFIL
 62
     4
 10
-50.499999999095373
 20
-33.500316421734638
 30
0.0
 42
-0.4142135623724291
  0
VERTEX
  5
21E5
  8
SAPA_PROFIL
 62
     4
 10
-50.09999999909482
 20
-33.100316421735002
 30
0.0
  0
VERTEX
  5
21E6
  8
SAPA_PROFIL
 62
     4
 10
-49.917563928658048
 20
-33.100316421728643
 30
0.0
 42
-0.1318219888653524
  0
VERTEX
  5
21E7
  8
SAPA_PROFIL
 62
     4
 10
-49.767390826185697
 20
-33.140608818266017
 30
0.0
  0
VERTEX
  5
21E8
  8
SAPA_PROFIL
 62
     4
 10
-48.368863125706049
 20
-33.949292279490358
 30
0.0
  0
VERTEX
  5
21E9
  8
SAPA_PROFIL
 62
     4
 10
-48.368863125706049
 20
-34.2164068077034
 30
0.0
 42
0.577350269189159
  0
VERTEX
  5
21EA
  8
SAPA_PROFIL
 62
     4
 10
-48.053863125706449
 20
-34.398272142497959
 30
0.0
  0
VERTEX
  5
21EB
  8
SAPA_PROFIL
 62
     4
 10
-47.70444494848779
 20
-34.196535463820858
 30
0.0
 42
0.0612687673629489
  0
VERTEX
  5
21EC
  8
SAPA_PROFIL
 62
     4
 10
-47.411769515387569
 20
-34.182952093134652
 30
0.0
 42
0.2694959974285039
  0
VERTEX
  5
21ED
  8
SAPA_PROFIL
 62
     4
 10
-47.180250468987047
 20
-33.989820118790703
 30
0.0
  0
VERTEX
  5
21EE
  8
SAPA_PROFIL
 62
     4
 10
-46.284581528077389
 20
-31.528989928337531
 30
0.0
 42
-0.3152987888784035
  0
VERTEX
  5
21EF
  8
SAPA_PROFIL
 62
     4
 10
-45.814735217684159
 20
-31.200000000000959
 30
0.0
  0
VERTEX
  5
21F0
  8
SAPA_PROFIL
 62
     4
 10
-44.433235632479729
 20
-31.200000000002561
 30
0.0
 42
-0.2539676464741841
  0
VERTEX
  5
21F1
  8
SAPA_PROFIL
 62
     4
 10
-44.181634462095651
 20
-31.336608289497828
 30
0.0
  0
VERTEX
  5
21F2
  8
SAPA_PROFIL
 62
     4
 10
-43.917611183719011
 20
-31.7431684855028
 30
0.0
 42
-0.5862177598324623
  0
VERTEX
  5
21F3
  8
SAPA_PROFIL
 62
     4
 10
-44.173352998957348
 20
-32.199999999999307
 30
0.0
  0
VERTEX
  5
21F4
  8
SAPA_PROFIL
 62
     4
 10
-45.114527679467173
 20
-32.19999999999164
 30
0.0
 42
0.3152987888813165
  0
VERTEX
  5
21F5
  8
SAPA_PROFIL
 62
     4
 10
-45.584373989864922
 20
-32.5289899283284
 30
0.0
  0
VERTEX
  5
21F6
  8
SAPA_PROFIL
 62
     4
 10
-46.021138270988878
 20
-33.72898992833963
 30
0.0
 42
0.5205670505515651
  0
VERTEX
  5
21F7
  8
SAPA_PROFIL
 62
     4
 10
-45.551291960595648
 20
-34.400000000002372
 30
0.0
  0
VERTEX
  5
21F8
  8
SAPA_PROFIL
 62
     4
 10
-40.534851019926798
 20
-34.4000000000024
 30
0.0
 42
0.3702522326300203
  0
VERTEX
  5
21F9
  8
SAPA_PROFIL
 62
     4
 10
-40.238327658133471
 20
-34.145540047336702
 30
0.0
 42
0.0982365330332397
  0
VERTEX
  5
21FA
  8
SAPA_PROFIL
 62
     4
 10
-40.147874899922527
 20
-32.457853272341687
 30
0.0
 42
0.3735060174783164
  0
VERTEX
  5
21FB
  8
SAPA_PROFIL
 62
     4
 10
-40.444899567833509
 20
-32.200000000001651
 30
0.0
  0
VERTEX
  5
21FC
  8
SAPA_PROFIL
 62
     4
 10
-40.873352998956172
 20
-32.200000000000728
 30
0.0
 42
-0.5920056181162531
  0
VERTEX
  5
21FD
  8
SAPA_PROFIL
 62
     4
 10
-41.126361755273571
 20
-31.738796497472809
 30
0.0
  0
VERTEX
  5
21FE
  8
SAPA_PROFIL
 62
     4
 10
-40.86517767911787
 20
-31.336608289494521
 30
0.0
 42
-0.2539676464746725
  0
VERTEX
  5
21FF
  8
SAPA_PROFIL
 62
     4
 10
-40.613576508734099
 20
-31.199999999999161
 30
0.0
  0
VERTEX
  5
2200
  8
SAPA_PROFIL
 62
     4
 10
-18.386423489368418
 20
-31.200000000000731
 30
0.0
 42
-0.2539676464741819
  0
VERTEX
  5
2201
  8
SAPA_PROFIL
 62
     4
 10
-18.13482231898556
 20
-31.33660828949451
 30
0.0
  0
VERTEX
  5
2202
  8
SAPA_PROFIL
 62
     4
 10
-17.873638242831749
 20
-31.738796497472851
 30
0.0
 42
-0.5920055144124249
  0
VERTEX
  5
2203
  8
SAPA_PROFIL
 62
     4
 10
-18.126646999147258
 20
-32.200000000000728
 30
0.0
  0
VERTEX
  5
2204
  8
SAPA_PROFIL
 62
     4
 10
-18.555100476437481
 20
-32.199999974725721
 30
0.0
 42
0.3735060174775405
  0
VERTEX
  5
2205
  8
SAPA_PROFIL
 62
     4
 10
-18.85212514434717
 20
-32.457853247065813
 30
0.0
 42
0.0355900683670349
  0
VERTEX
  5
2206
  8
SAPA_PROFIL
 62
     4
 10
-18.896018708379419
 20
-33.073726833865599
 30
0.0
 42
0.0624282003873116
  0
VERTEX
  5
2207
  8
SAPA_PROFIL
 62
     4
 10
-18.761672386136478
 20
-34.145540022060729
 30
0.0
 42
0.3702522326309292
  0
VERTEX
  5
2208
  8
SAPA_PROFIL
 62
     4
 10
-18.465149024343098
 20
-34.399999974726448
 30
0.0
  0
VERTEX
  5
2209
  8
SAPA_PROFIL
 62
     4
 10
-13.448708037509601
 20
-34.400000000002592
 30
0.0
 42
0.5205670505515692
  0
VERTEX
  5
220A
  8
SAPA_PROFIL
 62
     4
 10
-12.978861727116371
 20
-33.728989928339622
 30
0.0
  0
VERTEX
  5
220B
  8
SAPA_PROFIL
 62
     4
 10
-13.41562600824132
 20
-32.528989928330169
 30
0.0
 42
0.3152987888807539
  0
VERTEX
  5
220C
  8
SAPA_PROFIL
 62
     4
 10
-13.88547231863717
 20
-32.199999999992549
 30
0.0
  0
VERTEX
  5
220D
  8
SAPA_PROFIL
 62
     4
 10
-14.826646999146259
 20
-32.19999999999937
 30
0.0
 42
-0.5862175119221242
  0
VERTEX
  5
220E
  8
SAPA_PROFIL
 62
     4
 10
-15.08238893012822
 20
-31.743168674244231
 30
0.0
 42
0.0000002084758573
  0
SEQEND
  5
220F
  8
SAPA_PROFIL
 62
     4
  0
POLYLINE
  5
163A
  8
SAPA_PROFIL
 62
     4
 66
     1
 10
0.0
 20
0.0
 30
0.0
  0
VERTEX
  5
2210
  8
SAPA_PROFIL
 62
     4
 10
-38.549329121449098
 20
-80.767718914153036
 30
0.0
 42
-0.5571646428658034
  0
VERTEX
  5
2211
  8
SAPA_PROFIL
 62
     4
 10
-38.012368617312283
 20
-79.899999999997476
 30
0.0
  0
VERTEX
  5
2212
  8
SAPA_PROFIL
 62
     4
 10
-20.987631380791079
 20
-79.899999999997931
 30
0.0
 42
-0.5571645048035741
  0
VERTEX
  5
2213
  8
SAPA_PROFIL
 62
     4
 10
-20.450670763830029
 20
-80.767718687864104
 30
0.0
  0
VERTEX
  5
2214
  8
SAPA_PROFIL
 62
     4
 10
-21.281377851376721
 20
-82.433859343932127
 30
0.0
 42
-0.284385813979063
  0
VERTEX
  5
2215
  8
SAPA_PROFIL
 62
     4
 10
-21.54985815985707
 20
-82.599999999999568
 30
0.0
  0
VERTEX
  5
2216
  8
SAPA_PROFIL
 62
     4
 10
-37.450141838246381
 20
-82.599999999999568
 30
0.0
 42
-0.2843858139786238
  0
VERTEX
  5
2217
  8
SAPA_PROFIL
 62
     4
 10
-37.71862214672668
 20
-82.433859343932639
 30
0.0
  0
VERTEX
  5
2218
  8
SAPA_PROFIL
 62
     4
 10
-38.549329234273827
 20
-80.767718687863294
 30
0.0
  0
SEQEND
  5
2219
  8
SAPA_PROFIL
 62
     4
  0
POLYLINE
  5
163B
  8
SAPA_PROFIL
 62
     4
 66
     1
 10
0.0
 20
0.0
 30
0.0
 70
     1
  0
VERTEX
  5
221A
  8
SAPA_PROFIL
 62
     4
 10
-15.08238881438443
 20
-82.956831514497125
 30
0.0
  0
VERTEX
  5
221B
  8
SAPA_PROFIL
 62
     4
 10
-14.81836553600842
 20
-83.363391710501276
 30
0.0
 42
0.2539676464751066
  0
VERTEX
  5
221C
  8
SAPA_PROFIL
 62
     4
 10
-14.56676436562371
 20
-83.499999999997385
 30
0.0
  0
VERTEX
  5
221D
  8
SAPA_PROFIL
 62
     4
 10
-13.18526478041837
 20
-83.499999999997385
 30
0.0
 42
0.3152987888790479
  0
VERTEX
  5
221E
  8
SAPA_PROFIL
 62
     4
 10
-12.71541847002605
 20
-83.171010071659225
 30
0.0
  0
VERTEX
  5
221F
  8
SAPA_PROFIL
 62
     4
 10
-11.81974952911745
 20
-80.710179881207949
 30
0.0
 42
-0.2694959974287434
  0
VERTEX
  5
2220
  8
SAPA_PROFIL
 62
     4
 10
-11.58823048271609
 20
-80.517047906864065
 30
0.0
 42
-0.0612686379508233
  0
VERTEX
  5
2221
  8
SAPA_PROFIL
 62
     4
 10
-11.295555049862809
 20
-80.503464536233537
 30
0.0
  0
VERTEX
  5
2222
  8
SAPA_PROFIL
 62
     4
 10
-10.94613687255455
 20
-80.301727857504716
 30
0.0
 42
-0.5773502691891679
  0
VERTEX
  5
2223
  8
SAPA_PROFIL
 62
     4
 10
-10.63113687255496
 20
-80.483593192299296
 30
0.0
  0
VERTEX
  5
2224
  8
SAPA_PROFIL
 62
     4
 10
-10.63113687255472
 20
-80.750707720425595
 30
0.0
  0
VERTEX
  5
2225
  8
SAPA_PROFIL
 62
     4
 10
-9.232609171920469
 20
-81.559391181733915
 30
0.0
 42
0.1318219888653519
  0
VERTEX
  5
2226
  8
SAPA_PROFIL
 62
     4
 10
-9.0824360694481232
 20
-81.599683578271296
 30
0.0
  0
VERTEX
  5
2227
  8
SAPA_PROFIL
 62
     4
 10
-8.8999999990113459
 20
-81.599683578264944
 30
0.0
 42
0.4142135623724291
  0
VERTEX
  5
2228
  8
SAPA_PROFIL
 62
     4
 10
-8.4999999990108002
 20
-81.199683578265308
 30
0.0
  0
VERTEX
  5
2229
  8
SAPA_PROFIL
 62
     4
 10
-8.4999999990121644
 20
-77.799683578264293
 30
0.0
 42
0.4142135623744271
  0
VERTEX
  5
222A
  8
SAPA_PROFIL
 62
     4
 10
-8.8999999990113459
 20
-77.399683578263307
 30
0.0
  0
VERTEX
  5
222B
  8
SAPA_PROFIL
 62
     4
 10
-9.0796152412826494
 20
-77.399683578262668
 30
0.0
 42
0.1316524975874005
  0
VERTEX
  5
222C
  8
SAPA_PROFIL
 62
     4
 10
-9.2296152412794648
 20
-77.439875957128265
 30
0.0
  0
VERTEX
  5
222D
  8
SAPA_PROFIL
 62
     4
 10
-10.83375313828172
 20
-78.366025403780796
 30
0.0
 42
-0.1316524975875904
  0
VERTEX
  5
222E
  8
SAPA_PROFIL
 62
     4
 10
-11.333753138283431
 20
-78.499999999995566
 30
0.0
  0
VERTEX
  5
222F
  8
SAPA_PROFIL
 62
     4
 10
-11.7499999990108
 20
-78.499999999995566
 30
0.0
 42
-0.4142135623730951
  0
VERTEX
  5
2230
  8
SAPA_PROFIL
 62
     4
 10
-12.7499999990108
 20
-77.499999999995566
 30
0.0
  0
VERTEX
  5
2231
  8
SAPA_PROFIL
 62
     4
 10
-12.7499999990108
 20
-74.499999999998295
 30
0.0
 42
0.9999996830128083
  0
VERTEX
  5
2232
  8
SAPA_PROFIL
 62
     4
 10
-13.7499999990108
 20
-74.499999999996476
 30
0.0
  0
VERTEX
  5
2233
  8
SAPA_PROFIL
 62
     4
 10
-13.7499999990108
 20
-77.499999999996476
 30
0.0
 42
-0.4142135623730951
  0
VERTEX
  5
2234
  8
SAPA_PROFIL
 62
     4
 10
-14.7499999990108
 20
-78.499999999996476
 30
0.0
  0
VERTEX
  5
2235
  8
SAPA_PROFIL
 62
     4
 10
-44.249999999095373
 20
-78.499999999996476
 30
0.0
 42
-0.4142135623730951
  0
VERTEX
  5
2236
  8
SAPA_PROFIL
 62
     4
 10
-45.24999999909538
 20
-77.499999999996476
 30
0.0
  0
VERTEX
  5
2237
  8
SAPA_PROFIL
 62
     4
 10
-45.24999999909538
 20
-74.499999999998295
 30
0.0
 42
0.9999999999999998
  0
VERTEX
  5
2238
  8
SAPA_PROFIL
 62
     4
 10
-46.24999999909538
 20
-74.499999999998295
 30
0.0
  0
VERTEX
  5
2239
  8
SAPA_PROFIL
 62
     4
 10
-46.24999999909538
 20
-77.499999999996476
 30
0.0
 42
-0.4142135623736278
  0
VERTEX
  5
223A
  8
SAPA_PROFIL
 62
     4
 10
-47.249999999095373
 20
-78.499999999996476
 30
0.0
  0
VERTEX
  5
223B
  8
SAPA_PROFIL
 62
     4
 10
-47.66624685982184
 20
-78.499999999996476
 30
0.0
 42
-0.1316524975874375
  0
VERTEX
  5
223C
  8
SAPA_PROFIL
 62
     4
 10
-48.166246859822039
 20
-78.366025403780441
 30
0.0
  0
VERTEX
  5
223D
  8
SAPA_PROFIL
 62
     4
 10
-49.770384756823979
 20
-77.439875957128265
 30
0.0
 42
0.1316524975874
  0
VERTEX
  5
223E
  8
SAPA_PROFIL
 62
     4
 10
-49.92038475682353
 20
-77.399683578262668
 30
0.0
  0
VERTEX
  5
223F
  8
SAPA_PROFIL
 62
     4
 10
-50.099999999094827
 20
-77.399683578263307
 30
0.0
 42
0.4142135623744271
  0
VERTEX
  5
2240
  8
SAPA_PROFIL
 62
     4
 10
-50.499999999094022
 20
-77.799683578264293
 30
0.0
  0
VERTEX
  5
2241
  8
SAPA_PROFIL
 62
     4
 10
-50.499999999095373
 20
-81.199683578265308
 30
0.0
 42
0.4142135623724291
  0
VERTEX
  5
2242
  8
SAPA_PROFIL
 62
     4
 10
-50.099999999094827
 20
-81.599683578264944
 30
0.0
  0
VERTEX
  5
2243
  8
SAPA_PROFIL
 62
     4
 10
-49.917563928658062
 20
-81.599683578271296
 30
0.0
 42
0.1318219888653524
  0
VERTEX
  5
2244
  8
SAPA_PROFIL
 62
     4
 10
-49.767390826185711
 20
-81.559391181733915
 30
0.0
  0
VERTEX
  5
2245
  8
SAPA_PROFIL
 62
     4
 10
-48.368863125706049
 20
-80.750707720509581
 30
0.0
  0
VERTEX
  5
2246
  8
SAPA_PROFIL
 62
     4
 10
-48.368863125706049
 20
-80.483593192296524
 30
0.0
 42
-0.577350269189159
  0
VERTEX
  5
2247
  8
SAPA_PROFIL
 62
     4
 10
-48.053863125706457
 20
-80.301727857501973
 30
0.0
  0
VERTEX
  5
2248
  8
SAPA_PROFIL
 62
     4
 10
-47.704444948487797
 20
-80.503464536179081
 30
0.0
 42
-0.0612687673629489
  0
VERTEX
  5
2249
  8
SAPA_PROFIL
 62
     4
 10
-47.41176951538759
 20
-80.517047906865287
 30
0.0
 42
-0.2694959974285039
  0
VERTEX
  5
224A
  8
SAPA_PROFIL
 62
     4
 10
-47.180250468987069
 20
-80.710179881209243
 30
0.0
  0
VERTEX
  5
224B
  8
SAPA_PROFIL
 62
     4
 10
-46.284581528077389
 20
-83.171010071662408
 30
0.0
 42
0.3152987888784035
  0
VERTEX
  5
224C
  8
SAPA_PROFIL
 62
     4
 10
-45.814735217684166
 20
-83.499999999998977
 30
0.0
  0
VERTEX
  5
224D
  8
SAPA_PROFIL
 62
     4
 10
-44.433235632479729
 20
-83.499999999997385
 30
0.0
 42
0.2539676464741841
  0
VERTEX
  5
224E
  8
SAPA_PROFIL
 62
     4
 10
-44.181634462095658
 20
-83.363391710502114
 30
0.0
  0
VERTEX
  5
224F
  8
SAPA_PROFIL
 62
     4
 10
-43.917611183719018
 20
-82.956831514497125
 30
0.0
 42
0.5862177598324623
  0
VERTEX
  5
2250
  8
SAPA_PROFIL
 62
     4
 10
-44.17335299895737
 20
-82.500000000000625
 30
0.0
  0
VERTEX
  5
2251
  8
SAPA_PROFIL
 62
     4
 10
-45.114527679467173
 20
-82.500000000008285
 30
0.0
 42
-0.3152987888813165
  0
VERTEX
  5
2252
  8
SAPA_PROFIL
 62
     4
 10
-45.584373989864929
 20
-82.171010071671546
 30
0.0
  0
VERTEX
  5
2253
  8
SAPA_PROFIL
 62
     4
 10
-46.021138270988892
 20
-80.971010071660316
 30
0.0
 42
-0.5205670505515651
  0
VERTEX
  5
2254
  8
SAPA_PROFIL
 62
     4
 10
-45.551291960595663
 20
-80.299999999997567
 30
0.0
  0
VERTEX
  5
2255
  8
SAPA_PROFIL
 62
     4
 10
-40.534851019926819
 20
-80.299999999997539
 30
0.0
 42
-0.3702522326300203
  0
VERTEX
  5
2256
  8
SAPA_PROFIL
 62
     4
 10
-40.238327658133478
 20
-80.554459952663237
 30
0.0
 42
-0.0982365330332397
  0
VERTEX
  5
2257
  8
SAPA_PROFIL
 62
     4
 10
-40.147874899922527
 20
-82.242146727658252
 30
0.0
 42
-0.3735060174783164
  0
VERTEX
  5
2258
  8
SAPA_PROFIL
 62
     4
 10
-40.444899567833531
 20
-82.499999999998266
 30
0.0
  0
VERTEX
  5
2259
  8
SAPA_PROFIL
 62
     4
 10
-40.873352998956179
 20
-82.499999999999204
 30
0.0
 42
0.5920056181162531
  0
VERTEX
  5
225A
  8
SAPA_PROFIL
 62
     4
 10
-41.126361755273578
 20
-82.961203502527127
 30
0.0
  0
VERTEX
  5
225B
  8
SAPA_PROFIL
 62
     4
 10
-40.865177679117878
 20
-83.363391710505425
 30
0.0
 42
0.2539676464746725
  0
VERTEX
  5
225C
  8
SAPA_PROFIL
 62
     4
 10
-40.613576508734113
 20
-83.500000000000767
 30
0.0
  0
VERTEX
  5
225D
  8
SAPA_PROFIL
 62
     4
 10
-18.386423489368429
 20
-83.499999999999204
 30
0.0
 42
0.2539676464741819
  0
VERTEX
  5
225E
  8
SAPA_PROFIL
 62
     4
 10
-18.13482231898557
 20
-83.363391710505425
 30
0.0
  0
VERTEX
  5
225F
  8
SAPA_PROFIL
 62
     4
 10
-17.87363824283176
 20
-82.961203502527084
 30
0.0
 42
0.5920055144124249
  0
VERTEX
  5
2260
  8
SAPA_PROFIL
 62
     4
 10
-18.126646999147269
 20
-82.499999999999204
 30
0.0
  0
VERTEX
  5
2261
  8
SAPA_PROFIL
 62
     4
 10
-18.555100476437492
 20
-82.500000025274204
 30
0.0
 42
-0.3735060174775405
  0
VERTEX
  5
2262
  8
SAPA_PROFIL
 62
     4
 10
-18.85212514434718
 20
-82.242146752934119
 30
0.0
 42
-0.0355900683670349
  0
VERTEX
  5
2263
  8
SAPA_PROFIL
 62
     4
 10
-18.89601870837944
 20
-81.626273166134339
 30
0.0
 42
-0.0624282003873116
  0
VERTEX
  5
2264
  8
SAPA_PROFIL
 62
     4
 10
-18.761672386136489
 20
-80.554459977939203
 30
0.0
 42
-0.3702522326309292
  0
VERTEX
  5
2265
  8
SAPA_PROFIL
 62
     4
 10
-18.46514902434312
 20
-80.300000025273476
 30
0.0
  0
VERTEX
  5
2266
  8
SAPA_PROFIL
 62
     4
 10
-13.44870803750961
 20
-80.29999999999734
 30
0.0
 42
-0.5205670505515692
  0
VERTEX
  5
2267
  8
SAPA_PROFIL
 62
     4
 10
-12.97886172711638
 20
-80.971010071660316
 30
0.0
  0
VERTEX
  5
2268
  8
SAPA_PROFIL
 62
     4
 10
-13.415626008241331
 20
-82.171010071669755
 30
0.0
 42
-0.3152987888807539
  0
VERTEX
  5
2269
  8
SAPA_PROFIL
 62
     4
 10
-13.88547231863719
 20
-82.500000000007375
 30
0.0
  0
VERTEX
  5
226A
  8
SAPA_PROFIL
 62
     4
 10
-14.82664699914627
 20
-82.500000000000554
 30
0.0
 42
0.5862175119221242
  0
VERTEX
  5
226B
  8
SAPA_PROFIL
 62
     4
 10
-15.08238893012823
 20
-82.956831325755701
 30
0.0
 42
-0.0000002084758573
  0
SEQEND
  5
226C
  8
SAPA_PROFIL
 62
     4
  0
POLYLINE
  5
163C
  8
SAPA_PROFIL
 62
     4
 66
     1
 10
0.0
 20
0.0
 30
0.0
 70
     1
  0
VERTEX
  5
226D
  8
SAPA_PROFIL
 62
     4
 10
-58.702943553210822
 20
-14.90000000090207
 30
0.0
  0
VERTEX
  5
226E
  8
SAPA_PROFIL
 62
     4
 10
-62.897056102907733
 20
-14.900000000900249
 30
0.0
 42
-0.1989123673786592
  0
VERTEX
  5
226F
  8
SAPA_PROFIL
 62
     4
 10
-63.109188137263537
 20
-14.81213203525679
 30
0.0
  0
VERTEX
  5
2270
  8
SAPA_PROFIL
 62
     4
 10
-65.333452205974453
 20
-12.587867966545881
 30
0.0
 42
0.1989123673785438
  0
VERTEX
  5
2271
  8
SAPA_PROFIL
 62
     4
 10
-65.545584240330271
 20
-12.50000000090243
 30
0.0
  0
VERTEX
  5
2272
  8
SAPA_PROFIL
 62
     4
 10
-65.999999828058634
 20
-12.500000000904249
 30
0.0
 42
0.4142135623730951
  0
VERTEX
  5
2273
  8
SAPA_PROFIL
 62
     4
 10
-66.299999828058816
 20
-12.80000000090352
 30
0.0
  0
VERTEX
  5
2274
  8
SAPA_PROFIL
 62
     4
 10
-66.299999828058816
 20
-24.700000000899699
 30
0.0
 42
-0.4142135623730951
  0
VERTEX
  5
2275
  8
SAPA_PROFIL
 62
     4
 10
-66.799999828058816
 20
-25.200000000899699
 30
0.0
  0
VERTEX
  5
2276
  8
SAPA_PROFIL
 62
     4
 10
-68.499999828058634
 20
-25.200000000899699
 30
0.0
 42
0.4142135623739832
  0
VERTEX
  5
2277
  8
SAPA_PROFIL
 62
     4
 10
-68.799999828058816
 20
-25.500000000898979
 30
0.0
  0
VERTEX
  5
2278
  8
SAPA_PROFIL
 62
     4
 10
-68.799999828058816
 20
-29.200000000901341
 30
0.0
 42
0.414213562375759
  0
VERTEX
  5
2279
  8
SAPA_PROFIL
 62
     4
 10
-68.499999828058634
 20
-29.500000000902428
 30
0.0
  0
VERTEX
  5
227A
  8
SAPA_PROFIL
 62
     4
 10
-52.006576697655611
 20
-29.50000000090062
 30
0.0
 42
0.4142135623735391
  0
VERTEX
  5
227B
  8
SAPA_PROFIL
 62
     4
 10
-51.70657669765589
 20
-29.200000000901341
 30
0.0
  0
VERTEX
  5
227C
  8
SAPA_PROFIL
 62
     4
 10
-51.70657669765589
 20
-12.80000000090353
 30
0.0
 42
0.4142135623726511
  0
VERTEX
  5
227D
  8
SAPA_PROFIL
 62
     4
 10
-52.006576697655611
 20
-12.50000000090243
 30
0.0
  0
VERTEX
  5
227E
  8
SAPA_PROFIL
 62
     4
 10
-56.054415415786451
 20
-12.50000000090243
 30
0.0
 42
0.1989123673785438
  0
VERTEX
  5
227F
  8
SAPA_PROFIL
 62
     4
 10
-56.266547450142269
 20
-12.58786796654589
 30
0.0
  0
VERTEX
  5
2280
  8
SAPA_PROFIL
 62
     4
 10
-58.49081151885499
 20
-14.81213203525861
 30
0.0
 42
-0.1989123673798886
  0
SEQEND
  5
2281
  8
SAPA_PROFIL
 62
     4
  0
POLYLINE
  5
163D
  8
SAPA_PROFIL
 62
     4
 66
     1
 10
0.0
 20
0.0
 30
0.0
 70
     1
  0
VERTEX
  5
2282
  8
SAPA_PROFIL
 62
     4
 10
-45.299999828059043
 20
-29.500000000902428
 30
0.0
  0
VERTEX
  5
2283
  8
SAPA_PROFIL
 62
     4
 10
-50.106576697655527
 20
-29.50000000090062
 30
0.0
 42
-0.4142135623732061
  0
VERTEX
  5
2284
  8
SAPA_PROFIL
 62
     4
 10
-50.406576697655709
 20
-29.200000000901341
 30
0.0
  0
VERTEX
  5
2285
  8
SAPA_PROFIL
 62
     4
 10
-50.406576697655709
 20
-12.80000000090353
 30
0.0
 42
-0.4142135623730951
  0
VERTEX
  5
2286
  8
SAPA_PROFIL
 62
     4
 10
-50.106576697655527
 20
-12.50000000090243
 30
0.0
  0
VERTEX
  5
2287
  8
SAPA_PROFIL
 62
     4
 10
-45.299999828059043
 20
-12.500000000904249
 30
0.0
 42
-0.4142135623731173
  0
VERTEX
  5
2288
  8
SAPA_PROFIL
 62
     4
 10
-44.999999828058861
 20
-12.800000000905341
 30
0.0
  0
VERTEX
  5
2289
  8
SAPA_PROFIL
 62
     4
 10
-44.999999828058861
 20
-29.20000000090317
 30
0.0
 42
-0.4142135623730951
  0
SEQEND
  5
228A
  8
SAPA_PROFIL
 62
     4
  0
POLYLINE
  5
163E
  8
SAPA_PROFIL
 62
     4
 66
     1
 10
0.0
 20
0.0
 30
0.0
 70
     1
  0
VERTEX
  5
228B
  8
SAPA_PROFIL
 62
     4
 10
-56.675735759346452
 20
-11.00000000090243
 30
0.0
 42
0.1989123673799838
  0
VERTEX
  5
228C
  8
SAPA_PROFIL
 62
     4
 10
-56.887867793703172
 20
-11.08786796654771
 30
0.0
  0
VERTEX
  5
228D
  8
SAPA_PROFIL
 62
     4
 10
-59.112131862414088
 20
-13.31213203525861
 30
0.0
 42
-0.1989123673811189
  0
VERTEX
  5
228E
  8
SAPA_PROFIL
 62
     4
 10
-59.324263896769899
 20
-13.40000000090207
 30
0.0
  0
VERTEX
  5
228F
  8
SAPA_PROFIL
 62
     4
 10
-62.275735759347732
 20
-13.400000000900249
 30
0.0
 42
-0.1989123673785447
  0
VERTEX
  5
2290
  8
SAPA_PROFIL
 62
     4
 10
-62.487867793703543
 20
-13.31213203525679
 30
0.0
  0
VERTEX
  5
2291
  8
SAPA_PROFIL
 62
     4
 10
-64.712131862415362
 20
-11.087867966545881
 30
0.0
 42
0.1989123673785445
  0
VERTEX
  5
2292
  8
SAPA_PROFIL
 62
     4
 10
-64.92426389677118
 20
-11.00000000090243
 30
0.0
  0
VERTEX
  5
2293
  8
SAPA_PROFIL
 62
     4
 10
-67.299999828058816
 20
-11.000000000904249
 30
0.0
 42
0.4142135623730951
  0
VERTEX
  5
2294
  8
SAPA_PROFIL
 62
     4
 10
-67.799999828058816
 20
-11.500000000904249
 30
0.0
  0
VERTEX
  5
2295
  8
SAPA_PROFIL
 62
     4
 10
-67.799999828058816
 20
-23.40000000090043
 30
0.0
 42
-0.4142135623737615
  0
VERTEX
  5
2296
  8
SAPA_PROFIL
 62
     4
 10
-68.099999828058998
 20
-23.700000000899699
 30
0.0
  0
VERTEX
  5
2297
  8
SAPA_PROFIL
 62
     4
 10
-69.799999828058816
 20
-23.700000000899699
 30
0.0
 42
0.4142135623730951
  0
VERTEX
  5
2298
  8
SAPA_PROFIL
 62
     4
 10
-70.299999828058816
 20
-24.20000000089971
 30
0.0
  0
VERTEX
  5
2299
  8
SAPA_PROFIL
 62
     4
 10
-70.299999828058816
 20
-30.500000000902428
 30
0.0
 42
0.4142135623730951
  0
VERTEX
  5
229A
  8
SAPA_PROFIL
 62
     4
 10
-69.799999828058816
 20
-31.000000000902428
 30
0.0
  0
VERTEX
  5
229B
  8
SAPA_PROFIL
 62
     4
 10
-68.799999828058446
 20
-31.000000000898801
 30
0.0
 42
-0.4142135623735387
  0
VERTEX
  5
229C
  8
SAPA_PROFIL
 62
     4
 10
-68.499999828058492
 20
-31.30000000089807
 30
0.0
  0
VERTEX
  5
229D
  8
SAPA_PROFIL
 62
     4
 10
-68.499999828058947
 20
-32.900000000900249
 30
0.0
 42
-0.4142135623735394
  0
VERTEX
  5
229E
  8
SAPA_PROFIL
 62
     4
 10
-68.799999828058674
 20
-33.200000000899522
 30
0.0
  0
VERTEX
  5
229F
  8
SAPA_PROFIL
 62
     4
 10
-69.099999828058316
 20
-33.200000000897703
 30
0.0
 42
0.5923377296036106
  0
VERTEX
  5
22A0
  8
SAPA_PROFIL
 62
     4
 10
-69.35284991066257
 20
-33.661452271639277
 30
0.0
  0
VERTEX
  5
22A1
  8
SAPA_PROFIL
 62
     4
 10
-68.075790642365718
 20
-35.361452271640012
 30
0.0
 42
0.2560149538738703
  0
VERTEX
  5
22A2
  8
SAPA_PROFIL
 62
     4
 10
-67.822940559760553
 20
-35.50000000090062
 30
0.0
  0
VERTEX
  5
22A3
  8
SAPA_PROFIL
 62
     4
 10
-67.599999828057946
 20
-35.50000000090062
 30
0.0
 42
0.4142135623733172
  0
VERTEX
  5
22A4
  8
SAPA_PROFIL
 62
     4
 10
-67.299999828058674
 20
-35.200000000901341
 30
0.0
  0
VERTEX
  5
22A5
  8
SAPA_PROFIL
 62
     4
 10
-67.299999828058674
 20
-31.30000000089807
 30
0.0
 42
-0.4142135623735389
  0
VERTEX
  5
22A6
  8
SAPA_PROFIL
 62
     4
 10
-66.999999828058719
 20
-31.000000000898801
 30
0.0
  0
VERTEX
  5
22A7
  8
SAPA_PROFIL
 62
     4
 10
-55.999999828058542
 20
-31.00000000090062
 30
0.0
 42
-0.4142135623735387
  0
VERTEX
  5
22A8
  8
SAPA_PROFIL
 62
     4
 10
-55.699999828058587
 20
-31.300000000899889
 30
0.0
  0
VERTEX
  5
22A9
  8
SAPA_PROFIL
 62
     4
 10
-55.699999828058587
 20
-35.200000000901341
 30
0.0
 42
0.4142135623730951
  0
VERTEX
  5
22AA
  8
SAPA_PROFIL
 62
     4
 10
-55.399999828059308
 20
-35.50000000090062
 30
0.0
  0
VERTEX
  5
22AB
  8
SAPA_PROFIL
 62
     4
 10
-55.177059096356707
 20
-35.50000000090062
 30
0.0
 42
0.2560149538738701
  0
VERTEX
  5
22AC
  8
SAPA_PROFIL
 62
     4
 10
-54.92420901375155
 20
-35.361452271640012
 30
0.0
  0
VERTEX
  5
22AD
  8
SAPA_PROFIL
 62
     4
 10
-53.647149745454698
 20
-33.661452271639277
 30
0.0
 42
0.5923377296036115
  0
VERTEX
  5
22AE
  8
SAPA_PROFIL
 62
     4
 10
-53.899999828058952
 20
-33.200000000897703
 30
0.0
  0
VERTEX
  5
22AF
  8
SAPA_PROFIL
 62
     4
 10
-54.19999982805858
 20
-33.200000000899522
 30
0.0
 42
-0.4142135623735394
  0
VERTEX
  5
22B0
  8
SAPA_PROFIL
 62
     4
 10
-54.499999828058307
 20
-32.900000000900249
 30
0.0
  0
VERTEX
  5
22B1
  8
SAPA_PROFIL
 62
     4
 10
-54.499999828058769
 20
-31.300000000899889
 30
0.0
 42
-0.4142135623735389
  0
VERTEX
  5
22B2
  8
SAPA_PROFIL
 62
     4
 10
-54.199999828058807
 20
-31.00000000090062
 30
0.0
  0
VERTEX
  5
22B3
  8
SAPA_PROFIL
 62
     4
 10
-43.999999828058861
 20
-31.000000000906081
 30
0.0
 42
0.4142135623731242
  0
VERTEX
  5
22B4
  8
SAPA_PROFIL
 62
     4
 10
-43.499999828058847
 20
-30.50000000090607
 30
0.0
  0
VERTEX
  5
22B5
  8
SAPA_PROFIL
 62
     4
 10
-43.499999828058847
 20
-11.500000000904249
 30
0.0
 42
0.4142135623730951
  0
VERTEX
  5
22B6
  8
SAPA_PROFIL
 62
     4
 10
-43.999999828058847
 20
-11.000000000904249
 30
0.0
  0
SEQEND
  5
22B7
  8
SAPA_PROFIL
 62
     4
  0
POLYLINE
  5
163F
  8
SAPA_PROFIL
 66
     1
 10
0.0
 20
0.0
 30
0.0
 70
     1
  0
VERTEX
  5
22B8
  8
SAPA_PROFIL
 10
-77.292893218811855
 20
-15.999999999999931
 30
0.0
 42
-0.1989123673794186
  0
VERTEX
  5
22B9
  8
SAPA_PROFIL
 10
-77.64644660940462
 20
-15.85355339059315
 30
0.0
  0
VERTEX
  5
22BA
  8
SAPA_PROFIL
 10
-86.207106781184976
 20
-7.292893218813032
 30
0.0
 42
-0.1989123673796614
  0
VERTEX
  5
22BB
  8
SAPA_PROFIL
 10
-86.499999999998394
 20
-6.5857864376264788
 30
0.0
  0
VERTEX
  5
22BC
  8
SAPA_PROFIL
 10
-86.499999999998394
 20
-0.7732050807566521
 30
0.0
 42
-0.1316524975873993
  0
VERTEX
  5
22BD
  8
SAPA_PROFIL
 10
-86.459807621133805
 20
-0.6232050807566748
 30
0.0
  0
VERTEX
  5
22BE
  8
SAPA_PROFIL
 10
-86.099999999998431
 20
0.0000000000003
 30
0.0
  0
VERTEX
  5
22BF
  8
SAPA_PROFIL
 10
-86.459807621133805
 20
0.6232050807570477
 30
0.0
 42
-0.1316524975873993
  0
VERTEX
  5
22C0
  8
SAPA_PROFIL
 10
-86.499999999998394
 20
0.7732050807570249
 30
0.0
  0
VERTEX
  5
22C1
  8
SAPA_PROFIL
 10
-86.499999999998394
 20
6.58578643762708
 30
0.0
 42
-0.1989123673796648
  0
VERTEX
  5
22C2
  8
SAPA_PROFIL
 10
-86.207106781184976
 20
7.2928932188136333
 30
0.0
  0
VERTEX
  5
22C3
  8
SAPA_PROFIL
 10
-77.646446609404848
 20
15.853553390593291
 30
0.0
 42
-0.1989123673796564
  0
VERTEX
  5
22C4
  8
SAPA_PROFIL
 10
-77.292893218811628
 20
16.000000000000071
 30
0.0
  0
VERTEX
  5
22C5
  8
SAPA_PROFIL
 10
-76.799999999998363
 20
16.000000000000181
 30
0.0
 42
-0.4142135623731118
  0
VERTEX
  5
22C6
  8
SAPA_PROFIL
 10
-76.499999999998408
 20
15.70000000000023
 30
0.0
  0
VERTEX
  5
22C7
  8
SAPA_PROFIL
 10
-76.499999999998636
 20
9.8242640687127079
 30
0.0
 42
-0.198912367379658
  0
VERTEX
  5
22C8
  8
SAPA_PROFIL
 10
-76.587867965642658
 20
9.6121320343566623
 30
0.0
  0
VERTEX
  5
22C9
  8
SAPA_PROFIL
 10
-77.158578643761416
 20
9.041421356238132
 30
0.0
 42
-0.6681786379192989
  0
VERTEX
  5
22CA
  8
SAPA_PROFIL
 10
-77.499999999998636
 20
9.1828427124754182
 30
0.0
  0
VERTEX
  5
22CB
  8
SAPA_PROFIL
 10
-77.499999999998636
 20
10.35000000000043
 30
0.0
 42
0.4142135623727809
  0
VERTEX
  5
22CC
  8
SAPA_PROFIL
 10
-77.799999999998249
 20
10.650000000000389
 30
0.0
  0
VERTEX
  5
22CD
  8
SAPA_PROFIL
 10
-78.318014882865214
 20
10.65000000000107
 30
0.0
 42
0.1763269807085444
  0
VERTEX
  5
22CE
  8
SAPA_PROFIL
 10
-78.639408687708624
 20
10.53302222156055
 30
0.0
  0
VERTEX
  5
22CF
  8
SAPA_PROFIL
 10
-80.392836282904341
 20
9.0617217731355169
 30
0.0
 42
0.2216946626428773
  0
VERTEX
  5
22D0
  8
SAPA_PROFIL
 10
-80.499999999998394
 20
8.8319084401998253
 30
0.0
  0
VERTEX
  5
22D1
  8
SAPA_PROFIL
 10
-80.499999999998536
 20
5.3000000000007068
 30
0.0
 42
0.4142135623730951
  0
VERTEX
  5
22D2
  8
SAPA_PROFIL
 10
-80.199999999998568
 20
5.0000000000007532
 30
0.0
  0
VERTEX
  5
22D3
  8
SAPA_PROFIL
 10
-77.79999999999859
 20
5.0000000000007532
 30
0.0
 42
0.4142135623730951
  0
VERTEX
  5
22D4
  8
SAPA_PROFIL
 10
-77.499999999998522
 20
5.3000000000008214
 30
0.0
  0
VERTEX
  5
22D5
  8
SAPA_PROFIL
 10
-77.499999999998636
 20
5.8171572875260864
 30
0.0
 42
-0.6681786379192989
  0
VERTEX
  5
22D6
  8
SAPA_PROFIL
 10
-77.158578643761416
 20
5.9585786437633743
 30
0.0
  0
VERTEX
  5
22D7
  8
SAPA_PROFIL
 10
-76.587867965642658
 20
5.387867965644844
 30
0.0
 42
-0.198912367379658
  0
VERTEX
  5
22D8
  8
SAPA_PROFIL
 10
-76.499999999998636
 20
5.1757359312887976
 30
0.0
  0
VERTEX
  5
22D9
  8
SAPA_PROFIL
 10
-76.499999999998636
 20
3.500000000000866
 30
0.0
 42
-0.4142135623730951
  0
VERTEX
  5
22DA
  8
SAPA_PROFIL
 10
-76.999999999998636
 20
3.000000000000866
 30
0.0
  0
VERTEX
  5
22DB
  8
SAPA_PROFIL
 10
-77.999999999998636
 20
3.000000000000866
 30
0.0
 42
0.4142135623730951
  0
VERTEX
  5
22DC
  8
SAPA_PROFIL
 10
-78.499999999998636
 20
2.500000000000866
 30
0.0
  0
VERTEX
  5
22DD
  8
SAPA_PROFIL
 10
-78.499999999998636
 20
-2.5000000000001559
 30
0.0
 42
0.4142135623730951
  0
VERTEX
  5
22DE
  8
SAPA_PROFIL
 10
-77.999999999998636
 20
-3.0000000000001559
 30
0.0
  0
VERTEX
  5
22DF
  8
SAPA_PROFIL
 10
-76.999999999998636
 20
-3.0000000000001559
 30
0.0
 42
-0.4142135623730951
  0
VERTEX
  5
22E0
  8
SAPA_PROFIL
 10
-76.499999999998636
 20
-3.5000000000001559
 30
0.0
  0
VERTEX
  5
22E1
  8
SAPA_PROFIL
 10
-76.499999999998636
 20
-5.1757359312882008
 30
0.0
 42
-0.198912367379658
  0
VERTEX
  5
22E2
  8
SAPA_PROFIL
 10
-76.587867965642658
 20
-5.3878679656442472
 30
0.0
  0
VERTEX
  5
22E3
  8
SAPA_PROFIL
 10
-77.158578643761416
 20
-5.9585786437627766
 30
0.0
 42
-0.6681786379192989
  0
VERTEX
  5
22E4
  8
SAPA_PROFIL
 10
-77.499999999998636
 20
-5.8171572875254887
 30
0.0
  0
VERTEX
  5
22E5
  8
SAPA_PROFIL
 10
-77.499999999998522
 20
-5.3000000000002236
 30
0.0
 42
0.4142135623730951
  0
VERTEX
  5
22E6
  8
SAPA_PROFIL
 10
-77.79999999999859
 20
-5.0000000000001563
 30
0.0
  0
VERTEX
  5
22E7
  8
SAPA_PROFIL
 10
-80.199999999998568
 20
-5.0000000000001563
 30
0.0
 42
0.4142135623730951
  0
VERTEX
  5
22E8
  8
SAPA_PROFIL
 10
-80.499999999998536
 20
-5.30000000000011
 30
0.0
  0
VERTEX
  5
22E9
  8
SAPA_PROFIL
 10
-80.499999999998394
 20
-8.8319084401992285
 30
0.0
 42
0.2216946626428774
  0
VERTEX
  5
22EA
  8
SAPA_PROFIL
 10
-80.392836282904341
 20
-9.0617217731349182
 30
0.0
  0
VERTEX
  5
22EB
  8
SAPA_PROFIL
 10
-78.639408687708851
 20
-10.53302222155973
 30
0.0
 42
0.1763269807085444
  0
VERTEX
  5
22EC
  8
SAPA_PROFIL
 10
-78.318014882865441
 20
-10.650000000000251
 30
0.0
  0
VERTEX
  5
22ED
  8
SAPA_PROFIL
 10
-77.799999999998477
 20
-10.65000000000013
 30
0.0
 42
0.4142135623729905
  0
VERTEX
  5
22EE
  8
SAPA_PROFIL
 10
-77.499999999998636
 20
-10.350000000000181
 30
0.0
  0
VERTEX
  5
22EF
  8
SAPA_PROFIL
 10
-77.499999999998636
 20
-9.1828427124748231
 30
0.0
 42
-0.6681786379192989
  0
VERTEX
  5
22F0
  8
SAPA_PROFIL
 10
-77.158578643761416
 20
-9.0414213562375352
 30
0.0
  0
VERTEX
  5
22F1
  8
SAPA_PROFIL
 10
-76.587867965642658
 20
-9.6121320343560654
 30
0.0
 42
-0.198912367379658
  0
VERTEX
  5
22F2
  8
SAPA_PROFIL
 10
-76.499999999998636
 20
-9.8242640687121092
 30
0.0
  0
VERTEX
  5
22F3
  8
SAPA_PROFIL
 10
-76.499999999998408
 20
-15.700000000000429
 30
0.0
 42
-0.4142135623733904
  0
VERTEX
  5
22F4
  8
SAPA_PROFIL
 10
-76.799999999998704
 20
-16.00000000000038
 30
0.0
  0
SEQEND
  5
22F5
  8
SAPA_PROFIL
  0
POLYLINE
  5
1640
  8
SAPA_PROFIL
 62
     4
 66
     1
 10
0.0
 20
0.0
 30
0.0
 70
     1
  0
VERTEX
  5
22F6
  8
SAPA_PROFIL
 62
     4
 10
-48.84999999999966
 20
-1.14999999999962
 30
0.0
  0
VERTEX
  5
22F7
  8
SAPA_PROFIL
 62
     4
 10
-46.649999999999601
 20
-1.1499999999996211
 30
0.0
 42
1.0
  0
VERTEX
  5
22F8
  8
SAPA_PROFIL
 62
     4
 10
-46.649999999999601
 20
1.150000000000333
 30
0.0
  0
VERTEX
  5
22F9
  8
SAPA_PROFIL
 62
     4
 10
-48.84999999999966
 20
1.1500000000004471
 30
0.0
 42
1.0
  0
SEQEND
  5
22FA
  8
SAPA_PROFIL
 62
     4
  0
POLYLINE
  5
1641
  8
SAPA_PROFIL
 62
     4
 66
     1
 10
0.0
 20
0.0
 30
0.0
 70
     1
  0
VERTEX
  5
22FB
  8
SAPA_PROFIL
 62
     4
 10
-63.999999999999631
 20
-3.999999999999639
 30
0.0
  0
VERTEX
  5
22FC
  8
SAPA_PROFIL
 62
     4
 10
-67.05083214903587
 20
-3.9999999999996381
 30
0.0
  0
VERTEX
  5
22FD
  8
SAPA_PROFIL
 62
     4
 10
-70.378679656439971
 20
-3.9999999999996372
 30
0.0
 42
-0.6681786379192966
  0
VERTEX
  5
22FE
  8
SAPA_PROFIL
 62
     4
 10
-70.732233047033191
 20
-3.146446609406417
 30
0.0
  0
VERTEX
  5
22FF
  8
SAPA_PROFIL
 62
     4
 10
-68.585786439270095
 20
-1.0000000116214449
 30
0.0
 42
0.1989123679837333
  0
VERTEX
  5
2300
  8
SAPA_PROFIL
 62
     4
 10
-68.292893218813077
 20
-0.2928932287913359
 30
0.0
  0
VERTEX
  5
2301
  8
SAPA_PROFIL
 62
     4
 10
-68.292893218813077
 20
0.2928932088356003
 30
0.0
 42
0.1989123667755704
  0
VERTEX
  5
2302
  8
SAPA_PROFIL
 62
     4
 10
-68.585786435982953
 20
0.9999999883785687
 30
0.0
  0
VERTEX
  5
2303
  8
SAPA_PROFIL
 62
     4
 10
-70.732233047033191
 20
3.146446609407143
 30
0.0
 42
-0.6681786379192936
  0
VERTEX
  5
2304
  8
SAPA_PROFIL
 62
     4
 10
-70.378679656439971
 20
4.0000000000003482
 30
0.0
  0
VERTEX
  5
2305
  8
SAPA_PROFIL
 62
     4
 10
-67.05083214903587
 20
4.0000000000003473
 30
0.0
  0
VERTEX
  5
2306
  8
SAPA_PROFIL
 62
     4
 10
-63.999999999999631
 20
4.0000000000003597
 30
0.0
 42
-0.4142135623730951
  0
VERTEX
  5
2307
  8
SAPA_PROFIL
 62
     4
 10
-63.499999999999631
 20
3.5000000000003602
 30
0.0
  0
VERTEX
  5
2308
  8
SAPA_PROFIL
 62
     4
 10
-63.499999999999631
 20
-3.499999999999639
 30
0.0
 42
-0.4142135623730951
  0
SEQEND
  5
2309
  8
SAPA_PROFIL
 62
     4
  0
POLYLINE
  5
1642
  8
SAPA_PROFIL
 62
     4
 66
     1
 10
0.0
 20
0.0
 30
0.0
 70
     1
  0
VERTEX
  5
230A
  8
SAPA_PROFIL
 62
     4
 10
-53.459999999999638
 20
2.5857864376271369
 30
0.0
  0
VERTEX
  5
230B
  8
SAPA_PROFIL
 62
     4
 10
-52.060744625219598
 20
1.146531062847332
 30
0.0
 42
-0.9251773977986363
  0
VERTEX
  5
230C
  8
SAPA_PROFIL
 62
     4
 10
-52.060744625219598
 20
-1.1465310628465031
 30
0.0
  0
VERTEX
  5
230D
  8
SAPA_PROFIL
 62
     4
 10
-53.459999999999638
 20
-2.585786437626421
 30
0.0
  0
VERTEX
  5
230E
  8
SAPA_PROFIL
 62
     4
 10
-53.459999999999638
 20
-3.4999999999996421
 30
0.0
 42
-0.4142135623730769
  0
VERTEX
  5
230F
  8
SAPA_PROFIL
 62
     4
 10
-53.959999999999638
 20
-3.9999999999996421
 30
0.0
  0
VERTEX
  5
2310
  8
SAPA_PROFIL
 62
     4
 10
-61.999999999999631
 20
-3.999999999999639
 30
0.0
 42
-0.4142135623730951
  0
VERTEX
  5
2311
  8
SAPA_PROFIL
 62
     4
 10
-62.499999999999631
 20
-3.499999999999639
 30
0.0
  0
VERTEX
  5
2312
  8
SAPA_PROFIL
 62
     4
 10
-62.499999999999631
 20
3.5000000000003602
 30
0.0
 42
-0.4142135623730951
  0
VERTEX
  5
2313
  8
SAPA_PROFIL
 62
     4
 10
-61.999999999999631
 20
4.0000000000003597
 30
0.0
  0
VERTEX
  5
2314
  8
SAPA_PROFIL
 62
     4
 10
-53.959999999999638
 20
4.000000000000357
 30
0.0
 42
-0.4142135623730951
  0
VERTEX
  5
2315
  8
SAPA_PROFIL
 62
     4
 10
-53.459999999999638
 20
3.500000000000357
 30
0.0
  0
SEQEND
  5
2316
  8
SAPA_PROFIL
 62
     4
  0
POLYLINE
  5
1643
  8
SAPA_PROFIL
 62
     4
 66
     1
 10
0.0
 20
0.0
 30
0.0
 70
     1
  0
VERTEX
  5
2317
  8
SAPA_PROFIL
 62
     4
 10
-54.109999999999623
 20
-4.9999999999995284
 30
0.0
 42
-1.0
  0
VERTEX
  5
2318
  8
SAPA_PROFIL
 62
     4
 10
-54.109999999999623
 20
-6.2999999999995957
 30
0.0
  0
VERTEX
  5
2319
  8
SAPA_PROFIL
 62
     4
 10
-54.959999999999638
 20
-6.2999999999995957
 30
0.0
  0
VERTEX
  5
231A
  8
SAPA_PROFIL
 62
     4
 10
-54.959999999999638
 20
-6.2499999999995284
 30
0.0
 42
1.0
  0
VERTEX
  5
231B
  8
SAPA_PROFIL
 62
     4
 10
-55.459999999999631
 20
-6.2499999999995284
 30
0.0
  0
VERTEX
  5
231C
  8
SAPA_PROFIL
 62
     4
 10
-55.459999999999631
 20
-6.699999999999573
 30
0.0
 42
0.4142135623730951
  0
VERTEX
  5
231D
  8
SAPA_PROFIL
 62
     4
 10
-55.15999999999957
 20
-6.9999999999995284
 30
0.0
  0
VERTEX
  5
231E
  8
SAPA_PROFIL
 62
     4
 10
-53.459999999999638
 20
-6.9999999999995284
 30
0.0
 42
0.4225789089359373
  0
VERTEX
  5
231F
  8
SAPA_PROFIL
 62
     4
 10
-52.499999999999517
 20
-5.9999999999995284
 30
0.0
  0
VERTEX
  5
2320
  8
SAPA_PROFIL
 62
     4
 10
-52.499999999999517
 20
-2.9999999999995279
 30
0.0
  0
VERTEX
  5
2321
  8
SAPA_PROFIL
 62
     4
 10
-51.649999999999601
 20
-2.1499999999996189
 30
0.0
  0
VERTEX
  5
2322
  8
SAPA_PROFIL
 62
     4
 10
-45.499999999999631
 20
-2.1499999999996211
 30
0.0
 42
0.4142135623730951
  0
VERTEX
  5
2323
  8
SAPA_PROFIL
 62
     4
 10
-44.499999999999623
 20
-1.1499999999996211
 30
0.0
  0
VERTEX
  5
2324
  8
SAPA_PROFIL
 62
     4
 10
-44.499999999999623
 20
1.1500000000003321
 30
0.0
 42
0.4142135623730951
  0
VERTEX
  5
2325
  8
SAPA_PROFIL
 62
     4
 10
-45.499999999999631
 20
2.1500000000003321
 30
0.0
  0
VERTEX
  5
2326
  8
SAPA_PROFIL
 62
     4
 10
-51.649999999999487
 20
2.1500000000003339
 30
0.0
  0
VERTEX
  5
2327
  8
SAPA_PROFIL
 62
     4
 10
-52.499999999999517
 20
3.000000000000357
 30
0.0
  0
VERTEX
  5
2328
  8
SAPA_PROFIL
 62
     4
 10
-52.499999999999517
 20
6.000000000000357
 30
0.0
 42
0.4225789089359373
  0
VERTEX
  5
2329
  8
SAPA_PROFIL
 62
     4
 10
-53.459999999999638
 20
7.0000000000003721
 30
0.0
  0
VERTEX
  5
232A
  8
SAPA_PROFIL
 62
     4
 10
-55.15999999999957
 20
7.0000000000003721
 30
0.0
 42
0.4142135623730951
  0
VERTEX
  5
232B
  8
SAPA_PROFIL
 62
     4
 10
-55.459999999999631
 20
6.7000000000002888
 30
0.0
  0
VERTEX
  5
232C
  8
SAPA_PROFIL
 62
     4
 10
-55.459999999999631
 20
6.250000000000357
 30
0.0
 42
1.0
  0
VERTEX
  5
232D
  8
SAPA_PROFIL
 62
     4
 10
-54.959999999999638
 20
6.250000000000357
 30
0.0
  0
VERTEX
  5
232E
  8
SAPA_PROFIL
 62
     4
 10
-54.959999999999638
 20
6.3000000000004261
 30
0.0
  0
VERTEX
  5
232F
  8
SAPA_PROFIL
 62
     4
 10
-54.109999999999623
 20
6.3000000000004261
 30
0.0
 42
-1.0
  0
VERTEX
  5
2330
  8
SAPA_PROFIL
 62
     4
 10
-54.109999999999623
 20
5.000000000000357
 30
0.0
  0
VERTEX
  5
2331
  8
SAPA_PROFIL
 62
     4
 10
-67.05083214903587
 20
5.0000000000003473
 30
0.0
  0
VERTEX
  5
2332
  8
SAPA_PROFIL
 62
     4
 10
-72.499999999999631
 20
5.0000000000003491
 30
0.0
  0
VERTEX
  5
2333
  8
SAPA_PROFIL
 62
     4
 10
-72.499999999999631
 20
3.5000000000003628
 30
0.0
  0
VERTEX
  5
2334
  8
SAPA_PROFIL
 62
     4
 10
-69.35355339059285
 20
0.3535533905935821
 30
0.0
 42
-0.4142135623730951
  0
VERTEX
  5
2335
  8
SAPA_PROFIL
 62
     4
 10
-69.35355339059285
 20
-0.3535533905928574
 30
0.0
  0
VERTEX
  5
2336
  8
SAPA_PROFIL
 62
     4
 10
-72.499999999999631
 20
-3.4999999999996358
 30
0.0
  0
VERTEX
  5
2337
  8
SAPA_PROFIL
 62
     4
 10
-72.499999999999631
 20
-4.9999999999996652
 30
0.0
  0
VERTEX
  5
2338
  8
SAPA_PROFIL
 62
     4
 10
-67.05083214903587
 20
-4.9999999999996243
 30
0.0
  0
VERTEX
  5
2339
  8
SAPA_PROFIL
 62
     4
 10
-54.409999999999592
 20
-4.9999999999995284
 30
0.0
  0
SEQEND
  5
233A
  8
SAPA_PROFIL
 62
     4
  0
POLYLINE
  5
1644
  8
SAPA_PROFIL
 66
     1
 10
0.0
 20
0.0
 30
0.0
 70
   128
  0
VERTEX
  5
233B
  8
SAPA_PROFIL
 10
-23.034074173710451
 20
22.441180954898179
 30
0.0
 42
-0.8769764629927568
  0
VERTEX
  5
233C
  8
SAPA_PROFIL
 10
-24.99999999999952
 20
22.700000000000731
 30
0.0
 42
0.8769764629927568
  0
VERTEX
  5
233D
  8
SAPA_PROFIL
 10
-23.034074173710511
 20
22.441180954898751
 30
0.0
  0
VERTEX
  5
233E
  8
SAPA_PROFIL
 10
-22.408020328491261
 20
24.777645713531459
 30
0.0
 42
-0.3394542588633806
  0
VERTEX
  5
233F
  8
SAPA_PROFIL
 10
-22.118242580604541
 20
25.000000000000679
 30
0.0
  0
VERTEX
  5
2340
  8
SAPA_PROFIL
 10
62.000000000000512
 20
24.999999999999659
 30
0.0
 42
-0.4142135623730951
  0
VERTEX
  5
2341
  8
SAPA_PROFIL
 10
62.500000000000512
 20
24.499999999999659
 30
0.0
  0
VERTEX
  5
2342
  8
SAPA_PROFIL
 10
62.500000000000462
 20
-24.499999999999321
 30
0.0
 42
-0.4142135623730951
  0
VERTEX
  5
2343
  8
SAPA_PROFIL
 10
62.000000000000448
 20
-24.999999999999321
 30
0.0
  0
VERTEX
  5
2344
  8
SAPA_PROFIL
 10
-22.118242580604541
 20
-25.000000000000231
 30
0.0
 42
-0.3394542588633758
  0
VERTEX
  5
2345
  8
SAPA_PROFIL
 10
-22.408020328490519
 20
-24.777645713531228
 30
0.0
  0
VERTEX
  5
2346
  8
SAPA_PROFIL
 10
-23.034074173710451
 20
-22.441180954897732
 30
0.0
 42
0.8769764629927491
  0
VERTEX
  5
2347
  8
SAPA_PROFIL
 10
-24.99999999999952
 20
-22.700000000000269
 30
0.0
  0
VERTEX
  5
2348
  8
SAPA_PROFIL
 10
-24.99999999999952
 20
-22.712613464860279
 30
0.0
 42
-0.4040262258351518
  0
VERTEX
  5
2349
  8
SAPA_PROFIL
 10
-26.93020100659453
 20
-24.711395118898281
 30
0.0
  0
VERTEX
  5
234A
  8
SAPA_PROFIL
 10
-35.189530150987771
 20
-24.999817248106979
 30
0.0
 42
-0.4244748162096047
  0
VERTEX
  5
234B
  8
SAPA_PROFIL
 10
-35.499999999998522
 20
-24.7000000000013
 30
0.0
  0
VERTEX
  5
234C
  8
SAPA_PROFIL
 10
-35.499999999999517
 20
-22.400000000001342
 30
0.0
  0
VERTEX
  5
234D
  8
SAPA_PROFIL
 10
-35.03507658043327
 20
-21.813615984240531
 30
0.0
 42
-0.7105995015650719
  0
VERTEX
  5
234E
  8
SAPA_PROFIL
 10
-34.499999999998522
 20
-22.000000000001251
 30
0.0
  0
VERTEX
  5
234F
  8
SAPA_PROFIL
 10
-34.499999999999552
 20
-22.900000000000318
 30
0.0
 42
0.4142135623731258
  0
VERTEX
  5
2350
  8
SAPA_PROFIL
 10
-34.199999999999541
 20
-23.200000000000269
 30
0.0
  0
VERTEX
  5
2351
  8
SAPA_PROFIL
 10
-31.799999999999532
 20
-23.200000000000269
 30
0.0
 42
0.4142135623731258
  0
VERTEX
  5
2352
  8
SAPA_PROFIL
 10
-31.49999999999952
 20
-22.900000000000318
 30
0.0
  0
VERTEX
  5
2353
  8
SAPA_PROFIL
 10
-31.49999999999952
 20
-18.000000000001251
 30
0.0
 42
0.4142135623730951
  0
VERTEX
  5
2354
  8
SAPA_PROFIL
 10
-31.799999999999532
 20
-17.700000000001289
 30
0.0
  0
VERTEX
  5
2355
  8
SAPA_PROFIL
 10
-34.199999999999541
 20
-17.700000000001289
 30
0.0
 42
0.4142135623731206
  0
VERTEX
  5
2356
  8
SAPA_PROFIL
 10
-34.499999999999517
 20
-18.000000000001251
 30
0.0
  0
VERTEX
  5
2357
  8
SAPA_PROFIL
 10
-34.499999999999517
 20
-18.400000000000318
 30
0.0
 42
-0.7105995015649539
  0
VERTEX
  5
2358
  8
SAPA_PROFIL
 10
-35.035076580433532
 20
-18.586384015761269
 30
0.0
  0
VERTEX
  5
2359
  8
SAPA_PROFIL
 10
-35.499999999999517
 20
-18.000000000001251
 30
0.0
  0
VERTEX
  5
235A
  8
SAPA_PROFIL
 10
-35.499999999999538
 20
-16.300000000001319
 30
0.0
 42
-0.4142135623730951
  0
VERTEX
  5
235B
  8
SAPA_PROFIL
 10
-35.199999999999527
 20
-16.000000000001251
 30
0.0
  0
VERTEX
  5
235C
  8
SAPA_PROFIL
 10
-34.647213595498528
 20
-16.000000000001251
 30
0.0
 42
-0.2134217652833428
  0
VERTEX
  5
235D
  8
SAPA_PROFIL
 10
-34.423606797749471
 20
-16.10000000000036
 30
0.0
 42
0.2134217652833501
  0
VERTEX
  5
235E
  8
SAPA_PROFIL
 10
-34.199999999999541
 20
-16.200000000000269
 30
0.0
  0
VERTEX
  5
235F
  8
SAPA_PROFIL
 10
-30.299999999999532
 20
-16.200000000001289
 30
0.0
 42
-0.4142135623731088
  0
VERTEX
  5
2360
  8
SAPA_PROFIL
 10
-29.99999999999952
 20
-16.500000000001251
 30
0.0
  0
VERTEX
  5
2361
  8
SAPA_PROFIL
 10
-29.99999999999952
 20
-22.299610616440312
 30
0.0
 42
0.4244748162096096
  0
VERTEX
  5
2362
  8
SAPA_PROFIL
 10
-29.482550251647531
 20
-22.79930602995023
 30
0.0
  0
VERTEX
  5
2363
  8
SAPA_PROFIL
 10
-27.48255025164827
 20
-22.729464490966851
 30
0.0
 42
0.4040262258351467
  0
VERTEX
  5
2364
  8
SAPA_PROFIL
 10
-26.99999999999952
 20
-22.229769077457259
 30
0.0
  0
VERTEX
  5
2365
  8
SAPA_PROFIL
 10
-26.99999999999952
 20
-2.1499999999992951
 30
0.0
 42
0.4142135623730951
  0
VERTEX
  5
2366
  8
SAPA_PROFIL
 10
-27.99999999999952
 20
-1.1499999999992949
 30
0.0
  0
VERTEX
  5
2367
  8
SAPA_PROFIL
 10
-31.49999999999952
 20
-1.1499999999992949
 30
0.0
 42
0.4142135623730992
  0
VERTEX
  5
2368
  8
SAPA_PROFIL
 10
-32.499999999999517
 20
-2.1500000000003179
 30
0.0
  0
VERTEX
  5
2369
  8
SAPA_PROFIL
 10
-32.499999999999517
 20
-4.0000000000003411
 30
0.0
 42
-0.4142135623730951
  0
VERTEX
  5
236A
  8
SAPA_PROFIL
 10
-33.499999999999517
 20
-5.0000000000003411
 30
0.0
  0
VERTEX
  5
236B
  8
SAPA_PROFIL
 10
-52.199999999999527
 20
-5.0000000000003411
 30
0.0
 42
-0.4142135623730967
  0
VERTEX
  5
236C
  8
SAPA_PROFIL
 10
-52.499999999999538
 20
-4.700000000000272
 30
0.0
  0
VERTEX
  5
236D
  8
SAPA_PROFIL
 10
-52.499999999999538
 20
-3.0757359312882491
 30
0.0
  0
VERTEX
  5
236E
  8
SAPA_PROFIL
 10
-51.5621320343555
 20
-2.1378679656443178
 30
0.0
 42
-0.6681786379193148
  0
VERTEX
  5
236F
  8
SAPA_PROFIL
 10
-51.049999999999528
 20
-2.3500000000002501
 30
0.0
  0
VERTEX
  5
2370
  8
SAPA_PROFIL
 10
-51.049999999999528
 20
-2.700000000000272
 30
0.0
  0
VERTEX
  5
2371
  8
SAPA_PROFIL
 10
-49.673765404325017
 20
-2.0767196957481242
 30
0.0
 42
-0.5450207774093593
  0
VERTEX
  5
2372
  8
SAPA_PROFIL
 10
-49.249999999999538
 20
-2.3500000000002501
 30
0.0
  0
VERTEX
  5
2373
  8
SAPA_PROFIL
 10
-49.249999999999538
 20
-2.700000000000272
 30
0.0
  0
VERTEX
  5
2374
  8
SAPA_PROFIL
 10
-47.873765404324963
 20
-2.0767196957481242
 30
0.0
 42
-0.5450207774092377
  0
VERTEX
  5
2375
  8
SAPA_PROFIL
 10
-47.449999999999527
 20
-2.3500000000002501
 30
0.0
  0
VERTEX
  5
2376
  8
SAPA_PROFIL
 10
-47.449999999999527
 20
-2.700000000000272
 30
0.0
  0
VERTEX
  5
2377
  8
SAPA_PROFIL
 10
-46.073765404324917
 20
-2.0767196957481242
 30
0.0
 42
-0.5450207774091275
  0
VERTEX
  5
2378
  8
SAPA_PROFIL
 10
-45.649999999999523
 20
-2.3500000000002501
 30
0.0
  0
VERTEX
  5
2379
  8
SAPA_PROFIL
 10
-45.649999999999523
 20
-2.700000000000272
 30
0.0
  0
VERTEX
  5
237A
  8
SAPA_PROFIL
 10
-44.273765404324898
 20
-2.0767196957481242
 30
0.0
 42
-0.545020777409056
  0
VERTEX
  5
237B
  8
SAPA_PROFIL
 10
-43.849999999999497
 20
-2.3500000000002501
 30
0.0
  0
VERTEX
  5
237C
  8
SAPA_PROFIL
 10
-43.849999999999497
 20
-2.700000000000272
 30
0.0
  0
VERTEX
  5
237D
  8
SAPA_PROFIL
 10
-42.473765404324951
 20
-2.0767196957481242
 30
0.0
 42
-0.5450207774091171
  0
VERTEX
  5
237E
  8
SAPA_PROFIL
 10
-42.049999999999521
 20
-2.3500000000002501
 30
0.0
  0
VERTEX
  5
237F
  8
SAPA_PROFIL
 10
-42.049999999999521
 20
-2.700000000000272
 30
0.0
  0
VERTEX
  5
2380
  8
SAPA_PROFIL
 10
-40.673765404325017
 20
-2.0767196957481242
 30
0.0
 42
-0.5450207774094031
  0
VERTEX
  5
2381
  8
SAPA_PROFIL
 10
-40.24999999999951
 20
-2.3500000000002501
 30
0.0
  0
VERTEX
  5
2382
  8
SAPA_PROFIL
 10
-40.24999999999951
 20
-2.700000000000272
 30
0.0
  0
VERTEX
  5
2383
  8
SAPA_PROFIL
 10
-38.873765404324899
 20
-2.0767196957481242
 30
0.0
 42
-0.5450207774091194
  0
VERTEX
  5
2384
  8
SAPA_PROFIL
 10
-38.449999999999541
 20
-2.3500000000002501
 30
0.0
  0
VERTEX
  5
2385
  8
SAPA_PROFIL
 10
-38.449999999999541
 20
-2.700000000000272
 30
0.0
  0
VERTEX
  5
2386
  8
SAPA_PROFIL
 10
-37.073765404324888
 20
-2.0767196957481242
 30
0.0
 42
-0.5450207774090981
  0
VERTEX
  5
2387
  8
SAPA_PROFIL
 10
-36.649999999999523
 20
-2.3500000000002501
 30
0.0
  0
VERTEX
  5
2388
  8
SAPA_PROFIL
 10
-36.649999999999523
 20
-2.700000000000272
 30
0.0
  0
VERTEX
  5
2389
  8
SAPA_PROFIL
 10
-35.499999999999517
 20
-2.700000000000272
 30
0.0
 42
0.4142135623730951
  0
VERTEX
  5
238A
  8
SAPA_PROFIL
 10
-34.499999999999517
 20
-1.700000000000272
 30
0.0
  0
VERTEX
  5
238B
  8
SAPA_PROFIL
 10
-34.499999999999517
 20
1.7000000000007269
 30
0.0
 42
0.4142135623730951
  0
VERTEX
  5
238C
  8
SAPA_PROFIL
 10
-35.499999999999517
 20
2.7000000000007272
 30
0.0
  0
VERTEX
  5
238D
  8
SAPA_PROFIL
 10
-35.749999999999517
 20
2.7000000000007272
 30
0.0
  0
VERTEX
  5
238E
  8
SAPA_PROFIL
 10
-35.749999999999517
 20
2.350000000000477
 30
0.0
 42
-0.5450207774088494
  0
VERTEX
  5
238F
  8
SAPA_PROFIL
 10
-36.173765404324513
 20
2.076719695747669
 30
0.0
  0
VERTEX
  5
2390
  8
SAPA_PROFIL
 10
-37.549999999999528
 20
2.7000000000007272
 30
0.0
  0
VERTEX
  5
2391
  8
SAPA_PROFIL
 10
-37.549999999999528
 20
2.350000000000477
 30
0.0
 42
-0.5450207774088274
  0
VERTEX
  5
2392
  8
SAPA_PROFIL
 10
-37.973765404324517
 20
2.076719695747669
 30
0.0
  0
VERTEX
  5
2393
  8
SAPA_PROFIL
 10
-39.349999999999511
 20
2.7000000000007272
 30
0.0
  0
VERTEX
  5
2394
  8
SAPA_PROFIL
 10
-39.349999999999511
 20
2.350000000000704
 30
0.0
 42
-0.5450207774090874
  0
VERTEX
  5
2395
  8
SAPA_PROFIL
 10
-39.773765404324543
 20
2.076719695747669
 30
0.0
  0
VERTEX
  5
2396
  8
SAPA_PROFIL
 10
-41.149999999999523
 20
2.7000000000007272
 30
0.0
  0
VERTEX
  5
2397
  8
SAPA_PROFIL
 10
-41.149999999999523
 20
2.350000000000477
 30
0.0
 42
-0.5450207774087519
  0
VERTEX
  5
2398
  8
SAPA_PROFIL
 10
-41.573765404324512
 20
2.076719695747669
 30
0.0
  0
VERTEX
  5
2399
  8
SAPA_PROFIL
 10
-42.949999999999527
 20
2.7000000000007272
 30
0.0
  0
VERTEX
  5
239A
  8
SAPA_PROFIL
 10
-42.949999999999527
 20
2.350000000000477
 30
0.0
 42
-0.5450207774088199
  0
VERTEX
  5
239B
  8
SAPA_PROFIL
 10
-43.37376540432453
 20
2.076719695747669
 30
0.0
  0
VERTEX
  5
239C
  8
SAPA_PROFIL
 10
-44.749999999999538
 20
2.7000000000007272
 30
0.0
  0
VERTEX
  5
239D
  8
SAPA_PROFIL
 10
-44.74999999999951
 20
2.350000000000477
 30
0.0
 42
-0.5450207774088308
  0
VERTEX
  5
239E
  8
SAPA_PROFIL
 10
-45.173765404324513
 20
2.076719695747669
 30
0.0
  0
VERTEX
  5
239F
  8
SAPA_PROFIL
 10
-46.549999999999528
 20
2.7000000000007272
 30
0.0
  0
VERTEX
  5
23A0
  8
SAPA_PROFIL
 10
-46.549999999999528
 20
2.3500000000008181
 30
0.0
 42
-0.5450207774091407
  0
VERTEX
  5
23A1
  8
SAPA_PROFIL
 10
-46.973765404324517
 20
2.076719695747669
 30
0.0
  0
VERTEX
  5
23A2
  8
SAPA_PROFIL
 10
-48.349999999999511
 20
2.7000000000007272
 30
0.0
  0
VERTEX
  5
23A3
  8
SAPA_PROFIL
 10
-48.349999999999511
 20
2.350000000000477
 30
0.0
 42
-0.5450207774088061
  0
VERTEX
  5
23A4
  8
SAPA_PROFIL
 10
-48.773765404324543
 20
2.076719695747669
 30
0.0
  0
VERTEX
  5
23A5
  8
SAPA_PROFIL
 10
-50.149999999999523
 20
2.7000000000007272
 30
0.0
  0
VERTEX
  5
23A6
  8
SAPA_PROFIL
 10
-50.149999999999523
 20
2.0500000000007499
 30
0.0
  0
VERTEX
  5
23A7
  8
SAPA_PROFIL
 10
-51.34999999999917
 20
2.0499999999997272
 30
0.0
 42
-0.1989123673804354
  0
VERTEX
  5
23A8
  8
SAPA_PROFIL
 10
-51.562132034355528
 20
2.1378679656446589
 30
0.0
  0
VERTEX
  5
23A9
  8
SAPA_PROFIL
 10
-52.499999999999538
 20
3.0757359312887038
 30
0.0
  0
VERTEX
  5
23AA
  8
SAPA_PROFIL
 10
-52.499999999999538
 20
4.6999999999997044
 30
0.0
 42
-0.4142135623731001
  0
VERTEX
  5
23AB
  8
SAPA_PROFIL
 10
-52.199999999999527
 20
4.9999999999996581
 30
0.0
  0
VERTEX
  5
23AC
  8
SAPA_PROFIL
 10
-33.499999999999517
 20
4.9999999999996581
 30
0.0
 42
-0.4142135623730909
  0
VERTEX
  5
23AD
  8
SAPA_PROFIL
 10
-32.499999999999517
 20
3.9999999999996581
 30
0.0
  0
VERTEX
  5
23AE
  8
SAPA_PROFIL
 10
-32.499999999999517
 20
2.1500000000006589
 30
0.0
 42
0.4142135623730951
  0
VERTEX
  5
23AF
  8
SAPA_PROFIL
 10
-31.49999999999952
 20
1.1500000000006589
 30
0.0
  0
VERTEX
  5
23B0
  8
SAPA_PROFIL
 10
-27.99999999999952
 20
1.1500000000006589
 30
0.0
 42
0.4142135623730951
  0
VERTEX
  5
23B1
  8
SAPA_PROFIL
 10
-26.99999999999952
 20
2.1500000000006589
 30
0.0
  0
VERTEX
  5
23B2
  8
SAPA_PROFIL
 10
-26.99999999999952
 20
22.229769077457721
 30
0.0
 42
0.4040262258351549
  0
VERTEX
  5
23B3
  8
SAPA_PROFIL
 10
-27.48255025164827
 20
22.729464490967299
 30
0.0
  0
VERTEX
  5
23B4
  8
SAPA_PROFIL
 10
-29.482550251647531
 20
22.799306029950689
 30
0.0
 42
0.4244748162096052
  0
VERTEX
  5
23B5
  8
SAPA_PROFIL
 10
-29.99999999999952
 20
22.299610616440759
 30
0.0
  0
VERTEX
  5
23B6
  8
SAPA_PROFIL
 10
-29.99999999999952
 20
16.500000000001702
 30
0.0
 42
-0.414213562373102
  0
VERTEX
  5
23B7
  8
SAPA_PROFIL
 10
-30.299999999999532
 20
16.200000000001751
 30
0.0
  0
VERTEX
  5
23B8
  8
SAPA_PROFIL
 10
-34.199999999999541
 20
16.200000000000731
 30
0.0
 42
0.2134217652833544
  0
VERTEX
  5
23B9
  8
SAPA_PROFIL
 10
-34.423606797749471
 20
16.100000000000701
 30
0.0
 42
-0.2134217652833613
  0
VERTEX
  5
23BA
  8
SAPA_PROFIL
 10
-34.647213595498528
 20
16.000000000001702
 30
0.0
  0
VERTEX
  5
23BB
  8
SAPA_PROFIL
 10
-35.199999999999527
 20
16.000000000001702
 30
0.0
 42
-0.4142135623731089
  0
VERTEX
  5
23BC
  8
SAPA_PROFIL
 10
-35.499999999999517
 20
16.30000000000177
 30
0.0
  0
VERTEX
  5
23BD
  8
SAPA_PROFIL
 10
-35.499999999999517
 20
18.000000000001702
 30
0.0
  0
VERTEX
  5
23BE
  8
SAPA_PROFIL
 10
-35.035076580433532
 20
18.58638401576172
 30
0.0
 42
-0.7105995015649391
  0
VERTEX
  5
23BF
  8
SAPA_PROFIL
 10
-34.499999999999517
 20
18.40000000000077
 30
0.0
  0
VERTEX
  5
23C0
  8
SAPA_PROFIL
 10
-34.499999999999517
 20
18.000000000001702
 30
0.0
 42
0.4142135623731367
  0
VERTEX
  5
23C1
  8
SAPA_PROFIL
 10
-34.199999999999541
 20
17.700000000001751
 30
0.0
  0
VERTEX
  5
23C2
  8
SAPA_PROFIL
 10
-31.799999999999532
 20
17.700000000001751
 30
0.0
 42
0.4142135623730916
  0
VERTEX
  5
23C3
  8
SAPA_PROFIL
 10
-31.49999999999952
 20
18.000000000001702
 30
0.0
  0
VERTEX
  5
23C4
  8
SAPA_PROFIL
 10
-31.49999999999952
 20
22.900000000000659
 30
0.0
 42
0.4142135623730984
  0
VERTEX
  5
23C5
  8
SAPA_PROFIL
 10
-31.799999999999532
 20
23.200000000000731
 30
0.0
  0
VERTEX
  5
23C6
  8
SAPA_PROFIL
 10
-34.199999999999541
 20
23.200000000001751
 30
0.0
 42
0.4142135623731159
  0
VERTEX
  5
23C7
  8
SAPA_PROFIL
 10
-34.499999999999517
 20
22.900000000001679
 30
0.0
  0
VERTEX
  5
23C8
  8
SAPA_PROFIL
 10
-34.499999999998522
 20
22.000000000001709
 30
0.0
 42
-0.710599501565102
  0
VERTEX
  5
23C9
  8
SAPA_PROFIL
 10
-35.03507658043327
 20
21.813615984240979
 30
0.0
  0
VERTEX
  5
23CA
  8
SAPA_PROFIL
 10
-35.499999999999517
 20
22.400000000001679
 30
0.0
  0
VERTEX
  5
23CB
  8
SAPA_PROFIL
 10
-35.499999999998522
 20
24.700000000001751
 30
0.0
 42
-0.424474816209507
  0
VERTEX
  5
23CC
  8
SAPA_PROFIL
 10
-35.189530150987878
 20
24.99981724810743
 30
0.0
  0
VERTEX
  5
23CD
  8
SAPA_PROFIL
 10
-26.93020100659453
 20
24.711395118898739
 30
0.0
 42
-0.4040262258351565
  0
VERTEX
  5
23CE
  8
SAPA_PROFIL
 10
-24.99999999999952
 20
22.712613464860741
 30
0.0
  0
VERTEX
  5
23CF
  8
SAPA_PROFIL
 10
-24.99999999999952
 20
22.700000000000731
 30
0.0
  0
VERTEX
  5
23D0
  8
SAPA_PROFIL
 10
-24.99999999999952
 20
22.712613464860741
 30
0.0
  0
SEQEND
  5
23D1
  8
SAPA_PROFIL
  0
POLYLINE
  5
1645
  8
SAPA_PROFIL
 66
     1
 10
0.0
 20
0.0
 30
0.0
 70
   129
  0
VERTEX
  5
23D2
  8
SAPA_PROFIL
 10
59.2000000000005
 20
22.699999999999712
 30
0.0
 42
-0.4142135623730951
  0
VERTEX
  5
23D3
  8
SAPA_PROFIL
 10
60.2000000000005
 20
21.699999999999712
 30
0.0
  0
VERTEX
  5
23D4
  8
SAPA_PROFIL
 10
60.200000000000443
 20
-21.69999999999936
 30
0.0
 42
-0.4142135623730898
  0
VERTEX
  5
23D5
  8
SAPA_PROFIL
 10
59.200000000000443
 20
-22.69999999999925
 30
0.0
  0
VERTEX
  5
23D6
  8
SAPA_PROFIL
 10
50.000000000000462
 20
-22.69999999999925
 30
0.0
 42
-0.4142135623731053
  0
VERTEX
  5
23D7
  8
SAPA_PROFIL
 10
49.000000000000448
 20
-21.69999999999925
 30
0.0
  0
VERTEX
  5
23D8
  8
SAPA_PROFIL
 10
49.000000000000448
 20
-17.799999999999269
 30
0.0
 42
0.4142135623730951
  0
VERTEX
  5
23D9
  8
SAPA_PROFIL
 10
48.500000000000483
 20
-17.299999999999269
 30
0.0
  0
VERTEX
  5
23DA
  8
SAPA_PROFIL
 10
46.400000000000453
 20
-17.299999999999269
 30
0.0
 42
0.4142135623730951
  0
VERTEX
  5
23DB
  8
SAPA_PROFIL
 10
46.100000000000477
 20
-17.599999999999341
 30
0.0
  0
VERTEX
  5
23DC
  8
SAPA_PROFIL
 10
46.100000000000477
 20
-18.099999999999341
 30
0.0
 42
0.4142135623729981
  0
VERTEX
  5
23DD
  8
SAPA_PROFIL
 10
46.400000000000453
 20
-18.399999999999292
 30
0.0
  0
VERTEX
  5
23DE
  8
SAPA_PROFIL
 10
46.736626924635203
 20
-18.399999999999629
 30
0.0
 42
-0.5643553431125428
  0
VERTEX
  5
23DF
  8
SAPA_PROFIL
 10
44.87439504323347
 20
-22.72439504323529
 30
0.0
  0
VERTEX
  5
23E0
  8
SAPA_PROFIL
 10
44.500000000000483
 20
-22.3500000000023
 30
0.0
  0
VERTEX
  5
23E1
  8
SAPA_PROFIL
 10
44.125604956763048
 20
-22.724395043233471
 30
0.0
 42
-0.5643553431119904
  0
VERTEX
  5
23E2
  8
SAPA_PROFIL
 10
42.263373075366466
 20
-18.399999999999292
 30
0.0
  0
VERTEX
  5
23E3
  8
SAPA_PROFIL
 10
42.60000000000047
 20
-18.399999999999292
 30
0.0
 42
0.4142135623730951
  0
VERTEX
  5
23E4
  8
SAPA_PROFIL
 10
42.90000000000046
 20
-18.099999999999341
 30
0.0
  0
VERTEX
  5
23E5
  8
SAPA_PROFIL
 10
42.90000000000046
 20
-17.599999999999341
 30
0.0
 42
0.4142135623730951
  0
VERTEX
  5
23E6
  8
SAPA_PROFIL
 10
42.60000000000047
 20
-17.299999999999269
 30
0.0
  0
VERTEX
  5
23E7
  8
SAPA_PROFIL
 10
40.500000000000483
 20
-17.299999999999269
 30
0.0
 42
0.4142135623730951
  0
VERTEX
  5
23E8
  8
SAPA_PROFIL
 10
40.000000000000483
 20
-17.799999999999269
 30
0.0
  0
VERTEX
  5
23E9
  8
SAPA_PROFIL
 10
40.000000000000483
 20
-21.69999999999925
 30
0.0
 42
-0.4142135623730951
  0
VERTEX
  5
23EA
  8
SAPA_PROFIL
 10
39.000000000000483
 20
-22.69999999999925
 30
0.0
  0
VERTEX
  5
23EB
  8
SAPA_PROFIL
 10
9.9999999999994316
 20
-22.69999999999925
 30
0.0
 42
-0.4142135623730951
  0
VERTEX
  5
23EC
  8
SAPA_PROFIL
 10
8.9999999999994884
 20
-21.69999999999925
 30
0.0
  0
VERTEX
  5
23ED
  8
SAPA_PROFIL
 10
8.9999999999994884
 20
-17.799999999999269
 30
0.0
 42
0.4142135623730951
  0
VERTEX
  5
23EE
  8
SAPA_PROFIL
 10
8.4999999999994884
 20
-17.299999999999269
 30
0.0
  0
VERTEX
  5
23EF
  8
SAPA_PROFIL
 10
6.3999999999994648
 20
-17.299999999999269
 30
0.0
 42
0.4142135623730951
  0
VERTEX
  5
23F0
  8
SAPA_PROFIL
 10
6.0999999999994818
 20
-17.599999999999341
 30
0.0
  0
VERTEX
  5
23F1
  8
SAPA_PROFIL
 10
6.0999999999994818
 20
-18.099999999999341
 30
0.0
 42
0.4142135623730389
  0
VERTEX
  5
23F2
  8
SAPA_PROFIL
 10
6.3999999999994648
 20
-18.399999999999292
 30
0.0
  0
VERTEX
  5
23F3
  8
SAPA_PROFIL
 10
6.736626924635174
 20
-18.399999999999629
 30
0.0
 42
-0.5643553431125485
  0
VERTEX
  5
23F4
  8
SAPA_PROFIL
 10
4.8743950432324823
 20
-22.72439504323529
 30
0.0
  0
VERTEX
  5
23F5
  8
SAPA_PROFIL
 10
4.4999999999994884
 20
-22.3500000000023
 30
0.0
  0
VERTEX
  5
23F6
  8
SAPA_PROFIL
 10
4.1256049567630271
 20
-22.724395043233471
 30
0.0
 42
-0.5643553431119904
  0
VERTEX
  5
23F7
  8
SAPA_PROFIL
 10
2.2633730753664731
 20
-18.399999999999292
 30
0.0
  0
VERTEX
  5
23F8
  8
SAPA_PROFIL
 10
2.600000000000505
 20
-18.399999999999292
 30
0.0
 42
0.4142135623730592
  0
VERTEX
  5
23F9
  8
SAPA_PROFIL
 10
2.90000000000046
 20
-18.099999999999341
 30
0.0
  0
VERTEX
  5
23FA
  8
SAPA_PROFIL
 10
2.90000000000046
 20
-17.599999999999341
 30
0.0
 42
0.4142135623730951
  0
VERTEX
  5
23FB
  8
SAPA_PROFIL
 10
2.600000000000477
 20
-17.299999999999269
 30
0.0
  0
VERTEX
  5
23FC
  8
SAPA_PROFIL
 10
0.4999999999994884
 20
-17.299999999999269
 30
0.0
 42
0.4142135623730951
  0
VERTEX
  5
23FD
  8
SAPA_PROFIL
 10
-0.0000000000005116
 20
-17.799999999999269
 30
0.0
  0
VERTEX
  5
23FE
  8
SAPA_PROFIL
 10
-0.0000000000005116
 20
-21.69999999999925
 30
0.0
 42
-0.4142135623730951
  0
VERTEX
  5
23FF
  8
SAPA_PROFIL
 10
-1.0000000000005109
 20
-22.69999999999925
 30
0.0
  0
VERTEX
  5
2400
  8
SAPA_PROFIL
 10
-19.816261616667472
 20
-22.700000000000269
 30
0.0
 42
-0.3394542588633853
  0
VERTEX
  5
2401
  8
SAPA_PROFIL
 10
-20.782187442956509
 20
-21.958819045103269
 30
0.0
  0
VERTEX
  5
2402
  8
SAPA_PROFIL
 10
-20.812444773245598
 20
-21.845897151161921
 30
0.0
 42
0.3708012337423849
  0
VERTEX
  5
2403
  8
SAPA_PROFIL
 10
-24.366666666666191
 20
-19.42043363300127
 30
0.0
 42
-0.4472135954999589
  0
VERTEX
  5
2404
  8
SAPA_PROFIL
 10
-24.699999999999541
 20
-19.122291236001271
 30
0.0
  0
VERTEX
  5
2405
  8
SAPA_PROFIL
 10
-24.699999999999541
 20
19.122291236001729
 30
0.0
 42
-0.4472135954999537
  0
VERTEX
  5
2406
  8
SAPA_PROFIL
 10
-24.366666666666191
 20
19.420433633001721
 30
0.0
 42
0.3708012337423849
  0
VERTEX
  5
2407
  8
SAPA_PROFIL
 10
-20.812444773245598
 20
21.845897151162379
 30
0.0
  0
VERTEX
  5
2408
  8
SAPA_PROFIL
 10
-20.782187442956509
 20
21.95881904510372
 30
0.0
 42
-0.3394542588633807
  0
VERTEX
  5
2409
  8
SAPA_PROFIL
 10
-19.816261616667472
 20
22.700000000000731
 30
0.0
  0
VERTEX
  5
240A
  8
SAPA_PROFIL
 10
-1.0000000000005109
 20
22.699999999999712
 30
0.0
 42
-0.4142135623730951
  0
VERTEX
  5
240B
  8
SAPA_PROFIL
 10
-0.0000000000005116
 20
21.699999999999712
 30
0.0
  0
VERTEX
  5
240C
  8
SAPA_PROFIL
 10
-0.0000000000005116
 20
17.79999999999972
 30
0.0
 42
0.4142135623730951
  0
VERTEX
  5
240D
  8
SAPA_PROFIL
 10
0.4999999999994884
 20
17.299999999999731
 30
0.0
  0
VERTEX
  5
240E
  8
SAPA_PROFIL
 10
2.600000000000477
 20
17.299999999999731
 30
0.0
 42
0.4142135623730951
  0
VERTEX
  5
240F
  8
SAPA_PROFIL
 10
2.90000000000046
 20
17.599999999999682
 30
0.0
  0
VERTEX
  5
2410
  8
SAPA_PROFIL
 10
2.90000000000046
 20
18.099999999999682
 30
0.0
 42
0.4142135623730951
  0
VERTEX
  5
2411
  8
SAPA_PROFIL
 10
2.600000000000477
 20
18.39999999999975
 30
0.0
  0
VERTEX
  5
2412
  8
SAPA_PROFIL
 10
2.2633730753664731
 20
18.39999999999975
 30
0.0
 42
-0.5643553431119905
  0
VERTEX
  5
2413
  8
SAPA_PROFIL
 10
4.1256049567629702
 20
22.72439504323393
 30
0.0
  0
VERTEX
  5
2414
  8
SAPA_PROFIL
 10
4.4999999999994884
 20
22.350000000002751
 30
0.0
  0
VERTEX
  5
2415
  8
SAPA_PROFIL
 10
4.8743950432324823
 20
22.724395043235749
 30
0.0
 42
-0.5643553431125659
  0
VERTEX
  5
2416
  8
SAPA_PROFIL
 10
6.736626924635118
 20
18.399999999999981
 30
0.0
  0
VERTEX
  5
2417
  8
SAPA_PROFIL
 10
6.3999999999994648
 20
18.39999999999975
 30
0.0
 42
0.4142135623730388
  0
VERTEX
  5
2418
  8
SAPA_PROFIL
 10
6.0999999999994818
 20
18.099999999999682
 30
0.0
  0
VERTEX
  5
2419
  8
SAPA_PROFIL
 10
6.0999999999994818
 20
17.599999999999682
 30
0.0
 42
0.4142135623731053
  0
VERTEX
  5
241A
  8
SAPA_PROFIL
 10
6.3999999999994648
 20
17.299999999999731
 30
0.0
  0
VERTEX
  5
241B
  8
SAPA_PROFIL
 10
8.4999999999994884
 20
17.299999999999731
 30
0.0
 42
0.4142135623730951
  0
VERTEX
  5
241C
  8
SAPA_PROFIL
 10
8.9999999999994884
 20
17.79999999999972
 30
0.0
  0
VERTEX
  5
241D
  8
SAPA_PROFIL
 10
8.9999999999994884
 20
21.699999999999712
 30
0.0
 42
-0.4142135623730951
  0
VERTEX
  5
241E
  8
SAPA_PROFIL
 10
9.9999999999994884
 20
22.699999999999712
 30
0.0
  0
VERTEX
  5
241F
  8
SAPA_PROFIL
 10
39.000000000000483
 20
22.699999999999712
 30
0.0
 42
-0.4142135623730951
  0
VERTEX
  5
2420
  8
SAPA_PROFIL
 10
40.000000000000483
 20
21.699999999999712
 30
0.0
  0
VERTEX
  5
2421
  8
SAPA_PROFIL
 10
40.000000000000483
 20
17.79999999999972
 30
0.0
 42
0.4142135623730951
  0
VERTEX
  5
2422
  8
SAPA_PROFIL
 10
40.500000000000483
 20
17.299999999999731
 30
0.0
  0
VERTEX
  5
2423
  8
SAPA_PROFIL
 10
42.60000000000047
 20
17.299999999999731
 30
0.0
 42
0.4142135623730951
  0
VERTEX
  5
2424
  8
SAPA_PROFIL
 10
42.90000000000046
 20
17.599999999999682
 30
0.0
  0
VERTEX
  5
2425
  8
SAPA_PROFIL
 10
42.90000000000046
 20
18.099999999999682
 30
0.0
 42
0.4142135623730951
  0
VERTEX
  5
2426
  8
SAPA_PROFIL
 10
42.60000000000047
 20
18.39999999999975
 30
0.0
  0
VERTEX
  5
2427
  8
SAPA_PROFIL
 10
42.263373075366466
 20
18.39999999999975
 30
0.0
 42
-0.5643553431119849
  0
VERTEX
  5
2428
  8
SAPA_PROFIL
 10
44.125604956763958
 20
22.72439504323393
 30
0.0
  0
VERTEX
  5
2429
  8
SAPA_PROFIL
 10
44.500000000000483
 20
22.350000000002751
 30
0.0
  0
VERTEX
  5
242A
  8
SAPA_PROFIL
 10
44.87439504323347
 20
22.724395043235749
 30
0.0
 42
-0.5643553431125659
  0
VERTEX
  5
242B
  8
SAPA_PROFIL
 10
46.736626924636141
 20
18.399999999999981
 30
0.0
  0
VERTEX
  5
242C
  8
SAPA_PROFIL
 10
46.400000000000453
 20
18.39999999999975
 30
0.0
 42
0.414213562372998
  0
VERTEX
  5
242D
  8
SAPA_PROFIL
 10
46.100000000000477
 20
18.099999999999682
 30
0.0
  0
VERTEX
  5
242E
  8
SAPA_PROFIL
 10
46.100000000000477
 20
17.599999999999682
 30
0.0
 42
0.4142135623731053
  0
VERTEX
  5
242F
  8
SAPA_PROFIL
 10
46.400000000000453
 20
17.299999999999731
 30
0.0
  0
VERTEX
  5
2430
  8
SAPA_PROFIL
 10
48.500000000000483
 20
17.299999999999731
 30
0.0
 42
0.4142135623730951
  0
VERTEX
  5
2431
  8
SAPA_PROFIL
 10
49.000000000000512
 20
17.79999999999972
 30
0.0
  0
VERTEX
  5
2432
  8
SAPA_PROFIL
 10
49.000000000000512
 20
21.699999999999712
 30
0.0
 42
-0.4142135623730951
  0
VERTEX
  5
2433
  8
SAPA_PROFIL
 10
50.000000000000512
 20
22.699999999999712
 30
0.0
  0
SEQEND
  5
2434
  8
SAPA_PROFIL
  0
TEXT
  5
165D
  8
SAPA_ARTIKELNR
 62
     4
 10
20.051192314697911
 20
-210.17988547077891
 30
0.0
 40
3.0
  1
42762
 50
90.0
  7
BYGG-036634$0$STANDARD
 71
     4
 72
     4
 11
21.551192314697911
 21
-203.17988547077891
 31
0.0
  0
ARC
  5
1680
  8
SAPA_GLAS
 10
-57.499999999997449
 20
-8.4769330888607701
 30
0.0
 40
21.455789953948951
 50
65.199046227935725
 51
114.8009537720615
  0
LINE
  5
1681
  8
SAPA_GLAS
 10
-49.999999999996028
 20
15.99999999999978
 30
0.0
 11
-64.999999999998636
 21
15.99999999999978
 31
0.0
  0
ARC
  5
1682
  8
SAPA_GLAS
 10
-49.999999999996028
 20
16.49999999999978
 30
0.0
 40
0.5
 50
270.0
 51
0.0
  0
LINE
  5
1683
  8
SAPA_GLAS
 10
-49.499999999996028
 20
19.49999999999978
 30
0.0
 11
-49.499999999996042
 21
16.49999999999978
 31
0.0
  0
ARC
  5
1684
  8
SAPA_GLAS
 10
-49.999999999996021
 20
19.49999999999978
 30
0.0
 40
0.5
 50
0.0
 51
89.999999999999986
  0
LINE
  5
1685
  8
SAPA_GLAS
 10
-64.999999999998636
 20
19.99999999999978
 30
0.0
 11
-49.999999999996021
 21
19.99999999999978
 31
0.0
  0
ARC
  5
1686
  8
SAPA_GLAS
 10
-64.999999999998636
 20
19.49999999999978
 30
0.0
 40
0.5
 50
89.999999999999986
 51
180.0
  0
LINE
  5
1687
  8
SAPA_GLAS
 10
-65.49999999999865
 20
16.49999999999978
 30
0.0
 11
-65.49999999999865
 21
19.49999999999978
 31
0.0
  0
ARC
  5
1688
  8
SAPA_GLAS
 10
-64.999999999998636
 20
16.49999999999978
 30
0.0
 40
0.5
 50
180.0
 51
270.0
  0
LINE
  5
1689
  8
SAPA_GLAS
 10
-49.499999999996028
 20
24.49999999999978
 30
0.0
 11
-49.499999999996028
 21
21.49999999999979
 31
0.0
  0
ARC
  5
168A
  8
SAPA_GLAS
 10
-49.999999999996021
 20
24.49999999999978
 30
0.0
 40
0.5
 50
0.0
 51
89.999999999999986
  0
LINE
  5
168B
  8
SAPA_GLAS
 10
-64.999999999998636
 20
24.99999999999979
 30
0.0
 11
-49.999999999996021
 21
24.99999999999979
 31
0.0
  0
ARC
  5
168C
  8
SAPA_GLAS
 10
-64.999999999998636
 20
24.49999999999978
 30
0.0
 40
0.5
 50
89.999999999999986
 51
180.0
  0
LINE
  5
168D
  8
SAPA_GLAS
 10
-65.49999999999865
 20
21.49999999999979
 30
0.0
 11
-65.49999999999865
 21
24.49999999999978
 31
0.0
  0
ARC
  5
168E
  8
SAPA_GLAS
 10
-64.999999999998636
 20
21.49999999999979
 30
0.0
 40
0.5
 50
180.0
 51
270.0
  0
LINE
  5
168F
  8
SAPA_GLAS
 10
-49.999999999996021
 20
20.99999999999978
 30
0.0
 11
-64.999999999998636
 21
20.99999999999978
 31
0.0
  0
ARC
  5
1690
  8
SAPA_GLAS
 10
-49.999999999996021
 20
21.49999999999979
 30
0.0
 40
0.5
 50
270.0
 51
0.0
  0
LINE
  5
1691
  8
SAPA_GLAS
 10
-48.499999999996028
 20
10.99999999999978
 30
0.0
 11
-45.499999999996028
 21
10.99999999999978
 31
0.0
  0
LINE
  5
1692
  8
SAPA_GLAS
 10
-72.499999999998636
 20
10.99999999999978
 30
0.0
 11
-66.49999999999865
 21
10.99999999999978
 31
0.0
  0
LINE
  5
1693
  8
SAPA_GLAS
 10
-66.49999999999865
 20
14.99999999999978
 30
0.0
 11
-48.499999999996028
 21
14.99999999999978
 31
0.0
1001
ACAD
1000
ASC_BOUNDS
1002
{
1070
    19
1005
0
1002
}
  0
LINE
  5
1694
  8
SAPA_GLAS
 10
-66.49999999999865
 20
25.99999999999978
 30
0.0
 11
-48.499999999996021
 21
25.99999999999979
 31
0.0
  0
LINE
  5
1695
  8
SAPA_GLAS
 10
-66.49999999999865
 20
25.99999999999978
 30
0.0
 11
-48.499999999996021
 21
25.99999999999979
 31
0.0
1001
ACAD
1000
ASC_BOUNDS
1002
{
1070
    19
1005
0
1002
}
  0
LINE
  5
1696
  8
SAPA_GLAS
 10
-45.499999999996028
 20
10.99999999999978
 30
0.0
 11
-45.499999999996938
 21
50.99999999999978
 31
0.0
  0
LINE
  5
1697
  8
SAPA_GLAS
 10
-72.499999999998636
 20
10.99999999999978
 30
0.0
 11
-72.499999999998636
 21
50.999999999999787
 31
0.0
  0
LINE
  5
1698
  8
SAPA_GLAS
 10
-48.499999999996028
 20
10.99999999999978
 30
0.0
 11
-48.499999999996028
 21
50.99999999999978
 31
0.0
1001
ACAD
1000
ASC_BOUNDS
1002
{
1070
    19
1005
0
1005
0
1002
}
  0
LINE
  5
1699
  8
SAPA_GLAS
 10
-66.49999999999865
 20
10.99999999999978
 30
0.0
 11
-66.499999999998636
 21
50.999999999999787
 31
0.0
1001
ACAD
1000
ASC_BOUNDS
1002
{
1070
    19
1005
0
1005
0
1002
}
  0
LINE
  5
169A
  8
SAPA_GLAS
 10
-57.550000073848253
 20
-162.99999999793039
 30
0.0
 11
-42.550000073848253
 21
-162.99999999793039
 31
0.0
  0
POLYLINE
  5
169B
  8
SAPA_GLAS
 66
     1
 10
0.0
 20
0.0
 30
0.0
  0
VERTEX
  5
243A
  8
SAPA_GLAS
 10
-36.550000073848267
 20
-182.99999999793039
 30
0.0
  0
VERTEX
  5
243B
  8
SAPA_GLAS
 10
-36.550000073848253
 20
-152.99999999793039
 30
0.0
  0
VERTEX
  5
243C
  8
SAPA_GLAS
 10
-63.550000073848253
 20
-152.99999999793039
 30
0.0
  0
VERTEX
  5
243D
  8
SAPA_GLAS
 10
-63.550000073848267
 20
-182.99999999793039
 30
0.0
  0
SEQEND
  5
243E
  8
SAPA_GLAS
  0
LINE
  5
169C
  8
SAPA_GLAS
 10
-42.55000007384826
 20
-182.99999999793039
 30
0.0
 11
-42.550000073848253
 21
-152.99999999793039
 31
0.0
  0
LINE
  5
169D
  8
SAPA_GLAS
 10
-57.55000007384826
 20
-182.99999999793039
 30
0.0
 11
-57.550000073848253
 21
-152.99999999793039
 31
0.0
  0
LINE
  5
16A8
  8
SAPA_ISOLATOR
 10
-7.3369832384352991
 20
-25.00001783612618
 30
0.0
 11
-7.3369832384353009
 21
-31.194641603309151
 31
0.0
  0
LINE
  5
16A9
  8
SAPA_ISOLATOR
 10
-42.578680595394282
 20
-25.000017836126169
 30
0.0
 11
-7.3369832384352991
 21
-25.00001783612618
 31
0.0
  0
LINE
  5
16AA
  8
SAPA_ISOLATOR
 10
-42.578680595394282
 20
-31.194641603310959
 30
0.0
 11
-42.578680595394282
 21
-25.000017836126169
 31
0.0
  0
LINE
  5
16AB
  8
SAPA_ISOLATOR
 10
-7.3369832384353009
 20
-31.200017836126221
 30
0.0
 11
-42.578680595394282
 21
-31.194641603310959
 31
0.0
  0
LINE
  5
16AC
  8
SAPA_ISOLATOR
 10
-42.578680595394282
 20
-31.194641603310959
 30
0.0
 11
-7.3369832384352991
 21
-25.00001783612618
 31
0.0
  0
LINE
  5
16AD
  8
SAPA_ISOLATOR
 10
-7.3369832384353009
 20
-31.21660513901168
 30
0.0
 11
-42.578680595394282
 21
-25.011228906196369
 31
0.0
  0
POLYLINE
  5
16D0
  8
SAPA_FOGBAND
 66
     1
 10
0.0
 20
0.0
 30
0.0
 70
     1
  0
VERTEX
  5
253E
  8
SAPA_FOGBAND
 10
-36.300000000000097
 20
-16.003393554726919
 30
0.0
  0
VERTEX
  5
253F
  8
SAPA_FOGBAND
 10
-36.300000000000097
 20
-23.303393554726881
 30
0.0
 42
0.4142135623730951
  0
VERTEX
  5
2540
  8
SAPA_FOGBAND
 10
-35.800000000000111
 20
-23.80339355472687
 30
0.0
  0
VERTEX
  5
2541
  8
SAPA_FOGBAND
 10
-35.500000000000149
 20
-23.80339355472687
 30
0.0
  0
VERTEX
  5
2542
  8
SAPA_FOGBAND
 10
-35.500000000000149
 20
-22.203393554726851
 30
0.0
 42
-0.4142135623730951
  0
VERTEX
  5
2543
  8
SAPA_FOGBAND
 10
-35.000000000000149
 20
-21.703393554726851
 30
0.0
  0
VERTEX
  5
2544
  8
SAPA_FOGBAND
 10
-34.058574583118272
 20
-21.703393554726851
 30
0.0
  0
VERTEX
  5
2545
  8
SAPA_FOGBAND
 10
-33.991114673807857
 20
-21.955157363747379
 30
0.0
 42
0.4740571810232243
  0
VERTEX
  5
2546
  8
SAPA_FOGBAND
 10
-33.70883208816921
 20
-22.08245122611094
 30
0.0
  0
VERTEX
  5
2547
  8
SAPA_FOGBAND
 10
-32.262625951409333
 20
-21.462350723352301
 30
0.0
 42
0.2846003776496037
  0
VERTEX
  5
2548
  8
SAPA_FOGBAND
 10
-31.985369502361358
 20
-21.014706544892189
 30
0.0
  0
VERTEX
  5
2549
  8
SAPA_FOGBAND
 10
-31.985369502361358
 20
-19.392080564561631
 30
0.0
 42
0.2846003776496048
  0
VERTEX
  5
254A
  8
SAPA_FOGBAND
 10
-32.262625951409333
 20
-18.944436386101408
 30
0.0
  0
VERTEX
  5
254B
  8
SAPA_FOGBAND
 10
-33.70883208816921
 20
-18.324335883342759
 30
0.0
 42
0.4740571810232242
  0
VERTEX
  5
254C
  8
SAPA_FOGBAND
 10
-33.991114673807857
 20
-18.45162974570643
 30
0.0
  0
VERTEX
  5
254D
  8
SAPA_FOGBAND
 10
-34.058574583118272
 20
-18.703393554726851
 30
0.0
  0
VERTEX
  5
254E
  8
SAPA_FOGBAND
 10
-35.000000000000149
 20
-18.703393554726851
 30
0.0
 42
-0.4142135623730951
  0
VERTEX
  5
254F
  8
SAPA_FOGBAND
 10
-35.500000000000149
 20
-18.203393554726851
 30
0.0
  0
VERTEX
  5
2550
  8
SAPA_FOGBAND
 10
-35.500000000000149
 20
-15.50339355472703
 30
0.0
  0
VERTEX
  5
2551
  8
SAPA_FOGBAND
 10
-35.800000000000111
 20
-15.503393554726919
 30
0.0
 42
0.4142135623730951
  0
SEQEND
  5
2552
  8
SAPA_FOGBAND
  0
POLYLINE
  5
16D1
  8
SAPA_FOGBAND
 66
     1
 10
0.0
 20
0.0
 30
0.0
 70
     1
  0
VERTEX
  5
2553
  8
SAPA_FOGBAND
 10
-34.185369502361397
 20
-19.30339355472687
 30
0.0
  0
VERTEX
  5
2554
  8
SAPA_FOGBAND
 10
-33.585369502361381
 20
-19.30339355472687
 30
0.0
 42
-0.9999999999999998
  0
VERTEX
  5
2555
  8
SAPA_FOGBAND
 10
-33.585369502361381
 20
-21.103393554726829
 30
0.0
  0
VERTEX
  5
2556
  8
SAPA_FOGBAND
 10
-34.185369502361397
 20
-21.103393554726829
 30
0.0
 42
-0.9999999999999998
  0
SEQEND
  5
2557
  8
SAPA_FOGBAND
  0
POLYLINE
  5
16D2
  8
SAPA_FOGBAND
 66
     1
 10
0.0
 20
0.0
 30
0.0
  0
VERTEX
  5
2558
  8
SAPA_FOGBAND
 10
-35.800000000000111
 20
-23.80339355472687
 30
0.0
  0
VERTEX
  5
2559
  8
SAPA_FOGBAND
 10
-35.500000000000149
 20
-23.80339355472687
 30
0.0
  0
VERTEX
  5
255A
  8
SAPA_FOGBAND
 10
-35.500000000000149
 20
-24.71555371810825
 30
0.0
 42
-0.4027293761437522
  0
VERTEX
  5
255B
  8
SAPA_FOGBAND
 10
-35.788192637469287
 20
-25.015321271706281
 30
0.0
  0
VERTEX
  5
255C
  8
SAPA_FOGBAND
 10
-42.423995511553393
 20
-25.635472610187431
 30
0.0
 42
-0.4366759199119207
  0
VERTEX
  5
255D
  8
SAPA_FOGBAND
 10
-43.500000000000711
 20
-24.63836513466844
 30
0.0
  0
VERTEX
  5
255E
  8
SAPA_FOGBAND
 10
-43.500000000000711
 20
-12.76316551867944
 30
0.0
 42
-0.1134871727417796
  0
VERTEX
  5
255F
  8
SAPA_FOGBAND
 10
-43.399568923853309
 20
-12.3263866830673
 30
0.0
  0
VERTEX
  5
2560
  8
SAPA_FOGBAND
 10
-40.44088966117652
 20
-5.2213249162897171
 30
0.0
 42
-0.2866770623134215
  0
VERTEX
  5
2561
  8
SAPA_FOGBAND
 10
-40.090931572824829
 20
-5.0020663702083246
 30
0.0
  0
VERTEX
  5
2562
  8
SAPA_FOGBAND
 10
-39.09808839016096
 20
-5.0020663702083246
 30
0.0
 42
-0.3386584782462731
  0
VERTEX
  5
2563
  8
SAPA_FOGBAND
 10
-38.325942004160012
 20
-5.5928058660856257
 30
0.0
  0
VERTEX
  5
2564
  8
SAPA_FOGBAND
 10
-35.54614405977069
 20
-15.050210687247951
 30
0.0
 42
-0.0644539213931785
  0
VERTEX
  5
2565
  8
SAPA_FOGBAND
 10
-35.500000000000149
 20
-15.406685220847971
 30
0.0
  0
VERTEX
  5
2566
  8
SAPA_FOGBAND
 10
-35.500000000000149
 20
-15.50339355472703
 30
0.0
  0
SEQEND
  5
2567
  8
SAPA_FOGBAND
  0
POLYLINE
  5
16D3
  8
SAPA_FOGBAND
 66
     1
 10
0.0
 20
0.0
 30
0.0
 70
     1
  0
VERTEX
  5
2568
  8
SAPA_FOGBAND
 10
-37.60516415342645
 20
-11.880297213133179
 30
0.0
  0
VERTEX
  5
2569
  8
SAPA_FOGBAND
 10
-39.020702744132102
 20
-7.6042180012536562
 30
0.0
 42
0.444186966527488
  0
VERTEX
  5
256A
  8
SAPA_FOGBAND
 10
-39.495522529296871
 20
-7.5698481632940959
 30
0.0
  0
VERTEX
  5
256B
  8
SAPA_FOGBAND
 10
-41.89042410031638
 20
-11.76226131178009
 30
0.0
 42
0.5537304554466119
  0
VERTEX
  5
256C
  8
SAPA_FOGBAND
 10
-41.307503437659911
 20
-12.693293997256649
 30
0.0
  0
VERTEX
  5
256D
  8
SAPA_FOGBAND
 10
-38.231806045761267
 20
-12.693293997256649
 30
0.0
 42
0.4917973357877383
  0
SEQEND
  5
256E
  8
SAPA_FOGBAND
  0
POLYLINE
  5
16D4
  8
SAPA_FOGBAND
 10
-40.020122589263593
 20
-21.926001341734001
 30
0.0
 66
     1
 70
     8
  0
VERTEX
  8
SAPA_FOGBAND
  5
26E7
 10
-40.0201
 20
-21.9260
 30
0.000000
  70
    32
  0
VERTEX
  8
SAPA_FOGBAND
  5
26E8
 10
-40.1350
 20
-21.9213
 30
0.000000
  70
    32
  0
VERTEX
  8
SAPA_FOGBAND
  5
26E9
 10
-40.2495
 20
-21.9094
 30
0.000000
  70
    32
  0
VERTEX
  8
SAPA_FOGBAND
  5
26EA
 10
-40.3634
 20
-21.8905
 30
0.000000
  70
    32
  0
VERTEX
  8
SAPA_FOGBAND
  5
26EB
 10
-40.4765
 20
-21.8644
 30
0.000000
  70
    32
  0
VERTEX
  8
SAPA_FOGBAND
  5
26EC
 10
-40.5883
 20
-21.8314
 30
0.000000
  70
    32
  0
VERTEX
  8
SAPA_FOGBAND
  5
26ED
 10
-40.6987
 20
-21.7914
 30
0.000000
  70
    32
  0
VERTEX
  8
SAPA_FOGBAND
  5
26EE
 10
-40.8074
 20
-21.7446
 30
0.000000
  70
    32
  0
VERTEX
  8
SAPA_FOGBAND
  5
26EF
 10
-40.9141
 20
-21.6911
 30
0.000000
  70
    32
  0
VERTEX
  8
SAPA_FOGBAND
  5
26F0
 10
-41.0186
 20
-21.6310
 30
0.000000
  70
    32
  0
VERTEX
  8
SAPA_FOGBAND
  5
26F1
 10
-41.1206
 20
-21.5645
 30
0.000000
  70
    32
  0
VERTEX
  8
SAPA_FOGBAND
  5
26F2
 10
-41.2199
 20
-21.4917
 30
0.000000
  70
    32
  0
VERTEX
  8
SAPA_FOGBAND
  5
26F3
 10
-41.3163
 20
-21.4128
 30
0.000000
  70
    32
  0
VERTEX
  8
SAPA_FOGBAND
  5
26F4
 10
-41.4094
 20
-21.3279
 30
0.000000
  70
    32
  0
VERTEX
  8
SAPA_FOGBAND
  5
26F5
 10
-41.4992
 20
-21.2374
 30
0.000000
  70
    32
  0
VERTEX
  8
SAPA_FOGBAND
  5
26F6
 10
-41.5852
 20
-21.1414
 30
0.000000
  70
    32
  0
VERTEX
  8
SAPA_FOGBAND
  5
26F7
 10
-41.6675
 20
-21.0401
 30
0.000000
  70
    32
  0
VERTEX
  8
SAPA_FOGBAND
  5
26F8
 10
-41.7457
 20
-20.9338
 30
0.000000
  70
    32
  0
VERTEX
  8
SAPA_FOGBAND
  5
26F9
 10
-41.8197
 20
-20.8227
 30
0.000000
  70
    32
  0
VERTEX
  8
SAPA_FOGBAND
  5
26FA
 10
-41.8893
 20
-20.7071
 30
0.000000
  70
    32
  0
VERTEX
  8
SAPA_FOGBAND
  5
26FB
 10
-41.9543
 20
-20.5874
 30
0.000000
  70
    32
  0
VERTEX
  8
SAPA_FOGBAND
  5
26FC
 10
-42.0146
 20
-20.4636
 30
0.000000
  70
    32
  0
VERTEX
  8
SAPA_FOGBAND
  5
26FD
 10
-42.0699
 20
-20.3363
 30
0.000000
  70
    32
  0
VERTEX
  8
SAPA_FOGBAND
  5
26FE
 10
-42.1203
 20
-20.2057
 30
0.000000
  70
    32
  0
VERTEX
  8
SAPA_FOGBAND
  5
26FF
 10
-42.1656
 20
-20.0720
 30
0.000000
  70
    32
  0
VERTEX
  8
SAPA_FOGBAND
  5
2700
 10
-42.2056
 20
-19.9356
 30
0.000000
  70
    32
  0
VERTEX
  8
SAPA_FOGBAND
  5
2701
 10
-42.2403
 20
-19.7969
 30
0.000000
  70
    32
  0
VERTEX
  8
SAPA_FOGBAND
  5
2702
 10
-42.2696
 20
-19.6562
 30
0.000000
  70
    32
  0
VERTEX
  8
SAPA_FOGBAND
  5
2703
 10
-42.2933
 20
-19.5138
 30
0.000000
  70
    32
  0
VERTEX
  8
SAPA_FOGBAND
  5
2704
 10
-42.3115
 20
-19.3701
 30
0.000000
  70
    32
  0
VERTEX
  8
SAPA_FOGBAND
  5
2705
 10
-42.3242
 20
-19.2253
 30
0.000000
  70
    32
  0
VERTEX
  8
SAPA_FOGBAND
  5
2706
 10
-42.3312
 20
-19.0799
 30
0.000000
  70
    32
  0
VERTEX
  8
SAPA_FOGBAND
  5
2707
 10
-42.3326
 20
-18.9342
 30
0.000000
  70
    32
  0
VERTEX
  8
SAPA_FOGBAND
  5
2708
 10
-42.3283
 20
-18.7886
 30
0.000000
  70
    32
  0
VERTEX
  8
SAPA_FOGBAND
  5
2709
 10
-42.3184
 20
-18.6434
 30
0.000000
  70
    32
  0
VERTEX
  8
SAPA_FOGBAND
  5
270A
 10
-42.3029
 20
-18.4989
 30
0.000000
  70
    32
  0
VERTEX
  8
SAPA_FOGBAND
  5
270B
 10
-42.2818
 20
-18.3556
 30
0.000000
  70
    32
  0
VERTEX
  8
SAPA_FOGBAND
  5
270C
 10
-42.2552
 20
-18.2137
 30
0.000000
  70
    32
  0
VERTEX
  8
SAPA_FOGBAND
  5
270D
 10
-42.2231
 20
-18.0736
 30
0.000000
  70
    32
  0
VERTEX
  8
SAPA_FOGBAND
  5
270E
 10
-42.1857
 20
-17.9356
 30
0.000000
  70
    32
  0
VERTEX
  8
SAPA_FOGBAND
  5
270F
 10
-42.1430
 20
-17.8001
 30
0.000000
  70
    32
  0
VERTEX
  8
SAPA_FOGBAND
  5
2710
 10
-42.0951
 20
-17.6673
 30
0.000000
  70
    32
  0
VERTEX
  8
SAPA_FOGBAND
  5
2711
 10
-42.0421
 20
-17.5377
 30
0.000000
  70
    32
  0
VERTEX
  8
SAPA_FOGBAND
  5
2712
 10
-41.9842
 20
-17.4115
 30
0.000000
  70
    32
  0
VERTEX
  8
SAPA_FOGBAND
  5
2713
 10
-41.9214
 20
-17.2890
 30
0.000000
  70
    32
  0
VERTEX
  8
SAPA_FOGBAND
  5
2714
 10
-41.8541
 20
-17.1705
 30
0.000000
  70
    32
  0
VERTEX
  8
SAPA_FOGBAND
  5
2715
 10
-41.7822
 20
-17.0564
 30
0.000000
  70
    32
  0
VERTEX
  8
SAPA_FOGBAND
  5
2716
 10
-41.7060
 20
-16.9468
 30
0.000000
  70
    32
  0
VERTEX
  8
SAPA_FOGBAND
  5
2717
 10
-41.6257
 20
-16.8421
 30
0.000000
  70
    32
  0
VERTEX
  8
SAPA_FOGBAND
  5
2718
 10
-41.5415
 20
-16.7424
 30
0.000000
  70
    32
  0
VERTEX
  8
SAPA_FOGBAND
  5
2719
 10
-41.4535
 20
-16.6481
 30
0.000000
  70
    32
  0
VERTEX
  8
SAPA_FOGBAND
  5
271A
 10
-41.3620
 20
-16.5594
 30
0.000000
  70
    32
  0
VERTEX
  8
SAPA_FOGBAND
  5
271B
 10
-41.2671
 20
-16.4764
 30
0.000000
  70
    32
  0
VERTEX
  8
SAPA_FOGBAND
  5
271C
 10
-41.1693
 20
-16.3995
 30
0.000000
  70
    32
  0
VERTEX
  8
SAPA_FOGBAND
  5
271D
 10
-41.0685
 20
-16.3286
 30
0.000000
  70
    32
  0
VERTEX
  8
SAPA_FOGBAND
  5
271E
 10
-40.9652
 20
-16.2642
 30
0.000000
  70
    32
  0
VERTEX
  8
SAPA_FOGBAND
  5
271F
 10
-40.8595
 20
-16.2062
 30
0.000000
  70
    32
  0
VERTEX
  8
SAPA_FOGBAND
  5
2720
 10
-40.7517
 20
-16.1548
 30
0.000000
  70
    32
  0
VERTEX
  8
SAPA_FOGBAND
  5
2721
 10
-40.6421
 20
-16.1102
 30
0.000000
  70
    32
  0
VERTEX
  8
SAPA_FOGBAND
  5
2722
 10
-40.5310
 20
-16.0724
 30
0.000000
  70
    32
  0
VERTEX
  8
SAPA_FOGBAND
  5
2723
 10
-40.4185
 20
-16.0416
 30
0.000000
  70
    32
  0
VERTEX
  8
SAPA_FOGBAND
  5
2724
 10
-40.3050
 20
-16.0178
 30
0.000000
  70
    32
  0
VERTEX
  8
SAPA_FOGBAND
  5
2725
 10
-40.1907
 20
-16.0011
 30
0.000000
  70
    32
  0
VERTEX
  8
SAPA_FOGBAND
  5
2726
 10
-40.0760
 20
-15.9916
 30
0.000000
  70
    32
  0
VERTEX
  8
SAPA_FOGBAND
  5
2727
 10
-39.9610
 20
-15.9891
 30
0.000000
  70
    32
  0
VERTEX
  8
SAPA_FOGBAND
  5
2728
 10
-39.8462
 20
-15.9938
 30
0.000000
  70
    32
  0
VERTEX
  8
SAPA_FOGBAND
  5
2729
 10
-39.7316
 20
-16.0057
 30
0.000000
  70
    32
  0
VERTEX
  8
SAPA_FOGBAND
  5
272A
 10
-39.6177
 20
-16.0247
 30
0.000000
  70
    32
  0
VERTEX
  8
SAPA_FOGBAND
  5
272B
 10
-39.5047
 20
-16.0507
 30
0.000000
  70
    32
  0
VERTEX
  8
SAPA_FOGBAND
  5
272C
 10
-39.3929
 20
-16.0837
 30
0.000000
  70
    32
  0
VERTEX
  8
SAPA_FOGBAND
  5
272D
 10
-39.2825
 20
-16.1237
 30
0.000000
  70
    32
  0
VERTEX
  8
SAPA_FOGBAND
  5
272E
 10
-39.1738
 20
-16.1705
 30
0.000000
  70
    32
  0
VERTEX
  8
SAPA_FOGBAND
  5
272F
 10
-39.0670
 20
-16.2240
 30
0.000000
  70
    32
  0
VERTEX
  8
SAPA_FOGBAND
  5
2730
 10
-38.9625
 20
-16.2841
 30
0.000000
  70
    32
  0
VERTEX
  8
SAPA_FOGBAND
  5
2731
 10
-38.8605
 20
-16.3506
 30
0.000000
  70
    32
  0
VERTEX
  8
SAPA_FOGBAND
  5
2732
 10
-38.7612
 20
-16.4234
 30
0.000000
  70
    32
  0
VERTEX
  8
SAPA_FOGBAND
  5
2733
 10
-38.6649
 20
-16.5023
 30
0.000000
  70
    32
  0
VERTEX
  8
SAPA_FOGBAND
  5
2734
 10
-38.5717
 20
-16.5872
 30
0.000000
  70
    32
  0
VERTEX
  8
SAPA_FOGBAND
  5
2735
 10
-38.4820
 20
-16.6777
 30
0.000000
  70
    32
  0
VERTEX
  8
SAPA_FOGBAND
  5
2736
 10
-38.3959
 20
-16.7737
 30
0.000000
  70
    32
  0
VERTEX
  8
SAPA_FOGBAND
  5
2737
 10
-38.3137
 20
-16.8750
 30
0.000000
  70
    32
  0
VERTEX
  8
SAPA_FOGBAND
  5
2738
 10
-38.2354
 20
-16.9813
 30
0.000000
  70
    32
  0
VERTEX
  8
SAPA_FOGBAND
  5
2739
 10
-38.1615
 20
-17.0924
 30
0.000000
  70
    32
  0
VERTEX
  8
SAPA_FOGBAND
  5
273A
 10
-38.0919
 20
-17.2080
 30
0.000000
  70
    32
  0
VERTEX
  8
SAPA_FOGBAND
  5
273B
 10
-38.0269
 20
-17.3278
 30
0.000000
  70
    32
  0
VERTEX
  8
SAPA_FOGBAND
  5
273C
 10
-37.9666
 20
-17.4515
 30
0.000000
  70
    32
  0
VERTEX
  8
SAPA_FOGBAND
  5
273D
 10
-37.9112
 20
-17.5788
 30
0.000000
  70
    32
  0
VERTEX
  8
SAPA_FOGBAND
  5
273E
 10
-37.8608
 20
-17.7095
 30
0.000000
  70
    32
  0
VERTEX
  8
SAPA_FOGBAND
  5
273F
 10
-37.8156
 20
-17.8431
 30
0.000000
  70
    32
  0
VERTEX
  8
SAPA_FOGBAND
  5
2740
 10
-37.7755
 20
-17.9795
 30
0.000000
  70
    32
  0
VERTEX
  8
SAPA_FOGBAND
  5
2741
 10
-37.7409
 20
-18.1182
 30
0.000000
  70
    32
  0
VERTEX
  8
SAPA_FOGBAND
  5
2742
 10
-37.7116
 20
-18.2589
 30
0.000000
  70
    32
  0
VERTEX
  8
SAPA_FOGBAND
  5
2743
 10
-37.6878
 20
-18.4013
 30
0.000000
  70
    32
  0
VERTEX
  8
SAPA_FOGBAND
  5
2744
 10
-37.6696
 20
-18.5451
 30
0.000000
  70
    32
  0
VERTEX
  8
SAPA_FOGBAND
  5
2745
 10
-37.6570
 20
-18.6898
 30
0.000000
  70
    32
  0
VERTEX
  8
SAPA_FOGBAND
  5
2746
 10
-37.6500
 20
-18.8352
 30
0.000000
  70
    32
  0
VERTEX
  8
SAPA_FOGBAND
  5
2747
 10
-37.6486
 20
-18.9809
 30
0.000000
  70
    32
  0
VERTEX
  8
SAPA_FOGBAND
  5
2748
 10
-37.6529
 20
-19.1265
 30
0.000000
  70
    32
  0
VERTEX
  8
SAPA_FOGBAND
  5
2749
 10
-37.6628
 20
-19.2717
 30
0.000000
  70
    32
  0
VERTEX
  8
SAPA_FOGBAND
  5
274A
 10
-37.6783
 20
-19.4162
 30
0.000000
  70
    32
  0
VERTEX
  8
SAPA_FOGBAND
  5
274B
 10
-37.6994
 20
-19.5595
 30
0.000000
  70
    32
  0
VERTEX
  8
SAPA_FOGBAND
  5
274C
 10
-37.7260
 20
-19.7014
 30
0.000000
  70
    32
  0
VERTEX
  8
SAPA_FOGBAND
  5
274D
 10
-37.7580
 20
-19.8416
 30
0.000000
  70
    32
  0
VERTEX
  8
SAPA_FOGBAND
  5
274E
 10
-37.7955
 20
-19.9795
 30
0.000000
  70
    32
  0
VERTEX
  8
SAPA_FOGBAND
  5
274F
 10
-37.8382
 20
-20.1151
 30
0.000000
  70
    32
  0
VERTEX
  8
SAPA_FOGBAND
  5
2750
 10
-37.8861
 20
-20.2478
 30
0.000000
  70
    32
  0
VERTEX
  8
SAPA_FOGBAND
  5
2751
 10
-37.9391
 20
-20.3774
 30
0.000000
  70
    32
  0
VERTEX
  8
SAPA_FOGBAND
  5
2752
 10
-37.9970
 20
-20.5036
 30
0.000000
  70
    32
  0
VERTEX
  8
SAPA_FOGBAND
  5
2753
 10
-38.0597
 20
-20.6261
 30
0.000000
  70
    32
  0
VERTEX
  8
SAPA_FOGBAND
  5
2754
 10
-38.1271
 20
-20.7446
 30
0.000000
  70
    32
  0
VERTEX
  8
SAPA_FOGBAND
  5
2755
 10
-38.1989
 20
-20.8587
 30
0.000000
  70
    32
  0
VERTEX
  8
SAPA_FOGBAND
  5
2756
 10
-38.2751
 20
-20.9683
 30
0.000000
  70
    32
  0
VERTEX
  8
SAPA_FOGBAND
  5
2757
 10
-38.3554
 20
-21.0730
 30
0.000000
  70
    32
  0
VERTEX
  8
SAPA_FOGBAND
  5
2758
 10
-38.4397
 20
-21.1727
 30
0.000000
  70
    32
  0
VERTEX
  8
SAPA_FOGBAND
  5
2759
 10
-38.5277
 20
-21.2670
 30
0.000000
  70
    32
  0
VERTEX
  8
SAPA_FOGBAND
  5
275A
 10
-38.6192
 20
-21.3557
 30
0.000000
  70
    32
  0
VERTEX
  8
SAPA_FOGBAND
  5
275B
 10
-38.7140
 20
-21.4387
 30
0.000000
  70
    32
  0
VERTEX
  8
SAPA_FOGBAND
  5
275C
 10
-38.8119
 20
-21.5157
 30
0.000000
  70
    32
  0
VERTEX
  8
SAPA_FOGBAND
  5
275D
 10
-38.9126
 20
-21.5865
 30
0.000000
  70
    32
  0
VERTEX
  8
SAPA_FOGBAND
  5
275E
 10
-39.0160
 20
-21.6510
 30
0.000000
  70
    32
  0
VERTEX
  8
SAPA_FOGBAND
  5
275F
 10
-39.1216
 20
-21.7090
 30
0.000000
  70
    32
  0
VERTEX
  8
SAPA_FOGBAND
  5
2760
 10
-39.2294
 20
-21.7603
 30
0.000000
  70
    32
  0
VERTEX
  8
SAPA_FOGBAND
  5
2761
 10
-39.3390
 20
-21.8049
 30
0.000000
  70
    32
  0
VERTEX
  8
SAPA_FOGBAND
  5
2762
 10
-39.4502
 20
-21.8427
 30
0.000000
  70
    32
  0
VERTEX
  8
SAPA_FOGBAND
  5
2763
 10
-39.5627
 20
-21.8735
 30
0.000000
  70
    32
  0
VERTEX
  8
SAPA_FOGBAND
  5
2764
 10
-39.6762
 20
-21.8973
 30
0.000000
  70
    32
  0
VERTEX
  8
SAPA_FOGBAND
  5
2765
 10
-39.7904
 20
-21.9140
 30
0.000000
  70
    32
  0
VERTEX
  8
SAPA_FOGBAND
  5
2766
 10
-39.9052
 20
-21.9236
 30
0.000000
  70
    32
  0
VERTEX
  8
SAPA_FOGBAND
  5
2767
 10
-40.0201
 20
-21.9260
 30
0.000000
  70
    32
  0
SEQEND
  8
SAPA_FOGBAND
  5
2768
  0
POLYLINE
  5
16D5
  8
SAPA_FOGBAND
 62
     2
 66
     1
 10
0.0
 20
0.0
 30
0.0000000195376815
 70
     1
  0
VERTEX
  5
256F
  8
SAPA_FOGBAND
 62
     2
 10
10.873016923031299
 20
-94.415820339269104
 30
0.0000000195376815
  0
VERTEX
  5
2570
  8
SAPA_FOGBAND
 62
     2
 10
10.873016923031299
 20
-94.515820339269084
 30
0.0000000195376815
 42
-0.4142135623730959
  0
VERTEX
  5
2571
  8
SAPA_FOGBAND
 62
     2
 10
10.173016923031311
 20
-95.215820339269087
 30
0.0000000195376815
  0
VERTEX
  5
2572
  8
SAPA_FOGBAND
 62
     2
 10
9.0730169230313162
 20
-95.215820339269115
 30
0.0000000195376815
 42
-0.4142135623730961
  0
VERTEX
  5
2573
  8
SAPA_FOGBAND
 62
     2
 10
8.8730169230312992
 20
-95.015820339269098
 30
0.0000000195376815
  0
VERTEX
  5
2574
  8
SAPA_FOGBAND
 62
     2
 10
8.8730169230312992
 20
-93.915820339269104
 30
0.0000000195376815
 42
-0.4142135623730956
  0
VERTEX
  5
2575
  8
SAPA_FOGBAND
 62
     2
 10
9.0730169230313162
 20
-93.715820339269087
 30
0.0000000195376815
  0
VERTEX
  5
2576
  8
SAPA_FOGBAND
 62
     2
 10
10.173016923031311
 20
-93.715820339269115
 30
0.0000000195376815
 42
-0.4142135623730946
  0
SEQEND
  5
2577
  8
SAPA_FOGBAND
 62
     2
  0
POLYLINE
  5
16D6
  8
SAPA_FOGBAND
 62
     2
 66
     1
 10
0.0
 20
0.0
 30
0.0000000195376815
 70
     1
  0
VERTEX
  5
2578
  8
SAPA_FOGBAND
 62
     2
 10
9.5730169230313162
 20
-92.915820339269104
 30
0.0000000195376815
  0
VERTEX
  5
2579
  8
SAPA_FOGBAND
 62
     2
 10
8.9252513577582242
 20
-92.915820339269104
 30
0.0000000195376815
 42
-0.4416942457848321
  0
VERTEX
  5
257A
  8
SAPA_FOGBAND
 62
     2
 10
8.7261138782652772
 20
-92.697265979641188
 30
0.0000000195376815
  0
VERTEX
  5
257B
  8
SAPA_FOGBAND
 62
     2
 10
8.8158299435233243
 20
-91.734374698897014
 30
0.0000000195376815
 42
0.441694245784789
  0
VERTEX
  5
257C
  8
SAPA_FOGBAND
 62
     2
 10
8.6166924640304057
 20
-91.515820339269098
 30
0.0000000195376815
  0
VERTEX
  5
257D
  8
SAPA_FOGBAND
 62
     2
 10
8.0667101244388402
 20
-91.515820339269098
 30
0.0000000195376815
 42
0.5445962197109614
  0
VERTEX
  5
257E
  8
SAPA_FOGBAND
 62
     2
 10
7.6109732153770002
 20
-92.221499384674175
 30
0.0000000195376815
  0
VERTEX
  5
257F
  8
SAPA_FOGBAND
 62
     2
 10
7.773016923031304
 20
-92.580550537959439
 30
0.0000000195376815
  0
VERTEX
  5
2580
  8
SAPA_FOGBAND
 62
     2
 10
7.7730169230313066
 20
-94.053509776707344
 30
0.0000000195376815
 42
0.3364379234965429
  0
VERTEX
  5
2581
  8
SAPA_FOGBAND
 62
     2
 10
7.9605237408730547
 20
-95.125253506322181
 30
0.0000000195376815
  0
VERTEX
  5
2582
  8
SAPA_FOGBAND
 62
     2
 10
7.9605237408730547
 20
-95.68711714214588
 30
0.0000000195376815
 42
-0.1919812372740509
  0
VERTEX
  5
2583
  8
SAPA_FOGBAND
 62
     2
 10
7.8233913628557854
 20
-96.031104189745946
 30
0.0000000195376815
  0
VERTEX
  5
2584
  8
SAPA_FOGBAND
 62
     2
 10
7.4519138865657029
 20
-96.422971120149327
 30
0.0000000195376815
 42
-0.7523758382293955
  0
VERTEX
  5
2585
  8
SAPA_FOGBAND
 62
     2
 10
6.4633427131375951
 20
-92.182541309046826
 30
0.0000000195376815
 42
-0.020738253891463
  0
VERTEX
  5
2586
  8
SAPA_FOGBAND
 62
     2
 10
6.9665738422082013
 20
-91.936822091096374
 30
0.0000000195376815
 42
0.910188045100355
  0
VERTEX
  5
2587
  8
SAPA_FOGBAND
 62
     2
 10
6.6148269951944831
 20
-91.479522524415003
 30
0.0000000195376815
 42
0.8808478876171385
  0
VERTEX
  5
2588
  8
SAPA_FOGBAND
 62
     2
 10
7.91621940140858
 20
-96.988788819428848
 30
0.0000000195376815
  0
VERTEX
  5
2589
  8
SAPA_FOGBAND
 62
     2
 10
8.0315873746977076
 20
-97.419347957310123
 30
0.0000000195376815
 42
0.9163311740173993
  0
VERTEX
  5
258A
  8
SAPA_FOGBAND
 62
     2
 10
8.8164355844500442
 20
-97.280958042170013
 30
0.0000000195376815
  0
VERTEX
  5
258B
  8
SAPA_FOGBAND
 62
     2
 10
8.7247731382424956
 20
-96.233251487818634
 30
0.0000000195376815
 42
-0.4400105308918154
  0
VERTEX
  5
258C
  8
SAPA_FOGBAND
 62
     2
 10
8.9240120778608354
 20
-96.015820339269084
 30
0.0000000195376815
  0
VERTEX
  5
258D
  8
SAPA_FOGBAND
 62
     2
 10
9.7730169230313049
 20
-96.015820339269084
 30
0.0000000195376815
  0
VERTEX
  5
258E
  8
SAPA_FOGBAND
 62
     2
 10
9.7730169230313049
 20
-96.415820339269104
 30
0.0000000195376815
 42
0.5693809839207589
  0
VERTEX
  5
258F
  8
SAPA_FOGBAND
 62
     2
 10
10.06883329473397
 20
-96.591374384832704
 30
0.0000000195376815
  0
VERTEX
  5
2590
  8
SAPA_FOGBAND
 62
     2
 10
11.360466038139251
 20
-95.886408784933607
 30
0.0000000195376815
 42
0.2743878130875473
  0
VERTEX
  5
2591
  8
SAPA_FOGBAND
 62
     2
 10
11.673016923031319
 20
-95.359746648242876
 30
0.0000000195376815
  0
VERTEX
  5
2592
  8
SAPA_FOGBAND
 62
     2
 10
11.673016923031311
 20
-93.571894030295326
 30
0.0000000195376815
 42
0.2743878130875473
  0
VERTEX
  5
2593
  8
SAPA_FOGBAND
 62
     2
 10
11.36046603813924
 20
-93.045231893604608
 30
0.0000000195376815
  0
VERTEX
  5
2594
  8
SAPA_FOGBAND
 62
     2
 10
10.068833294733979
 20
-92.340266293705525
 30
0.0000000195376815
 42
0.5693809839208268
  0
VERTEX
  5
2595
  8
SAPA_FOGBAND
 62
     2
 10
9.7730169230312711
 20
-92.515820339269098
 30
0.0000000195376815
  0
VERTEX
  5
2596
  8
SAPA_FOGBAND
 62
     2
 10
9.7730169230313049
 20
-92.915820339269104
 30
0.0000000195376815
  0
VERTEX
  5
2597
  8
SAPA_FOGBAND
 62
     2
 10
8.9240120778608354
 20
-92.915820339269104
 30
0.0000000195376815
  0
SEQEND
  5
2598
  8
SAPA_FOGBAND
 62
     2
  0
LINE
  5
16D7
  8
SAPA_FOGBAND
 10
-73.499999999998636
 20
-17.499999999999758
 30
0.0
 11
-72.499999999998636
 21
-17.499999999999758
 31
0.0
  0
CIRCLE
  5
16D8
  8
SAPA_FOGBAND
 10
-75.057534635653383
 20
-7.8999999999996211
 30
0.0
 40
0.25
  0
LINE
  5
16D9
  8
SAPA_FOGBAND
 10
-72.499999999998636
 20
-14.99999999999976
 30
0.0
 11
-73.499999999998636
 21
-14.99999999999976
 31
0.0
  0
LINE
  5
16DA
  8
SAPA_FOGBAND
 10
-72.499999999998636
 20
-9.9999999999997602
 30
0.0
 11
-73.499999999998636
 21
-9.9999999999997584
 31
0.0
  0
LINE
  5
16DB
  8
SAPA_FOGBAND
 10
-72.999999999998636
 20
-9.9999999999997584
 30
0.0
 11
-72.999999999998636
 21
-14.99999999999976
 31
0.0
  0
LINE
  5
16DC
  8
SAPA_FOGBAND
 10
-72.499999999998636
 20
-2.4999999999997589
 30
0.0
 11
-73.499999999998636
 21
-2.4999999999997589
 31
0.0
  0
POLYLINE
  5
16DD
  8
SAPA_FOGBAND
 66
     1
 10
0.0
 20
0.0
 30
0.0
 70
     1
  0
VERTEX
  5
2599
  8
SAPA_FOGBAND
 10
-76.557534635653155
 20
-8.0500000000006224
 30
0.0
  0
VERTEX
  5
259A
  8
SAPA_FOGBAND
 10
-78.357534635653792
 20
-8.0500000000001677
 30
0.0
 42
-0.9999999999999996
  0
VERTEX
  5
259B
  8
SAPA_FOGBAND
 10
-78.357534635653792
 20
-6.750000000000667
 30
0.0
  0
VERTEX
  5
259C
  8
SAPA_FOGBAND
 10
-76.557534635653155
 20
-6.750000000000667
 30
0.0
 42
-0.4142135623730951
  0
VERTEX
  5
259D
  8
SAPA_FOGBAND
 10
-76.357534635653323
 20
-6.950000000000486
 30
0.0
  0
VERTEX
  5
259E
  8
SAPA_FOGBAND
 10
-76.357534635653323
 20
-7.8499999999996666
 30
0.0
 42
-0.4142135623730951
  0
SEQEND
  5
259F
  8
SAPA_FOGBAND
  0
CIRCLE
  5
16DE
  8
SAPA_FOGBAND
 10
-75.057534635653383
 20
8.0999999999994685
 30
0.0
 40
0.25
  0
POLYLINE
  5
16DF
  8
SAPA_FOGBAND
 66
     1
 10
0.0
 20
0.0
 30
0.0
  0
VERTEX
  5
25A0
  8
SAPA_FOGBAND
 10
-76.357534635653323
 20
7.1500000000003316
 30
0.0
  0
VERTEX
  5
25A1
  8
SAPA_FOGBAND
 10
-76.35753463565311
 20
8.0499999999995122
 30
0.0
 42
0.4142135623730951
  0
VERTEX
  5
25A2
  8
SAPA_FOGBAND
 10
-76.557534635653155
 20
8.2500000000004672
 30
0.0
  0
VERTEX
  5
25A3
  8
SAPA_FOGBAND
 10
-78.357534635653792
 20
8.2500000000000142
 30
0.0
 42
0.9999999999999998
  0
VERTEX
  5
25A4
  8
SAPA_FOGBAND
 10
-78.357534635653792
 20
6.9499999999998323
 30
0.0
  0
VERTEX
  5
25A5
  8
SAPA_FOGBAND
 10
-76.557534635653155
 20
6.9500000000005144
 30
0.0
 42
0.4142135623730951
  0
VERTEX
  5
25A6
  8
SAPA_FOGBAND
 10
-76.357534635653323
 20
7.1500000000003316
 30
0.0
  0
VERTEX
  5
25A7
  8
SAPA_FOGBAND
 10
-76.357534635653323
 20
7.8999999999996504
 30
0.0
  0
SEQEND
  5
25A8
  8
SAPA_FOGBAND
  0
LINE
  5
16E0
  8
SAPA_FOGBAND
 10
-72.499999999998636
 20
10.00000000000024
 30
0.0
 11
-73.499999999998636
 21
10.00000000000024
 31
0.0
  0
LINE
  5
16E1
  8
SAPA_FOGBAND
 10
-72.499999999998636
 20
2.5000000000002398
 30
0.0
 11
-73.499999999998636
 21
2.5000000000002398
 31
0.0
  0
LINE
  5
16E2
  8
SAPA_FOGBAND
 10
-72.499999999998636
 20
15.00000000000024
 30
0.0
 11
-73.499999999998636
 21
15.00000000000024
 31
0.0
  0
LINE
  5
16E3
  8
SAPA_FOGBAND
 10
-72.499999999998636
 20
17.500000000000242
 30
0.0
 11
-73.499999999998636
 21
17.500000000000242
 31
0.0
  0
LINE
  5
16E4
  8
SAPA_FOGBAND
 10
-72.999999999998636
 20
15.00000000000024
 30
0.0
 11
-72.999999999998636
 21
10.00000000000024
 31
0.0
  0
LINE
  5
16E5
  8
SAPA_FOGBAND
 10
-72.499999999998636
 20
-17.499999999999758
 30
0.0
 11
-72.499999999998636
 21
17.500000000000242
 31
0.0
  0
LINE
  5
16E6
  8
SAPA_FOGBAND
 10
-73.499999999998636
 20
17.500000000000242
 30
0.0
 11
-73.499999999998636
 21
-17.499999999999758
 31
0.0
  0
POLYLINE
  5
16E7
  8
SAPA_FOGBAND
 66
     1
 10
0.0
 20
0.0
 30
0.0
 70
     1
  0
VERTEX
  5
25A9
  8
SAPA_FOGBAND
 10
-72.534485185378571
 20
-21.551788769293559
 30
0.0
 42
-0.8497079118398895
  0
VERTEX
  5
25AA
  8
SAPA_FOGBAND
 10
-72.921427446888629
 20
-21.999999999999531
 30
0.0
  0
VERTEX
  5
25AB
  8
SAPA_FOGBAND
 10
-76.404540759853262
 20
-16.45852911070595
 30
0.0
 42
-0.2608822022991484
  0
VERTEX
  5
25AC
  8
SAPA_FOGBAND
 10
-76.499999999998408
 20
-16.288026238211138
 30
0.0
  0
VERTEX
  5
25AD
  8
SAPA_FOGBAND
 10
-76.499999999997954
 20
-9.0700000000003769
 30
0.0
 42
0.4142135623730951
  0
VERTEX
  5
25AE
  8
SAPA_FOGBAND
 10
-76.519999999997935
 20
-9.0499999999997112
 30
0.0
  0
VERTEX
  5
25AF
  8
SAPA_FOGBAND
 10
-77.499999999998636
 20
-9.0499999999997112
 30
0.0
  0
VERTEX
  5
25B0
  8
SAPA_FOGBAND
 10
-77.608611420439274
 20
-9.4080552462264535
 30
0.0
 42
-0.4364998583843544
  0
VERTEX
  5
25B1
  8
SAPA_FOGBAND
 10
-77.872323429359994
 20
-9.5364653360968372
 30
0.0
  0
VERTEX
  5
25B2
  8
SAPA_FOGBAND
 10
-79.261617146802564
 20
-8.9976065426151166
 30
0.0
 42
-0.3095538907669633
  0
VERTEX
  5
25B3
  8
SAPA_FOGBAND
 10
-79.899999999998727
 20
-8.0652798621338064
 30
0.0
  0
VERTEX
  5
25B4
  8
SAPA_FOGBAND
 10
-79.899999999998499
 20
-6.7347201378663462
 30
0.0
 42
-0.309553890766963
  0
VERTEX
  5
25B5
  8
SAPA_FOGBAND
 10
-79.261617146803246
 20
-5.802393457385036
 30
0.0
  0
VERTEX
  5
25B6
  8
SAPA_FOGBAND
 10
-77.872323429359312
 20
-5.2635346639044513
 30
0.0
 42
-0.4364998583843053
  0
VERTEX
  5
25B7
  8
SAPA_FOGBAND
 10
-77.608611420439274
 20
-5.391944753774836
 30
0.0
  0
VERTEX
  5
25B8
  8
SAPA_FOGBAND
 10
-77.499999999998636
 20
-5.7500000000004396
 30
0.0
  0
VERTEX
  5
25B9
  8
SAPA_FOGBAND
 10
-76.549999999998363
 20
-5.7500000000004396
 30
0.0
 42
0.4142135623730953
  0
VERTEX
  5
25BA
  8
SAPA_FOGBAND
 10
-76.499999999998408
 20
-5.700000000000486
 30
0.0
  0
VERTEX
  5
25BB
  8
SAPA_FOGBAND
 10
-76.499999999998408
 20
5.9000000000003316
 30
0.0
 42
0.4142135623730951
  0
VERTEX
  5
25BC
  8
SAPA_FOGBAND
 10
-76.549999999998363
 20
5.9500000000002871
 30
0.0
  0
VERTEX
  5
25BD
  8
SAPA_FOGBAND
 10
-77.499999999998636
 20
5.9500000000002871
 30
0.0
  0
VERTEX
  5
25BE
  8
SAPA_FOGBAND
 10
-77.608611420439274
 20
5.5919447537746834
 30
0.0
 42
-0.4364998583843054
  0
VERTEX
  5
25BF
  8
SAPA_FOGBAND
 10
-77.872323429359994
 20
5.463534663904297
 30
0.0
  0
VERTEX
  5
25C0
  8
SAPA_FOGBAND
 10
-79.261617146802564
 20
6.0023934573848834
 30
0.0
 42
-0.309553890766963
  0
VERTEX
  5
25C1
  8
SAPA_FOGBAND
 10
-79.899999999998727
 20
6.9347201378661936
 30
0.0
  0
VERTEX
  5
25C2
  8
SAPA_FOGBAND
 10
-79.899999999998499
 20
8.2652798621336512
 30
0.0
 42
-0.3095538907669633
  0
VERTEX
  5
25C3
  8
SAPA_FOGBAND
 10
-79.261617146803246
 20
9.1976065426149631
 30
0.0
  0
VERTEX
  5
25C4
  8
SAPA_FOGBAND
 10
-77.872323429359312
 20
9.7364653360966855
 30
0.0
 42
-0.4364998583843544
  0
VERTEX
  5
25C5
  8
SAPA_FOGBAND
 10
-77.608611420439274
 20
9.6080552462263
 30
0.0
  0
VERTEX
  5
25C6
  8
SAPA_FOGBAND
 10
-77.499999999998636
 20
9.2499999999995595
 30
0.0
  0
VERTEX
  5
25C7
  8
SAPA_FOGBAND
 10
-76.519999999997935
 20
9.2500000000002416
 30
0.0
 42
0.4142135623730951
  0
VERTEX
  5
25C8
  8
SAPA_FOGBAND
 10
-76.499999999998408
 20
9.2700000000002234
 30
0.0
  0
VERTEX
  5
25C9
  8
SAPA_FOGBAND
 10
-76.499999999998636
 20
16.488026238210988
 30
0.0
 42
-0.2608822022991486
  0
VERTEX
  5
25CA
  8
SAPA_FOGBAND
 10
-76.404540759852807
 20
16.658529110706031
 30
0.0
  0
VERTEX
  5
25CB
  8
SAPA_FOGBAND
 10
-72.922817216677231
 20
22.000000000000359
 30
0.0
 42
-0.8497079118398893
  0
VERTEX
  5
25CC
  8
SAPA_FOGBAND
 10
-72.535874955167174
 20
21.551788769294049
 30
0.0
  0
VERTEX
  5
25CD
  8
SAPA_FOGBAND
 10
-74.012665285346202
 20
15.37410018933703
 30
0.0
  0
VERTEX
  5
25CE
  8
SAPA_FOGBAND
 10
-73.999999999998408
 20
12.8790982284295
 30
0.0
  0
VERTEX
  5
25CF
  8
SAPA_FOGBAND
 10
-73.848341139642571
 20
13.170897343000449
 30
0.0
 42
-0.767326987978962
  0
VERTEX
  5
25D0
  8
SAPA_FOGBAND
 10
-73.515967214874763
 20
12.69612145185171
 30
0.0
  0
VERTEX
  5
25D1
  8
SAPA_FOGBAND
 10
-73.999999999998408
 20
11.100000000000151
 30
0.0
  0
VERTEX
  5
25D2
  8
SAPA_FOGBAND
 10
-73.999999999998408
 20
8.7000000000000597
 30
0.0
  0
VERTEX
  5
25D3
  8
SAPA_FOGBAND
 10
-73.515967214875204
 20
7.1038785481478168
 30
0.0
 42
-0.7673269879789616
  0
VERTEX
  5
25D4
  8
SAPA_FOGBAND
 10
-73.848341139642343
 20
6.6291026569990787
 30
0.0
  0
VERTEX
  5
25D5
  8
SAPA_FOGBAND
 10
-73.999999999998408
 20
6.9209017715707111
 30
0.0
  0
VERTEX
  5
25D6
  8
SAPA_FOGBAND
 10
-73.999999999998408
 20
3.4286724168055249
 30
0.0
 42
0.2679491924311367
  0
VERTEX
  5
25D7
  8
SAPA_FOGBAND
 10
-73.899999999998727
 20
3.2554673360487092
 30
0.0
  0
VERTEX
  5
25D8
  8
SAPA_FOGBAND
 10
-72.617285126167189
 20
2.514891558349758
 30
0.0
 42
-0.5773502691896298
  0
VERTEX
  5
25D9
  8
SAPA_FOGBAND
 10
-72.617285126168099
 20
2.1684813968354448
 30
0.0
  0
VERTEX
  5
25DA
  8
SAPA_FOGBAND
 10
-75.899999999998954
 20
0.2732050807560566
 30
0.0
  0
VERTEX
  5
25DB
  8
SAPA_FOGBAND
 10
-76.049999999998818
 20
0.1866025403785583
 30
0.0
 42
0.5773502691896253
  0
VERTEX
  5
25DC
  8
SAPA_FOGBAND
 10
-76.049999999998818
 20
0.0133974596215152
 30
0.0
  0
VERTEX
  5
25DD
  8
SAPA_FOGBAND
 10
-75.899999999998954
 20
-0.0732050807573475
 30
0.0
  0
VERTEX
  5
25DE
  8
SAPA_FOGBAND
 10
-72.617285126167189
 20
-1.9684813968353729
 30
0.0
 42
-0.5773502691896298
  0
VERTEX
  5
25DF
  8
SAPA_FOGBAND
 10
-72.617285126168099
 20
-2.3148915583496859
 30
0.0
  0
VERTEX
  5
25E0
  8
SAPA_FOGBAND
 10
-73.899999999998499
 20
-3.0554673360495461
 30
0.0
 42
0.2679491924311367
  0
VERTEX
  5
25E1
  8
SAPA_FOGBAND
 10
-73.999999999998636
 20
-3.2286724168056788
 30
0.0
  0
VERTEX
  5
25E2
  8
SAPA_FOGBAND
 10
-73.999999999998408
 20
-6.7209017715708663
 30
0.0
  0
VERTEX
  5
25E3
  8
SAPA_FOGBAND
 10
-73.848341139642343
 20
-6.4291026570003709
 30
0.0
 42
-0.7673269879789616
  0
VERTEX
  5
25E4
  8
SAPA_FOGBAND
 10
-73.515967214874536
 20
-6.9038785481479721
 30
0.0
  0
VERTEX
  5
25E5
  8
SAPA_FOGBAND
 10
-73.999999999998408
 20
-8.5000000000002132
 30
0.0
  0
VERTEX
  5
25E6
  8
SAPA_FOGBAND
 10
-73.999999999998408
 20
-10.900000000000301
 30
0.0
  0
VERTEX
  5
25E7
  8
SAPA_FOGBAND
 10
-73.515967214874763
 20
-12.49612145185254
 30
0.0
 42
-0.767326987978962
  0
VERTEX
  5
25E8
  8
SAPA_FOGBAND
 10
-73.848341139641875
 20
-12.970897343000139
 30
0.0
  0
VERTEX
  5
25E9
  8
SAPA_FOGBAND
 10
-73.999999999998408
 20
-12.67909822842965
 30
0.0
  0
VERTEX
  5
25EA
  8
SAPA_FOGBAND
 10
-73.991785768350155
 20
-15.475446195880281
 30
0.0
  0
SEQEND
  5
25EB
  8
SAPA_FOGBAND
  0
LINE
  5
16E8
  8
SAPA_FOGBAND
 10
-72.999999999998636
 20
2.5000000000002398
 30
0.0
 11
-72.999999999998636
 21
-2.4999999999997589
 31
0.0
  0
POLYLINE
  5
16E9
  8
SAPA_FOGBAND
 66
     1
 10
0.0
 20
0.0
 30
0.0
 70
     1
  0
VERTEX
  5
25EC
  8
SAPA_FOGBAND
 10
-33.499999999998863
 20
19.57367566877679
 30
0.0
  0
VERTEX
  5
25ED
  8
SAPA_FOGBAND
 10
-35.29999999999859
 20
19.57367566877679
 30
0.0
 42
-0.4142135623730951
  0
VERTEX
  5
25EE
  8
SAPA_FOGBAND
 10
-35.499999999998401
 20
19.773675668776612
 30
0.0
  0
VERTEX
  5
25EF
  8
SAPA_FOGBAND
 10
-35.499999999998401
 20
20.673675668776252
 30
0.0
 42
-0.4142135623730951
  0
VERTEX
  5
25F0
  8
SAPA_FOGBAND
 10
-35.29999999999859
 20
20.87367566877607
 30
0.0
  0
VERTEX
  5
25F1
  8
SAPA_FOGBAND
 10
-33.499999999998863
 20
20.873675668776521
 30
0.0
 42
-0.9999999999999998
  0
SEQEND
  5
25F2
  8
SAPA_FOGBAND
  0
CIRCLE
  5
16EA
  8
SAPA_FOGBAND
 10
-36.799999999998583
 20
20.22367566877643
 30
0.0
 40
0.2549509756796394
  0
POLYLINE
  5
16EB
  8
SAPA_FOGBAND
 66
     1
 10
0.0
 20
0.0
 30
0.0
 70
     1
  0
VERTEX
  5
25F3
  8
SAPA_FOGBAND
 10
-35.499999999998408
 20
16.270085830290789
 30
0.0
 42
0.267949192431121
  0
VERTEX
  5
25F4
  8
SAPA_FOGBAND
 10
-35.399999999998961
 20
16.09688074953306
 30
0.0
 42
-0.7673269879789569
  0
VERTEX
  5
25F5
  8
SAPA_FOGBAND
 10
-35.499999999998408
 20
15.723675668776879
 30
0.0
  0
VERTEX
  5
25F6
  8
SAPA_FOGBAND
 10
-44.69999999999915
 20
15.723675668776879
 30
0.0
 42
-0.4602937089574736
  0
VERTEX
  5
25F7
  8
SAPA_FOGBAND
 10
-44.897610691435837
 20
15.95449797611696
 30
0.0
  0
VERTEX
  5
25F8
  8
SAPA_FOGBAND
 10
-44.511746230889237
 20
18.428386189851391
 30
0.0
 42
0.6910703998708235
  0
VERTEX
  5
25F9
  8
SAPA_FOGBAND
 10
-44.837173697181477
 20
18.613035907186489
 30
0.0
  0
VERTEX
  5
25FA
  8
SAPA_FOGBAND
 10
-45.008963529986673
 20
15.83629773875351
 30
0.0
 42
-0.928378177954751
  0
VERTEX
  5
25FB
  8
SAPA_FOGBAND
 10
-45.424442128142132
 20
16.266874786287421
 30
0.0
  0
VERTEX
  5
25FC
  8
SAPA_FOGBAND
 10
-45.22854255902417
 20
19.476099419057618
 30
0.0
 42
0.6076316918600427
  0
VERTEX
  5
25FD
  8
SAPA_FOGBAND
 10
-45.323096729691088
 20
19.725013792520489
 30
0.0
 42
-0.38070580105552
  0
VERTEX
  5
25FE
  8
SAPA_FOGBAND
 10
-45.499999999998408
 20
19.923675668776252
 30
0.0
  0
VERTEX
  5
25FF
  8
SAPA_FOGBAND
 10
-45.499999999998408
 20
20.22367566877643
 30
0.0
  0
VERTEX
  5
2600
  8
SAPA_FOGBAND
 10
-45.499999999998408
 20
20.523675668776612
 30
0.0
 42
-0.3807058010555201
  0
VERTEX
  5
2601
  8
SAPA_FOGBAND
 10
-45.323096729691088
 20
20.722337545032371
 30
0.0
 42
0.6076316918600374
  0
VERTEX
  5
2602
  8
SAPA_FOGBAND
 10
-45.22854255902417
 20
20.971251918495231
 30
0.0
  0
VERTEX
  5
2603
  8
SAPA_FOGBAND
 10
-45.421865476482942
 20
24.205028688483029
 30
0.0
 42
-0.9283781779547513
  0
VERTEX
  5
2604
  8
SAPA_FOGBAND
 10
-45.006386878327483
 20
24.6356057360174
 30
0.0
  0
VERTEX
  5
2605
  8
SAPA_FOGBAND
 10
-44.837173697181477
 20
21.834315430366821
 30
0.0
 42
0.6910703998708235
  0
VERTEX
  5
2606
  8
SAPA_FOGBAND
 10
-44.511746230890147
 20
22.018965147702382
 30
0.0
  0
VERTEX
  5
2607
  8
SAPA_FOGBAND
 10
-44.89761069143583
 20
24.49285336143635
 30
0.0
 42
-0.4602937089574736
  0
VERTEX
  5
2608
  8
SAPA_FOGBAND
 10
-44.699999999999143
 20
24.72367566877643
 30
0.0
  0
VERTEX
  5
2609
  8
SAPA_FOGBAND
 10
-35.499999999998401
 20
24.72367566877643
 30
0.0
 42
-0.7673269879789572
  0
VERTEX
  5
260A
  8
SAPA_FOGBAND
 10
-35.399999999998947
 20
24.3504705880198
 30
0.0
 42
0.267949192431121
  0
VERTEX
  5
260B
  8
SAPA_FOGBAND
 10
-35.499999999998401
 20
24.17726550726298
 30
0.0
  0
VERTEX
  5
260C
  8
SAPA_FOGBAND
 10
-35.499999999998401
 20
21.673675668776252
 30
0.0
  0
VERTEX
  5
260D
  8
SAPA_FOGBAND
 10
-34.399999999998947
 20
21.673675668776252
 30
0.0
  0
VERTEX
  5
260E
  8
SAPA_FOGBAND
 10
-34.291388579558081
 20
22.181730915002628
 30
0.0
 42
-0.4364998583843341
  0
VERTEX
  5
260F
  8
SAPA_FOGBAND
 10
-34.027676570637823
 20
22.310141004872779
 30
0.0
  0
VERTEX
  5
2610
  8
SAPA_FOGBAND
 10
-32.638382853194571
 20
21.77128221139106
 30
0.0
 42
-0.3095538907669666
  0
VERTEX
  5
2611
  8
SAPA_FOGBAND
 10
-31.999999999998408
 20
20.83895553090975
 30
0.0
  0
VERTEX
  5
2612
  8
SAPA_FOGBAND
 10
-31.99999999999886
 20
19.608395806643109
 30
0.0
 42
-0.3095538907669666
  0
VERTEX
  5
2613
  8
SAPA_FOGBAND
 10
-32.638382853194571
 20
18.676069126161799
 30
0.0
  0
VERTEX
  5
2614
  8
SAPA_FOGBAND
 10
-34.027676570638278
 20
18.137210332680532
 30
0.0
 42
-0.4364998583843338
  0
VERTEX
  5
2615
  8
SAPA_FOGBAND
 10
-34.291388579558088
 20
18.26562042255069
 30
0.0
  0
VERTEX
  5
2616
  8
SAPA_FOGBAND
 10
-34.399999999998961
 20
18.773675668776381
 30
0.0
  0
VERTEX
  5
2617
  8
SAPA_FOGBAND
 10
-35.499999999998408
 20
18.773675668776381
 30
0.0
  0
SEQEND
  5
2618
  8
SAPA_FOGBAND
  0
POLYLINE
  5
16EC
  8
SAPA_FOGBAND
 66
     1
 10
0.0
 20
0.0
 30
0.0
 70
     1
  0
VERTEX
  5
2619
  8
SAPA_FOGBAND
 10
-37.99999999999843
 20
18.72367566877643
 30
0.0
 42
-0.3533664767746626
  0
VERTEX
  5
261A
  8
SAPA_FOGBAND
 10
-38.39473684210386
 20
18.23488157348698
 30
0.0
 42
-0.162847186097109
  0
VERTEX
  5
261B
  8
SAPA_FOGBAND
 10
-41.833847743324682
 20
18.286918832692439
 30
0.0
 42
-0.2572150309758587
  0
VERTEX
  5
261C
  8
SAPA_FOGBAND
 10
-42.190466027633889
 20
18.611937220160382
 30
0.0
 42
-0.1655934221057593
  0
VERTEX
  5
261D
  8
SAPA_FOGBAND
 10
-42.190466027633882
 20
21.835414117393391
 30
0.0
 42
-0.2572150309758567
  0
VERTEX
  5
261E
  8
SAPA_FOGBAND
 10
-41.833847743324668
 20
22.160432504860871
 30
0.0
 42
-0.1628471860971115
  0
VERTEX
  5
261F
  8
SAPA_FOGBAND
 10
-38.394736842103853
 20
22.212469764066341
 30
0.0
 42
-0.3533664767746627
  0
VERTEX
  5
2620
  8
SAPA_FOGBAND
 10
-37.999999999998423
 20
21.72367566877643
 30
0.0
  0
SEQEND
  5
2621
  8
SAPA_FOGBAND
  0
POLYLINE
  5
16ED
  8
SAPA_FOGBAND
 66
     1
 10
0.0
 20
0.0
 30
0.0
 70
     1
  0
VERTEX
  5
2622
  8
SAPA_FOGBAND
 10
13.06077394688738
 20
-28.500000000685539
 30
0.0
  0
VERTEX
  5
2623
  8
SAPA_FOGBAND
 10
10.22745498246765
 20
-28.500000000685539
 30
0.0
 42
-0.577350269189628
  0
VERTEX
  5
2624
  8
SAPA_FOGBAND
 10
9.9676473613322045
 20
-28.05000000068549
 30
0.0
  0
VERTEX
  5
2625
  8
SAPA_FOGBAND
 10
12.109361571817219
 20
-25.393650503841521
 30
0.0
 42
0.8769764629927237
  0
VERTEX
  5
2626
  8
SAPA_FOGBAND
 10
11.637421916325961
 20
-25.031518469485611
 30
0.0
  0
VERTEX
  5
2627
  8
SAPA_FOGBAND
 10
7.6676084073478918
 20
-28.207106781871971
 30
0.0
 42
-0.1989123673796493
  0
VERTEX
  5
2628
  8
SAPA_FOGBAND
 10
6.9605016261614532
 20
-28.500000000685532
 30
0.0
  0
VERTEX
  5
2629
  8
SAPA_FOGBAND
 10
5.2095454967269683
 20
-28.500000000685532
 30
0.0
 42
-0.577350269189628
  0
VERTEX
  5
262A
  8
SAPA_FOGBAND
 10
4.9497378755917438
 20
-28.05000000068549
 30
0.0
  0
VERTEX
  5
262B
  8
SAPA_FOGBAND
 10
7.0307859270717703
 20
-25.394519257021901
 30
0.0
 42
0.8769764629928424
  0
VERTEX
  5
262C
  8
SAPA_FOGBAND
 10
6.5588462715805012
 20
-25.032387222665989
 30
0.0
  0
VERTEX
  5
262D
  8
SAPA_FOGBAND
 10
2.092893219804203
 20
-29.282961429185889
 30
0.0
 42
0.1989123673796579
  0
VERTEX
  5
262E
  8
SAPA_FOGBAND
 10
1.8000000009908701
 20
-29.990068210372328
 30
0.0
  0
VERTEX
  5
262F
  8
SAPA_FOGBAND
 10
1.8000000009908701
 20
-30.000000000685532
 30
0.0
 42
0.4142135623730951
  0
VERTEX
  5
2630
  8
SAPA_FOGBAND
 10
2.8000000009908699
 20
-31.000000000685532
 30
0.0
  0
VERTEX
  5
2631
  8
SAPA_FOGBAND
 10
10.03499250175812
 20
-32.16408459980903
 30
0.0
 42
0.6261632875160376
  0
VERTEX
  5
2632
  8
SAPA_FOGBAND
 10
10.344849430276801
 20
-31.72211779638269
 30
0.0
  0
VERTEX
  5
2633
  8
SAPA_FOGBAND
 10
10.191211435487981
 20
-31.445776150396568
 30
0.0
 42
-0.5719685712689121
  0
VERTEX
  5
2634
  8
SAPA_FOGBAND
 10
10.45341233971137
 20
-31.000000000685649
 30
0.0
  0
VERTEX
  5
2635
  8
SAPA_FOGBAND
 10
13.20000000099073
 20
-31.000000000685539
 30
0.0
 42
-0.4142135623730118
  0
VERTEX
  5
2636
  8
SAPA_FOGBAND
 10
13.50000000099091
 20
-31.30000000068549
 30
0.0
  0
VERTEX
  5
2637
  8
SAPA_FOGBAND
 10
13.50000000099069
 20
-32.700000000685577
 30
0.0
 42
0.7754026414785753
  0
VERTEX
  5
2638
  8
SAPA_FOGBAND
 10
14.062791996398589
 20
-32.844707868991463
 30
0.0
  0
VERTEX
  5
2639
  8
SAPA_FOGBAND
 10
18.216425669062481
 20
-25.384550969900491
 30
0.0
 42
0.8680589103333867
  0
VERTEX
  5
263A
  8
SAPA_FOGBAND
 10
17.741501639298711
 20
-25.02771106723856
 30
0.0
  0
VERTEX
  5
263B
  8
SAPA_FOGBAND
 10
13.76788072807382
 20
-28.207106781871978
 30
0.0
 42
-0.1989123673796493
  0
SEQEND
  5
263C
  8
SAPA_FOGBAND
  0
DIMENSION
  5
16F7
  8
SAPA_MATT
  2
*D124
 10
-106.8283286202785
 20
-170.0000000037293
 30
0.0
 11
-109.3283286202785
 21
-125.5000000038352
 31
0.0
 70
     0
 13
-70.199949142376113
 23
-81.000000003941025
 33
0.0
 14
-71.699947648271831
 24
-170.0000000037293
 34
0.0
 50
90.0
1001
ACAD
1000
DSTYLE
1002
{
1070
   287
1070
     4
1070
    40
1040
1.0
1070
   279
1070
     1
1002
}
  0
DIMENSION
  5
16F8
  8
SAPA_MATT
  2
*D123
 10
-106.8283286202785
 20
-81.000000003941025
 30
0.0
 11
-109.3283286202785
 21
-78.500000001971117
 31
0.0
 70
     0
 13
-64.499946820780622
 23
-76.00000000000118
 33
0.0
 14
-70.199949142376113
 24
-81.000000003941025
 34
0.0
 50
90.0
1001
ACAD
1000
DSTYLE
1002
{
1070
   287
1070
     4
1070
    40
1040
1.0
1070
   279
1070
     1
1002
}
  0
DIMENSION
  5
16F9
  8
SAPA_MATT
  2
*D122
 10
-106.8283286202785
 20
-76.000000000001165
 30
0.0
 11
-109.3283286202785
 21
-46.000000000000682
 31
0.0
 70
     0
 13
-77.046446609434525
 23
-16.000000000000149
 33
0.0
 14
-64.499946820780622
 24
-76.00000000000118
 34
0.0
 50
90.0
1001
ACAD
1000
DSTYLE
1002
{
1070
   287
1070
     4
1070
    40
1040
1.0
1070
   279
1070
     1
1002
}
  0
DIMENSION
  5
16FA
  8
SAPA_MATT
  2
*D121
 10
-106.8283286202785
 20
-16.000000000000139
 30
0.0
 11
-109.3283286202785
 21
-0.0000000000000216
 31
0.0
 70
     0
 13
-77.046446609404995
 23
16.000000000000131
 33
0.0
 14
-77.046446609434525
 24
-16.000000000000149
 34
0.0
 50
90.0
1001
ACAD
1000
DSTYLE
1002
{
1070
    40
1040
1.0
1002
}
  0
DIMENSION
  5
16FB
  8
SAPA_MATT
  2
*D120
 10
79.681587957706242
 20
-24.999999999999321
 30
0.0
 11
77.181587957706242
 21
0.0000000000001802
 31
0.0
 70
     0
 13
61.700939698017777
 23
24.999999999999659
 33
0.0
 14
61.70093969801772
 24
-24.999999999999321
 34
0.0
 50
90.0
1001
ACAD
1000
DSTYLE
1002
{
1070
    40
1040
1.0
1002
}
  0
VIEWPORT
  5
C4
 67
     1
  8
0
 10
143.06236603067589
 20
116.00969601843509
 30
0.0
 40
369.98580003443811
 41
256.8421457311839
 68
     1
 69
     1
1001
ACAD
1000
MVIEW
1002
{
1070
    16
1010
0.0
1020
0.0
1030
0.0
1010
0.0
1020
0.0
1030
1.0
1040
0.0
1040
256.8421457311839
1040
99.112914085388169
1040
143.07606935501099
1040
50.0
1040
0.0
1040
0.0
1070
     0
1070
     0
1070
     1
1070
     1
1070
     0
1070
     0
1070
     0
1070
     0
1040
0.0
1040
0.0
1040
0.0
1040
10.0
1040
10.0
1040
10.0
1040
10.0
1070
     0
1002
{
1002
}
1002
}
  0
ENDSEC
  0
EOF
