  0
SECTION
  2
HEADER
  9
$ACADVER
  1
AC1009
  9
$INSBASE
 10
0.0
 20
0.0
 30
0.0
  9
$EXTMIN
 10
-112.3283286202785
 20
-210.17988547077891
 30
0.0
  9
$EXTMAX
 10
81.181587957706228
 20
50.999999999999787
 30
0.1
  9
$LIMMIN
 10
0.0
 20
0.0
  9
$LIMMAX
 10
790.0
 20
790.0
  9
$ORTHOMODE
 70
     0
  9
$REGENMODE
 70
     1
  9
$FILLMODE
 70
     1
  9
$QTEXTMODE
 70
     0
  9
$MIRRTEXT
 70
     1
  9
$DRAGMODE
 70
     2
  9
$LTSCALE
 40
4.0
  9
$OSMODE
 70
   167
  9
$ATTMODE
 70
     1
  9
$TEXTSIZE
 40
3.5
  9
$TRACEWID
 40
0.05
  9
$TEXTSTYLE
  7
ISO
  9
$CLAYER
  8
0
  9
$CELTYPE
  6
BYLAYER
  9
$CECOLOR
 62
   256
  9
$DIMSCALE
 40
0.0
  9
$DIMASZ
 40
3.0
  9
$DIMEXO
 40
1.5
  9
$DIMDLI
 40
10.0
  9
$DIMRND
 40
0.0
  9
$DIMDLE
 40
0.0
  9
$DIMEXE
 40
1.5
  9
$DIMTP
 40
0.0
  9
$DIMTM
 40
0.0
  9
$DIMTXT
 40
3.0
  9
$DIMCEN
 40
-5.0
  9
$DIMTSZ
 40
0.0
  9
$DIMTOL
 70
     0
  9
$DIMLIM
 70
     0
  9
$DIMTIH
 70
     0
  9
$DIMTOH
 70
     0
  9
$DIMSE1
 70
     0
  9
$DIMSE2
 70
     0
  9
$DIMTAD
 70
     1
  9
$DIMZIN
 70
     8
  9
$DIMBLK
  1

  9
$DIMASO
 70
     1
  9
$DIMSHO
 70
     1
  9
$DIMPOST
  1

  9
$DIMAPOST
  1

  9
$DIMALT
 70
     0
  9
$DIMALTD
 70
     0
  9
$DIMALTF
 40
25.399999999999999
  9
$DIMLFAC
 40
-1.0
  9
$DIMTOFL
 70
     1
  9
$DIMTVP
 40
0.0
  9
$DIMTIX
 70
     0
  9
$DIMSOXD
 70
     0
  9
$DIMSAH
 70
     0
  9
$DIMBLK1
  1

  9
$DIMBLK2
  1

  9
$DIMSTYLE
  2
MASKIN
  9
$DIMCLRD
 70
   256
  9
$DIMCLRE
 70
   256
  9
$DIMCLRT
 70
     2
  9
$DIMTFAC
 40
1.0
  9
$DIMGAP
 40
1.0
  9
$LUNITS
 70
     2
  9
$LUPREC
 70
     8
  9
$SKETCHINC
 40
0.1
  9
$FILLETRAD
 40
0.0
  9
$AUNITS
 70
     0
  9
$AUPREC
 70
     8
  9
$MENU
  1
ACAD
  9
$ELEVATION
 40
0.0
  9
$PELEVATION
 40
0.0
  9
$THICKNESS
 40
0.0
  9
$LIMCHECK
 70
     0
  9
$BLIPMODE
 70
     0
  9
$CHAMFERA
 40
0.0
  9
$CHAMFERB
 40
0.0
  9
$SKPOLY
 70
     0
  9
$TDCREATE
 40
2454903.4498153818
  9
$TDUPDATE
 40
2458458.340413183
  9
$TDINDWG
 40
0.058937419
  9
$TDUSRTIMER
 40
0.058937419
  9
$USRTIMER
 70
     1
  9
$ANGBASE
 50
0.0
  9
$ANGDIR
 70
     0
  9
$PDMODE
 70
     0
  9
$PDSIZE
 40
0.0
  9
$PLINEWID
 40
0.0
  9
$COORDS
 70
     1
  9
$SPLFRAME
 70
     0
  9
$SPLINETYPE
 70
     6
  9
$SPLINESEGS
 70
     8
  9
$ATTDIA
 70
     1
  9
$ATTREQ
 70
     1
  9
$HANDLING
 70
     1
  9
$HANDSEED
  5
2839
  9
$SURFTAB1
 70
     6
  9
$SURFTAB2
 70
     6
  9
$SURFTYPE
 70
     6
  9
$SURFU
 70
     6
  9
$SURFV
 70
     6
  9
$UCSNAME
  2

  9
$UCSORG
 10
0.0
 20
0.0
 30
0.0
  9
$UCSXDIR
 10
1.0
 20
0.0
 30
0.0
  9
$UCSYDIR
 10
0.0
 20
1.0
 30
0.0
  9
$PUCSNAME
  2

  9
$PUCSORG
 10
0.0
 20
0.0
 30
0.0
  9
$PUCSXDIR
 10
1.0
 20
0.0
 30
0.0
  9
$PUCSYDIR
 10
0.0
 20
1.0
 30
0.0
  9
$USERI1
 70
     0
  9
$USERI2
 70
     0
  9
$USERI3
 70
     0
  9
$USERI4
 70
     0
  9
$USERI5
 70
     0
  9
$USERR1
 40
0.0
  9
$USERR2
 40
0.0
  9
$USERR3
 40
0.0
  9
$USERR4
 40
0.0
  9
$USERR5
 40
0.0
  9
$WORLDVIEW
 70
     1
  9
$SHADEDGE
 70
     3
  9
$SHADEDIF
 70
    70
  9
$TILEMODE
 70
     1
  9
$MAXACTVP
 70
    16
  9
$PLIMCHECK
 70
     0
  9
$PEXTMIN
 10
1.0000000000000000E+020
 20
1.0000000000000000E+020
 30
1.0000000000000000E+020
  9
$PEXTMAX
 10
-1.0000000000000000E+020
 20
-1.0000000000000000E+020
 30
-1.0000000000000000E+020
  9
$PLIMMIN
 10
-5.069427490234375
 20
-5.8737497329711914
  9
$PLIMMAX
 10
291.89889526367187
 20
204.0995779037475
  9
$UNITMODE
 70
     0
  9
$VISRETAIN
 70
     1
  9
$PLINEGEN
 70
     0
  9
$PSLTSCALE
 70
     1
  0
ENDSEC
  0
SECTION
  2
TABLES
  0
TABLE
  2
VPORT
 70
     1
  0
VPORT
  2
*ACTIVE
 70
     0
 10
0.0
 20
0.0
 11
1.0
 21
1.0
 12
133.65274563781509
 22
176.1631320021902
 13
0.0
 23
0.0
 14
1.0
 24
1.0
 15
0.0
 25
0.0
 16
0.0
 26
0.0
 36
1.0
 17
0.0
 27
0.0
 37
0.0
 40
516.73839527263169
 41
1.7265193370165739
 42
50.0
 43
0.0
 44
0.0
 50
0.0
 51
0.0
 71
     0
 72
   100
 73
     1
 74
     1
 75
     0
 76
     0
 77
     0
 78
     0
  0
ENDTAB
  0
TABLE
  2
LTYPE
 70
    42
  0
LTYPE
  2
CONTINUOUS
 70
     0
  3
Solid line
 72
    65
 73
     0
 40
0.0
  0
LTYPE
  2
BYGG-01473802$0$NEWDOT
 70
     0
  3
____ . ____ . ____ . ____ . ____ . ____ . ____
 72
    65
 73
     4
 40
2.0
 49
1.0
 49
-0.5
 49
0.0
 49
-0.5
  0
LTYPE
  2
BYGG-020273$0$DASHDOT
 70
     0
  3
__ . __ . __ . __ . __ . __ . __ . __ . __ . __
 72
    65
 73
     4
 40
1.0
 49
0.5
 49
-0.25
 49
0.0
 49
-0.25
  0
LTYPE
  2
BYGG-01473802$0$ZIGZAG
 70
     0
  3
Zig zag /\/\/\/\/\/\/\/\/\/\/\/\/\/\/\/\/\/\/\/\/\/\/\/
 72
    65
 73
     4
 40
20.32254
 49
0.00254
 49
-5.0800000000000001
 49
-10.16
 49
-5.0800000000000001
  0
LTYPE
  2
BYGG-025060$0$NEWDOT
 70
     0
  3
____ . ____ . ____ . ____ . ____ . ____ . ____
 72
    65
 73
     4
 40
2.0
 49
1.0
 49
-0.5
 49
0.0
 49
-0.5
  0
LTYPE
  2
BYGG-012216$0$DASHDOT
 70
     0
  3
__ . __ . __ . __ . __ . __ . __ . __ . __ . __
 72
    65
 73
     4
 40
1.0
 49
0.5
 49
-0.25
 49
0.0
 49
-0.25
  0
LTYPE
  2
BYGG-024800$0$NEWDOT
 70
     0
  3
____ . ____ . ____ . ____ . ____ . ____ . ____
 72
    65
 73
     4
 40
2.0
 49
1.0
 49
-0.5
 49
0.0
 49
-0.5
  0
LTYPE
  2
BYGG-024807$0$NEWDOT
 70
     0
  3
____ . ____ . ____ . ____ . ____ . ____ . ____
 72
    65
 73
     4
 40
2.0
 49
1.0
 49
-0.5
 49
0.0
 49
-0.5
  0
LTYPE
  2
BYGG-024807$0$DASHDOT
 70
     0
  3
__ . __ . __ . __ . __ . __ . __ . __ . __ . __
 72
    65
 73
     4
 40
1.0
 49
0.5
 49
-0.25
 49
0.0
 49
-0.25
  0
LTYPE
  2
BYGG-033168$0$NEWDOT
 70
     0
  3
____ . ____ . ____ . ____ . ____ . ____ . ____
 72
    65
 73
     4
 40
2.0
 49
1.0
 49
-0.5
 49
0.0
 49
-0.5
  0
LTYPE
  2
BYGG-033168$0$DASHDOT
 70
     0
  3
__ . __ . __ . __ . __ . __ . __ . __ . __ . __
 72
    65
 73
     4
 40
1.0
 49
0.5
 49
-0.25
 49
0.0
 49
-0.25
  0
LTYPE
  2
BYGG-033168$0$DASHED
 70
     0
  3
__ __ __ __ __ __ __ __ __ __ __ __ __ __ __
 72
    65
 73
     2
 40
0.75
 49
0.5
 49
-0.25
  0
LTYPE
  2
BYGG-033168$0$PHANTOM
 70
     0
  3
Phantom ______  __  __  ______  __  __  ______
 72
    65
 73
     6
 40
63.5
 49
31.75
 49
-6.3499999999999988
 49
6.3499999999999988
 49
-6.3499999999999988
 49
6.3499999999999988
 49
-6.3499999999999988
  0
LTYPE
  2
BYGG-027036$0$NEWDOT
 70
     0
  3
____ . ____ . ____ . ____ . ____ . ____ . ____
 72
    65
 73
     4
 40
2.0
 49
1.0
 49
-0.5
 49
0.0
 49
-0.5
  0
LTYPE
  2
BYGG-027036$0$DASHDOT
 70
     0
  3
__ . __ . __ . __ . __ . __ . __ . __ . __ . __
 72
    65
 73
     4
 40
1.0
 49
0.5
 49
-0.25
 49
0.0
 49
-0.25
  0
LTYPE
  2
BYGG-027036$0$DASHED
 70
     0
  3
__ __ __ __ __ __ __ __ __ __ __ __ __ __ __
 72
    65
 73
     2
 40
0.75
 49
0.5
 49
-0.25
  0
LTYPE
  2
BYGG-027036$0$PHANTOM
 70
     0
  3
Phantom ______  __  __  ______  __  __  ______
 72
    65
 73
     6
 40
63.5
 49
31.75
 49
-6.3499999999999988
 49
6.3499999999999988
 49
-6.3499999999999988
 49
6.3499999999999988
 49
-6.3499999999999988
  0
LTYPE
  2
BYGG-027036$0$HIDDEN
 70
     0
  3
_ _ _ _ _ _ _ _ _ _ _ _ _ _ _ _ _ _ _ _ _ _ _
 72
    65
 73
     2
 40
0.375
 49
0.25
 49
-0.125
  0
LTYPE
  2
BYGG-027036$0$DOT
 70
     0
  3
...............................................
 72
    65
 73
     2
 40
0.25
 49
0.0
 49
-0.25
  0
LTYPE
  2
BYGG-027036$0$CENTER
 70
     0
  3
____ _ ____ _ ____ _ ____ _ ____ _ ____ _ ____
 72
    65
 73
     4
 40
0.6
 49
0.375
 49
-0.075
 49
0.075
 49
-0.075
  0
LTYPE
  2
BYGG-033291$0$NEWDOT
 70
     0
  3
____ . ____ . ____ . ____ . ____ . ____ . ____
 72
    65
 73
     4
 40
2.0
 49
1.0
 49
-0.5
 49
0.0
 49
-0.5
  0
LTYPE
  2
BYGG-033291$0$DASHDOT
 70
     0
  3
__ . __ . __ . __ . __ . __ . __ . __ . __ . __
 72
    65
 73
     4
 40
1.0
 49
0.5
 49
-0.25
 49
0.0
 49
-0.25
  0
LTYPE
  2
BYGG-033291$0$DASHED
 70
     0
  3
__ __ __ __ __ __ __ __ __ __ __ __ __ __ __
 72
    65
 73
     2
 40
0.75
 49
0.5
 49
-0.25
  0
LTYPE
  2
BYGG-033291$0$PHANTOM
 70
     0
  3
Phantom ______  __  __  ______  __  __  ______
 72
    65
 73
     6
 40
63.5
 49
31.75
 49
-6.3499999999999988
 49
6.3499999999999988
 49
-6.3499999999999988
 49
6.3499999999999988
 49
-6.3499999999999988
  0
LTYPE
  2
BYGG-029021$0$NEWDOT
 70
     0
  3
____ . ____ . ____ . ____ . ____ . ____ . ____
 72
    65
 73
     4
 40
2.0
 49
1.0
 49
-0.5
 49
0.0
 49
-0.5
  0
LTYPE
  2
BYGG-029021$0$DASHDOT
 70
     0
  3
__ . __ . __ . __ . __ . __ . __ . __ . __ . __
 72
    65
 73
     4
 40
1.0
 49
0.5
 49
-0.25
 49
0.0
 49
-0.25
  0
LTYPE
  2
BYGG-029021$0$DASHED
 70
     0
  3
__ __ __ __ __ __ __ __ __ __ __ __ __ __ __
 72
    65
 73
     2
 40
0.75
 49
0.5
 49
-0.25
  0
LTYPE
  2
BYGG-029021$0$PHANTOM
 70
     0
  3
Phantom ______  __  __  ______  __  __  ______
 72
    65
 73
     6
 40
63.5
 49
31.75
 49
-6.3499999999999988
 49
6.3499999999999988
 49
-6.3499999999999988
 49
6.3499999999999988
 49
-6.3499999999999988
  0
LTYPE
  2
BYGG-029021$0$DASHED2
 70
     0
  3
_ _ _ _ _ _ _ _ _ _ _ _ _ _ _ _ _ _ _ _ _ _ _ _ _ _ _ _ _ _ _
 72
    65
 73
     2
 40
0.375
 49
0.25
 49
-0.125
  0
LTYPE
  2
BYGG-01409101$0$DASHDOT
 70
     0
  3
__ . __ . __ . __ . __ . __ . __ . __ . __ . __
 72
    65
 73
     4
 40
1.0
 49
0.5
 49
-0.25
 49
0.0
 49
-0.25
  0
LTYPE
  2
BYGG-01409101$0$HIDDEN
 70
     0
  3
_ _ _ _ _ _ _ _ _ _ _ _ _ _ _ _ _ _ _ _ _ _ _
 72
    65
 73
     2
 40
0.375
 49
0.25
 49
-0.125
  0
LTYPE
  2
BYGG-030601$0$NEWDOT
 70
     0
  3
____ . ____ . ____ . ____ . ____ . ____ . ____
 72
    65
 73
     4
 40
2.0
 49
1.0
 49
-0.5
 49
0.0
 49
-0.5
  0
LTYPE
  2
BYGG-030601$0$ZIGZAG
 70
     0
  3
Zig zag /\/\/\/\/\/\/\/\/\/\/\/\/\/\/\/\/\/\/\/\/\/\/\/
 72
    65
 73
     4
 40
20.32254
 49
0.00254
 49
-5.0800000000000001
 49
-10.16
 49
-5.0800000000000001
  0
LTYPE
  2
BYGG-025060$0$DASHDOT
 70
     0
  3
__ . __ . __ . __ . __ . __ . __ . __ . __ . __
 72
    65
 73
     4
 40
1.0
 49
0.5
 49
-0.25
 49
0.0
 49
-0.25
  0
LTYPE
  2
BYGG-027036$0$ALF
 70
     0
  3
*alf,- - - - - - - - - - - - -
 72
    65
 73
     2
 40
0.3
 49
0.1
 49
-0.2
  0
LTYPE
  2
BYGG-027036$0$CENTRE2
 70
     0
  3
___ _ ___ _ ___ _ ___ _ ___ _ ___ _ ___ _ ___ _
 72
    65
 73
     4
 40
28.574999999999999
 49
19.050000000000001
 49
-3.1749999999999989
 49
3.1749999999999989
 49
-3.1749999999999989
  0
LTYPE
  2
BYGG-029021$0$PHANTOM2
 70
     0
  3
Phantom (.5x) ___ _ _ ___ _ _ ___ _ _ ___ _ _
 72
    65
 73
     6
 40
1.25
 49
0.625
 49
-0.125
 49
0.125
 49
-0.125
 49
0.125
 49
-0.125
  0
LTYPE
  2
BYGG-024800$0$DASHDOT
 70
     0
  3
__ . __ . __ . __ . __ . __ . __ . __ . __ . __
 72
    65
 73
     4
 40
1.0
 49
0.5
 49
-0.25
 49
0.0
 49
-0.25
  0
LTYPE
  2
BYGG-01409101$0$PHANTOM2
 70
     0
  3
Phantom (.5x) ___ _ _ ___ _ _ ___ _ _ ___ _ _
 72
    65
 73
     6
 40
1.25
 49
0.625
 49
-0.125
 49
0.125
 49
-0.125
 49
0.125
 49
-0.125
  0
LTYPE
  2
BYGG-030601$0$PHANTOM2
 70
     0
  3
Phantom (.5x) ___ _ _ ___ _ _ ___ _ _ ___ _ _
 72
    65
 73
     6
 40
1.25
 49
0.625
 49
-0.125
 49
0.125
 49
-0.125
 49
0.125
 49
-0.125
  0
LTYPE
  2
BYGG-014090$0$PHANTOM2
 70
     0
  3
Phantom (.5x) ___ _ _ ___ _ _ ___ _ _ ___ _ _
 72
    65
 73
     6
 40
1.25
 49
0.625
 49
-0.125
 49
0.125
 49
-0.125
 49
0.125
 49
-0.125
  0
LTYPE
  2
BYGG-01409301$0$PHANTOM2
 70
     0
  3
Phantom (.5x) ___ _ _ ___ _ _ ___ _ _ ___ _ _
 72
    65
 73
     6
 40
1.25
 49
0.625
 49
-0.125
 49
0.125
 49
-0.125
 49
0.125
 49
-0.125
  0
ENDTAB
  0
TABLE
  2
LAYER
 70
   227
  0
LAYER
  2
0
 70
     0
 62
     7
  6
CONTINUOUS
  0
LAYER
  2
DEFPOINTS
 70
     0
 62
     7
  6
CONTINUOUS
  0
LAYER
  2
SAPA_ARTIKELNR
 70
     0
 62
     4
  6
CONTINUOUS
  0
LAYER
  2
SAPA_LIGHT
 70
     1
 62
     1
  6
CONTINUOUS
  0
LAYER
  2
SAPA_PROFIL
 70
     0
 62
     7
  6
CONTINUOUS
  0
LAYER
  2
BYGG-027036$0$DIM
 70
     4
 62
     5
  6
CONTINUOUS
  0
LAYER
  2
BYGG-027036$0$KON
 70
     4
 62
     7
  6
CONTINUOUS
  0
LAYER
  2
SAPA_ISOLATOR
 70
     0
 62
     4
  6
CONTINUOUS
  0
LAYER
  2
SAPA_MATT
 70
     0
 62
     1
  6
CONTINUOUS
  0
LAYER
  2
SAPA_GLAS
 70
     0
 62
     4
  6
CONTINUOUS
  0
LAYER
  2
SAPA_FOGBAND
 70
     0
 62
     2
  6
CONTINUOUS
  0
ENDTAB
  0
TABLE
  2
STYLE
 70
    61
  0
STYLE
  2
STANDARD
 70
     0
 40
0.0
 41
1.0
 50
0.0
 71
     0
 42
0.2
  3
txt
  4

  0
STYLE
  2
ISO
 70
     0
 40
0.0
 41
1.0
 50
0.0
 71
     0
 42
3.5
  3
txt
  4

  0
STYLE
  2

 70
     1
 40
0.0
 41
1.0
 50
0.0
 71
     0
 42
0.2
  3
ltypeshp.shx
  4

  0
STYLE
  2
BYGG-019441$0$STANDARD
 70
     0
 40
0.0
 41
1.0
 50
0.0
 71
     0
 42
0.2
  3
txt
  4

  0
STYLE
  2
BYGG-019441$0$ISO
 70
     0
 40
0.0
 41
1.0
 50
0.0
 71
     0
 42
3.5
  3
txt
  4

  0
STYLE
  2
BYGG-019441$0$ANNOTATIVE
 70
     0
 40
0.0
 41
1.0
 50
0.0
 71
     0
 42
0.2
  3
txt
  4

  0
STYLE
  2
BYGG-01473802$0$STANDARD
 70
     0
 40
0.0
 41
1.0
 50
0.0
 71
     0
 42
0.2
  3
txt
  4

  0
STYLE
  2
BYGG-01473802$0$ISO
 70
     0
 40
0.0
 41
1.0
 50
0.0
 71
     0
 42
2.5
  3
isocp3.shx
  4

  0
STYLE
  2
BYGG-019438$0$STANDARD
 70
     0
 40
0.0
 41
1.0
 50
0.0
 71
     0
 42
0.2
  3
txt
  4

  0
STYLE
  2
BYGG-019438$0$ISO
 70
     0
 40
0.0
 41
1.0
 50
0.0
 71
     0
 42
3.5
  3
txt
  4

  0
STYLE
  2
BYGG-023163$0$STANDARD
 70
     0
 40
0.0
 41
1.0
 50
0.0
 71
     0
 42
0.2
  3
txt
  4

  0
STYLE
  2
BYGG-023163$0$ISO
 70
     0
 40
0.0
 41
1.0
 50
0.0
 71
     0
 42
3.5
  3
txt
  4

  0
STYLE
  2
BYGG-020272$0$STANDARD
 70
     0
 40
0.0
 41
1.0
 50
0.0
 71
     0
 42
0.2
  3
txt
  4

  0
STYLE
  2
BYGG-020272$0$ISO
 70
     0
 40
0.0
 41
1.0
 50
0.0
 71
     0
 42
3.5
  3
isocp3.shx
  4

  0
STYLE
  2
BYGG-014014$0$STANDARD
 70
     0
 40
0.0
 41
1.0
 50
0.0
 71
     0
 42
0.2
  3
txt
  4

  0
STYLE
  2
BYGG-022359$0$STANDARD
 70
     0
 40
0.0
 41
1.0
 50
0.0
 71
     0
 42
0.2
  3
txt
  4

  0
STYLE
  2
BYGG-022359$0$ISO
 70
     0
 40
0.0
 41
1.0
 50
0.0
 71
     0
 42
3.5
  3
isocp3.shx
  4

  0
STYLE
  2
BYGG-020273$0$STANDARD
 70
     0
 40
0.0
 41
1.0
 50
0.0
 71
     0
 42
0.2
  3
txt
  4

  0
STYLE
  2
BYGG-020273$0$ISO
 70
     0
 40
0.0
 41
1.0
 50
0.0
 71
     0
 42
3.5
  3
isocp3.shx
  4

  0
STYLE
  2
BYGG-033291$0$STANDARD
 70
     0
 40
0.0
 41
1.0
 50
0.0
 71
     0
 42
0.2
  3
txt
  4

  0
STYLE
  2
BYGG-033291$0$ISO
 70
     0
 40
0.0
 41
1.0
 50
0.0
 71
     0
 42
3.5
  3
txt
  4

  0
STYLE
  2
BYGG-025060$0$STANDARD
 70
     0
 40
0.0
 41
1.0
 50
0.0
 71
     0
 42
0.2
  3
txt
  4

  0
STYLE
  2
BYGG-025060$0$ISO
 70
     0
 40
0.0
 41
1.0
 50
0.0
 71
     0
 42
3.5
  3
txt
  4

  0
STYLE
  2
BYGG-012216$0$STANDARD
 70
     0
 40
0.0
 41
1.0
 50
0.0
 71
     0
 42
0.2
  3
txt
  4

  0
STYLE
  2
BYGG-012216$0$ISO
 70
     0
 40
0.0
 41
1.0
 50
0.0
 71
     0
 42
3.5
  3
txt
  4

  0
STYLE
  2
BYGG-028980$0$STANDARD
 70
     0
 40
0.0
 41
1.0
 50
0.0
 71
     0
 42
0.2
  3
txt
  4

  0
STYLE
  2
BYGG-028980$0$ISO
 70
     0
 40
0.0
 41
1.0
 50
0.0
 71
     0
 42
3.5
  3
txt
  4

  0
STYLE
  2
BYGG-033168$0$STANDARD
 70
     0
 40
0.0
 41
1.0
 50
0.0
 71
     0
 42
0.2
  3
txt
  4

  0
STYLE
  2
BYGG-033168$0$ISO
 70
     0
 40
0.0
 41
1.0
 50
0.0
 71
     0
 42
3.5
  3
txt
  4

  0
STYLE
  2
BYGG-027036$0$STANDARD
 70
     0
 40
0.0
 41
1.0
 50
0.0
 71
     0
 42
0.2
  3
txt
  4

  0
STYLE
  2
BYGG-027036$0$ISO
 70
     0
 40
0.0
 41
1.0
 50
0.0
 71
     0
 42
3.5
  3
txt
  4

  0
STYLE
  2
BYGG-027036$0$SIMPLEX
 70
     0
 40
0.0
 41
1.0
 50
0.0
 71
     0
 42
0.4
  3
simplex
  4

  0
STYLE
  2
BYGG-027036$0$ITALIC
 70
     0
 40
0.0
 41
1.0
 50
0.0
 71
     0
 42
0.4
  3
ITALIC
  4

  0
STYLE
  2
BYGG-027036$0$SYMBOL1
 70
     0
 40
0.0
 41
1.0
 50
0.0
 71
     0
 42
0.2
  3
SIMPLEX.SHX
  4

  0
STYLE
  2
BYGG-027036$0$MONOTXT
 70
     0
 40
0.2
 41
1.0
 50
0.0
 71
     0
 42
0.2
  3
MONOTXT
  4

  0
STYLE
  2
BYGG-027036$0$TIMES
 70
     0
 40
0.0
 41
1.0
 50
0.0
 71
     0
 42
100.0
  3
txt
  4

  0
STYLE
  2
BYGG-027036$0$ROMANS
 70
     0
 40
0.0
 41
1.0
 50
0.0
 71
     0
 42
5.0
  3
romans
  4

  0
STYLE
  2
BYGG-027036$0$SEACAD_ARIAL
 70
     0
 40
0.0
 41
1.0
 50
0.0
 71
     0
 42
0.2
  3
txt
  4

  0
STYLE
  2
BYGG-027036$0$ANNOTATIVE
 70
     0
 40
0.0
 41
1.0
 50
0.0
 71
     0
 42
0.2
  3
txt
  4

  0
STYLE
  2
BYGG-019610$0$STANDARD
 70
     0
 40
0.0
 41
1.0
 50
0.0
 71
     0
 42
0.2
  3
txt
  4

  0
STYLE
  2
BYGG-019610$0$ISO
 70
     0
 40
0.0
 41
1.0
 50
0.0
 71
     0
 42
3.5
  3
txt
  4

  0
STYLE
  2
BYGG-029021$0$STANDARD
 70
     0
 40
0.0
 41
1.0
 50
0.0
 71
     0
 42
0.2
  3
txt
  4

  0
STYLE
  2
BYGG-029021$0$ISO
 70
     0
 40
0.0
 41
1.0
 50
0.0
 71
     0
 42
3.5
  3
txt
  4

  0
STYLE
  2
BYGG-029021$0$ANNOTATION
 70
     0
 40
0.0
 41
1.0
 50
0.0
 71
     0
 42
0.2
  3
txt
  4

  0
STYLE
  2
BYGG-029021$0$COTATION
 70
     0
 40
0.0
 41
1.0
 50
0.0
 71
     0
 42
0.2
  3
txt
  4

  0
STYLE
  2
BYGG-029021$0$ANNOTATIVE
 70
     0
 40
0.0
 41
1.0
 50
0.0
 71
     0
 42
0.2
  3
txt
  4

  0
STYLE
  2
BYGG-024800$0$STANDARD
 70
     0
 40
0.0
 41
1.0
 50
0.0
 71
     0
 42
0.2
  3
txt
  4

  0
STYLE
  2
BYGG-024800$0$ISO
 70
     0
 40
0.0
 41
1.0
 50
0.0
 71
     0
 42
3.5
  3
txt
  4

  0
STYLE
  2
BYGG-024807$0$STANDARD
 70
     0
 40
0.0
 41
1.0
 50
0.0
 71
     0
 42
0.2
  3
txt
  4

  0
STYLE
  2
BYGG-024807$0$ISO
 70
     0
 40
0.0
 41
1.0
 50
0.0
 71
     0
 42
3.5
  3
txt
  4

  0
STYLE
  2
BYGG-024807$0$ANNOTATIVE
 70
     0
 40
0.0
 41
1.0
 50
0.0
 71
     0
 42
0.2
  3
txt
  4

  0
STYLE
  2
BYGG-01409101$0$STANDARD
 70
     0
 40
0.0
 41
1.0
 50
0.0
 71
     0
 42
0.4
  3
txt
  4

  0
STYLE
  2
BYGG-01409101$0$SIMPLEX
 70
     0
 40
0.0
 41
1.0
 50
0.0
 71
     0
 42
0.2
  3
simplex
  4

  0
STYLE
  2
BYGG-036634$0$STANDARD
 70
     0
 40
0.0
 41
1.0
 50
0.0
 71
     0
 42
0.2
  3
txt
  4

  0
STYLE
  2
BYGG-036634$0$ISO
 70
     0
 40
0.0
 41
1.0
 50
0.0
 71
     0
 42
3.5
  3
txt
  4

  0
STYLE
  2
BYGG-030601$0$STANDARD
 70
     0
 40
0.0
 41
1.0
 50
0.0
 71
     0
 42
0.2
  3
txt
  4

  0
STYLE
  2
BYGG-030601$0$ISO
 70
     0
 40
0.0
 41
1.0
 50
0.0
 71
     0
 42
3.5
  3
txt
  4

  0
STYLE
  2
BYGG-014090$0$STANDARD
 70
     0
 40
0.0
 41
1.0
 50
0.0
 71
     0
 42
0.2
  3
txt
  4

  0
STYLE
  2
BYGG-014090$0$SIMPLEX
 70
     0
 40
0.0
 41
1.0
 50
0.0
 71
     0
 42
0.2
  3
simplex
  4

  0
STYLE
  2
BYGG-01409301$0$STANDARD
 70
     0
 40
0.0
 41
1.0
 50
0.0
 71
     0
 42
0.4
  3
txt
  4

  0
STYLE
  2
BYGG-01409301$0$ANNOTATIVE
 70
     0
 40
0.0
 41
1.0
 50
0.0
 71
     0
 42
0.4
  3
txt
  4

  0
ENDTAB
  0
TABLE
  2
VIEW
 70
     0
  0
ENDTAB
  0
TABLE
  2
UCS
 70
     0
  0
ENDTAB
  0
TABLE
  2
APPID
 70
    52
  0
APPID
  2
ACAD
 70
     0
  0
APPID
  2
ACAD_DSTYLE_DIMTEXT_FILL
 70
     0
  0
APPID
  2
ACAD_DSTYLE_DIMEXT_LENGTH
 70
     0
  0
APPID
  2
ACAD_DSTYLE_DIMEXT_ENABLED
 70
     0
  0
APPID
  2
ACAD_DSTYLE_DIM_LINETYPE
 70
     0
  0
APPID
  2
ACAD_DSTYLE_DIM_EXT1_LINETYPE
 70
     0
  0
APPID
  2
ACAD_DSTYLE_DIM_EXT2_LINETYPE
 70
     0
  0
APPID
  2
ACAD_DSTYLE_DIMJOGGED_JOGA
 70
     0
  0
APPID
  2
ACAD_DSTYLE_DIMARC_LENGTH_
 70
     0
  0
APPID
  2
ACAD_PSEXT
 70
     0
  0
APPID
  2
ACAD_MLEADERVER
 70
     0
  0
APPID
  2
AME_SOL
 70
     0
  0
APPID
  2
DCO15
 70
     0
  0
APPID
  2
AMG_ARCHIVE11
 70
     0
  0
APPID
  2
ACAECLAYERSTANDARD
 70
     0
  0
APPID
  2
ACADANNOTATIVE
 70
     0
  0
APPID
  2
ACAD_EXEMPT_FROM_CAD_STANDARDS
 70
     0
  0
APPID
  2
ACDBDYNAMICBLOCKGUID
 70
     0
  0
APPID
  2
ACDBBLOCKREPETAG
 70
     0
  0
APPID
  2
ACAD_DSTYLE_DIMJAG
 70
     0
  0
APPID
  2
ACAD_DSTYLE_DIMTALN
 70
     0
  0
APPID
  2
RC_PROFILE
 70
     0
  0
APPID
  2
ACAUTHENVIRON
 70
     0
  0
APPID
  2
ACDBDYNAMICBLOCKTRUENAME
 70
     0
  0
APPID
  2
ACAD_NAV_VCDISPLAY
 70
     0
  0
APPID
  2
ACCMTRANSPARENCY
 70
     0
  0
APPID
  2
PE_URL
 70
     0
  0
APPID
  2
ACDBBLOCKREPBTAG
 70
     0
  0
APPID
  2
ACAD_DSTYLE_DIMRADIAL_EXTENSION
 70
     0
  0
APPID
  2
ACLAYERTOOLS
 70
     0
  0
APPID
  2
ACAD_OBJECT_CHANGE_GUID
 70
     0
  0
APPID
  2
AVE_RENDER
 70
     0
  0
APPID
  2
AVE_ENTITY_MATERIAL
 70
     0
  0
APPID
  2
AVE_FINISH
 70
     0
  0
APPID
  2
AVE_MATERIAL
 70
     0
  0
APPID
  2
AVE_GLOBAL
 70
     0
  0
APPID
  2
4M_RENDER
 70
     0
  0
APPID
  2
LIBMAN
 70
     0
  0
APPID
  2
AUTOBUILD
 70
     0
  0
APPID
  2
GRADIENTCOLOR1ACI
 70
     0
  0
APPID
  2
GRADIENTCOLOR2ACI
 70
     0
  0
APPID
  2
GENIUS_GENREC_14
 70
     0
  0
APPID
  2
GENIUS_GENOBJ-N-REC_13
 70
     0
  0
APPID
  2
GENIUS_GENODEF_13
 70
     0
  0
APPID
  2
GENIUS_GENTRA_14
 70
     0
  0
APPID
  2
GENIUS_GENOREF_13
 70
     0
  0
APPID
  2
GENIUS_GENSCREG_15
 70
     0
  0
APPID
  2
GENIUS_GENOBJ-N-SDF_13
 70
     0
  0
APPID
  2
ACADANNOPO
 70
     0
  0
APPID
  2
ACADBPTGRAPHNODEID
 70
     0
  0
APPID
  2
ACDBATTR
 70
     0
  0
APPID
  2
AEC_XDATA_BOUND_SPACE
 70
     0
  0
ENDTAB
  0
TABLE
  2
DIMSTYLE
 70
    53
  0
DIMSTYLE
  2
STANDARD
 70
     0
  3

  4

  5

  6

  7

 40
1.0
 41
0.18
 42
0.0625
 43
0.38
 44
0.18
 45
0.0
 46
0.0
 47
0.0
 48
0.0
140
0.18
141
0.09
142
0.0
143
25.399999999999999
144
1.0
145
0.0
146
1.0
147
0.09
 71
     0
 72
     0
 73
     1
 74
     1
 75
     0
 76
     0
 77
     0
 78
     0
170
     0
171
     2
172
     0
173
     0
174
     0
175
     0
176
     0
177
     0
178
     0
  0
DIMSTYLE
  2
MASKIN
 70
     0
  3

  4

  5

  6

  7

 40
0.0
 41
3.0
 42
1.5
 43
10.0
 44
1.5
 45
0.0
 46
0.0
 47
0.0
 48
0.0
140
3.0
141
-5.0
142
0.0
143
25.399999999999999
144
-1.0
145
0.0
146
1.0
147
1.0
 71
     0
 72
     0
 73
     0
 74
     0
 75
     0
 76
     0
 77
     1
 78
     8
170
     0
171
     0
172
     1
173
     0
174
     0
175
     0
176
   256
177
   256
178
     2
  0
DIMSTYLE
  2
BYGG-019441$0$STANDARD
 70
     0
  3

  4

  5

  6

  7

 40
1.0
 41
0.18
 42
0.0625
 43
0.38
 44
0.18
 45
0.0
 46
0.0
 47
0.0
 48
0.0
140
0.18
141
0.09
142
0.0
143
25.399999999999999
144
1.0
145
0.0
146
1.0
147
0.09
 71
     0
 72
     0
 73
     1
 74
     1
 75
     0
 76
     0
 77
     0
 78
     0
170
     0
171
     2
172
     0
173
     0
174
     0
175
     0
176
     0
177
     0
178
     0
  0
DIMSTYLE
  2
BYGG-019441$0$MASKIN
 70
     0
  3

  4

  5

  6

  7

 40
0.0
 41
3.0
 42
1.5
 43
10.0
 44
1.5
 45
0.0
 46
0.0
 47
0.0
 48
0.0
140
3.0
141
-5.0
142
0.0
143
25.399999999999999
144
-1.0
145
0.0
146
1.0
147
1.0
 71
     0
 72
     0
 73
     0
 74
     0
 75
     0
 76
     0
 77
     1
 78
     8
170
     0
171
     0
172
     1
173
     0
174
     0
175
     0
176
   256
177
   256
178
     2
  0
DIMSTYLE
  2
BYGG-019441$0$ANNOTATIVE
 70
     0
  3

  4

  5

  6

  7

 40
1.0
 41
0.18
 42
0.0625
 43
0.38
 44
0.18
 45
0.0
 46
0.0
 47
0.0
 48
0.0
140
0.18
141
0.09
142
0.0
143
25.399999999999999
144
1.0
145
0.0
146
1.0
147
0.09
 71
     0
 72
     0
 73
     1
 74
     1
 75
     0
 76
     0
 77
     0
 78
     0
170
     0
171
     2
172
     0
173
     0
174
     0
175
     0
176
     0
177
     0
178
     0
  0
DIMSTYLE
  2
BYGG-01473802$0$STANDARD
 70
     0
  3

  4

  5

  6

  7

 40
1.0
 41
0.18
 42
0.0625
 43
0.38
 44
0.18
 45
0.0
 46
0.0
 47
0.0
 48
0.0
140
0.18
141
0.09
142
0.0
143
25.399999999999999
144
1.0
145
0.0
146
1.0
147
0.09
 71
     0
 72
     0
 73
     1
 74
     1
 75
     0
 76
     0
 77
     0
 78
     0
170
     0
171
     2
172
     0
173
     0
174
     0
175
     0
176
     0
177
     0
178
     0
  0
DIMSTYLE
  2
BYGG-01473802$0$MASKIN
 70
     0
  3

  4

  5

  6

  7

 40
0.0
 41
3.0
 42
1.5
 43
10.0
 44
1.5
 45
0.0
 46
0.0
 47
0.0
 48
0.0
140
3.0
141
-5.0
142
0.0
143
25.399999999999999
144
-1.0
145
0.0
146
1.0
147
1.0
 71
     0
 72
     0
 73
     0
 74
     1
 75
     0
 76
     0
 77
     1
 78
     8
170
     0
171
     0
172
     1
173
     0
174
     0
175
     0
176
   256
177
   256
178
     2
  0
DIMSTYLE
  2
BYGG-019438$0$STANDARD
 70
     0
  3

  4

  5

  6

  7

 40
1.0
 41
0.18
 42
0.0625
 43
0.38
 44
0.18
 45
0.0
 46
0.0
 47
0.0
 48
0.0
140
0.18
141
0.09
142
0.0
143
25.399999999999999
144
1.0
145
0.0
146
1.0
147
0.09
 71
     0
 72
     0
 73
     1
 74
     1
 75
     0
 76
     0
 77
     0
 78
     0
170
     0
171
     2
172
     0
173
     0
174
     0
175
     0
176
     0
177
     0
178
     0
  0
DIMSTYLE
  2
BYGG-019438$0$MASKIN
 70
     0
  3

  4

  5

  6

  7

 40
0.0
 41
3.0
 42
1.5
 43
10.0
 44
1.5
 45
0.0
 46
0.0
 47
0.0
 48
0.0
140
3.0
141
-5.0
142
0.0
143
25.399999999999999
144
-1.0
145
0.0
146
1.0
147
1.0
 71
     0
 72
     0
 73
     0
 74
     0
 75
     0
 76
     0
 77
     1
 78
     8
170
     0
171
     0
172
     1
173
     0
174
     0
175
     0
176
   256
177
   256
178
     2
  0
DIMSTYLE
  2
BYGG-023163$0$STANDARD
 70
     0
  3

  4

  5

  6

  7

 40
1.0
 41
0.18
 42
0.0625
 43
0.38
 44
0.18
 45
0.0
 46
0.0
 47
0.0
 48
0.0
140
0.18
141
0.09
142
0.0
143
25.399999999999999
144
1.0
145
0.0
146
1.0
147
0.09
 71
     0
 72
     0
 73
     1
 74
     1
 75
     0
 76
     0
 77
     0
 78
     0
170
     0
171
     2
172
     0
173
     0
174
     0
175
     0
176
     0
177
     0
178
     0
  0
DIMSTYLE
  2
BYGG-023163$0$MASKIN
 70
     0
  3

  4

  5

  6

  7

 40
0.0
 41
3.0
 42
1.5
 43
10.0
 44
1.5
 45
0.0
 46
0.0
 47
0.0
 48
0.0
140
3.0
141
-5.0
142
0.0
143
25.399999999999999
144
-1.0
145
0.0
146
1.0
147
1.0
 71
     0
 72
     0
 73
     0
 74
     0
 75
     0
 76
     0
 77
     1
 78
     8
170
     0
171
     0
172
     1
173
     0
174
     0
175
     0
176
   256
177
   256
178
     2
  0
DIMSTYLE
  2
BYGG-020272$0$STANDARD
 70
     0
  3

  4

  5

  6

  7

 40
1.0
 41
0.18
 42
0.0625
 43
0.38
 44
0.18
 45
0.0
 46
0.0
 47
0.0
 48
0.0
140
0.18
141
0.09
142
0.0
143
25.399999999999999
144
1.0
145
0.0
146
1.0
147
0.09
 71
     0
 72
     0
 73
     1
 74
     1
 75
     0
 76
     0
 77
     0
 78
     0
170
     0
171
     2
172
     0
173
     0
174
     0
175
     0
176
     0
177
     0
178
     0
  0
DIMSTYLE
  2
BYGG-020272$0$MASKIN
 70
     0
  3

  4

  5

  6

  7

 40
0.0
 41
3.0
 42
1.5
 43
10.0
 44
1.5
 45
0.0
 46
0.0
 47
0.0
 48
0.0
140
3.0
141
-5.0
142
0.0
143
25.399999999999999
144
-1.0
145
0.0
146
1.0
147
1.0
 71
     0
 72
     0
 73
     0
 74
     0
 75
     0
 76
     0
 77
     1
 78
     8
170
     0
171
     0
172
     1
173
     0
174
     0
175
     0
176
   256
177
   256
178
     2
  0
DIMSTYLE
  2
BYGG-014014$0$STANDARD
 70
     0
  3

  4

  5

  6

  7

 40
1.0
 41
0.18
 42
0.0625
 43
0.38
 44
0.18
 45
0.0
 46
0.0
 47
0.0
 48
0.0
140
0.18
141
0.09
142
0.0
143
25.399999999999999
144
1.0
145
0.0
146
1.0
147
0.09
 71
     0
 72
     0
 73
     1
 74
     1
 75
     0
 76
     0
 77
     0
 78
     0
170
     0
171
     2
172
     0
173
     0
174
     0
175
     0
176
     0
177
     0
178
     0
  0
DIMSTYLE
  2
BYGG-022359$0$MASKIN
 70
     0
  3

  4

  5

  6

  7

 40
0.0
 41
3.0
 42
1.5
 43
10.0
 44
1.5
 45
0.0
 46
0.0
 47
0.0
 48
0.0
140
3.0
141
-5.0
142
0.0
143
25.399999999999999
144
-1.0
145
0.0
146
1.0
147
1.0
 71
     0
 72
     0
 73
     0
 74
     0
 75
     0
 76
     0
 77
     1
 78
     8
170
     0
171
     0
172
     1
173
     0
174
     0
175
     0
176
   256
177
   256
178
   256
  0
DIMSTYLE
  2
BYGG-022359$0$STANDARD
 70
     0
  3

  4

  5

  6

  7

 40
1.0
 41
0.18
 42
0.0625
 43
0.38
 44
0.18
 45
0.0
 46
0.0
 47
0.0
 48
0.0
140
0.18
141
0.09
142
0.0
143
25.399999999999999
144
1.0
145
0.0
146
1.0
147
0.09
 71
     0
 72
     0
 73
     1
 74
     1
 75
     0
 76
     0
 77
     0
 78
     0
170
     0
171
     2
172
     0
173
     0
174
     0
175
     0
176
     0
177
     0
178
     0
  0
DIMSTYLE
  2
BYGG-020273$0$MASKIN
 70
     0
  3

  4

  5

  6

  7

 40
0.0
 41
3.0
 42
1.5
 43
10.0
 44
1.5
 45
0.0
 46
0.0
 47
0.0
 48
0.0
140
3.0
141
-5.0
142
0.0
143
25.399999999999999
144
-1.0
145
0.0
146
1.0
147
1.0
 71
     0
 72
     0
 73
     0
 74
     0
 75
     0
 76
     0
 77
     1
 78
     8
170
     0
171
     0
172
     1
173
     0
174
     0
175
     0
176
   256
177
   256
178
     2
  0
DIMSTYLE
  2
BYGG-033291$0$STANDARD
 70
     0
  3

  4

  5

  6

  7

 40
1.0
 41
0.18
 42
0.0625
 43
0.38
 44
0.18
 45
0.0
 46
0.0
 47
0.0
 48
0.0
140
0.18
141
0.09
142
0.0
143
25.399999999999999
144
1.0
145
0.0
146
1.0
147
0.09
 71
     0
 72
     0
 73
     1
 74
     1
 75
     0
 76
     0
 77
     0
 78
     0
170
     0
171
     2
172
     0
173
     0
174
     0
175
     0
176
     0
177
     0
178
     0
  0
DIMSTYLE
  2
BYGG-033291$0$MASKIN
 70
     0
  3

  4

  5

  6

  7

 40
0.0
 41
3.0
 42
1.5
 43
10.0
 44
1.5
 45
0.0
 46
0.0
 47
0.0
 48
0.0
140
3.0
141
-5.0
142
0.0
143
25.399999999999999
144
-1.0
145
0.0
146
1.0
147
1.0
 71
     0
 72
     0
 73
     0
 74
     0
 75
     0
 76
     0
 77
     1
 78
     8
170
     0
171
     0
172
     1
173
     0
174
     0
175
     0
176
   256
177
   256
178
     2
  0
DIMSTYLE
  2
BYGG-025060$0$MASKIN
 70
     0
  3

  4

  5

  6

  7

 40
0.0
 41
3.0
 42
1.5
 43
10.0
 44
1.5
 45
0.0
 46
0.0
 47
0.0
 48
0.0
140
3.0
141
-5.0
142
0.0
143
25.399999999999999
144
-1.0
145
0.0
146
1.0
147
1.0
 71
     0
 72
     0
 73
     0
 74
     0
 75
     0
 76
     0
 77
     1
 78
     8
170
     0
171
     0
172
     1
173
     0
174
     0
175
     0
176
   256
177
   256
178
     2
  0
DIMSTYLE
  2
BYGG-025060$0$STANDARD
 70
     0
  3

  4

  5

  6

  7

 40
1.0
 41
0.18
 42
0.0625
 43
0.38
 44
0.18
 45
0.0
 46
0.0
 47
0.0
 48
0.0
140
0.18
141
0.09
142
0.0
143
25.399999999999999
144
1.0
145
0.0
146
1.0
147
0.09
 71
     0
 72
     0
 73
     1
 74
     1
 75
     0
 76
     0
 77
     0
 78
     0
170
     0
171
     2
172
     0
173
     0
174
     0
175
     0
176
     0
177
     0
178
     0
  0
DIMSTYLE
  2
BYGG-012216$0$MASKIN
 70
     0
  3

  4

  5

  6

  7

 40
0.0
 41
3.0
 42
1.5
 43
10.0
 44
1.5
 45
0.0
 46
0.0
 47
0.0
 48
0.0
140
3.0
141
-5.0
142
0.0
143
25.399999999999999
144
-1.0
145
0.0
146
1.0
147
1.0
 71
     0
 72
     0
 73
     0
 74
     0
 75
     0
 76
     0
 77
     1
 78
     8
170
     0
171
     0
172
     1
173
     0
174
     0
175
     0
176
   256
177
   256
178
     2
  0
DIMSTYLE
  2
BYGG-012216$0$STANDARD
 70
     0
  3

  4

  5

  6

  7

 40
1.0
 41
0.18
 42
0.0625
 43
0.38
 44
0.18
 45
0.0
 46
0.0
 47
0.0
 48
0.0
140
0.18
141
0.09
142
0.0
143
25.399999999999999
144
1.0
145
0.0
146
1.0
147
0.09
 71
     0
 72
     0
 73
     1
 74
     1
 75
     0
 76
     0
 77
     0
 78
     0
170
     0
171
     2
172
     0
173
     0
174
     0
175
     0
176
     0
177
     0
178
     0
  0
DIMSTYLE
  2
BYGG-028980$0$STANDARD
 70
     0
  3

  4

  5

  6

  7

 40
1.0
 41
0.18
 42
0.0625
 43
0.38
 44
0.18
 45
0.0
 46
0.0
 47
0.0
 48
0.0
140
0.18
141
0.09
142
0.0
143
25.399999999999999
144
1.0
145
0.0
146
1.0
147
0.09
 71
     0
 72
     0
 73
     1
 74
     1
 75
     0
 76
     0
 77
     0
 78
     0
170
     0
171
     2
172
     0
173
     0
174
     0
175
     0
176
     0
177
     0
178
     0
  0
DIMSTYLE
  2
BYGG-028980$0$MASKIN
 70
     0
  3

  4

  5

  6

  7

 40
0.0
 41
3.0
 42
1.5
 43
10.0
 44
1.5
 45
0.0
 46
0.0
 47
0.0
 48
0.0
140
3.0
141
-5.0
142
0.0
143
25.399999999999999
144
-1.0
145
0.0
146
1.0
147
1.0
 71
     0
 72
     0
 73
     0
 74
     0
 75
     0
 76
     0
 77
     1
 78
     8
170
     0
171
     0
172
     1
173
     0
174
     0
175
     0
176
   256
177
   256
178
     2
  0
DIMSTYLE
  2
BYGG-033168$0$STANDARD
 70
     0
  3

  4

  5

  6

  7

 40
1.0
 41
0.18
 42
0.0625
 43
0.38
 44
0.18
 45
0.0
 46
0.0
 47
0.0
 48
0.0
140
0.18
141
0.09
142
0.0
143
25.399999999999999
144
1.0
145
0.0
146
1.0
147
0.09
 71
     0
 72
     0
 73
     1
 74
     1
 75
     0
 76
     0
 77
     0
 78
     0
170
     0
171
     2
172
     0
173
     0
174
     0
175
     0
176
     0
177
     0
178
     0
  0
DIMSTYLE
  2
BYGG-033168$0$MASKIN
 70
     0
  3

  4

  5

  6

  7

 40
0.0
 41
3.0
 42
1.5
 43
10.0
 44
1.5
 45
0.0
 46
0.0
 47
0.0
 48
0.0
140
3.0
141
-5.0
142
0.0
143
25.399999999999999
144
-1.0
145
0.0
146
1.0
147
1.0
 71
     0
 72
     0
 73
     0
 74
     0
 75
     0
 76
     0
 77
     1
 78
     8
170
     0
171
     0
172
     1
173
     0
174
     0
175
     0
176
   256
177
   256
178
     2
  0
DIMSTYLE
  2
BYGG-027036$0$STANDARD
 70
     0
  3

  4

  5

  6

  7

 40
1.0
 41
0.18
 42
0.0625
 43
0.38
 44
0.18
 45
0.0
 46
0.0
 47
0.0
 48
0.0
140
0.18
141
0.09
142
0.0
143
25.399999999999999
144
1.0
145
0.0
146
1.0
147
0.09
 71
     0
 72
     0
 73
     1
 74
     1
 75
     0
 76
     0
 77
     0
 78
     0
170
     0
171
     2
172
     0
173
     0
174
     0
175
     0
176
     0
177
     0
178
     0
  0
DIMSTYLE
  2
BYGG-027036$0$MASKIN
 70
     0
  3

  4

  5

  6

  7

 40
0.0
 41
3.0
 42
1.5
 43
10.0
 44
1.5
 45
0.0
 46
0.0
 47
0.0
 48
0.0
140
3.0
141
-5.0
142
0.0
143
25.399999999999999
144
-1.0
145
0.0
146
1.0
147
1.0
 71
     0
 72
     0
 73
     0
 74
     0
 75
     0
 76
     0
 77
     1
 78
     8
170
     0
171
     0
172
     1
173
     0
174
     0
175
     0
176
   256
177
   256
178
     2
  0
DIMSTYLE
  2
BYGG-027036$0$STANDARD$4
 70
     0
  3

  4

  5

  6

  7

 40
1.0
 41
2.5
 42
2.0
 43
3.75
 44
1.0
 45
0.0
 46
0.0
 47
0.0
 48
0.0
140
5.0
141
3.0
142
0.0
143
0.0394
144
1.0
145
1.0
146
1.0
147
1.0
 71
     0
 72
     0
 73
     1
 74
     0
 75
     0
 76
     0
 77
     1
 78
     8
170
     0
171
     2
172
     1
173
     0
174
     0
175
     0
176
     5
177
     5
178
     5
  0
DIMSTYLE
  2
BYGG-027036$0$STANDARD$2
 70
     0
  3

  4

  5

  6

  7

 40
1.0
 41
2.5
 42
2.0
 43
3.75
 44
1.0
 45
0.0
 46
0.0
 47
0.0
 48
0.0
140
5.0
141
3.0
142
0.0
143
0.0394
144
1.0
145
1.0
146
1.0
147
1.0
 71
     0
 72
     0
 73
     1
 74
     0
 75
     0
 76
     0
 77
     1
 78
     8
170
     0
171
     2
172
     1
173
     0
174
     0
175
     0
176
     5
177
     5
178
     5
  0
DIMSTYLE
  2
BYGG-027036$0$DMST_1
 70
     0
  3

  4

  5

  6

  7

 40
1.0
 41
0.3500000000000001
 42
0.0
 43
7.0
 44
0.2
 45
0.0
 46
0.0
 47
0.0
 48
0.0
140
0.3500000000000001
141
0.0
142
0.0
143
25.399999999999999
144
1.0
145
0.0
146
1.0
147
0.09
 71
     0
 72
     0
 73
     0
 74
     0
 75
     0
 76
     0
 77
     1
 78
     9
170
     0
171
     2
172
     0
173
     0
174
     0
175
     0
176
     1
177
     1
178
     2
  0
DIMSTYLE
  2
BYGG-027036$0$ANNOTATIVE
 70
     0
  3

  4

  5

  6

  7

 40
1.0
 41
0.18
 42
0.0625
 43
0.38
 44
0.18
 45
0.0
 46
0.0
 47
0.0
 48
0.0
140
0.18
141
0.09
142
0.0
143
25.399999999999999
144
1.0
145
0.0
146
1.0
147
0.09
 71
     0
 72
     0
 73
     1
 74
     1
 75
     0
 76
     0
 77
     0
 78
     0
170
     0
171
     2
172
     0
173
     0
174
     0
175
     0
176
     0
177
     0
178
     0
  0
DIMSTYLE
  2
BYGG-019610$0$STANDARD
 70
     0
  3

  4

  5

  6

  7

 40
1.0
 41
0.18
 42
0.0625
 43
0.38
 44
0.18
 45
0.0
 46
0.0
 47
0.0
 48
0.0
140
0.18
141
0.09
142
0.0
143
25.399999999999999
144
1.0
145
0.0
146
1.0
147
0.09
 71
     0
 72
     0
 73
     1
 74
     1
 75
     0
 76
     0
 77
     0
 78
     0
170
     0
171
     2
172
     0
173
     0
174
     0
175
     0
176
     0
177
     0
178
     0
  0
DIMSTYLE
  2
BYGG-019610$0$MASKIN
 70
     0
  3

  4

  5

  6

  7

 40
0.0
 41
3.0
 42
1.5
 43
10.0
 44
1.5
 45
0.0
 46
0.0
 47
0.0
 48
0.0
140
3.0
141
-5.0
142
0.0
143
25.399999999999999
144
-1.0
145
0.0
146
1.0
147
1.0
 71
     0
 72
     0
 73
     0
 74
     0
 75
     0
 76
     0
 77
     1
 78
     8
170
     0
171
     0
172
     1
173
     0
174
     0
175
     0
176
   256
177
   256
178
     2
  0
DIMSTYLE
  2
BYGG-029021$0$STANDARD
 70
     0
  3

  4

  5

  6

  7

 40
1.0
 41
0.18
 42
0.0625
 43
0.38
 44
0.18
 45
0.0
 46
0.0
 47
0.0
 48
0.0
140
0.18
141
0.09
142
0.0
143
25.399999999999999
144
1.0
145
0.0
146
1.0
147
0.09
 71
     0
 72
     0
 73
     1
 74
     1
 75
     0
 76
     0
 77
     0
 78
     0
170
     0
171
     2
172
     0
173
     0
174
     0
175
     0
176
     0
177
     0
178
     0
  0
DIMSTYLE
  2
BYGG-029021$0$MASKIN
 70
     0
  3

  4

  5

  6

  7

 40
0.0
 41
3.0
 42
1.5
 43
10.0
 44
1.5
 45
0.0
 46
0.0
 47
0.0
 48
0.0
140
3.0
141
-5.0
142
0.0
143
25.399999999999999
144
-1.0
145
0.0
146
1.0
147
1.0
 71
     0
 72
     0
 73
     0
 74
     0
 75
     0
 76
     0
 77
     1
 78
     8
170
     0
171
     0
172
     1
173
     0
174
     0
175
     0
176
   256
177
   256
178
     2
  0
DIMSTYLE
  2
BYGG-029021$0$MASKIN1
 70
     0
  3

  4

  5

  6

  7

 40
0.0
 41
3.0
 42
1.5
 43
10.0
 44
1.5
 45
0.0
 46
0.0
 47
0.0
 48
0.0
140
3.0
141
-5.0
142
0.0
143
25.399999999999999
144
-1.0
145
0.0
146
1.0
147
1.0
 71
     0
 72
     0
 73
     0
 74
     0
 75
     0
 76
     0
 77
     1
 78
     8
170
     0
171
     0
172
     1
173
     0
174
     0
175
     0
176
   256
177
   256
178
   256
  0
DIMSTYLE
  2
BYGG-029021$0$COTATION_HUT
 70
     0
  3

  4

  5

  6

  7

 40
1.0
 41
0.25
 42
0.1
 43
3.75
 44
0.18
 45
0.0
 46
0.0
 47
0.0
 48
0.0
140
0.25
141
2.5
142
0.0
143
25.399999999999999
144
1.0
145
0.05
146
0.7000000000000002
147
0.09
 71
     1
 72
     0
 73
     0
 74
     0
 75
     0
 76
     0
 77
     1
 78
     0
170
     0
171
     2
172
     1
173
     0
174
     0
175
     0
176
     0
177
     0
178
     0
  0
DIMSTYLE
  2
BYGG-029021$0$ANNOTATIVE
 70
     0
  3

  4

  5

  6

  7

 40
1.0
 41
0.18
 42
0.0625
 43
0.38
 44
0.18
 45
0.0
 46
0.0
 47
0.0
 48
0.0
140
0.18
141
0.09
142
0.0
143
25.399999999999999
144
1.0
145
0.0
146
1.0
147
0.09
 71
     0
 72
     0
 73
     1
 74
     1
 75
     0
 76
     0
 77
     0
 78
     0
170
     0
171
     2
172
     0
173
     0
174
     0
175
     0
176
     0
177
     0
178
     0
  0
DIMSTYLE
  2
BYGG-024800$0$MASKIN
 70
     0
  3

  4

  5

  6

  7

 40
0.0
 41
3.0
 42
1.5
 43
10.0
 44
1.5
 45
0.0
 46
0.0
 47
0.0
 48
0.0
140
3.0
141
-5.0
142
0.0
143
25.399999999999999
144
-1.0
145
0.0
146
1.0
147
1.0
 71
     0
 72
     0
 73
     0
 74
     0
 75
     0
 76
     0
 77
     1
 78
     8
170
     0
171
     0
172
     1
173
     0
174
     0
175
     0
176
   256
177
   256
178
     2
  0
DIMSTYLE
  2
BYGG-024800$0$STANDARD
 70
     0
  3

  4

  5

  6

  7

 40
1.0
 41
0.18
 42
0.0625
 43
0.38
 44
0.18
 45
0.0
 46
0.0
 47
0.0
 48
0.0
140
0.18
141
0.09
142
0.0
143
25.399999999999999
144
1.0
145
0.0
146
1.0
147
0.09
 71
     0
 72
     0
 73
     1
 74
     1
 75
     0
 76
     0
 77
     0
 78
     0
170
     0
171
     2
172
     0
173
     0
174
     0
175
     0
176
     0
177
     0
178
     0
  0
DIMSTYLE
  2
BYGG-024807$0$MASKIN
 70
     0
  3

  4

  5

  6

  7

 40
0.0
 41
3.0
 42
1.5
 43
10.0
 44
1.5
 45
0.0
 46
0.0
 47
0.0
 48
0.0
140
3.0
141
-5.0
142
0.0
143
25.399999999999999
144
-1.0
145
0.0
146
1.0
147
1.0
 71
     0
 72
     0
 73
     0
 74
     0
 75
     0
 76
     0
 77
     1
 78
     8
170
     0
171
     0
172
     1
173
     0
174
     0
175
     0
176
   256
177
   256
178
     2
  0
DIMSTYLE
  2
BYGG-024807$0$STANDARD
 70
     0
  3

  4

  5

  6

  7

 40
1.0
 41
0.18
 42
0.0625
 43
0.38
 44
0.18
 45
0.0
 46
0.0
 47
0.0
 48
0.0
140
0.18
141
0.09
142
0.0
143
25.399999999999999
144
1.0
145
0.0
146
1.0
147
0.09
 71
     0
 72
     0
 73
     1
 74
     1
 75
     0
 76
     0
 77
     0
 78
     0
170
     0
171
     2
172
     0
173
     0
174
     0
175
     0
176
     0
177
     0
178
     0
  0
DIMSTYLE
  2
BYGG-024807$0$ANNOTATIVE
 70
     0
  3

  4

  5

  6

  7

 40
1.0
 41
0.18
 42
0.0625
 43
0.38
 44
0.18
 45
0.0
 46
0.0
 47
0.0
 48
0.0
140
0.18
141
0.09
142
0.0
143
25.399999999999999
144
1.0
145
0.0
146
1.0
147
0.09
 71
     0
 72
     0
 73
     1
 74
     1
 75
     0
 76
     0
 77
     0
 78
     0
170
     0
171
     2
172
     0
173
     0
174
     0
175
     0
176
     0
177
     0
178
     0
  0
DIMSTYLE
  2
BYGG-01409101$0$STANDARD
 70
     0
  3

  4

  5

  6

  7

 40
1.0
 41
0.18
 42
0.0625
 43
0.38
 44
0.18
 45
0.0
 46
0.0
 47
0.0
 48
0.0
140
0.18
141
0.09
142
0.0
143
25.399999999999999
144
1.0
145
0.0
146
1.0
147
0.09
 71
     0
 72
     0
 73
     1
 74
     1
 75
     0
 76
     0
 77
     0
 78
     0
170
     0
171
     2
172
     0
173
     0
174
     0
175
     0
176
     0
177
     0
178
     0
  0
DIMSTYLE
  2
BYGG-036634$0$STANDARD
 70
     0
  3

  4

  5

  6

  7

 40
1.0
 41
0.18
 42
0.0625
 43
0.38
 44
0.18
 45
0.0
 46
0.0
 47
0.0
 48
0.0
140
0.18
141
0.09
142
0.0
143
25.399999999999999
144
1.0
145
0.0
146
1.0
147
0.09
 71
     0
 72
     0
 73
     1
 74
     1
 75
     0
 76
     0
 77
     0
 78
     0
170
     0
171
     2
172
     0
173
     0
174
     0
175
     0
176
     0
177
     0
178
     0
  0
DIMSTYLE
  2
BYGG-036634$0$MASKIN
 70
     0
  3

  4

  5

  6

  7

 40
0.0
 41
3.0
 42
1.5
 43
10.0
 44
1.5
 45
0.0
 46
0.0
 47
0.0
 48
0.0
140
3.0
141
-5.0
142
0.0
143
25.399999999999999
144
-1.0
145
0.0
146
1.0
147
1.0
 71
     0
 72
     0
 73
     0
 74
     0
 75
     0
 76
     0
 77
     1
 78
     8
170
     0
171
     0
172
     1
173
     0
174
     0
175
     0
176
   256
177
   256
178
     2
  0
DIMSTYLE
  2
BYGG-030601$0$STANDARD
 70
     0
  3

  4

  5

  6

  7

 40
1.0
 41
0.18
 42
0.0625
 43
0.38
 44
0.18
 45
0.0
 46
0.0
 47
0.0
 48
0.0
140
0.18
141
0.09
142
0.0
143
25.399999999999999
144
1.0
145
0.0
146
1.0
147
0.09
 71
     0
 72
     0
 73
     1
 74
     1
 75
     0
 76
     0
 77
     0
 78
     0
170
     0
171
     2
172
     0
173
     0
174
     0
175
     0
176
     0
177
     0
178
     0
  0
DIMSTYLE
  2
BYGG-030601$0$MASKIN
 70
     0
  3

  4

  5

  6

  7

 40
0.0
 41
3.0
 42
1.5
 43
10.0
 44
1.5
 45
0.0
 46
0.0
 47
0.0
 48
0.0
140
3.0
141
-5.0
142
0.0
143
25.399999999999999
144
-1.0
145
0.0
146
1.0
147
1.0
 71
     0
 72
     0
 73
     0
 74
     0
 75
     0
 76
     0
 77
     1
 78
     8
170
     0
171
     0
172
     1
173
     0
174
     0
175
     0
176
   256
177
   256
178
     2
  0
DIMSTYLE
  2
BYGG-014090$0$STANDARD
 70
     0
  3

  4

  5

  6

  7

 40
1.0
 41
0.18
 42
0.0625
 43
0.38
 44
0.18
 45
0.0
 46
0.0
 47
0.0
 48
0.0
140
0.18
141
0.09
142
0.0
143
25.399999999999999
144
1.0
145
0.0
146
1.0
147
0.09
 71
     0
 72
     0
 73
     1
 74
     1
 75
     0
 76
     0
 77
     0
 78
     0
170
     0
171
     2
172
     0
173
     0
174
     0
175
     0
176
     0
177
     0
178
     0
  0
DIMSTYLE
  2
BYGG-01409301$0$STANDARD
 70
     0
  3

  4

  5

  6

  7

 40
1.0
 41
0.18
 42
0.0625
 43
0.38
 44
0.18
 45
0.0
 46
0.0
 47
0.0
 48
0.0
140
0.18
141
0.09
142
0.0
143
25.399999999999999
144
1.0
145
0.0
146
1.0
147
0.09
 71
     0
 72
     0
 73
     1
 74
     1
 75
     0
 76
     0
 77
     0
 78
     0
170
     0
171
     2
172
     0
173
     0
174
     0
175
     0
176
     0
177
     0
178
     0
  0
DIMSTYLE
  2
BYGG-01409301$0$ANNOTATIVE
 70
     0
  3

  4

  5

  6

  7

 40
1.0
 41
0.18
 42
0.0625
 43
0.38
 44
0.18
 45
0.0
 46
0.0
 47
0.0
 48
0.0
140
0.18
141
0.09
142
0.0
143
25.399999999999999
144
1.0
145
0.0
146
1.0
147
0.09
 71
     0
 72
     0
 73
     1
 74
     1
 75
     0
 76
     0
 77
     0
 78
     0
170
     0
171
     2
172
     0
173
     0
174
     0
175
     0
176
     0
177
     0
178
     0
  0
ENDTAB
  0
ENDSEC
  0
SECTION
  2
BLOCKS
  0
BLOCK
  8
0
  2
$MODEL_SPACE
 70
     0
 10
0.0
 20
0.0
 30
0.0
  3
$MODEL_SPACE
  1

  0
ENDBLK
  5
37
  8
0
  0
BLOCK
 67
     1
  8
0
  2
$PAPER_SPACE
 70
     0
 10
0.0
 20
0.0
 30
0.0
  3
$PAPER_SPACE
  1

  0
ENDBLK
  5
35
 67
     1
  8
0
  0
BLOCK
  8
0
  2
BYGG-027036$0$RH
 70
     2
 10
0.0
 20
0.0
 30
0.0
  3
BYGG-027036$0$RH
  1

  0
ATTDEF
  5
114A
  8
BYGG-027036$0$KON
 10
11.0
 20
2.2999999999999989
 30
0.0
 40
0.4400000000000001
  1

  7
BYGG-027036$0$SIMPLEX
 72
     4
 11
11.0
 21
2.2999999999999989
 31
0.0
  3
Benämning
  2
BENÄMNING
 70
     0
  0
ATTDEF
  5
114C
  8
BYGG-027036$0$KON
 10
11.0
 20
1.5
 30
0.0
 40
0.4400000000000001
  1

  7
BYGG-027036$0$SIMPLEX
 72
     4
 11
11.0
 21
1.5
 31
0.0
  3
Gummi-hårdhet-färg
  2
GUMMI-HÅRDHET-FÄRG
 70
     0
  0
ATTDEF
  5
114D
  8
BYGG-027036$0$KON
 10
11.0
 20
0.7
 30
0.0
 40
0.4400000000000001
  1

  7
BYGG-027036$0$SIMPLEX
 72
     4
 11
11.0
 21
0.7
 31
0.0
  3
Kund
  2
KUND
 70
     0
  0
ATTDEF
  5
114E
  8
BYGG-027036$0$KON
 10
18.399999999999999
 20
0.8
 30
0.0
 40
0.4
  1

  7
BYGG-027036$0$SIMPLEX
 72
     4
 11
18.399999999999999
 21
0.8
 31
0.0
  3
Rit.Nr:
  2
RIT.NR:
 70
     0
  0
ATTDEF
  5
114F
  8
BYGG-027036$0$KON
 10
18.399999999999999
 20
3.2000000000000002
 30
0.0
 40
0.4
  1

  7
BYGG-027036$0$SIMPLEX
 72
     4
 11
18.399999999999999
 21
3.2000000000000002
 31
0.0
  3
Det.Nr:
  2
DET.NR:
 70
     0
  0
ATTDEF
  5
1150
  8
BYGG-027036$0$KON
 10
18.800000000000001
 20
2.0
 30
0.0
 40
0.4
  1

  7
BYGG-027036$0$SIMPLEX
 72
     4
 11
18.800000000000001
 21
2.0
 31
0.0
  3
Skala:
  2
SKALA:
 70
     1
  0
ATTDEF
  5
1151
  8
BYGG-027036$0$KON
 10
3.6000000000000001
 20
1.8999999999999999
 30
0.0
 40
0.3
  1

  7
BYGG-027036$0$SIMPLEX
 72
     4
 11
3.6000000000000001
 21
1.8999999999999999
 31
0.0
  3
Datum
  2
DATUM
 70
     0
  0
ATTDEF
  5
1152
  8
BYGG-027036$0$KON
 10
3.399999999999999
 20
0.9
 30
0.0
 40
0.4
  1

  7
BYGG-027036$0$SIMPLEX
 72
     4
 11
3.399999999999999
 21
0.9
 31
0.0
  3
Ritad av:
  2
RITAD:
 70
     1
  0
ATTDEF
  5
1153
  8
BYGG-027036$0$KON
 10
3.1999999999999988
 20
5.2999999999999989
 30
0.0
 40
0.4
  1

  7
BYGG-027036$0$SIMPLEX
  3
Säljare:
  2
SÄLJARE
 70
     1
  0
ENDBLK
  5
1154
  8
0
  0
BLOCK
  8
0
  2
*D126
 70
     1
 10
0.0
 20
0.0
 30
0.0
  3
*D126
  1

  0
LINE
  5
17D0
  8
SAPA_MATT
 10
63.200939698017777
 20
24.999999999999659
 30
0.0
 11
81.181587957706228
 21
24.999999999999659
 31
0.0
  0
LINE
  5
17D1
  8
SAPA_MATT
 10
63.20093969801772
 20
-24.999999999999321
 30
0.0
 11
81.181587957706228
 21
-24.999999999999321
 31
0.0
  0
LINE
  5
17D2
  8
SAPA_MATT
 10
79.681587957706242
 20
21.999999999999648
 30
0.0
 11
79.681587957706242
 21
-21.999999999999321
 31
0.0
  0
SOLID
  5
17D3
  8
SAPA_MATT
 10
79.181587957706242
 20
21.999999999999648
 30
0.0
 11
80.181587957706242
 21
21.999999999999648
 31
0.0
 12
79.681587957706242
 22
24.999999999999659
 32
0.0
 13
79.681587957706242
 23
24.999999999999659
 33
0.0
  0
SOLID
  5
17D4
  8
SAPA_MATT
 10
79.181587957706242
 20
-21.999999999999321
 30
0.0
 11
80.181587957706242
 21
-21.999999999999321
 31
0.0
 12
79.681587957706242
 22
-24.999999999999321
 32
0.0
 13
79.681587957706242
 23
-24.999999999999321
 33
0.0
  0
INSERT
  5
17D5
  8
0
  2
*U138
 10
0.0
 20
0.0
 30
0.0
  0
POINT
  5
17D6
  8
DEFPOINTS
 62
     0
 10
61.700939698017777
 20
24.999999999999659
 30
0.0
  0
POINT
  5
17D7
  8
DEFPOINTS
 62
     0
 10
61.70093969801772
 20
-24.999999999999321
 30
0.0
  0
POINT
  5
17D8
  8
DEFPOINTS
 62
     0
 10
79.681587957706242
 20
-24.999999999999321
 30
0.0
  0
ENDBLK
  5
176E
  8
0
  0
BLOCK
  8
0
  2
*D127
 70
     1
 10
0.0
 20
0.0
 30
0.0
  3
*D127
  1

  0
LINE
  5
17C7
  8
SAPA_MATT
 10
-78.546446609404995
 20
16.000000000000131
 30
0.0
 11
-108.3283286202785
 21
16.000000000000139
 31
0.0
  0
LINE
  5
17C8
  8
SAPA_MATT
 10
-78.546446609434525
 20
-16.000000000000149
 30
0.0
 11
-108.3283286202785
 21
-16.000000000000139
 31
0.0
  0
LINE
  5
17C9
  8
SAPA_MATT
 10
-106.8283286202785
 20
13.00000000000014
 30
0.0
 11
-106.8283286202785
 21
-13.000000000000149
 31
0.0
  0
SOLID
  5
17CA
  8
SAPA_MATT
 10
-107.3283286202785
 20
13.00000000000014
 30
0.0
 11
-106.3283286202785
 21
13.00000000000014
 31
0.0
 12
-106.8283286202785
 22
16.000000000000139
 32
0.0
 13
-106.8283286202785
 23
16.000000000000139
 33
0.0
  0
SOLID
  5
17CB
  8
SAPA_MATT
 10
-107.3283286202785
 20
-13.000000000000149
 30
0.0
 11
-106.3283286202785
 21
-13.000000000000149
 31
0.0
 12
-106.8283286202785
 22
-16.000000000000139
 32
0.0
 13
-106.8283286202785
 23
-16.000000000000139
 33
0.0
  0
INSERT
  5
17CC
  8
0
  2
*U137
 10
0.0
 20
0.0
 30
0.0
  0
POINT
  5
17CD
  8
DEFPOINTS
 62
     0
 10
-77.046446609404995
 20
16.000000000000131
 30
0.0
  0
POINT
  5
17CE
  8
DEFPOINTS
 62
     0
 10
-77.046446609434525
 20
-16.000000000000149
 30
0.0
  0
POINT
  5
17CF
  8
DEFPOINTS
 62
     0
 10
-106.8283286202785
 20
-16.000000000000139
 30
0.0
  0
ENDBLK
  5
177A
  8
0
  0
BLOCK
  8
0
  2
*D128
 70
     1
 10
0.0
 20
0.0
 30
0.0
  3
*D128
  1

  0
LINE
  5
2721
  8
SAPA_MATT
 10
-78.546446609434525
 20
-16.000000000000149
 30
0.0
 11
-108.3283286202785
 21
-16.000000000000139
 31
0.0
  0
LINE
  5
2722
  8
SAPA_MATT
 10
-65.999946820780622
 20
-76.00000000000118
 30
0.0
 11
-108.3283286202785
 21
-76.000000000001165
 31
0.0
  0
LINE
  5
2723
  8
SAPA_MATT
 10
-106.8283286202785
 20
-19.000000000000139
 30
0.0
 11
-106.8283286202785
 21
-73.000000000001165
 31
0.0
  0
SOLID
  5
2724
  8
SAPA_MATT
 10
-107.3283286202785
 20
-19.000000000000139
 30
0.0
 11
-106.3283286202785
 21
-19.000000000000139
 31
0.0
 12
-106.8283286202785
 22
-16.000000000000139
 32
0.0
 13
-106.8283286202785
 23
-16.000000000000139
 33
0.0
  0
SOLID
  5
2725
  8
SAPA_MATT
 10
-107.3283286202785
 20
-73.000000000001165
 30
0.0
 11
-106.3283286202785
 21
-73.000000000001165
 31
0.0
 12
-106.8283286202785
 22
-76.000000000001165
 32
0.0
 13
-106.8283286202785
 23
-76.000000000001165
 33
0.0
  0
TEXT
  8
SAPA_MATT
  40
3
  5
2732
  62
2
  72
0
  71
0
 10
-115.328
 20
-51.3100
 30
0.000000
  1
60
  7
ISO
  0
POINT
  5
2727
  8
DEFPOINTS
 62
     0
 10
-77.046446609434525
 20
-16.000000000000149
 30
0.0
  0
POINT
  5
2728
  8
DEFPOINTS
 62
     0
 10
-64.499946820780622
 20
-76.00000000000118
 30
0.0
  0
POINT
  5
2729
  8
DEFPOINTS
 62
     0
 10
-106.8283286202785
 20
-76.000000000001165
 30
0.0
  0
ENDBLK
  5
1786
  8
0
  0
BLOCK
  8
0
  2
*D129
 70
     1
 10
0.0
 20
0.0
 30
0.0
  3
*D129
  1

  0
LINE
  5
2716
  8
SAPA_MATT
 10
-65.999946820780622
 20
-76.00000000000118
 30
0.0
 11
-108.3283286202785
 21
-76.000000000001165
 31
0.0
  0
LINE
  5
2717
  8
SAPA_MATT
 10
-71.699949142376113
 20
-81.000000003941025
 30
0.0
 11
-108.3283286202785
 21
-81.000000003941025
 31
0.0
  0
LINE
  5
2718
  8
SAPA_MATT
 10
-106.8283286202785
 20
-73.000000000001165
 30
0.0
 11
-106.8283286202785
 21
-70.000000000001165
 31
0.0
  0
LINE
  5
2719
  8
SAPA_MATT
 10
-106.8283286202785
 20
-84.000000003941011
 30
0.0
 11
-106.8283286202785
 21
-87.000000003941011
 31
0.0
  0
LINE
  5
271A
  8
SAPA_MATT
 10
-106.8283286202785
 20
-76.000000000001165
 30
0.0
 11
-106.8283286202785
 21
-81.000000003941025
 31
0.0
  0
SOLID
  5
271B
  8
SAPA_MATT
 10
-107.3283286202785
 20
-73.000000000001165
 30
0.0
 11
-106.3283286202785
 21
-73.000000000001165
 31
0.0
 12
-106.8283286202785
 22
-76.000000000001165
 32
0.0
 13
-106.8283286202785
 23
-76.000000000001165
 33
0.0
  0
SOLID
  5
271C
  8
SAPA_MATT
 10
-107.3283286202785
 20
-84.000000003941011
 30
0.0
 11
-106.3283286202785
 21
-84.000000003941011
 31
0.0
 12
-106.8283286202785
 22
-81.000000003941025
 32
0.0
 13
-106.8283286202785
 23
-81.000000003941025
 33
0.0
  0
TEXT
  8
SAPA_MATT
  40
3
  5
2733
  62
2
  72
0
  71
0
 10
-115.328
 20
-83.8100
 30
0.000000
  1
5
  7
ISO
  0
POINT
  5
271E
  8
DEFPOINTS
 62
     0
 10
-64.499946820780622
 20
-76.00000000000118
 30
0.0
  0
POINT
  5
271F
  8
DEFPOINTS
 62
     0
 10
-70.199949142376113
 20
-81.000000003941025
 30
0.0
  0
POINT
  5
2720
  8
DEFPOINTS
 62
     0
 10
-106.8283286202785
 20
-81.000000003941025
 30
0.0
  0
ENDBLK
  5
1792
  8
0
  0
BLOCK
  8
0
  2
*D130
 70
     1
 10
0.0
 20
0.0
 30
0.0
  3
*D130
  1

  0
LINE
  5
270D
  8
SAPA_MATT
 10
-71.699949142376113
 20
-81.000000003941025
 30
0.0
 11
-108.3283286202785
 21
-81.000000003941025
 31
0.0
  0
LINE
  5
270E
  8
SAPA_MATT
 10
-73.199947648271831
 20
-170.0000000037293
 30
0.0
 11
-108.3283286202785
 21
-170.0000000037293
 31
0.0
  0
LINE
  5
270F
  8
SAPA_MATT
 10
-106.8283286202785
 20
-84.000000003941011
 30
0.0
 11
-106.8283286202785
 21
-167.0000000037293
 31
0.0
  0
SOLID
  5
2710
  8
SAPA_MATT
 10
-107.3283286202785
 20
-84.000000003941011
 30
0.0
 11
-106.3283286202785
 21
-84.000000003941011
 31
0.0
 12
-106.8283286202785
 22
-81.000000003941025
 32
0.0
 13
-106.8283286202785
 23
-81.000000003941025
 33
0.0
  0
SOLID
  5
2711
  8
SAPA_MATT
 10
-107.3283286202785
 20
-167.0000000037293
 30
0.0
 11
-106.3283286202785
 21
-167.0000000037293
 31
0.0
 12
-106.8283286202785
 22
-170.0000000037293
 32
0.0
 13
-106.8283286202785
 23
-170.0000000037293
 33
0.0
  0
TEXT
  8
SAPA_MATT
  40
3
  5
2734
  62
2
  72
0
  71
0
 10
-115.328
 20
-130.810
 30
0.000000
  1
89
  7
ISO
  0
POINT
  5
2713
  8
DEFPOINTS
 62
     0
 10
-70.199949142376113
 20
-81.000000003941025
 30
0.0
  0
POINT
  5
2714
  8
DEFPOINTS
 62
     0
 10
-71.699947648271831
 20
-170.0000000037293
 30
0.0
  0
POINT
  5
2715
  8
DEFPOINTS
 62
     0
 10
-106.8283286202785
 20
-170.0000000037293
 30
0.0
  0
ENDBLK
  5
17A0
  8
0
  0
BLOCK
  8
0
  2
*U131
 70
     1
 10
0.0
 20
0.0
 30
0.0
  3
*U131
  1

  0
TEXT
  5
1833
  8
SAPA_ARTIKELNR
 10
-89.664925162157033
 20
-13.52020275593336
 30
0.0
 40
3.5
  1
42844/42845
 50
90.0
  7
ISO
  0
ENDBLK
  5
1835
  8
0
  0
BLOCK
  8
0
  2
*U132
 70
     1
 10
0.0
 20
0.0
 30
0.0
  3
*U132
  1

  0
TEXT
  5
1837
  8
SAPA_ARTIKELNR
 10
70.198269956214972
 20
-7.4905679408580896
 30
0.0
 40
3.5
  1
68292
 50
90.0
  7
ISO
  0
ENDBLK
  5
1839
  8
0
  0
BLOCK
  8
0
  2
*U133
 70
     1
 10
0.0
 20
0.0
 30
0.0
  3
*U133
  1

  0
TEXT
  5
187B
  8
SAPA_ARTIKELNR
 10
23.28321461852056
 20
-67.987037288704329
 30
0.0
 40
3.5
  1
86423
 50
89.999999999999986
  7
ISO
  0
ENDBLK
  5
187D
  8
0
  0
BLOCK
  8
0
  2
*U134
 70
     1
 10
0.0
 20
0.0
 30
0.0
  3
*U134
  1

  0
TEXT
  5
187F
  8
SAPA_ARTIKELNR
 10
23.681367153349591
 20
-130.09241255572931
 30
0.0
 40
3.5
  1
86424
 50
89.999999999999986
  7
ISO
  0
ENDBLK
  5
1881
  8
0
  0
BLOCK
  8
0
  2
*U135
 70
     1
 10
0.0
 20
0.0
 30
0.0
  3
*U135
  1

  0
SOLID
  5
1AFE
  8
SAPA_PROFIL
  6
CONTINUOUS
 62
     2
 10
-67.317340025554529
 20
-86.581507495362402
 30
0.1
 11
-67.494116720851153
 21
-86.654730800065764
 31
0.1
 12
-67.140563330257891
 22
-86.654730800065764
 32
0.1
 13
-67.140563330257891
 23
-86.654730800065764
 33
0.1
210
0.0
220
0.0
230
1.0
  0
SOLID
  5
1AFF
  8
SAPA_PROFIL
  6
CONTINUOUS
 62
     2
 10
-67.494116720851153
 20
-86.654730800065764
 30
0.1
 11
-67.567340025554529
 21
-86.831507495362402
 31
0.1
 12
-67.067340025554529
 22
-86.831507495362402
 32
0.1
 13
-67.067340025554529
 23
-86.831507495362402
 33
0.1
210
0.0
220
0.0
230
1.0
  0
SOLID
  5
1B00
  8
SAPA_PROFIL
  6
CONTINUOUS
 62
     2
 10
67.494116720851153
 20
-86.654730800065764
 30
-0.1
 11
67.140563330257891
 21
-86.654730800065764
 31
-0.1
 12
67.067340025554529
 22
-86.831507495362402
 32
-0.1
 13
67.067340025554529
 23
-86.831507495362402
 33
-0.1
210
0.0
220
0.0
230
-1.0
  0
SOLID
  5
1B01
  8
SAPA_PROFIL
  6
CONTINUOUS
 62
     2
 10
67.494116720851153
 20
-87.008284190659055
 30
-0.1
 11
67.140563330257891
 21
-87.008284190659055
 31
-0.1
 12
67.317340025554529
 22
-87.081507495362402
 32
-0.1
 13
67.317340025554529
 23
-87.081507495362402
 33
-0.1
210
0.0
220
0.0
230
-1.0
  0
SOLID
  5
1B02
  8
SAPA_PROFIL
  6
CONTINUOUS
 62
     2
 10
-67.567340025554529
 20
-86.831507495362402
 30
0.1
 11
-67.494116720851153
 21
-87.008284190659055
 31
0.1
 12
-67.140563330257891
 22
-87.008284190659055
 32
0.1
 13
-67.140563330257891
 23
-87.008284190659055
 33
0.1
210
0.0
220
0.0
230
1.0
  0
SOLID
  5
1B03
  8
SAPA_PROFIL
  6
CONTINUOUS
 62
     2
 10
67.567340025554529
 20
-86.831507495362402
 30
-0.1
 11
67.067340025554529
 21
-86.831507495362402
 31
-0.1
 12
67.140563330257891
 22
-87.008284190659055
 32
-0.1
 13
67.140563330257891
 23
-87.008284190659055
 33
-0.1
210
0.0
220
0.0
230
-1.0
  0
LINE
  5
1B04
  8
SAPA_PROFIL
  6
CONTINUOUS
 62
     2
 10
-67.317340025554529
 20
-86.581507495362402
 30
0.1
 11
-67.494116720851153
 21
-86.654730800065764
 31
0.1
  0
LINE
  5
1B05
  8
SAPA_PROFIL
  6
CONTINUOUS
 62
     2
 10
-67.140563330257891
 20
-86.654730800065764
 30
0.1
 11
-67.317340025554529
 21
-86.581507495362402
 31
0.1
  0
LINE
  5
1B06
  8
SAPA_PROFIL
  6
CONTINUOUS
 62
     2
 10
-67.494116720851153
 20
-86.654730800065764
 30
0.1
 11
-67.567340025554529
 21
-86.831507495362402
 31
0.1
  0
LINE
  5
1B07
  8
SAPA_PROFIL
  6
CONTINUOUS
 62
     2
 10
-67.140563330257891
 20
-86.654730800065764
 30
0.1
 11
-67.067340025554529
 21
-86.831507495362402
 31
0.1
  0
LINE
  5
1B08
  8
SAPA_PROFIL
  6
CONTINUOUS
 62
     2
 10
-67.140563330257891
 20
-87.008284190659055
 30
0.1
 11
-67.317340025554529
 21
-87.081507495362402
 31
0.1
  0
LINE
  5
1B09
  8
SAPA_PROFIL
  6
CONTINUOUS
 62
     2
 10
-67.317340025554529
 20
-87.081507495362402
 30
0.1
 11
-67.494116720851153
 21
-87.008284190659055
 31
0.1
  0
LINE
  5
1B0A
  8
SAPA_PROFIL
  6
CONTINUOUS
 62
     2
 10
-67.567340025554529
 20
-86.831507495362402
 30
0.1
 11
-67.494116720851153
 21
-87.008284190659055
 31
0.1
  0
LINE
  5
1B0B
  8
SAPA_PROFIL
  6
CONTINUOUS
 62
     2
 10
-67.067340025554529
 20
-86.831507495362402
 30
0.1
 11
-67.140563330257891
 21
-87.008284190659055
 31
0.1
  0
ENDBLK
  5
1B0D
  8
0
  0
BLOCK
  8
0
  2
*U136
 70
     1
 10
0.0
 20
0.0
 30
0.0
  3
*U136
  1

  0
SOLID
  5
2116
  8
SAPA_PROFIL
  6
CONTINUOUS
 62
     2
 10
-67.317340025554529
 20
-86.581507495362402
 30
0.1
 11
-67.494116720851153
 21
-86.654730800065764
 31
0.1
 12
-67.140563330257891
 22
-86.654730800065764
 32
0.1
 13
-67.140563330257891
 23
-86.654730800065764
 33
0.1
210
0.0
220
0.0
230
1.0
  0
SOLID
  5
2117
  8
SAPA_PROFIL
  6
CONTINUOUS
 62
     2
 10
-67.494116720851153
 20
-86.654730800065764
 30
0.1
 11
-67.567340025554529
 21
-86.831507495362402
 31
0.1
 12
-67.067340025554529
 22
-86.831507495362402
 32
0.1
 13
-67.067340025554529
 23
-86.831507495362402
 33
0.1
210
0.0
220
0.0
230
1.0
  0
SOLID
  5
2118
  8
SAPA_PROFIL
  6
CONTINUOUS
 62
     2
 10
67.494116720851153
 20
-86.654730800065764
 30
-0.1
 11
67.140563330257891
 21
-86.654730800065764
 31
-0.1
 12
67.067340025554529
 22
-86.831507495362402
 32
-0.1
 13
67.067340025554529
 23
-86.831507495362402
 33
-0.1
210
0.0
220
0.0
230
-1.0
  0
SOLID
  5
2119
  8
SAPA_PROFIL
  6
CONTINUOUS
 62
     2
 10
67.494116720851153
 20
-87.008284190659055
 30
-0.1
 11
67.140563330257891
 21
-87.008284190659055
 31
-0.1
 12
67.317340025554529
 22
-87.081507495362402
 32
-0.1
 13
67.317340025554529
 23
-87.081507495362402
 33
-0.1
210
0.0
220
0.0
230
-1.0
  0
SOLID
  5
211A
  8
SAPA_PROFIL
  6
CONTINUOUS
 62
     2
 10
-67.567340025554529
 20
-86.831507495362402
 30
0.1
 11
-67.494116720851153
 21
-87.008284190659055
 31
0.1
 12
-67.140563330257891
 22
-87.008284190659055
 32
0.1
 13
-67.140563330257891
 23
-87.008284190659055
 33
0.1
210
0.0
220
0.0
230
1.0
  0
SOLID
  5
211B
  8
SAPA_PROFIL
  6
CONTINUOUS
 62
     2
 10
67.567340025554529
 20
-86.831507495362402
 30
-0.1
 11
67.067340025554529
 21
-86.831507495362402
 31
-0.1
 12
67.140563330257891
 22
-87.008284190659055
 32
-0.1
 13
67.140563330257891
 23
-87.008284190659055
 33
-0.1
210
0.0
220
0.0
230
-1.0
  0
LINE
  5
211C
  8
SAPA_PROFIL
  6
CONTINUOUS
 62
     2
 10
-67.317340025554529
 20
-86.581507495362402
 30
0.1
 11
-67.494116720851153
 21
-86.654730800065764
 31
0.1
  0
LINE
  5
211D
  8
SAPA_PROFIL
  6
CONTINUOUS
 62
     2
 10
-67.140563330257891
 20
-86.654730800065764
 30
0.1
 11
-67.317340025554529
 21
-86.581507495362402
 31
0.1
  0
LINE
  5
211E
  8
SAPA_PROFIL
  6
CONTINUOUS
 62
     2
 10
-67.494116720851153
 20
-86.654730800065764
 30
0.1
 11
-67.567340025554529
 21
-86.831507495362402
 31
0.1
  0
LINE
  5
211F
  8
SAPA_PROFIL
  6
CONTINUOUS
 62
     2
 10
-67.140563330257891
 20
-86.654730800065764
 30
0.1
 11
-67.067340025554529
 21
-86.831507495362402
 31
0.1
  0
LINE
  5
2120
  8
SAPA_PROFIL
  6
CONTINUOUS
 62
     2
 10
-67.140563330257891
 20
-87.008284190659055
 30
0.1
 11
-67.317340025554529
 21
-87.081507495362402
 31
0.1
  0
LINE
  5
2121
  8
SAPA_PROFIL
  6
CONTINUOUS
 62
     2
 10
-67.317340025554529
 20
-87.081507495362402
 30
0.1
 11
-67.494116720851153
 21
-87.008284190659055
 31
0.1
  0
LINE
  5
2122
  8
SAPA_PROFIL
  6
CONTINUOUS
 62
     2
 10
-67.567340025554529
 20
-86.831507495362402
 30
0.1
 11
-67.494116720851153
 21
-87.008284190659055
 31
0.1
  0
LINE
  5
2123
  8
SAPA_PROFIL
  6
CONTINUOUS
 62
     2
 10
-67.067340025554529
 20
-86.831507495362402
 30
0.1
 11
-67.140563330257891
 21
-87.008284190659055
 31
0.1
  0
ENDBLK
  5
2125
  8
0
  0
BLOCK
  8
0
  2
*U137
 70
     1
 10
0.0
 20
0.0
 30
0.0
  3
*U137
  1

  0
TEXT
  5
272B
  8
SAPA_MATT
 62
     2
 10
-107.8283286202785
 20
-2.100000000000021
 30
0.0
 40
3.0
  1
32
 50
90.0
  7
ISO
  0
ENDBLK
  5
272D
  8
0
  0
BLOCK
  8
0
  2
*U138
 70
     1
 10
0.0
 20
0.0
 30
0.0
  3
*U138
  1

  0
TEXT
  5
272F
  8
SAPA_MATT
 62
     2
 10
78.681587957706242
 20
-2.0999999999998189
 30
0.0
 40
3.0
  1
50
 50
90.0
  7
ISO
  0
ENDBLK
  5
2731
  8
0
  0
ENDSEC
  0
SECTION
  2
ENTITIES
  0
LINE
  5
6AA
  8
SAPA_PROFIL
 10
64.200939698017464
 20
24.999999999999709
 30
0.0
 11
64.200939698018033
 21
-24.999999999999272
 31
0.0
  0
INSERT
  5
6CF
  8
0
  2
*U131
 10
0.0
 20
0.0
 30
0.0
  0
INSERT
  5
6D0
  8
0
  2
*U132
 10
0.0
 20
0.0
 30
0.0
  0
POLYLINE
  5
701
  8
SAPA_LIGHT
 66
     1
 10
0.0
 20
0.0
 30
0.0
  0
VERTEX
  5
183A
  8
SAPA_LIGHT
 10
62.20093969801777
 20
24.999999999999659
 30
0.0
  0
VERTEX
  5
183B
  8
SAPA_LIGHT
 10
62.200939698017763
 20
-24.999999999999321
 30
0.0
  0
VERTEX
  5
183C
  8
SAPA_LIGHT
 10
-46.853932708650639
 20
-24.9999999999993
 30
0.0
  0
VERTEX
  5
183D
  8
SAPA_LIGHT
 10
-46.853932708650632
 20
-5.0000000000003419
 30
0.0
  0
VERTEX
  5
183E
  8
SAPA_LIGHT
 10
-72.499999999998636
 20
-5.0000000000003411
 30
0.0
  0
VERTEX
  5
183F
  8
SAPA_LIGHT
 10
-72.499999999998622
 20
-16.00000000000038
 30
0.0
  0
VERTEX
  5
1840
  8
SAPA_LIGHT
 10
-77.292893218811855
 20
-15.999999999999931
 30
0.0
  0
VERTEX
  5
1841
  8
SAPA_LIGHT
 10
-77.64644660940462
 20
-15.85355339059315
 30
0.0
  0
VERTEX
  5
1842
  8
SAPA_LIGHT
 10
-86.207106781184976
 20
-7.2928932188130506
 30
0.0
  0
VERTEX
  5
1843
  8
SAPA_LIGHT
 10
-86.499999999998394
 20
-6.5857864376264788
 30
0.0
  0
VERTEX
  5
1844
  8
SAPA_LIGHT
 10
-86.499999999998394
 20
6.58578643762708
 30
0.0
  0
VERTEX
  5
1845
  8
SAPA_LIGHT
 10
-86.207106781184976
 20
7.2928932188136333
 30
0.0
  0
VERTEX
  5
1846
  8
SAPA_LIGHT
 10
-77.646446609404848
 20
15.853553390593291
 30
0.0
  0
VERTEX
  5
1847
  8
SAPA_LIGHT
 10
-77.292893218811628
 20
16.000000000000071
 30
0.0
  0
VERTEX
  5
1848
  8
SAPA_LIGHT
 10
-72.499999999998636
 20
16.000000000000071
 30
0.0
  0
VERTEX
  5
1849
  8
SAPA_LIGHT
 10
-72.499999999999659
 20
5.0000000000003428
 30
0.0
  0
VERTEX
  5
184A
  8
SAPA_LIGHT
 10
-45.499999999998629
 20
5.0000000000003473
 30
0.0
  0
VERTEX
  5
184B
  8
SAPA_LIGHT
 10
-45.499999999998629
 20
25.000000000000679
 30
0.0
  0
VERTEX
  5
184C
  8
SAPA_LIGHT
 10
62.20093969801777
 20
25.000000000000671
 30
0.0
  0
SEQEND
  5
184D
  8
SAPA_LIGHT
  0
POLYLINE
  5
703
  8
SAPA_LIGHT
 66
     1
 10
0.0
 20
0.0
 30
0.0
  0
VERTEX
  5
184E
  8
SAPA_LIGHT
 10
-72.499999999998664
 20
50.999999999999758
 30
0.0
  0
VERTEX
  5
184F
  8
SAPA_LIGHT
 10
-72.499999999998622
 20
10.99999999999976
 30
0.0
  0
VERTEX
  5
1850
  8
SAPA_LIGHT
 10
-45.499999999998629
 20
10.99999999999976
 30
0.0
  0
VERTEX
  5
1851
  8
SAPA_LIGHT
 10
-45.499999999996952
 20
50.999999999999758
 30
0.0
  0
SEQEND
  5
1852
  8
SAPA_LIGHT
  0
POLYLINE
  5
89C
  8
SAPA_LIGHT
 66
     1
 10
0.0
 20
0.0
 30
0.0
  0
VERTEX
  5
1853
  8
SAPA_LIGHT
 10
-72.199947651673767
 20
-9.0000000001066809
 30
0.0
  0
VERTEX
  5
1854
  8
SAPA_LIGHT
 10
-46.853932708650632
 20
-9.0000000001066898
 30
0.0
  0
VERTEX
  5
1855
  8
SAPA_LIGHT
 10
-46.853932708650639
 20
-31.00000000000118
 30
0.0
  0
VERTEX
  5
1856
  8
SAPA_LIGHT
 10
1.800052393360253
 20
-31.00000000000118
 30
0.0
  0
VERTEX
  5
1857
  8
SAPA_LIGHT
 10
1.800052393360253
 20
-170.14926190805971
 30
0.0
  0
VERTEX
  5
1858
  8
SAPA_LIGHT
 10
-36.249947679034598
 20
-170.14926190805971
 30
0.0
  0
VERTEX
  5
1859
  8
SAPA_LIGHT
 10
-36.249947679034612
 20
-148.7887370907612
 30
0.0
  0
VERTEX
  5
185A
  8
SAPA_LIGHT
 10
-63.249947679034598
 20
-148.7887370907612
 30
0.0
  0
VERTEX
  5
185B
  8
SAPA_LIGHT
 10
-63.249947679034619
 20
-170.0000000039413
 30
0.0
  0
VERTEX
  5
185C
  8
SAPA_LIGHT
 10
-72.199947648242798
 20
-170.00000000394121
 30
0.0
  0
VERTEX
  5
185D
  8
SAPA_LIGHT
 10
-72.199947651673767
 20
-9.0000000001066809
 30
0.0
  0
SEQEND
  5
185E
  8
SAPA_LIGHT
  0
POLYLINE
  5
89D
  8
SAPA_LIGHT
 66
     1
 10
0.0
 20
0.0
 30
0.0
  0
VERTEX
  5
185F
  8
SAPA_LIGHT
 10
-63.249947679034591
 20
-183.14926190804599
 30
0.0
  0
VERTEX
  5
1860
  8
SAPA_LIGHT
 10
-63.249947679034577
 20
-153.14926190804599
 30
0.0
  0
VERTEX
  5
1861
  8
SAPA_LIGHT
 10
-36.249947679034612
 20
-153.14926190804599
 30
0.0
  0
VERTEX
  5
1862
  8
SAPA_LIGHT
 10
-36.249947679034598
 20
-183.14926190804599
 30
0.0
  0
SEQEND
  5
1863
  8
SAPA_LIGHT
  0
INSERT
  5
C71
  8
0
  2
*U133
 10
0.0
 20
0.0
 30
0.0
  0
INSERT
  5
C72
  8
0
  2
*U134
 10
0.0
 20
0.0
 30
0.0
  0
INSERT
  5
14F2
  8
BYGG-027036$0$KON
 66
     1
  2
BYGG-027036$0$RH
 10
386.93657317286028
 20
-559.9835905005225
 30
0.0
 43
-1.0
 50
270.0
210
0.0
220
0.0
230
-1.0
  0
ATTRIB
  5
14F3
  8
BYGG-027036$0$KON
 10
-392.23657317286029
 20
-563.18359050052266
 30
0.0
 40
0.3999999999999772
  1
GGFJ
 50
270.0
  7
BYGG-027036$0$SIMPLEX
 71
     4
  2
SÄLJARE
 70
     1
  0
ATTRIB
  5
14F4
  8
BYGG-027036$0$KON
 10
-388.8365731728602
 20
-563.58359050052263
 30
0.0
 40
0.3000000000000114
  1

 50
270.0
  7
BYGG-027036$0$SIMPLEX
 71
     4
 72
     4
 11
-388.8365731728602
 21
-563.58359050052263
 31
0.0
  2
DATUM
 70
     0
  0
ATTRIB
  5
14F5
  8
BYGG-027036$0$KON
 10
-387.83657317286031
 20
-563.38359050052247
 30
0.0
 40
0.3999999999999772
  1

 50
270.0
  7
BYGG-027036$0$SIMPLEX
 71
     4
 72
     4
 11
-387.83657317286031
 21
-563.38359050052247
 31
0.0
  2
RITAD:
 70
     1
  0
ATTRIB
  5
14F6
  8
BYGG-027036$0$KON
 10
-389.23657317286029
 20
-570.98359050052261
 30
0.0
 40
0.4399999999999978
  1

 50
270.0
  7
BYGG-027036$0$SIMPLEX
 71
     4
 72
     4
 11
-389.23657317286029
 21
-570.98359050052261
 31
0.0
  2
BENÄMNING
 70
     0
  0
ATTRIB
  5
14F7
  8
BYGG-027036$0$KON
 10
-388.43657317286028
 20
-570.98359050052261
 30
0.0
 40
0.4399999999999978
  1

 50
270.0
  7
BYGG-027036$0$SIMPLEX
 71
     4
 72
     4
 11
-388.43657317286028
 21
-570.98359050052261
 31
0.0
  2
GUMMI-HÅRDHET-FÄRG
 70
     0
  0
ATTRIB
  5
14F8
  8
BYGG-027036$0$KON
 10
-387.63657317286032
 20
-570.98359050052261
 30
0.0
 40
0.4399999999999978
  1

 50
270.0
  7
BYGG-027036$0$SIMPLEX
 71
     4
 72
     4
 11
-387.63657317286032
 21
-570.98359050052261
 31
0.0
  2
KUND
 70
     0
  0
ATTRIB
  5
14F9
  8
BYGG-027036$0$KON
 10
-388.93657317286028
 20
-578.78359050052245
 30
0.0
 40
0.3999999999999772
  1

 50
270.0
  7
BYGG-027036$0$SIMPLEX
 71
     4
 72
     4
 11
-388.93657317286028
 21
-578.78359050052245
 31
0.0
  2
SKALA:
 70
     1
  0
ATTRIB
  5
14FA
  8
BYGG-027036$0$KON
 10
-387.73657317286029
 20
-578.38359050052259
 30
0.0
 40
0.3999999999999772
  1

 50
270.0
  7
BYGG-027036$0$SIMPLEX
 71
     4
 72
     4
 11
-387.73657317286029
 21
-578.38359050052259
 31
0.0
  2
RIT.NR:
 70
     0
  0
ATTRIB
  5
14FB
  8
BYGG-027036$0$KON
 10
-390.13657317286032
 20
-578.38359050052259
 30
0.0
 40
0.3999999999999772
  1

 50
270.0
  7
BYGG-027036$0$SIMPLEX
 71
     4
 72
     4
 11
-390.13657317286032
 21
-578.38359050052259
 31
0.0
  2
DET.NR:
 70
     0
  0
SEQEND
  5
1515
  8
BYGG-027036$0$KON
  0
INSERT
  5
14FC
  8
BYGG-027036$0$KON
 66
     1
  2
BYGG-027036$0$RH
 10
386.93657317286028
 20
-559.9835905005225
 30
0.0
 43
-1.0
 50
270.0
210
0.0
220
0.0
230
-1.0
  0
ATTRIB
  5
14FD
  8
BYGG-027036$0$KON
 10
-389.23657317286029
 20
-570.98359050052261
 30
0.0
 40
0.4399999999999978
  1

 50
270.0
  7
BYGG-027036$0$SIMPLEX
 71
     4
 72
     4
 11
-389.23657317286029
 21
-570.98359050052261
 31
0.0
  2
BENÄMNING
 70
     0
  0
ATTRIB
  5
14FE
  8
BYGG-027036$0$KON
 10
-388.43657317286028
 20
-570.98359050052261
 30
0.0
 40
0.4399999999999978
  1

 50
270.0
  7
BYGG-027036$0$SIMPLEX
 71
     4
 72
     4
 11
-388.43657317286028
 21
-570.98359050052261
 31
0.0
  2
GUMMI-HÅRDHET-FÄRG
 70
     0
  0
ATTRIB
  5
14FF
  8
BYGG-027036$0$KON
 10
-387.63657317286032
 20
-570.98359050052261
 30
0.0
 40
0.4399999999999978
  1

 50
270.0
  7
BYGG-027036$0$SIMPLEX
 71
     4
 72
     4
 11
-387.63657317286032
 21
-570.98359050052261
 31
0.0
  2
KUND
 70
     0
  0
ATTRIB
  5
1500
  8
BYGG-027036$0$KON
 10
-387.73657317286029
 20
-578.38359050052259
 30
0.0
 40
0.3999999999999772
  1

 50
270.0
  7
BYGG-027036$0$SIMPLEX
 71
     4
 72
     4
 11
-387.73657317286029
 21
-578.38359050052259
 31
0.0
  2
RIT.NR:
 70
     0
  0
ATTRIB
  5
1501
  8
BYGG-027036$0$KON
 10
-390.13657317286032
 20
-578.38359050052259
 30
0.0
 40
0.3999999999999772
  1

 50
270.0
  7
BYGG-027036$0$SIMPLEX
 71
     4
 72
     4
 11
-390.13657317286032
 21
-578.38359050052259
 31
0.0
  2
DET.NR:
 70
     0
  0
ATTRIB
  5
1502
  8
BYGG-027036$0$KON
 10
-388.93657317286028
 20
-578.78359050052245
 30
0.0
 40
0.3999999999999772
  1

 50
270.0
  7
BYGG-027036$0$SIMPLEX
 71
     4
 72
     4
 11
-388.93657317286028
 21
-578.78359050052245
 31
0.0
  2
SKALA:
 70
     1
  0
ATTRIB
  5
1503
  8
BYGG-027036$0$KON
 10
-388.8365731728602
 20
-563.58359050052263
 30
0.0
 40
0.3000000000000114
  1

 50
270.0
  7
BYGG-027036$0$SIMPLEX
 71
     4
 72
     4
 11
-388.8365731728602
 21
-563.58359050052263
 31
0.0
  2
DATUM
 70
     0
  0
ATTRIB
  5
1504
  8
BYGG-027036$0$KON
 10
-387.83657317286031
 20
-563.38359050052247
 30
0.0
 40
0.3999999999999772
  1

 50
270.0
  7
BYGG-027036$0$SIMPLEX
 71
     4
 72
     4
 11
-387.83657317286031
 21
-563.38359050052247
 31
0.0
  2
RITAD:
 70
     1
  0
ATTRIB
  5
1505
  8
BYGG-027036$0$KON
 10
-392.23657317286029
 20
-563.18359050052266
 30
0.0
 40
0.3999999999999772
  1

 50
270.0
  7
BYGG-027036$0$SIMPLEX
 71
     4
  2
SÄLJARE
 70
     1
  0
SEQEND
  5
1516
  8
BYGG-027036$0$KON
  0
INSERT
  5
1506
  8
BYGG-027036$0$DIM
 66
     1
  2
BYGG-027036$0$RH
 10
386.93657317286028
 20
-559.9835905005225
 30
0.0
 43
-1.0
 50
270.0
210
0.0
220
0.0
230
-1.0
  0
ATTRIB
  5
1507
  8
BYGG-027036$0$KON
 10
-389.23657317286029
 20
-570.98359050052261
 30
0.0
 40
0.4399999999999978
  1

 50
270.0
  7
BYGG-027036$0$SIMPLEX
 71
     4
 72
     4
 11
-389.23657317286029
 21
-570.98359050052261
 31
0.0
  2
BENÄMNING
 70
     0
  0
ATTRIB
  5
1508
  8
BYGG-027036$0$KON
 10
-388.43657317286028
 20
-570.98359050052261
 30
0.0
 40
0.4399999999999978
  1

 50
270.0
  7
BYGG-027036$0$SIMPLEX
 71
     4
 72
     4
 11
-388.43657317286028
 21
-570.98359050052261
 31
0.0
  2
GUMMI-HÅRDHET-FÄRG
 70
     0
  0
ATTRIB
  5
1509
  8
BYGG-027036$0$KON
 10
-387.63657317286032
 20
-570.98359050052261
 30
0.0
 40
0.4399999999999978
  1

 50
270.0
  7
BYGG-027036$0$SIMPLEX
 71
     4
 72
     4
 11
-387.63657317286032
 21
-570.98359050052261
 31
0.0
  2
KUND
 70
     0
  0
ATTRIB
  5
150A
  8
BYGG-027036$0$KON
 10
-387.73657317286029
 20
-578.38359050052259
 30
0.0
 40
0.3999999999999772
  1

 50
270.0
  7
BYGG-027036$0$SIMPLEX
 71
     4
 72
     4
 11
-387.73657317286029
 21
-578.38359050052259
 31
0.0
  2
RIT.NR:
 70
     0
  0
ATTRIB
  5
150B
  8
BYGG-027036$0$KON
 10
-390.13657317286032
 20
-578.38359050052259
 30
0.0
 40
0.3999999999999772
  1

 50
270.0
  7
BYGG-027036$0$SIMPLEX
 71
     4
 72
     4
 11
-390.13657317286032
 21
-578.38359050052259
 31
0.0
  2
DET.NR:
 70
     0
  0
ATTRIB
  5
150C
  8
BYGG-027036$0$KON
 10
-388.93657317286028
 20
-578.78359050052245
 30
0.0
 40
0.3999999999999772
  1

 50
270.0
  7
BYGG-027036$0$SIMPLEX
 71
     4
 72
     4
 11
-388.93657317286028
 21
-578.78359050052245
 31
0.0
  2
SKALA:
 70
     1
  0
ATTRIB
  5
150D
  8
BYGG-027036$0$KON
 10
-388.8365731728602
 20
-563.58359050052263
 30
0.0
 40
0.3000000000000114
  1

 50
270.0
  7
BYGG-027036$0$SIMPLEX
 71
     4
 72
     4
 11
-388.8365731728602
 21
-563.58359050052263
 31
0.0
  2
DATUM
 70
     0
  0
ATTRIB
  5
150E
  8
BYGG-027036$0$KON
 10
-387.83657317286031
 20
-563.38359050052247
 30
0.0
 40
0.3999999999999772
  1

 50
270.0
  7
BYGG-027036$0$SIMPLEX
 71
     4
 72
     4
 11
-387.83657317286031
 21
-563.38359050052247
 31
0.0
  2
RITAD:
 70
     1
  0
ATTRIB
  5
150F
  8
BYGG-027036$0$KON
 10
-392.23657317286029
 20
-563.18359050052266
 30
0.0
 40
0.3999999999999772
  1

 50
270.0
  7
BYGG-027036$0$SIMPLEX
 71
     4
  2
SÄLJARE
 70
     1
  0
SEQEND
  5
1517
  8
BYGG-027036$0$DIM
  0
CIRCLE
  5
166D
  8
SAPA_PROFIL
 62
     2
 10
-69.358006485421754
 20
-166.6679648116725
 30
0.0
 40
0.8999999999999985
  0
POLYLINE
  5
166E
  8
SAPA_PROFIL
 62
     2
 66
     1
 10
0.0
 20
0.0
 30
0.0
  0
VERTEX
  5
1EED
  8
SAPA_PROFIL
 62
     2
 10
-68.050000073848764
 20
-168.06796481167251
 30
0.0
  0
VERTEX
  5
1EEE
  8
SAPA_PROFIL
 62
     2
 10
-69.140918884001493
 20
-167.87560639168009
 30
0.0
  0
VERTEX
  5
1EEF
  8
SAPA_PROFIL
 62
     2
 10
-69.256618423521502
 20
-168.30740295158171
 30
0.0
 42
-0.4430158954262519
  0
VERTEX
  5
1EF0
  8
SAPA_PROFIL
 62
     2
 10
-69.520094851628471
 20
-168.44287999912581
 30
0.0
  0
VERTEX
  5
1EF1
  8
SAPA_PROFIL
 62
     2
 10
-70.79058259954661
 20
-167.96593180590679
 30
0.0
 42
-0.3125358528825162
  0
VERTEX
  5
1EF2
  8
SAPA_PROFIL
 62
     2
 10
-71.050000073848295
 20
-167.59145009277739
 30
0.0
  0
VERTEX
  5
1EF3
  8
SAPA_PROFIL
 62
     2
 10
-71.050000073848651
 20
-165.7212947768671
 30
0.0
 42
-0.3125358528825104
  0
VERTEX
  5
1EF4
  8
SAPA_PROFIL
 62
     2
 10
-70.79058259954644
 20
-165.34681306373761
 30
0.0
  0
VERTEX
  5
1EF5
  8
SAPA_PROFIL
 62
     2
 10
-69.520094851628244
 20
-164.8698648705186
 30
0.0
 42
-0.4430158954262519
  0
VERTEX
  5
1EF6
  8
SAPA_PROFIL
 62
     2
 10
-69.256618423521374
 20
-165.0053419180627
 30
0.0
  0
VERTEX
  5
1EF7
  8
SAPA_PROFIL
 62
     2
 10
-69.140918884001323
 20
-165.43713847796451
 30
0.0
  0
VERTEX
  5
1EF8
  8
SAPA_PROFIL
 62
     2
 10
-68.050000073848594
 20
-165.2448724348223
 30
0.0
  0
SEQEND
  5
1EF9
  8
SAPA_PROFIL
 62
     2
  0
POLYLINE
  5
166F
  8
SAPA_PROFIL
 62
     2
 66
     1
 10
0.0
 20
0.0
 30
0.0
 70
     1
  0
VERTEX
  5
1EFA
  8
SAPA_PROFIL
 62
     2
 10
-68.050000073848764
 20
-168.05637243482221
 30
0.0
 42
0.285714285714282
  0
VERTEX
  5
1EFB
  8
SAPA_PROFIL
 62
     2
 10
-68.050000073848594
 20
-165.2563724348222
 30
0.0
  0
VERTEX
  5
1EFC
  8
SAPA_PROFIL
 62
     2
 10
-68.050000073848025
 20
-163.18259226543441
 30
0.0
 42
-0.3882600129940275
  0
VERTEX
  5
1EFD
  8
SAPA_PROFIL
 62
     2
 10
-67.77678934756841
 20
-162.88379076809309
 30
0.0
  0
VERTEX
  5
1EFE
  8
SAPA_PROFIL
 62
     2
 10
-63.876789347568319
 20
-162.41758084416679
 30
0.0
 42
-0.4406523138893894
  0
VERTEX
  5
1EFF
  8
SAPA_PROFIL
 62
     2
 10
-63.550000073848423
 20
-162.71638234150859
 30
0.0
  0
VERTEX
  5
1F00
  8
SAPA_PROFIL
 62
     2
 10
-63.550000073848537
 20
-164.42617433842901
 30
0.0
 42
-0.3394542588634375
  0
VERTEX
  5
1F01
  8
SAPA_PROFIL
 62
     2
 10
-63.772354360317529
 20
-164.7159520863155
 30
0.0
  0
VERTEX
  5
1F02
  8
SAPA_PROFIL
 62
     2
 10
-63.989940142485182
 20
-164.9183318142469
 30
0.0
 42
0.3394542588633663
  0
VERTEX
  5
1F03
  8
SAPA_PROFIL
 62
     2
 10
-64.212294428954181
 20
-165.2081095621337
 30
0.0
  0
VERTEX
  5
1F04
  8
SAPA_PROFIL
 62
     2
 10
-64.212294428954351
 20
-168.10463530751159
 30
0.0
 42
0.3394542588634373
  0
VERTEX
  5
1F05
  8
SAPA_PROFIL
 62
     2
 10
-63.989940142485409
 20
-168.3944130553981
 30
0.0
  0
VERTEX
  5
1F06
  8
SAPA_PROFIL
 62
     2
 10
-63.77235436031782
 20
-168.59679278332959
 30
0.0
 42
-0.3394542588633662
  0
VERTEX
  5
1F07
  8
SAPA_PROFIL
 62
     2
 10
-63.550000073848821
 20
-168.88657053121631
 30
0.0
  0
VERTEX
  5
1F08
  8
SAPA_PROFIL
 62
     2
 10
-63.550000073848942
 20
-170.5963625281365
 30
0.0
 42
-0.4406523138893994
  0
VERTEX
  5
1F09
  8
SAPA_PROFIL
 62
     2
 10
-63.876789347568881
 20
-170.8951640254781
 30
0.0
  0
VERTEX
  5
1F0A
  8
SAPA_PROFIL
 62
     2
 10
-67.776789347568922
 20
-170.4289541015516
 30
0.0
 42
-0.3882600129940462
  0
VERTEX
  5
1F0B
  8
SAPA_PROFIL
 62
     2
 10
-68.050000073848935
 20
-170.13015260421011
 30
0.0
  0
VERTEX
  5
1F0C
  8
SAPA_PROFIL
 62
     2
 10
-68.050000073848764
 20
-168.06796481167251
 30
0.0
  0
SEQEND
  5
1F0D
  8
SAPA_PROFIL
 62
     2
  0
POLYLINE
  5
1670
  8
SAPA_PROFIL
  6
CONTINUOUS
 66
     1
 10
0.0
 20
0.0
 30
0.0
 70
     1
  0
VERTEX
  5
1F0E
  8
SAPA_PROFIL
  6
CONTINUOUS
 10
10.107797028340171
 20
-165.5831128815384
 30
0.0
  0
VERTEX
  5
1F0F
  8
SAPA_PROFIL
  6
CONTINUOUS
 10
10.527360517732181
 20
-150.44457742493131
 30
0.0
 42
0.2061234514950211
  0
VERTEX
  5
1F10
  8
SAPA_PROFIL
  6
CONTINUOUS
 10
10.38110582714242
 20
-150.07717188706991
 30
0.0
  0
VERTEX
  5
1F11
  8
SAPA_PROFIL
  6
CONTINUOUS
 10
8.4503805474092957
 20
-148.14644660733711
 30
0.0
 42
-0.1989123673797024
  0
VERTEX
  5
1F12
  8
SAPA_PROFIL
  6
CONTINUOUS
 10
8.3039339380024728
 20
-147.79289321674381
 30
0.0
  0
VERTEX
  5
1F13
  8
SAPA_PROFIL
  6
CONTINUOUS
 10
8.3039339380024728
 20
-143.61211517687889
 30
0.0
 42
-0.6681786379193032
  0
VERTEX
  5
1F14
  8
SAPA_PROFIL
  6
CONTINUOUS
 10
8.7307106332991111
 20
-143.43533848158219
 30
0.0
  0
VERTEX
  5
1F15
  8
SAPA_PROFIL
  6
CONTINUOUS
 10
9.7179096725207899
 20
-144.4225375208039
 30
0.0
 42
-0.4584832902918763
  0
VERTEX
  5
1F16
  8
SAPA_PROFIL
  6
CONTINUOUS
 10
9.6053077286724147
 20
-145.9337363355188
 30
0.0
 42
0.2378770156285958
  0
VERTEX
  5
1F17
  8
SAPA_PROFIL
  6
CONTINUOUS
 10
9.5039339380052184
 20
-146.13475934390141
 30
0.0
  0
VERTEX
  5
1F18
  8
SAPA_PROFIL
  6
CONTINUOUS
 10
9.5039339380029872
 20
-147.2958369418956
 30
0.0
 42
0.1989123673801665
  0
VERTEX
  5
1F19
  8
SAPA_PROFIL
  6
CONTINUOUS
 10
9.6503805474096964
 20
-147.64939033248979
 30
0.0
  0
VERTEX
  5
1F1A
  8
SAPA_PROFIL
  6
CONTINUOUS
 10
10.00099021285015
 20
-147.99999999793039
 30
0.0
  0
VERTEX
  5
1F1B
  8
SAPA_PROFIL
  6
CONTINUOUS
 10
10.42794704044209
 20
-148.42680759047639
 30
0.0
 42
0.1988669396406054
  0
VERTEX
  5
1F1C
  8
SAPA_PROFIL
  6
CONTINUOUS
 10
10.60469283308819
 20
-148.49999999793039
 30
0.0
  0
VERTEX
  5
1F1D
  8
SAPA_PROFIL
  6
CONTINUOUS
 10
10.751166039925151
 20
-148.49999999793039
 30
0.0
 42
0.4142135623733282
  0
VERTEX
  5
1F1E
  8
SAPA_PROFIL
  6
CONTINUOUS
 10
11.00116503992515
 20
-148.25000099793019
 30
0.0
  0
VERTEX
  5
1F1F
  8
SAPA_PROFIL
  6
CONTINUOUS
 10
11.00116503992515
 20
-148.24999999793059
 30
0.0
 42
-0.4142135623732616
  0
VERTEX
  5
1F20
  8
SAPA_PROFIL
  6
CONTINUOUS
 10
11.2511650399251
 20
-147.99999999793039
 30
0.0
  0
VERTEX
  5
1F21
  8
SAPA_PROFIL
  6
CONTINUOUS
 10
11.75006484635904
 20
-147.99999999793039
 30
0.0
 42
-0.4209003450991805
  0
VERTEX
  5
1F22
  8
SAPA_PROFIL
  6
CONTINUOUS
 10
12.00000000582196
 20
-148.25569350865021
 30
0.0
 42
0.0067990255081984
  0
VERTEX
  5
1F23
  8
SAPA_PROFIL
  6
CONTINUOUS
 10
11.80503094641338
 20
-169.49779016963771
 30
0.0
 42
-0.4155086472897409
  0
VERTEX
  5
1F24
  8
SAPA_PROFIL
  6
CONTINUOUS
 10
11.30503582977823
 20
-169.9999999979438
 30
0.0
  0
VERTEX
  5
1F25
  8
SAPA_PROFIL
  6
CONTINUOUS
 10
-26.394621398208411
 20
-169.99999999793039
 30
0.0
 42
-0.4142135623716549
  0
VERTEX
  5
1F26
  8
SAPA_PROFIL
  6
CONTINUOUS
 10
-26.69462139820973
 20
-169.69999999793041
 30
0.0
  0
VERTEX
  5
1F27
  8
SAPA_PROFIL
  6
CONTINUOUS
 10
-26.69462139820951
 20
-168.499999997945
 30
0.0
 42
-0.4142135623732907
  0
VERTEX
  5
1F28
  8
SAPA_PROFIL
  6
CONTINUOUS
 10
-26.394621398209321
 20
-168.19999999794501
 30
0.0
  0
VERTEX
  5
1F29
  8
SAPA_PROFIL
  6
CONTINUOUS
 10
-25.1946213982099
 20
-168.19999999794589
 30
0.0
 42
0.4142135623732116
  0
VERTEX
  5
1F2A
  8
SAPA_PROFIL
  6
CONTINUOUS
 10
-24.694621398209701
 20
-167.69999999794589
 30
0.0
  0
VERTEX
  5
1F2B
  8
SAPA_PROFIL
  6
CONTINUOUS
 10
-24.694621398209708
 20
-158.79999999793171
 30
0.0
 42
-0.4142135623733198
  0
VERTEX
  5
1F2C
  8
SAPA_PROFIL
  6
CONTINUOUS
 10
-24.394621398209519
 20
-158.4999999979317
 30
0.0
  0
VERTEX
  5
1F2D
  8
SAPA_PROFIL
  6
CONTINUOUS
 10
-23.69462139820951
 20
-158.49999999793201
 30
0.0
 42
-0.4142135623728995
  0
VERTEX
  5
1F2E
  8
SAPA_PROFIL
  6
CONTINUOUS
 10
-23.394621398209701
 20
-158.79999999793199
 30
0.0
  0
VERTEX
  5
1F2F
  8
SAPA_PROFIL
  6
CONTINUOUS
 10
-23.3946213982098
 20
-167.9999999979353
 30
0.0
 42
0.4142135623716508
  0
VERTEX
  5
1F30
  8
SAPA_PROFIL
  6
CONTINUOUS
 10
-22.894621398209789
 20
-168.49999999793039
 30
0.0
  0
VERTEX
  5
1F31
  8
SAPA_PROFIL
  6
CONTINUOUS
 10
-5.4960660619949202
 20
-168.49999999793039
 30
0.0
 42
0.41421356237163
  0
VERTEX
  5
1F32
  8
SAPA_PROFIL
  6
CONTINUOUS
 10
-4.9960660619974213
 20
-167.99999999793039
 30
0.0
  0
VERTEX
  5
1F33
  8
SAPA_PROFIL
  6
CONTINUOUS
 10
-4.996066061997424
 20
-146.0858270785659
 30
0.0
 42
0.4663076581592616
  0
VERTEX
  5
1F34
  8
SAPA_PROFIL
  6
CONTINUOUS
 10
-5.3481605152974216
 20
-145.79038475266231
 30
0.0
  0
VERTEX
  5
1F35
  8
SAPA_PROFIL
  6
CONTINUOUS
 10
-5.9439716086961019
 20
-145.89544232383389
 30
0.0
 42
-0.7332303362587812
  0
VERTEX
  5
1F36
  8
SAPA_PROFIL
  6
CONTINUOUS
 10
-6.2081980963535406
 20
-145.38786796357451
 30
0.0
  0
VERTEX
  5
1F37
  8
SAPA_PROFIL
  6
CONTINUOUS
 10
-4.2081980963560284
 20
-143.38786796357701
 30
0.0
 42
-0.6681786379237062
  0
VERTEX
  5
1F38
  8
SAPA_PROFIL
  6
CONTINUOUS
 10
-3.696066061997541
 20
-143.5999999979305
 30
0.0
  0
VERTEX
  5
1F39
  8
SAPA_PROFIL
  6
CONTINUOUS
 10
-3.6960660619975232
 20
-167.99999999793039
 30
0.0
 42
0.4142135623716217
  0
VERTEX
  5
1F3A
  8
SAPA_PROFIL
  6
CONTINUOUS
 10
-3.1960660619950221
 20
-168.49999999793039
 30
0.0
  0
VERTEX
  5
1F3B
  8
SAPA_PROFIL
  6
CONTINUOUS
 10
7.1089485412407782
 20
-168.49999999793039
 30
0.0
 42
0.40612121347231
  0
SEQEND
  5
1F3C
  8
SAPA_PROFIL
  6
CONTINUOUS
  0
POLYLINE
  5
1671
  8
SAPA_PROFIL
 62
     2
 10
-30.344621411521846
 20
-165.8999999979454
 30
0.0
 66
     1
 70
     8
  0
VERTEX
  8
SAPA_PROFIL
  5
2735
 10
-30.3446
 20
-165.900
 30
0.000000
  70
    32
  0
VERTEX
  8
SAPA_PROFIL
  5
2736
 10
-30.4428
 20
-165.896
 30
0.000000
  70
    32
  0
VERTEX
  8
SAPA_PROFIL
  5
2737
 10
-30.5407
 20
-165.883
 30
0.000000
  70
    32
  0
VERTEX
  8
SAPA_PROFIL
  5
2738
 10
-30.6381
 20
-165.862
 30
0.000000
  70
    32
  0
VERTEX
  8
SAPA_PROFIL
  5
2739
 10
-30.7348
 20
-165.833
 30
0.000000
  70
    32
  0
VERTEX
  8
SAPA_PROFIL
  5
273A
 10
-30.8306
 20
-165.795
 30
0.000000
  70
    32
  0
VERTEX
  8
SAPA_PROFIL
  5
273B
 10
-30.9252
 20
-165.749
 30
0.000000
  70
    32
  0
VERTEX
  8
SAPA_PROFIL
  5
273C
 10
-31.0184
 20
-165.695
 30
0.000000
  70
    32
  0
VERTEX
  8
SAPA_PROFIL
  5
273D
 10
-31.1100
 20
-165.634
 30
0.000000
  70
    32
  0
VERTEX
  8
SAPA_PROFIL
  5
273E
 10
-31.1997
 20
-165.564
 30
0.000000
  70
    32
  0
VERTEX
  8
SAPA_PROFIL
  5
273F
 10
-31.2874
 20
-165.487
 30
0.000000
  70
    32
  0
VERTEX
  8
SAPA_PROFIL
  5
2740
 10
-31.3728
 20
-165.402
 30
0.000000
  70
    32
  0
VERTEX
  8
SAPA_PROFIL
  5
2741
 10
-31.4558
 20
-165.310
 30
0.000000
  70
    32
  0
VERTEX
  8
SAPA_PROFIL
  5
2742
 10
-31.5360
 20
-165.211
 30
0.000000
  70
    32
  0
VERTEX
  8
SAPA_PROFIL
  5
2743
 10
-31.6134
 20
-165.106
 30
0.000000
  70
    32
  0
VERTEX
  8
SAPA_PROFIL
  5
2744
 10
-31.6877
 20
-164.993
 30
0.000000
  70
    32
  0
VERTEX
  8
SAPA_PROFIL
  5
2745
 10
-31.7588
 20
-164.875
 30
0.000000
  70
    32
  0
VERTEX
  8
SAPA_PROFIL
  5
2746
 10
-31.8265
 20
-164.750
 30
0.000000
  70
    32
  0
VERTEX
  8
SAPA_PROFIL
  5
2747
 10
-31.8906
 20
-164.620
 30
0.000000
  70
    32
  0
VERTEX
  8
SAPA_PROFIL
  5
2748
 10
-31.9510
 20
-164.485
 30
0.000000
  70
    32
  0
VERTEX
  8
SAPA_PROFIL
  5
2749
 10
-32.0076
 20
-164.344
 30
0.000000
  70
    32
  0
VERTEX
  8
SAPA_PROFIL
  5
274A
 10
-32.0601
 20
-164.199
 30
0.000000
  70
    32
  0
VERTEX
  8
SAPA_PROFIL
  5
274B
 10
-32.1085
 20
-164.050
 30
0.000000
  70
    32
  0
VERTEX
  8
SAPA_PROFIL
  5
274C
 10
-32.1526
 20
-163.896
 30
0.000000
  70
    32
  0
VERTEX
  8
SAPA_PROFIL
  5
274D
 10
-32.1924
 20
-163.739
 30
0.000000
  70
    32
  0
VERTEX
  8
SAPA_PROFIL
  5
274E
 10
-32.2277
 20
-163.579
 30
0.000000
  70
    32
  0
VERTEX
  8
SAPA_PROFIL
  5
274F
 10
-32.2585
 20
-163.416
 30
0.000000
  70
    32
  0
VERTEX
  8
SAPA_PROFIL
  5
2750
 10
-32.2847
 20
-163.250
 30
0.000000
  70
    32
  0
VERTEX
  8
SAPA_PROFIL
  5
2751
 10
-32.3062
 20
-163.083
 30
0.000000
  70
    32
  0
VERTEX
  8
SAPA_PROFIL
  5
2752
 10
-32.3230
 20
-162.914
 30
0.000000
  70
    32
  0
VERTEX
  8
SAPA_PROFIL
  5
2753
 10
-32.3350
 20
-162.743
 30
0.000000
  70
    32
  0
VERTEX
  8
SAPA_PROFIL
  5
2754
 10
-32.3422
 20
-162.572
 30
0.000000
  70
    32
  0
VERTEX
  8
SAPA_PROFIL
  5
2755
 10
-32.3446
 20
-162.400
 30
0.000000
  70
    32
  0
VERTEX
  8
SAPA_PROFIL
  5
2756
 10
-32.3422
 20
-162.228
 30
0.000000
  70
    32
  0
VERTEX
  8
SAPA_PROFIL
  5
2757
 10
-32.3350
 20
-162.057
 30
0.000000
  70
    32
  0
VERTEX
  8
SAPA_PROFIL
  5
2758
 10
-32.3230
 20
-161.886
 30
0.000000
  70
    32
  0
VERTEX
  8
SAPA_PROFIL
  5
2759
 10
-32.3062
 20
-161.717
 30
0.000000
  70
    32
  0
VERTEX
  8
SAPA_PROFIL
  5
275A
 10
-32.2847
 20
-161.550
 30
0.000000
  70
    32
  0
VERTEX
  8
SAPA_PROFIL
  5
275B
 10
-32.2585
 20
-161.384
 30
0.000000
  70
    32
  0
VERTEX
  8
SAPA_PROFIL
  5
275C
 10
-32.2277
 20
-161.221
 30
0.000000
  70
    32
  0
VERTEX
  8
SAPA_PROFIL
  5
275D
 10
-32.1924
 20
-161.061
 30
0.000000
  70
    32
  0
VERTEX
  8
SAPA_PROFIL
  5
275E
 10
-32.1526
 20
-160.904
 30
0.000000
  70
    32
  0
VERTEX
  8
SAPA_PROFIL
  5
275F
 10
-32.1085
 20
-160.750
 30
0.000000
  70
    32
  0
VERTEX
  8
SAPA_PROFIL
  5
2760
 10
-32.0601
 20
-160.601
 30
0.000000
  70
    32
  0
VERTEX
  8
SAPA_PROFIL
  5
2761
 10
-32.0076
 20
-160.456
 30
0.000000
  70
    32
  0
VERTEX
  8
SAPA_PROFIL
  5
2762
 10
-31.9510
 20
-160.315
 30
0.000000
  70
    32
  0
VERTEX
  8
SAPA_PROFIL
  5
2763
 10
-31.8906
 20
-160.180
 30
0.000000
  70
    32
  0
VERTEX
  8
SAPA_PROFIL
  5
2764
 10
-31.8265
 20
-160.050
 30
0.000000
  70
    32
  0
VERTEX
  8
SAPA_PROFIL
  5
2765
 10
-31.7588
 20
-159.925
 30
0.000000
  70
    32
  0
VERTEX
  8
SAPA_PROFIL
  5
2766
 10
-31.6877
 20
-159.807
 30
0.000000
  70
    32
  0
VERTEX
  8
SAPA_PROFIL
  5
2767
 10
-31.6134
 20
-159.694
 30
0.000000
  70
    32
  0
VERTEX
  8
SAPA_PROFIL
  5
2768
 10
-31.5360
 20
-159.589
 30
0.000000
  70
    32
  0
VERTEX
  8
SAPA_PROFIL
  5
2769
 10
-31.4558
 20
-159.490
 30
0.000000
  70
    32
  0
VERTEX
  8
SAPA_PROFIL
  5
276A
 10
-31.3728
 20
-159.398
 30
0.000000
  70
    32
  0
VERTEX
  8
SAPA_PROFIL
  5
276B
 10
-31.2874
 20
-159.313
 30
0.000000
  70
    32
  0
VERTEX
  8
SAPA_PROFIL
  5
276C
 10
-31.1997
 20
-159.236
 30
0.000000
  70
    32
  0
VERTEX
  8
SAPA_PROFIL
  5
276D
 10
-31.1100
 20
-159.166
 30
0.000000
  70
    32
  0
VERTEX
  8
SAPA_PROFIL
  5
276E
 10
-31.0184
 20
-159.105
 30
0.000000
  70
    32
  0
VERTEX
  8
SAPA_PROFIL
  5
276F
 10
-30.9252
 20
-159.051
 30
0.000000
  70
    32
  0
VERTEX
  8
SAPA_PROFIL
  5
2770
 10
-30.8306
 20
-159.005
 30
0.000000
  70
    32
  0
VERTEX
  8
SAPA_PROFIL
  5
2771
 10
-30.7348
 20
-158.967
 30
0.000000
  70
    32
  0
VERTEX
  8
SAPA_PROFIL
  5
2772
 10
-30.6381
 20
-158.938
 30
0.000000
  70
    32
  0
VERTEX
  8
SAPA_PROFIL
  5
2773
 10
-30.5407
 20
-158.917
 30
0.000000
  70
    32
  0
VERTEX
  8
SAPA_PROFIL
  5
2774
 10
-30.4428
 20
-158.904
 30
0.000000
  70
    32
  0
VERTEX
  8
SAPA_PROFIL
  5
2775
 10
-30.3446
 20
-158.900
 30
0.000000
  70
    32
  0
VERTEX
  8
SAPA_PROFIL
  5
2776
 10
-30.2465
 20
-158.904
 30
0.000000
  70
    32
  0
VERTEX
  8
SAPA_PROFIL
  5
2777
 10
-30.1486
 20
-158.917
 30
0.000000
  70
    32
  0
VERTEX
  8
SAPA_PROFIL
  5
2778
 10
-30.0512
 20
-158.938
 30
0.000000
  70
    32
  0
VERTEX
  8
SAPA_PROFIL
  5
2779
 10
-29.9544
 20
-158.967
 30
0.000000
  70
    32
  0
VERTEX
  8
SAPA_PROFIL
  5
277A
 10
-29.8587
 20
-159.005
 30
0.000000
  70
    32
  0
VERTEX
  8
SAPA_PROFIL
  5
277B
 10
-29.7641
 20
-159.051
 30
0.000000
  70
    32
  0
VERTEX
  8
SAPA_PROFIL
  5
277C
 10
-29.6708
 20
-159.105
 30
0.000000
  70
    32
  0
VERTEX
  8
SAPA_PROFIL
  5
277D
 10
-29.5793
 20
-159.166
 30
0.000000
  70
    32
  0
VERTEX
  8
SAPA_PROFIL
  5
277E
 10
-29.4895
 20
-159.236
 30
0.000000
  70
    32
  0
VERTEX
  8
SAPA_PROFIL
  5
277F
 10
-29.4018
 20
-159.313
 30
0.000000
  70
    32
  0
VERTEX
  8
SAPA_PROFIL
  5
2780
 10
-29.3164
 20
-159.398
 30
0.000000
  70
    32
  0
VERTEX
  8
SAPA_PROFIL
  5
2781
 10
-29.2335
 20
-159.490
 30
0.000000
  70
    32
  0
VERTEX
  8
SAPA_PROFIL
  5
2782
 10
-29.1532
 20
-159.589
 30
0.000000
  70
    32
  0
VERTEX
  8
SAPA_PROFIL
  5
2783
 10
-29.0758
 20
-159.694
 30
0.000000
  70
    32
  0
VERTEX
  8
SAPA_PROFIL
  5
2784
 10
-29.0015
 20
-159.807
 30
0.000000
  70
    32
  0
VERTEX
  8
SAPA_PROFIL
  5
2785
 10
-28.9304
 20
-159.925
 30
0.000000
  70
    32
  0
VERTEX
  8
SAPA_PROFIL
  5
2786
 10
-28.8627
 20
-160.050
 30
0.000000
  70
    32
  0
VERTEX
  8
SAPA_PROFIL
  5
2787
 10
-28.7986
 20
-160.180
 30
0.000000
  70
    32
  0
VERTEX
  8
SAPA_PROFIL
  5
2788
 10
-28.7382
 20
-160.315
 30
0.000000
  70
    32
  0
VERTEX
  8
SAPA_PROFIL
  5
2789
 10
-28.6817
 20
-160.456
 30
0.000000
  70
    32
  0
VERTEX
  8
SAPA_PROFIL
  5
278A
 10
-28.6292
 20
-160.601
 30
0.000000
  70
    32
  0
VERTEX
  8
SAPA_PROFIL
  5
278B
 10
-28.5808
 20
-160.750
 30
0.000000
  70
    32
  0
VERTEX
  8
SAPA_PROFIL
  5
278C
 10
-28.5366
 20
-160.904
 30
0.000000
  70
    32
  0
VERTEX
  8
SAPA_PROFIL
  5
278D
 10
-28.4969
 20
-161.061
 30
0.000000
  70
    32
  0
VERTEX
  8
SAPA_PROFIL
  5
278E
 10
-28.4615
 20
-161.221
 30
0.000000
  70
    32
  0
VERTEX
  8
SAPA_PROFIL
  5
278F
 10
-28.4307
 20
-161.384
 30
0.000000
  70
    32
  0
VERTEX
  8
SAPA_PROFIL
  5
2790
 10
-28.4046
 20
-161.550
 30
0.000000
  70
    32
  0
VERTEX
  8
SAPA_PROFIL
  5
2791
 10
-28.3831
 20
-161.717
 30
0.000000
  70
    32
  0
VERTEX
  8
SAPA_PROFIL
  5
2792
 10
-28.3663
 20
-161.886
 30
0.000000
  70
    32
  0
VERTEX
  8
SAPA_PROFIL
  5
2793
 10
-28.3543
 20
-162.057
 30
0.000000
  70
    32
  0
VERTEX
  8
SAPA_PROFIL
  5
2794
 10
-28.3470
 20
-162.228
 30
0.000000
  70
    32
  0
VERTEX
  8
SAPA_PROFIL
  5
2795
 10
-28.3446
 20
-162.400
 30
0.000000
  70
    32
  0
VERTEX
  8
SAPA_PROFIL
  5
2796
 10
-28.3470
 20
-162.572
 30
0.000000
  70
    32
  0
VERTEX
  8
SAPA_PROFIL
  5
2797
 10
-28.3543
 20
-162.743
 30
0.000000
  70
    32
  0
VERTEX
  8
SAPA_PROFIL
  5
2798
 10
-28.3663
 20
-162.914
 30
0.000000
  70
    32
  0
VERTEX
  8
SAPA_PROFIL
  5
2799
 10
-28.3831
 20
-163.083
 30
0.000000
  70
    32
  0
VERTEX
  8
SAPA_PROFIL
  5
279A
 10
-28.4046
 20
-163.250
 30
0.000000
  70
    32
  0
VERTEX
  8
SAPA_PROFIL
  5
279B
 10
-28.4307
 20
-163.416
 30
0.000000
  70
    32
  0
VERTEX
  8
SAPA_PROFIL
  5
279C
 10
-28.4615
 20
-163.579
 30
0.000000
  70
    32
  0
VERTEX
  8
SAPA_PROFIL
  5
279D
 10
-28.4969
 20
-163.739
 30
0.000000
  70
    32
  0
VERTEX
  8
SAPA_PROFIL
  5
279E
 10
-28.5366
 20
-163.896
 30
0.000000
  70
    32
  0
VERTEX
  8
SAPA_PROFIL
  5
279F
 10
-28.5808
 20
-164.050
 30
0.000000
  70
    32
  0
VERTEX
  8
SAPA_PROFIL
  5
27A0
 10
-28.6292
 20
-164.199
 30
0.000000
  70
    32
  0
VERTEX
  8
SAPA_PROFIL
  5
27A1
 10
-28.6817
 20
-164.344
 30
0.000000
  70
    32
  0
VERTEX
  8
SAPA_PROFIL
  5
27A2
 10
-28.7382
 20
-164.485
 30
0.000000
  70
    32
  0
VERTEX
  8
SAPA_PROFIL
  5
27A3
 10
-28.7986
 20
-164.620
 30
0.000000
  70
    32
  0
VERTEX
  8
SAPA_PROFIL
  5
27A4
 10
-28.8627
 20
-164.750
 30
0.000000
  70
    32
  0
VERTEX
  8
SAPA_PROFIL
  5
27A5
 10
-28.9304
 20
-164.875
 30
0.000000
  70
    32
  0
VERTEX
  8
SAPA_PROFIL
  5
27A6
 10
-29.0015
 20
-164.993
 30
0.000000
  70
    32
  0
VERTEX
  8
SAPA_PROFIL
  5
27A7
 10
-29.0758
 20
-165.106
 30
0.000000
  70
    32
  0
VERTEX
  8
SAPA_PROFIL
  5
27A8
 10
-29.1532
 20
-165.211
 30
0.000000
  70
    32
  0
VERTEX
  8
SAPA_PROFIL
  5
27A9
 10
-29.2335
 20
-165.310
 30
0.000000
  70
    32
  0
VERTEX
  8
SAPA_PROFIL
  5
27AA
 10
-29.3164
 20
-165.402
 30
0.000000
  70
    32
  0
VERTEX
  8
SAPA_PROFIL
  5
27AB
 10
-29.4018
 20
-165.487
 30
0.000000
  70
    32
  0
VERTEX
  8
SAPA_PROFIL
  5
27AC
 10
-29.4895
 20
-165.564
 30
0.000000
  70
    32
  0
VERTEX
  8
SAPA_PROFIL
  5
27AD
 10
-29.5793
 20
-165.634
 30
0.000000
  70
    32
  0
VERTEX
  8
SAPA_PROFIL
  5
27AE
 10
-29.6708
 20
-165.695
 30
0.000000
  70
    32
  0
VERTEX
  8
SAPA_PROFIL
  5
27AF
 10
-29.7641
 20
-165.749
 30
0.000000
  70
    32
  0
VERTEX
  8
SAPA_PROFIL
  5
27B0
 10
-29.8587
 20
-165.795
 30
0.000000
  70
    32
  0
VERTEX
  8
SAPA_PROFIL
  5
27B1
 10
-29.9544
 20
-165.833
 30
0.000000
  70
    32
  0
VERTEX
  8
SAPA_PROFIL
  5
27B2
 10
-30.0512
 20
-165.862
 30
0.000000
  70
    32
  0
VERTEX
  8
SAPA_PROFIL
  5
27B3
 10
-30.1486
 20
-165.883
 30
0.000000
  70
    32
  0
VERTEX
  8
SAPA_PROFIL
  5
27B4
 10
-30.2465
 20
-165.896
 30
0.000000
  70
    32
  0
VERTEX
  8
SAPA_PROFIL
  5
27B5
 10
-30.3446
 20
-165.900
 30
0.000000
  70
    32
  0
SEQEND
  8
SAPA_PROFIL
  5
27B6
  0
POLYLINE
  5
1672
  8
SAPA_PROFIL
 62
     2
 66
     1
 10
0.0
 20
0.0
 30
0.0
 70
     1
  0
VERTEX
  5
1F3D
  8
SAPA_PROFIL
 62
     2
 10
-24.694621398209328
 20
-157.58121923431941
 30
0.0
  0
VERTEX
  5
1F3E
  8
SAPA_PROFIL
 62
     2
 10
-24.694621398209328
 20
-167.89999999794529
 30
0.0
 42
-0.4142135623730951
  0
VERTEX
  5
1F3F
  8
SAPA_PROFIL
 62
     2
 10
-24.99462139820934
 20
-168.1999999979453
 30
0.0
  0
VERTEX
  5
1F40
  8
SAPA_PROFIL
 62
     2
 10
-26.694621398209339
 20
-168.1999999979453
 30
0.0
  0
VERTEX
  5
1F41
  8
SAPA_PROFIL
 62
     2
 10
-26.694621398209339
 20
-170.01370008986569
 30
0.0
 42
-0.4005932428724212
  0
VERTEX
  5
1F42
  8
SAPA_PROFIL
 62
     2
 10
-26.98060882685008
 20
-170.31337265758569
 30
0.0
  0
VERTEX
  5
1F43
  8
SAPA_PROFIL
 62
     2
 10
-36.180608826850083
 20
-170.7996725656653
 30
0.0
 42
-0.427966335106886
  0
VERTEX
  5
1F44
  8
SAPA_PROFIL
 62
     2
 10
-36.49462139820934
 20
-170.49999999794531
 30
0.0
  0
VERTEX
  5
1F45
  8
SAPA_PROFIL
 62
     2
 10
-36.49462139820934
 20
-156.81953534864661
 30
0.0
 42
-0.0195279011117891
  0
VERTEX
  5
1F46
  8
SAPA_PROFIL
 62
     2
 10
-36.493097205211889
 20
-156.78052419853341
 30
0.0
  0
VERTEX
  5
1F47
  8
SAPA_PROFIL
 62
     2
 10
-35.66677617471337
 20
-148.7719776977188
 30
0.0
 42
-0.3915187749346392
  0
VERTEX
  5
1F48
  8
SAPA_PROFIL
 62
     2
 10
-34.669824560708271
 20
-147.8499999979453
 30
0.0
  0
VERTEX
  5
1F49
  8
SAPA_PROFIL
 62
     2
 10
-32.37512794354506
 20
-147.8499999979453
 30
0.0
 42
-0.2613472755167645
  0
VERTEX
  5
1F4A
  8
SAPA_PROFIL
 62
     2
 10
-31.94841625097245
 20
-148.08939084342111
 30
0.0
  0
VERTEX
  5
1F4B
  8
SAPA_PROFIL
 62
     2
 10
-24.841198013064119
 20
-157.060000925271
 30
0.0
 42
-0.1379343940649207
  0
SEQEND
  5
1F4C
  8
SAPA_PROFIL
 62
     2
  0
POLYLINE
  5
1673
  8
SAPA_PROFIL
 66
     1
 10
0.0
 20
0.0
 30
0.0
 70
     1
  0
VERTEX
  5
1F4D
  8
SAPA_PROFIL
 10
-8.4999999929717696
 20
-97.545009244861106
 30
0.0
  0
VERTEX
  5
1F4E
  8
SAPA_PROFIL
 10
-8.4999999929717696
 20
-101.3977956493613
 30
0.0
 42
-0.4142135623731784
  0
VERTEX
  5
1F4F
  8
SAPA_PROFIL
 10
-8.7999999929718342
 20
-101.6977956493614
 30
0.0
  0
VERTEX
  5
1F50
  8
SAPA_PROFIL
 10
-9.0999999929721866
 20
-101.6977956493613
 30
0.0
  0
VERTEX
  5
1F51
  8
SAPA_PROFIL
 10
-10.69999999297181
 20
-100.7740352186579
 30
0.0
 42
0.5773502691887984
  0
VERTEX
  5
1F52
  8
SAPA_PROFIL
 10
-10.99999999297177
 20
-100.9472402994149
 30
0.0
  0
VERTEX
  5
1F53
  8
SAPA_PROFIL
 10
-10.999999992971761
 20
-102.3328809454699
 30
0.0
 42
0.2679491924311038
  0
VERTEX
  5
1F54
  8
SAPA_PROFIL
 10
-10.49999999297194
 20
-103.1989063492543
 30
0.0
  0
VERTEX
  5
1F55
  8
SAPA_PROFIL
 10
-8.7499999955849717
 20
-104.20926931882749
 30
0.0
 42
-0.2679491932396976
  0
VERTEX
  5
1F56
  8
SAPA_PROFIL
 10
-8.4999999955849432
 20
-104.6422820222287
 30
0.0
  0
VERTEX
  5
1F57
  8
SAPA_PROFIL
 10
-8.4999999955849077
 20
-137.2803847556597
 30
0.0
  0
VERTEX
  5
1F58
  8
SAPA_PROFIL
 10
-8.1999999955849106
 20
-137.7999999979304
 30
0.0
  0
VERTEX
  5
1F59
  8
SAPA_PROFIL
 10
-8.4999999955849077
 20
-138.31961524020099
 30
0.0
  0
VERTEX
  5
1F5A
  8
SAPA_PROFIL
 10
-8.4999999955849077
 20
-138.6577179736324
 30
0.0
 42
-0.2679491916226445
  0
VERTEX
  5
1F5B
  8
SAPA_PROFIL
 10
-8.7499999929718157
 20
-139.0907306755247
 30
0.0
  0
VERTEX
  5
1F5C
  8
SAPA_PROFIL
 10
-10.49999999297181
 20
-140.10109364660661
 30
0.0
 42
0.2679491924311319
  0
VERTEX
  5
1F5D
  8
SAPA_PROFIL
 10
-10.999999992971761
 20
-140.96711905039101
 30
0.0
  0
VERTEX
  5
1F5E
  8
SAPA_PROFIL
 10
-10.999999992971761
 20
-142.3527596964461
 30
0.0
 42
0.5773502691893683
  0
VERTEX
  5
1F5F
  8
SAPA_PROFIL
 10
-10.699999992971801
 20
-142.52596477720309
 30
0.0
  0
VERTEX
  5
1F60
  8
SAPA_PROFIL
 10
-9.0999999929717674
 20
-141.6022043464996
 30
0.0
  0
VERTEX
  5
1F61
  8
SAPA_PROFIL
 10
-8.7999999929718271
 20
-141.6022043464996
 30
0.0
 42
-0.4142135623732059
  0
VERTEX
  5
1F62
  8
SAPA_PROFIL
 10
-8.4999999929717571
 20
-141.90220434649979
 30
0.0
  0
VERTEX
  5
1F63
  8
SAPA_PROFIL
 10
-8.4999999929717571
 20
-145.75499075099989
 30
0.0
 42
0.2134217652834387
  0
VERTEX
  5
1F64
  8
SAPA_PROFIL
 10
-8.3999999929716367
 20
-145.97859754875
 30
0.0
 42
-0.7625858545243238
  0
VERTEX
  5
1F65
  8
SAPA_PROFIL
 10
-8.5845791951691197
 20
-146.30892362976701
 30
0.0
  0
VERTEX
  5
1F66
  8
SAPA_PROFIL
 10
-8.7759621951628404
 20
-146.25084999277789
 30
0.0
  0
VERTEX
  5
1F67
  8
SAPA_PROFIL
 10
-10.66180588702389
 20
-145.1662855458062
 30
0.0
  0
VERTEX
  5
1F68
  8
SAPA_PROFIL
 10
-10.65124452079691
 20
-144.84452781758799
 30
0.0
 42
0.5773502691897466
  0
VERTEX
  5
1F69
  8
SAPA_PROFIL
 10
-10.94540082105175
 20
-144.66157407747781
 30
0.0
  0
VERTEX
  5
1F6A
  8
SAPA_PROFIL
 10
-11.2300831042834
 20
-144.81370798858649
 30
0.0
 42
0.221694662643019
  0
VERTEX
  5
1F6B
  8
SAPA_PROFIL
 10
-11.63589200943818
 20
-145.3545878200633
 30
0.0
  0
VERTEX
  5
1F6C
  8
SAPA_PROFIL
 10
-12.0173386055659
 20
-147.16781829072161
 30
0.0
 42
0.476975532698164
  0
VERTEX
  5
1F6D
  8
SAPA_PROFIL
 10
-11.715085781059431
 20
-147.53947516566751
 30
0.0
  0
VERTEX
  5
1F6E
  8
SAPA_PROFIL
 10
-10.21198470029743
 20
-147.5393915577838
 30
0.0
  0
VERTEX
  5
1F6F
  8
SAPA_PROFIL
 10
-10.19746629105032
 20
-147.49154580778529
 30
0.0
 42
-0.4142135623730951
  0
VERTEX
  5
1F70
  8
SAPA_PROFIL
 10
-9.8232813355745137
 20
-147.29158176327789
 30
0.0
  0
VERTEX
  5
1F71
  8
SAPA_PROFIL
 10
-8.5078676157291326
 20
-147.79999999793051
 30
0.0
  0
VERTEX
  5
1F72
  8
SAPA_PROFIL
 10
-5.5097167545555896
 20
-147.7999999979304
 30
0.0
 42
0.2562769736732418
  0
VERTEX
  5
1F73
  8
SAPA_PROFIL
 10
-5.3410442503442459
 20
-147.70746899961489
 30
0.0
  0
VERTEX
  5
1F74
  8
SAPA_PROFIL
 10
-4.5469912441676348
 20
-146.4612035004572
 30
0.0
 42
0.5920056181180006
  0
VERTEX
  5
1F75
  8
SAPA_PROFIL
 10
-4.8000000004847081
 20
-145.9999999979305
 30
0.0
  0
VERTEX
  5
1F76
  8
SAPA_PROFIL
 10
-6.2000000004846854
 20
-145.9999999979305
 30
0.0
 42
-0.4142135623731505
  0
VERTEX
  5
1F77
  8
SAPA_PROFIL
 10
-6.5000000004847251
 20
-145.69999999793049
 30
0.0
  0
VERTEX
  5
1F78
  8
SAPA_PROFIL
 10
-6.500000000484583
 20
-143.2999999979306
 30
0.0
 42
-0.4142135623729841
  0
VERTEX
  5
1F79
  8
SAPA_PROFIL
 10
-6.2000000004846854
 20
-142.99999999793059
 30
0.0
  0
VERTEX
  5
1F7A
  8
SAPA_PROFIL
 10
11.19999999951537
 20
-142.99999999793059
 30
0.0
 42
-0.4142135623730882
  0
VERTEX
  5
1F7B
  8
SAPA_PROFIL
 10
11.49999999951539
 20
-143.2999999979306
 30
0.0
  0
VERTEX
  5
1F7C
  8
SAPA_PROFIL
 10
11.49999999951536
 20
-145.69999999793069
 30
0.0
 42
-0.4142135623730118
  0
VERTEX
  5
1F7D
  8
SAPA_PROFIL
 10
11.199999999515301
 20
-145.9999999979305
 30
0.0
  0
VERTEX
  5
1F7E
  8
SAPA_PROFIL
 10
9.7999999995152862
 20
-145.9999999979305
 30
0.0
 42
0.5877032589249656
  0
VERTEX
  5
1F7F
  8
SAPA_PROFIL
 10
9.5449537822051767
 20
-146.4579602050581
 30
0.0
  0
VERTEX
  5
1F80
  8
SAPA_PROFIL
 10
10.441352759447369
 20
-147.90530680268239
 30
0.0
 42
0.2596812337301635
  0
VERTEX
  5
1F81
  8
SAPA_PROFIL
 10
10.61138357098748
 20
-147.99999999793059
 30
0.0
  0
VERTEX
  5
1F82
  8
SAPA_PROFIL
 10
13.3000000043469
 20
-147.99999999793059
 30
0.0
 42
0.4142135623732095
  0
VERTEX
  5
1F83
  8
SAPA_PROFIL
 10
13.500000004346891
 20
-147.7999999979306
 30
0.0
  0
VERTEX
  5
1F84
  8
SAPA_PROFIL
 10
13.50000000434688
 20
-104.9999985037804
 30
0.0
 42
0.4142135623730067
  0
VERTEX
  5
1F85
  8
SAPA_PROFIL
 10
11.50000149849738
 20
-102.9999999979304
 30
0.0
  0
VERTEX
  5
1F86
  8
SAPA_PROFIL
 10
5.7999992572719608
 20
-102.9999999979304
 30
0.0
 42
-0.4142135623729993
  0
VERTEX
  5
1F87
  8
SAPA_PROFIL
 10
4.8000000043468676
 20
-102.00000074500539
 30
0.0
  0
VERTEX
  5
1F88
  8
SAPA_PROFIL
 10
4.8000000043469662
 20
-94.498980997930332
 30
0.0
 42
0.4142135623730951
  0
VERTEX
  5
1F89
  8
SAPA_PROFIL
 10
3.8000000043469511
 20
-93.498980997930417
 30
0.0
  0
VERTEX
  5
1F8A
  8
SAPA_PROFIL
 10
3.3022248549319739
 20
-93.498980997930417
 30
0.0
 42
0.4142135623729598
  0
VERTEX
  5
1F8B
  8
SAPA_PROFIL
 10
3.1022250043468729
 20
-93.698980848515433
 30
0.0
  0
VERTEX
  5
1F8C
  8
SAPA_PROFIL
 10
3.102225004346959
 20
-95.296831561109087
 30
0.0
 42
-0.414645992438811
  0
VERTEX
  5
1F8D
  8
SAPA_PROFIL
 10
2.9019297678864251
 20
-95.496831343197556
 30
0.0
  0
VERTEX
  5
1F8E
  8
SAPA_PROFIL
 10
-8.5036965589539086
 20
-95.498387850139423
 30
0.0
  0
VERTEX
  5
1F8F
  8
SAPA_PROFIL
 10
-9.8232813355745101
 20
-96.008418232582727
 30
0.0
 42
-0.4142135623730951
  0
VERTEX
  5
1F90
  8
SAPA_PROFIL
 10
-10.19746629105032
 20
-95.808454188075316
 30
0.0
  0
VERTEX
  5
1F91
  8
SAPA_PROFIL
 10
-10.211984700297419
 20
-95.760608438076844
 30
0.0
  0
VERTEX
  5
1F92
  8
SAPA_PROFIL
 10
-11.715085781059431
 20
-95.760524830193205
 30
0.0
 42
0.4769755326981641
  0
VERTEX
  5
1F93
  8
SAPA_PROFIL
 10
-12.0173386055659
 20
-96.132181705139061
 30
0.0
  0
VERTEX
  5
1F94
  8
SAPA_PROFIL
 10
-11.63589200943818
 20
-97.945412175797316
 30
0.0
 42
0.2216946626430191
  0
VERTEX
  5
1F95
  8
SAPA_PROFIL
 10
-11.230083104283381
 20
-98.486292007274102
 30
0.0
  0
VERTEX
  5
1F96
  8
SAPA_PROFIL
 10
-10.94540082105174
 20
-98.638425918382879
 30
0.0
 42
0.5773502691897466
  0
VERTEX
  5
1F97
  8
SAPA_PROFIL
 10
-10.65124452079692
 20
-98.455472178272686
 30
0.0
  0
VERTEX
  5
1F98
  8
SAPA_PROFIL
 10
-10.66180588702389
 20
-98.133714450054441
 30
0.0
  0
VERTEX
  5
1F99
  8
SAPA_PROFIL
 10
-8.7759621951628368
 20
-97.049150003082701
 30
0.0
  0
VERTEX
  5
1F9A
  8
SAPA_PROFIL
 10
-8.5845791951691162
 20
-96.991076366093623
 30
0.0
 42
-0.7625858545243257
  0
VERTEX
  5
1F9B
  8
SAPA_PROFIL
 10
-8.3999999929716331
 20
-97.321402447110614
 30
0.0
 42
0.2134217652834391
  0
SEQEND
  5
1F9C
  8
SAPA_PROFIL
  0
POLYLINE
  5
1674
  8
SAPA_PROFIL
 66
     1
 10
0.0
 20
0.0
 30
0.0
 70
     1
  0
VERTEX
  5
1F9D
  8
SAPA_PROFIL
 10
11.50000000756507
 20
-104.9999999979304
 30
0.0
  0
VERTEX
  5
1F9E
  8
SAPA_PROFIL
 10
11.50000000756507
 20
-106.9999999979304
 30
0.0
  0
VERTEX
  5
1F9F
  8
SAPA_PROFIL
 10
11.40000000756516
 20
-106.9999999979303
 30
0.0
 42
0.4142135623732199
  0
VERTEX
  5
1FA0
  8
SAPA_PROFIL
 10
11.20000000756508
 20
-107.19999999793031
 30
0.0
  0
VERTEX
  5
1FA1
  8
SAPA_PROFIL
 10
11.20000000756497
 20
-108.7999999979303
 30
0.0
 42
0.4142135623727933
  0
VERTEX
  5
1FA2
  8
SAPA_PROFIL
 10
11.40000000756487
 20
-108.9999999979304
 30
0.0
  0
VERTEX
  5
1FA3
  8
SAPA_PROFIL
 10
11.50000000756507
 20
-108.9999999979304
 30
0.0
  0
VERTEX
  5
1FA4
  8
SAPA_PROFIL
 10
11.500000007565079
 20
-137.2999999979304
 30
0.0
  0
VERTEX
  5
1FA5
  8
SAPA_PROFIL
 10
11.40000000756508
 20
-137.2999999979306
 30
0.0
 42
0.4142135623730847
  0
VERTEX
  5
1FA6
  8
SAPA_PROFIL
 10
11.20000000756508
 20
-137.49999999793059
 30
0.0
  0
VERTEX
  5
1FA7
  8
SAPA_PROFIL
 10
11.200000007565199
 20
-139.09999999793061
 30
0.0
 42
0.4142135623730847
  0
VERTEX
  5
1FA8
  8
SAPA_PROFIL
 10
11.40000000756508
 20
-139.29999999793051
 30
0.0
  0
VERTEX
  5
1FA9
  8
SAPA_PROFIL
 10
11.500000007565079
 20
-139.29999999793051
 30
0.0
  0
VERTEX
  5
1FAA
  8
SAPA_PROFIL
 10
11.500000007565079
 20
-140.99999999793059
 30
0.0
 42
-0.4142135623730675
  0
VERTEX
  5
1FAB
  8
SAPA_PROFIL
 10
11.20000000756508
 20
-141.2999999979304
 30
0.0
  0
VERTEX
  5
1FAC
  8
SAPA_PROFIL
 10
-6.399999992434906
 20
-141.2999999979304
 30
0.0
 42
-0.4142135623730673
  0
VERTEX
  5
1FAD
  8
SAPA_PROFIL
 10
-6.6999999924348614
 20
-140.99999999793059
 30
0.0
  0
VERTEX
  5
1FAE
  8
SAPA_PROFIL
 10
-6.6999999924348614
 20
-139.29999999793031
 30
0.0
  0
VERTEX
  5
1FAF
  8
SAPA_PROFIL
 10
-6.3999999924348501
 20
-139.29999999793051
 30
0.0
 42
0.4142135623731367
  0
VERTEX
  5
1FB0
  8
SAPA_PROFIL
 10
-6.1999999924348614
 20
-139.09999999793041
 30
0.0
  0
VERTEX
  5
1FB1
  8
SAPA_PROFIL
 10
-6.1999999924348037
 20
-137.49999999793059
 30
0.0
 42
0.4142135623732407
  0
VERTEX
  5
1FB2
  8
SAPA_PROFIL
 10
-6.3999999924350197
 20
-137.29999999793051
 30
0.0
  0
VERTEX
  5
1FB3
  8
SAPA_PROFIL
 10
-6.6999999924349183
 20
-137.2999999979306
 30
0.0
  0
VERTEX
  5
1FB4
  8
SAPA_PROFIL
 10
-6.6999999924349254
 20
-108.9999999979302
 30
0.0
  0
VERTEX
  5
1FB5
  8
SAPA_PROFIL
 10
-6.3999999924348572
 20
-108.9999999979304
 30
0.0
 42
0.4142135623732199
  0
VERTEX
  5
1FB6
  8
SAPA_PROFIL
 10
-6.1999999924348677
 20
-108.7999999979303
 30
0.0
  0
VERTEX
  5
1FB7
  8
SAPA_PROFIL
 10
-6.1999999924349529
 20
-107.19999999793031
 30
0.0
 42
0.4142135623733448
  0
VERTEX
  5
1FB8
  8
SAPA_PROFIL
 10
-6.3999999924350268
 20
-106.9999999979304
 30
0.0
  0
VERTEX
  5
1FB9
  8
SAPA_PROFIL
 10
-6.6999999924348677
 20
-106.9999999979304
 30
0.0
  0
VERTEX
  5
1FBA
  8
SAPA_PROFIL
 10
-6.6999999924348721
 20
-97.49999999793063
 30
0.0
 42
-0.4142135623732061
  0
VERTEX
  5
1FBB
  8
SAPA_PROFIL
 10
-6.3999999924348598
 20
-97.199999997930533
 30
0.0
  0
VERTEX
  5
1FBC
  8
SAPA_PROFIL
 10
2.8000000043469662
 20
-97.199999997930533
 30
0.0
 42
-0.4142135623732059
  0
VERTEX
  5
1FBD
  8
SAPA_PROFIL
 10
3.10000000434695
 20
-97.49999999793063
 30
0.0
  0
VERTEX
  5
1FBE
  8
SAPA_PROFIL
 10
3.10000000434695
 20
-102.00000074500529
 30
0.0
 42
0.414213562373052
  0
VERTEX
  5
1FBF
  8
SAPA_PROFIL
 10
5.7999992572717911
 20
-104.69999999793031
 30
0.0
  0
VERTEX
  5
1FC0
  8
SAPA_PROFIL
 10
11.20000000756508
 20
-104.69999999793031
 30
0.0
 42
-0.4142135623732891
  0
SEQEND
  5
1FC1
  8
SAPA_PROFIL
  0
POLYLINE
  5
1675
  8
SAPA_PROFIL
 66
     1
 10
0.0
 20
0.0
 30
0.1
 70
     1
  0
VERTEX
  5
1FC2
  8
SAPA_PROFIL
 10
-48.499999992889506
 20
-103.2003825292539
 30
0.1
 42
0.2679491924311119
  0
VERTEX
  5
1FC3
  8
SAPA_PROFIL
 10
-47.999999992889613
 20
-102.33435712546959
 30
0.1
  0
VERTEX
  5
1FC4
  8
SAPA_PROFIL
 10
-47.999999992889727
 20
-100.9487164794145
 30
0.1
 42
0.5773502691897603
  0
VERTEX
  5
1FC5
  8
SAPA_PROFIL
 10
-48.299999992889681
 20
-100.7755113986577
 30
0.1
  0
VERTEX
  5
1FC6
  8
SAPA_PROFIL
 10
-49.89999999288937
 20
-101.699271829361
 30
0.1
  0
VERTEX
  5
1FC7
  8
SAPA_PROFIL
 10
-50.199999992889552
 20
-101.699271829361
 30
0.1
 42
-0.4142135623728995
  0
VERTEX
  5
1FC8
  8
SAPA_PROFIL
 10
-50.499999992889613
 20
-101.3992718293611
 30
0.1
  0
VERTEX
  5
1FC9
  8
SAPA_PROFIL
 10
-50.499999992889563
 20
-97.546485424861075
 30
0.1
 42
0.2134217652834313
  0
VERTEX
  5
1FCA
  8
SAPA_PROFIL
 10
-50.599999992889678
 20
-97.322878627110981
 30
0.1
 42
-0.7625858545243313
  0
VERTEX
  5
1FCB
  8
SAPA_PROFIL
 10
-50.41542079069221
 20
-96.992552546093947
 30
0.1
  0
VERTEX
  5
1FCC
  8
SAPA_PROFIL
 10
-50.224037790698489
 20
-97.050626183083025
 30
0.1
  0
VERTEX
  5
1FCD
  8
SAPA_PROFIL
 10
-48.338194098837427
 20
-98.135190630054794
 30
0.1
  0
VERTEX
  5
1FCE
  8
SAPA_PROFIL
 10
-48.348755465064428
 20
-98.456948358273053
 30
0.1
 42
0.5773502691897454
  0
VERTEX
  5
1FCF
  8
SAPA_PROFIL
 10
-48.054599164809567
 20
-98.639902098383203
 30
0.1
  0
VERTEX
  5
1FD0
  8
SAPA_PROFIL
 10
-47.76991688157792
 20
-98.487768187274469
 30
0.1
 42
0.2216946626430149
  0
VERTEX
  5
1FD1
  8
SAPA_PROFIL
 10
-47.364107976423142
 20
-97.946888355797654
 30
0.1
  0
VERTEX
  5
1FD2
  8
SAPA_PROFIL
 10
-46.982661380295418
 20
-96.133657885139428
 30
0.1
 42
0.476975532698164
  0
VERTEX
  5
1FD3
  8
SAPA_PROFIL
 10
-47.284914204801893
 20
-95.762001010193515
 30
0.1
  0
VERTEX
  5
1FD4
  8
SAPA_PROFIL
 10
-48.788015285563901
 20
-95.762084618077182
 30
0.1
  0
VERTEX
  5
1FD5
  8
SAPA_PROFIL
 10
-48.802533694810997
 20
-95.809930368075669
 30
0.1
 42
-0.4142135623730875
  0
VERTEX
  5
1FD6
  8
SAPA_PROFIL
 10
-49.176718650286809
 20
-96.009894412583066
 30
0.1
  0
VERTEX
  5
1FD7
  8
SAPA_PROFIL
 10
-50.495951652048838
 20
-95.499999994019333
 30
0.1
  0
VERTEX
  5
1FD8
  8
SAPA_PROFIL
 10
-70.231478389545686
 20
-95.499999994019333
 30
0.1
 42
-0.3821712090170728
  0
VERTEX
  5
1FD9
  8
SAPA_PROFIL
 10
-70.529644584647613
 20
-95.233119778113576
 30
0.1
  0
VERTEX
  5
1FDA
  8
SAPA_PROFIL
 10
-71.055484119612615
 20
-88.655148994019356
 30
0.1
 42
-0.4469990000000183
  0
VERTEX
  5
1FDB
  8
SAPA_PROFIL
 10
-70.558540119612601
 20
-88.099948994019371
 30
0.1
  0
VERTEX
  5
1FDC
  8
SAPA_PROFIL
 10
-68.799999992889596
 20
-88.099948994019329
 30
0.1
 42
0.414213999999998
  0
VERTEX
  5
1FDD
  8
SAPA_PROFIL
 10
-67.799999992889596
 20
-87.099948994019371
 30
0.1
  0
VERTEX
  5
1FDE
  8
SAPA_PROFIL
 10
-67.79999999288961
 20
-86.832404994019356
 30
0.1
 42
0.2896899999999924
  0
VERTEX
  5
1FDF
  8
SAPA_PROFIL
 10
-68.371427992889608
 20
-85.928896994019311
 30
0.1
 42
0.5507599999999715
  0
VERTEX
  5
1FE0
  8
SAPA_PROFIL
 10
-68.799999992889596
 20
-86.199948994019337
 30
0.1
  0
VERTEX
  5
1FE1
  8
SAPA_PROFIL
 10
-68.799999992889596
 20
-86.49994899401932
 30
0.1
 42
-0.4142140000001125
  0
VERTEX
  5
1FE2
  8
SAPA_PROFIL
 10
-68.999999992889613
 20
-86.699948994019337
 30
0.1
  0
VERTEX
  5
1FE3
  8
SAPA_PROFIL
 10
-70.099999992889636
 20
-86.699948994019337
 30
0.1
 42
-0.4142139999999939
  0
VERTEX
  5
1FE4
  8
SAPA_PROFIL
 10
-71.099999992889636
 20
-85.699948994019337
 30
0.1
  0
VERTEX
  5
1FE5
  8
SAPA_PROFIL
 10
-71.099999992889636
 20
-83.399999994019367
 30
0.1
 42
-0.4142139999999918
  0
VERTEX
  5
1FE6
  8
SAPA_PROFIL
 10
-70.099999992889636
 20
-82.399999994019353
 30
0.1
  0
VERTEX
  5
1FE7
  8
SAPA_PROFIL
 10
-68.999999992889613
 20
-82.399999994019339
 30
0.1
 42
-0.4142139999999378
  0
VERTEX
  5
1FE8
  8
SAPA_PROFIL
 10
-68.799999992889596
 20
-82.599999994019356
 30
0.1
  0
VERTEX
  5
1FE9
  8
SAPA_PROFIL
 10
-68.799999992889568
 20
-82.899948994019326
 30
0.1
 42
0.5507599999999796
  0
VERTEX
  5
1FEA
  8
SAPA_PROFIL
 10
-68.371427992889622
 20
-83.171001994019335
 30
0.1
 42
0.2896900000000027
  0
VERTEX
  5
1FEB
  8
SAPA_PROFIL
 10
-67.799999992889596
 20
-82.267493994019333
 30
0.1
  0
VERTEX
  5
1FEC
  8
SAPA_PROFIL
 10
-67.799999992889624
 20
-81.999999994019333
 30
0.1
 42
0.4142140000000064
  0
VERTEX
  5
1FED
  8
SAPA_PROFIL
 10
-68.799999992889596
 20
-80.999999994019333
 30
0.1
  0
VERTEX
  5
1FEE
  8
SAPA_PROFIL
 10
-70.499999992889599
 20
-80.99999999401939
 30
0.1
 42
0.4142139999999918
  0
VERTEX
  5
1FEF
  8
SAPA_PROFIL
 10
-72.499999992889613
 20
-82.999999994019333
 30
0.1
  0
VERTEX
  5
1FF0
  8
SAPA_PROFIL
 10
-72.499999992889542
 20
-169.4999999940193
 30
0.1
 42
0.414213999999996
  0
VERTEX
  5
1FF1
  8
SAPA_PROFIL
 10
-71.99999999288957
 20
-169.9999999940193
 30
0.1
  0
VERTEX
  5
1FF2
  8
SAPA_PROFIL
 10
-68.299999992889582
 20
-169.99999999401919
 30
0.1
 42
0.4142139999999107
  0
VERTEX
  5
1FF3
  8
SAPA_PROFIL
 10
-67.999999992889599
 20
-169.69999999401929
 30
0.1
  0
VERTEX
  5
1FF4
  8
SAPA_PROFIL
 10
-67.99999999288957
 20
-168.93245499401931
 30
0.1
 42
0.2896899999999864
  0
VERTEX
  5
1FF5
  8
SAPA_PROFIL
 10
-68.571427992889568
 20
-168.02894699401929
 30
0.1
 42
0.5507600000000558
  0
VERTEX
  5
1FF6
  8
SAPA_PROFIL
 10
-68.999999992889599
 20
-168.29999999401929
 30
0.1
  0
VERTEX
  5
1FF7
  8
SAPA_PROFIL
 10
-68.999999992889599
 20
-168.4999999940193
 30
0.1
 42
-0.414214000000073
  0
VERTEX
  5
1FF8
  8
SAPA_PROFIL
 10
-69.299999992889582
 20
-168.79999999401929
 30
0.1
  0
VERTEX
  5
1FF9
  8
SAPA_PROFIL
 10
-70.799999992889582
 20
-168.79999999401929
 30
0.1
 42
-0.414213999999996
  0
VERTEX
  5
1FFA
  8
SAPA_PROFIL
 10
-71.299999992889582
 20
-168.29999999401929
 30
0.1
  0
VERTEX
  5
1FFB
  8
SAPA_PROFIL
 10
-71.299999992889582
 20
-164.9999999940193
 30
0.1
 42
-0.4142140000000002
  0
VERTEX
  5
1FFC
  8
SAPA_PROFIL
 10
-70.799999992889582
 20
-164.49999999401919
 30
0.1
  0
VERTEX
  5
1FFD
  8
SAPA_PROFIL
 10
-69.299999992889582
 20
-164.49999999401919
 30
0.1
 42
-0.4142140000000209
  0
VERTEX
  5
1FFE
  8
SAPA_PROFIL
 10
-68.999999992889599
 20
-164.79999999401929
 30
0.1
  0
VERTEX
  5
1FFF
  8
SAPA_PROFIL
 10
-68.999999992889656
 20
-164.99999999401919
 30
0.1
 42
0.5507600000000054
  0
VERTEX
  5
2000
  8
SAPA_PROFIL
 10
-68.571427992889554
 20
-165.2710519940193
 30
0.1
 42
0.2896899999999876
  0
VERTEX
  5
2001
  8
SAPA_PROFIL
 10
-67.999999992889585
 20
-164.36754399401929
 30
0.1
  0
VERTEX
  5
2002
  8
SAPA_PROFIL
 10
-67.999999992889599
 20
-163.3700729940193
 30
0.1
 42
0.0436609999999812
  0
VERTEX
  5
2003
  8
SAPA_PROFIL
 10
-68.007595992889591
 20
-163.28324799401929
 30
0.1
  0
VERTEX
  5
2004
  8
SAPA_PROFIL
 10
-68.284441992889612
 20
-161.71317599401931
 30
0.1
 42
0.839099999999979
  0
VERTEX
  5
2005
  8
SAPA_PROFIL
 10
-69.269249992889598
 20
-161.71317599401931
 30
0.1
  0
VERTEX
  5
2006
  8
SAPA_PROFIL
 10
-69.476194992889589
 20
-162.8868239940193
 30
0.1
 42
-0.363970000000042
  0
VERTEX
  5
2007
  8
SAPA_PROFIL
 10
-69.968598992889611
 20
-163.29999999401929
 30
0.1
  0
VERTEX
  5
2008
  8
SAPA_PROFIL
 10
-70.779999992889572
 20
-163.29999999401929
 30
0.1
 42
-0.4373279999999794
  0
VERTEX
  5
2009
  8
SAPA_PROFIL
 10
-71.2784689928896
 20
-162.76090499401931
 30
0.1
  0
VERTEX
  5
200A
  8
SAPA_PROFIL
 10
-70.711670506493732
 20
-148.28784672060289
 30
0.1
 42
-0.4023941355298093
  0
VERTEX
  5
200B
  8
SAPA_PROFIL
 10
-70.411916777667415
 20
-147.99999999401919
 30
0.1
  0
VERTEX
  5
200C
  8
SAPA_PROFIL
 10
-69.611382992889574
 20
-147.99999999401919
 30
0.1
 42
0.2596810000001062
  0
VERTEX
  5
200D
  8
SAPA_PROFIL
 10
-69.441351992889594
 20
-147.90530699401921
 30
0.1
  0
VERTEX
  5
200E
  8
SAPA_PROFIL
 10
-68.544952992889506
 20
-146.4579599940194
 30
0.1
 42
0.5877030000000574
  0
VERTEX
  5
200F
  8
SAPA_PROFIL
 10
-68.799999992889639
 20
-145.99999999401919
 30
0.1
  0
VERTEX
  5
2010
  8
SAPA_PROFIL
 10
-70.199999992889587
 20
-145.99999999401919
 30
0.1
 42
-0.4142139999999773
  0
VERTEX
  5
2011
  8
SAPA_PROFIL
 10
-70.499999992889599
 20
-145.69999999401929
 30
0.1
  0
VERTEX
  5
2012
  8
SAPA_PROFIL
 10
-70.499999992889599
 20
-143.29999999401929
 30
0.1
 42
-0.4142140000000855
  0
VERTEX
  5
2013
  8
SAPA_PROFIL
 10
-70.199999992889587
 20
-142.99999999401919
 30
0.1
  0
VERTEX
  5
2014
  8
SAPA_PROFIL
 10
-52.79999999288961
 20
-142.99999999401919
 30
0.1
 42
-0.4142140000001167
  0
VERTEX
  5
2015
  8
SAPA_PROFIL
 10
-52.499999992889592
 20
-143.29999999401929
 30
0.1
  0
VERTEX
  5
2016
  8
SAPA_PROFIL
 10
-52.499999992889592
 20
-145.69999999401929
 30
0.1
 42
-0.4142140000000127
  0
VERTEX
  5
2017
  8
SAPA_PROFIL
 10
-52.79999999288961
 20
-145.99999999401919
 30
0.1
  0
VERTEX
  5
2018
  8
SAPA_PROFIL
 10
-54.19999999288958
 20
-145.99999999401919
 30
0.1
 42
0.5920054160710117
  0
VERTEX
  5
2019
  8
SAPA_PROFIL
 10
-54.453008505647361
 20
-146.46120333213409
 30
0.1
  0
VERTEX
  5
201A
  8
SAPA_PROFIL
 10
-53.658955475825707
 20
-147.7074689883471
 30
0.1
 42
0.2562769852931595
  0
VERTEX
  5
201B
  8
SAPA_PROFIL
 10
-53.490282966927083
 20
-147.7999999940192
 30
0.1
  0
VERTEX
  5
201C
  8
SAPA_PROFIL
 10
-50.495951652048547
 20
-147.7999999940192
 30
0.1
  0
VERTEX
  5
201D
  8
SAPA_PROFIL
 10
-49.176718650286858
 20
-147.29010557545561
 30
0.1
 42
-0.4142135623730875
  0
VERTEX
  5
201E
  8
SAPA_PROFIL
 10
-48.802533694811039
 20
-147.49006961996301
 30
0.1
  0
VERTEX
  5
201F
  8
SAPA_PROFIL
 10
-48.788015285563937
 20
-147.5379153699615
 30
0.1
  0
VERTEX
  5
2020
  8
SAPA_PROFIL
 10
-47.284914204801929
 20
-147.53799897784509
 30
0.1
 42
0.4769755326981641
  0
VERTEX
  5
2021
  8
SAPA_PROFIL
 10
-46.982661380295468
 20
-147.16634210289931
 30
0.1
  0
VERTEX
  5
2022
  8
SAPA_PROFIL
 10
-47.364107976423163
 20
-145.353111632241
 30
0.1
 42
0.2216946626430149
  0
VERTEX
  5
2023
  8
SAPA_PROFIL
 10
-47.769916881577977
 20
-144.81223180076429
 30
0.1
  0
VERTEX
  5
2024
  8
SAPA_PROFIL
 10
-48.05459916480963
 20
-144.6600978896555
 30
0.1
 42
0.5773502691897454
  0
VERTEX
  5
2025
  8
SAPA_PROFIL
 10
-48.34875546506445
 20
-144.84305162976571
 30
0.1
  0
VERTEX
  5
2026
  8
SAPA_PROFIL
 10
-48.338194098837477
 20
-145.1648093579839
 30
0.1
  0
VERTEX
  5
2027
  8
SAPA_PROFIL
 10
-50.22403779069851
 20
-146.24937380495561
 30
0.1
  0
VERTEX
  5
2028
  8
SAPA_PROFIL
 10
-50.415420790692217
 20
-146.3074474419447
 30
0.1
 42
-0.7625858545243333
  0
VERTEX
  5
2029
  8
SAPA_PROFIL
 10
-50.599999992889707
 20
-145.9771213609277
 30
0.1
 42
0.2134217652834462
  0
VERTEX
  5
202A
  8
SAPA_PROFIL
 10
-50.499999992889599
 20
-145.75351456317759
 30
0.1
  0
VERTEX
  5
202B
  8
SAPA_PROFIL
 10
-50.499999992889599
 20
-141.90072815867751
 30
0.1
 42
-0.4142135623729119
  0
VERTEX
  5
202C
  8
SAPA_PROFIL
 10
-50.199999992889538
 20
-141.60072815867761
 30
0.1
  0
VERTEX
  5
202D
  8
SAPA_PROFIL
 10
-49.899999992889363
 20
-141.60072815867761
 30
0.1
  0
VERTEX
  5
202E
  8
SAPA_PROFIL
 10
-48.299999992889731
 20
-142.52448858938101
 30
0.1
 42
0.5773502691897497
  0
VERTEX
  5
202F
  8
SAPA_PROFIL
 10
-47.999999992889599
 20
-142.35128350862411
 30
0.1
  0
VERTEX
  5
2030
  8
SAPA_PROFIL
 10
-47.999999992889428
 20
-140.96564286256901
 30
0.1
 42
0.2679491924311136
  0
VERTEX
  5
2031
  8
SAPA_PROFIL
 10
-48.499999992889428
 20
-140.09961745878451
 30
0.1
  0
VERTEX
  5
2032
  8
SAPA_PROFIL
 10
-50.249999992889627
 20
-139.0892544877025
 30
0.1
 42
-0.2679491924310958
  0
VERTEX
  5
2033
  8
SAPA_PROFIL
 10
-50.499999992889599
 20
-138.65624178581021
 30
0.1
  0
VERTEX
  5
2034
  8
SAPA_PROFIL
 10
-50.499999992889599
 20
-138.31961523628991
 30
0.1
  0
VERTEX
  5
2035
  8
SAPA_PROFIL
 10
-50.799999992889589
 20
-137.7999999940192
 30
0.1
  0
VERTEX
  5
2036
  8
SAPA_PROFIL
 10
-50.499999992889599
 20
-137.28038475174861
 30
0.1
  0
VERTEX
  5
2037
  8
SAPA_PROFIL
 10
-50.499999992889613
 20
-104.6437582022284
 30
0.1
 42
-0.2679491924311033
  0
VERTEX
  5
2038
  8
SAPA_PROFIL
 10
-50.249999992889641
 20
-104.2107455003362
 30
0.1
  0
SEQEND
  5
2039
  8
SAPA_PROFIL
  0
POLYLINE
  5
1676
  8
SAPA_PROFIL
 66
     1
 10
0.0
 20
0.0
 30
0.1
 70
     1
  0
VERTEX
  5
203A
  8
SAPA_PROFIL
 10
-52.79999999288961
 20
-139.0999999940193
 30
0.1
  0
VERTEX
  5
203B
  8
SAPA_PROFIL
 10
-52.79999999288961
 20
-137.4999999940193
 30
0.1
 42
-0.4142135623730951
  0
VERTEX
  5
203C
  8
SAPA_PROFIL
 10
-52.599999992889593
 20
-137.29999999401929
 30
0.1
  0
VERTEX
  5
203D
  8
SAPA_PROFIL
 10
-52.299999909016272
 20
-137.29999999401929
 30
0.1
  0
VERTEX
  5
203E
  8
SAPA_PROFIL
 10
-52.299999909016279
 20
-101.19999999401929
 30
0.1
  0
VERTEX
  5
203F
  8
SAPA_PROFIL
 10
-52.5999999928896
 20
-101.19999999401929
 30
0.1
 42
-0.4142135623730951
  0
VERTEX
  5
2040
  8
SAPA_PROFIL
 10
-52.79999999288961
 20
-100.9999999940193
 30
0.1
  0
VERTEX
  5
2041
  8
SAPA_PROFIL
 10
-52.79999999288961
 20
-99.399999994019325
 30
0.1
 42
-0.4142135623730951
  0
VERTEX
  5
2042
  8
SAPA_PROFIL
 10
-52.5999999928896
 20
-99.199999994019322
 30
0.1
  0
VERTEX
  5
2043
  8
SAPA_PROFIL
 10
-52.299999909016279
 20
-99.199999994019322
 30
0.1
  0
VERTEX
  5
2044
  8
SAPA_PROFIL
 10
-52.299999909016258
 20
-97.499999994019333
 30
0.1
 42
0.4142135623730951
  0
VERTEX
  5
2045
  8
SAPA_PROFIL
 10
-52.599999909016269
 20
-97.199999994019336
 30
0.1
  0
VERTEX
  5
2046
  8
SAPA_PROFIL
 10
-70.199999992889602
 20
-97.199999994019336
 30
0.1
 42
0.4142135623730951
  0
VERTEX
  5
2047
  8
SAPA_PROFIL
 10
-70.499999992889613
 20
-97.499999994019333
 30
0.1
  0
VERTEX
  5
2048
  8
SAPA_PROFIL
 10
-70.499999992889613
 20
-99.199999994019322
 30
0.1
  0
VERTEX
  5
2049
  8
SAPA_PROFIL
 10
-70.399999992889576
 20
-99.199999994019322
 30
0.1
 42
-0.4142135623730951
  0
VERTEX
  5
204A
  8
SAPA_PROFIL
 10
-70.199999992889602
 20
-99.399999994019325
 30
0.1
  0
VERTEX
  5
204B
  8
SAPA_PROFIL
 10
-70.199999992889602
 20
-100.9999999940193
 30
0.1
 42
-0.4142135623730951
  0
VERTEX
  5
204C
  8
SAPA_PROFIL
 10
-70.399999992889576
 20
-101.19999999401929
 30
0.1
  0
VERTEX
  5
204D
  8
SAPA_PROFIL
 10
-70.499999992889613
 20
-101.19999999401929
 30
0.1
  0
VERTEX
  5
204E
  8
SAPA_PROFIL
 10
-70.499999992889599
 20
-137.29999999401929
 30
0.1
  0
VERTEX
  5
204F
  8
SAPA_PROFIL
 10
-70.399999992889576
 20
-137.29999999401929
 30
0.1
 42
-0.4142135623730951
  0
VERTEX
  5
2050
  8
SAPA_PROFIL
 10
-70.199999992889587
 20
-137.4999999940193
 30
0.1
  0
VERTEX
  5
2051
  8
SAPA_PROFIL
 10
-70.199999992889587
 20
-139.0999999940193
 30
0.1
 42
-0.4142135623730951
  0
VERTEX
  5
2052
  8
SAPA_PROFIL
 10
-70.399999992889562
 20
-139.29999999401929
 30
0.1
  0
VERTEX
  5
2053
  8
SAPA_PROFIL
 10
-70.499999992889599
 20
-139.29999999401929
 30
0.1
  0
VERTEX
  5
2054
  8
SAPA_PROFIL
 10
-70.499999992889585
 20
-140.9999999940193
 30
0.1
 42
0.4142135623730951
  0
VERTEX
  5
2055
  8
SAPA_PROFIL
 10
-70.199999992889587
 20
-141.29999999401929
 30
0.1
  0
VERTEX
  5
2056
  8
SAPA_PROFIL
 10
-52.599999909016269
 20
-141.29999999401929
 30
0.1
 42
0.4142135623730951
  0
VERTEX
  5
2057
  8
SAPA_PROFIL
 10
-52.299999909016272
 20
-140.9999999940193
 30
0.1
  0
VERTEX
  5
2058
  8
SAPA_PROFIL
 10
-52.299999909016272
 20
-139.29999999401929
 30
0.1
  0
VERTEX
  5
2059
  8
SAPA_PROFIL
 10
-52.599999992889593
 20
-139.29999999401929
 30
0.1
 42
-0.4142135623730951
  0
SEQEND
  5
205A
  8
SAPA_PROFIL
  0
POLYLINE
  5
1677
  8
SAPA_PROFIL
 62
     4
 66
     1
 10
0.0
 20
0.0
 30
0.0
  0
VERTEX
  5
205B
  8
SAPA_PROFIL
 62
     4
 10
-20.450670870617468
 20
-145.0966328846379
 30
0.0
 42
0.5571646428658034
  0
VERTEX
  5
205C
  8
SAPA_PROFIL
 62
     4
 10
-20.987631374754301
 20
-144.22891397048241
 30
0.0
  0
VERTEX
  5
205D
  8
SAPA_PROFIL
 62
     4
 10
-38.012368611275498
 20
-144.22891397048281
 30
0.0
 42
0.5571645048035741
  0
VERTEX
  5
205E
  8
SAPA_PROFIL
 62
     4
 10
-38.549329228236559
 20
-145.09663265834899
 30
0.0
  0
VERTEX
  5
205F
  8
SAPA_PROFIL
 62
     4
 10
-37.71862214068986
 20
-146.76277331441699
 30
0.0
 42
0.284385813979063
  0
VERTEX
  5
2060
  8
SAPA_PROFIL
 62
     4
 10
-37.450141832209511
 20
-146.9289139704845
 30
0.0
  0
VERTEX
  5
2061
  8
SAPA_PROFIL
 62
     4
 10
-21.5498581538202
 20
-146.9289139704845
 30
0.0
 42
0.2843858139786238
  0
VERTEX
  5
2062
  8
SAPA_PROFIL
 62
     4
 10
-21.281377845339911
 20
-146.7627733144175
 30
0.0
  0
VERTEX
  5
2063
  8
SAPA_PROFIL
 62
     4
 10
-20.45067075779275
 20
-145.0966326583482
 30
0.0
  0
SEQEND
  5
2064
  8
SAPA_PROFIL
 62
     4
  0
POLYLINE
  5
1678
  8
SAPA_PROFIL
 62
     4
 66
     1
 10
0.0
 20
0.0
 30
0.0
 70
     1
  0
VERTEX
  5
2065
  8
SAPA_PROFIL
 62
     4
 10
-43.91761117768214
 20
-147.2857454849821
 30
0.0
  0
VERTEX
  5
2066
  8
SAPA_PROFIL
 62
     4
 10
-44.181634456058163
 20
-147.69230568098621
 30
0.0
 42
-0.2539676464751066
  0
VERTEX
  5
2067
  8
SAPA_PROFIL
 62
     4
 10
-44.433235626442873
 20
-147.82891397048229
 30
0.0
  0
VERTEX
  5
2068
  8
SAPA_PROFIL
 62
     4
 10
-45.814735211648212
 20
-147.82891397048229
 30
0.0
 42
-0.3152987888790479
  0
VERTEX
  5
2069
  8
SAPA_PROFIL
 62
     4
 10
-46.284581522040533
 20
-147.4999240421441
 30
0.0
  0
VERTEX
  5
206A
  8
SAPA_PROFIL
 62
     4
 10
-47.180250462949132
 20
-145.03909385169291
 30
0.0
 42
0.2694959974287434
  0
VERTEX
  5
206B
  8
SAPA_PROFIL
 62
     4
 10
-47.411769509350478
 20
-144.845961877349
 30
0.0
 42
0.0612686379508233
  0
VERTEX
  5
206C
  8
SAPA_PROFIL
 62
     4
 10
-47.704444942203757
 20
-144.83237850671841
 30
0.0
  0
VERTEX
  5
206D
  8
SAPA_PROFIL
 62
     4
 10
-48.05386311951203
 20
-144.63064182798959
 30
0.0
 42
0.5773502691891679
  0
VERTEX
  5
206E
  8
SAPA_PROFIL
 62
     4
 10
-48.368863119511609
 20
-144.81250716278419
 30
0.0
  0
VERTEX
  5
206F
  8
SAPA_PROFIL
 62
     4
 10
-48.368863119511857
 20
-145.0796216909105
 30
0.0
  0
VERTEX
  5
2070
  8
SAPA_PROFIL
 62
     4
 10
-49.767390820146112
 20
-145.88830515221881
 30
0.0
 42
-0.1318219888653519
  0
VERTEX
  5
2071
  8
SAPA_PROFIL
 62
     4
 10
-49.917563922618449
 20
-145.92859754875619
 30
0.0
  0
VERTEX
  5
2072
  8
SAPA_PROFIL
 62
     4
 10
-50.099999993055242
 20
-145.92859754874979
 30
0.0
 42
-0.4142135623724291
  0
VERTEX
  5
2073
  8
SAPA_PROFIL
 62
     4
 10
-50.499999993055781
 20
-145.52859754875021
 30
0.0
  0
VERTEX
  5
2074
  8
SAPA_PROFIL
 62
     4
 10
-50.499999993054409
 20
-142.12859754874921
 30
0.0
 42
-0.4142135623744271
  0
VERTEX
  5
2075
  8
SAPA_PROFIL
 62
     4
 10
-50.099999993055242
 20
-141.72859754874821
 30
0.0
  0
VERTEX
  5
2076
  8
SAPA_PROFIL
 62
     4
 10
-49.920384750783931
 20
-141.72859754874759
 30
0.0
 42
-0.1316524975874005
  0
VERTEX
  5
2077
  8
SAPA_PROFIL
 62
     4
 10
-49.770384750787109
 20
-141.7687899276132
 30
0.0
  0
VERTEX
  5
2078
  8
SAPA_PROFIL
 62
     4
 10
-48.166246853784862
 20
-142.69493937426569
 30
0.0
 42
0.1316524975875904
  0
VERTEX
  5
2079
  8
SAPA_PROFIL
 62
     4
 10
-47.66624685378315
 20
-142.8289139704805
 30
0.0
  0
VERTEX
  5
207A
  8
SAPA_PROFIL
 62
     4
 10
-47.249999993055781
 20
-142.8289139704805
 30
0.0
 42
0.4142135623730951
  0
VERTEX
  5
207B
  8
SAPA_PROFIL
 62
     4
 10
-46.249999993055781
 20
-141.8289139704805
 30
0.0
  0
VERTEX
  5
207C
  8
SAPA_PROFIL
 62
     4
 10
-46.249999993055781
 20
-138.8289139704832
 30
0.0
 42
-0.9999996830128083
  0
VERTEX
  5
207D
  8
SAPA_PROFIL
 62
     4
 10
-45.249999993055781
 20
-138.82891397048141
 30
0.0
  0
VERTEX
  5
207E
  8
SAPA_PROFIL
 62
     4
 10
-45.249999993055781
 20
-141.82891397048141
 30
0.0
 42
0.4142135623730951
  0
VERTEX
  5
207F
  8
SAPA_PROFIL
 62
     4
 10
-44.249999993055781
 20
-142.82891397048141
 30
0.0
  0
VERTEX
  5
2080
  8
SAPA_PROFIL
 62
     4
 10
-14.749999992971199
 20
-142.82891397048141
 30
0.0
 42
0.4142135623730951
  0
VERTEX
  5
2081
  8
SAPA_PROFIL
 62
     4
 10
-13.749999992971199
 20
-141.82891397048141
 30
0.0
  0
VERTEX
  5
2082
  8
SAPA_PROFIL
 62
     4
 10
-13.749999992971199
 20
-138.8289139704832
 30
0.0
 42
-0.9999999999999998
  0
VERTEX
  5
2083
  8
SAPA_PROFIL
 62
     4
 10
-12.749999992971199
 20
-138.8289139704832
 30
0.0
  0
VERTEX
  5
2084
  8
SAPA_PROFIL
 62
     4
 10
-12.749999992971199
 20
-141.82891397048141
 30
0.0
 42
0.4142135623736278
  0
VERTEX
  5
2085
  8
SAPA_PROFIL
 62
     4
 10
-11.749999992971199
 20
-142.82891397048141
 30
0.0
  0
VERTEX
  5
2086
  8
SAPA_PROFIL
 62
     4
 10
-11.33375313224473
 20
-142.82891397048141
 30
0.0
 42
0.1316524975874375
  0
VERTEX
  5
2087
  8
SAPA_PROFIL
 62
     4
 10
-10.83375313224454
 20
-142.6949393742654
 30
0.0
  0
VERTEX
  5
2088
  8
SAPA_PROFIL
 62
     4
 10
-9.2296152352425906
 20
-141.7687899276132
 30
0.0
 42
-0.1316524975874
  0
VERTEX
  5
2089
  8
SAPA_PROFIL
 62
     4
 10
-9.0796152352430468
 20
-141.72859754874759
 30
0.0
  0
VERTEX
  5
208A
  8
SAPA_PROFIL
 62
     4
 10
-8.8999999929717433
 20
-141.72859754874821
 30
0.0
 42
-0.4142135623744271
  0
VERTEX
  5
208B
  8
SAPA_PROFIL
 62
     4
 10
-8.4999999929725618
 20
-142.12859754874921
 30
0.0
  0
VERTEX
  5
208C
  8
SAPA_PROFIL
 62
     4
 10
-8.4999999929711976
 20
-145.52859754875021
 30
0.0
 42
-0.4142135623724291
  0
VERTEX
  5
208D
  8
SAPA_PROFIL
 62
     4
 10
-8.8999999929717433
 20
-145.92859754874979
 30
0.0
  0
VERTEX
  5
208E
  8
SAPA_PROFIL
 62
     4
 10
-9.0824360634085224
 20
-145.92859754875619
 30
0.0
 42
-0.1318219888653524
  0
VERTEX
  5
208F
  8
SAPA_PROFIL
 62
     4
 10
-9.2326091658808664
 20
-145.88830515221881
 30
0.0
  0
VERTEX
  5
2090
  8
SAPA_PROFIL
 62
     4
 10
-10.631136866360521
 20
-145.07962169099449
 30
0.0
  0
VERTEX
  5
2091
  8
SAPA_PROFIL
 62
     4
 10
-10.631136866360521
 20
-144.8125071627814
 30
0.0
 42
0.577350269189159
  0
VERTEX
  5
2092
  8
SAPA_PROFIL
 62
     4
 10
-10.946136866360121
 20
-144.63064182798689
 30
0.0
  0
VERTEX
  5
2093
  8
SAPA_PROFIL
 62
     4
 10
-11.29555504357878
 20
-144.83237850666401
 30
0.0
 42
0.0612687673629489
  0
VERTEX
  5
2094
  8
SAPA_PROFIL
 62
     4
 10
-11.588230476678991
 20
-144.84596187735019
 30
0.0
 42
0.2694959974285039
  0
VERTEX
  5
2095
  8
SAPA_PROFIL
 62
     4
 10
-11.81974952307951
 20
-145.0390938516941
 30
0.0
  0
VERTEX
  5
2096
  8
SAPA_PROFIL
 62
     4
 10
-12.715418463989179
 20
-147.49992404214731
 30
0.0
 42
-0.3152987888784035
  0
VERTEX
  5
2097
  8
SAPA_PROFIL
 62
     4
 10
-13.1852647743824
 20
-147.82891397048391
 30
0.0
  0
VERTEX
  5
2098
  8
SAPA_PROFIL
 62
     4
 10
-14.566764359586839
 20
-147.82891397048229
 30
0.0
 42
-0.2539676464741841
  0
VERTEX
  5
2099
  8
SAPA_PROFIL
 62
     4
 10
-14.81836552997092
 20
-147.692305680987
 30
0.0
  0
VERTEX
  5
209A
  8
SAPA_PROFIL
 62
     4
 10
-15.082388808347559
 20
-147.2857454849821
 30
0.0
 42
-0.5862177598324623
  0
VERTEX
  5
209B
  8
SAPA_PROFIL
 62
     4
 10
-14.826646993109209
 20
-146.8289139704855
 30
0.0
  0
VERTEX
  5
209C
  8
SAPA_PROFIL
 62
     4
 10
-13.885472312599401
 20
-146.8289139704932
 30
0.0
 42
0.3152987888813165
  0
VERTEX
  5
209D
  8
SAPA_PROFIL
 62
     4
 10
-13.41562600220165
 20
-146.49992404215641
 30
0.0
  0
VERTEX
  5
209E
  8
SAPA_PROFIL
 62
     4
 10
-12.97886172107769
 20
-145.29992404214519
 30
0.0
 42
0.5205670505515651
  0
VERTEX
  5
209F
  8
SAPA_PROFIL
 62
     4
 10
-13.448708031470909
 20
-144.6289139704825
 30
0.0
  0
VERTEX
  5
20A0
  8
SAPA_PROFIL
 62
     4
 10
-18.465148972139762
 20
-144.62891397048239
 30
0.0
 42
0.3702522326300203
  0
VERTEX
  5
20A1
  8
SAPA_PROFIL
 62
     4
 10
-18.761672333933092
 20
-144.88337392314821
 30
0.0
 42
0.0982365330332397
  0
VERTEX
  5
20A2
  8
SAPA_PROFIL
 62
     4
 10
-18.852125092144028
 20
-146.57106069814321
 30
0.0
 42
0.3735060174783164
  0
VERTEX
  5
20A3
  8
SAPA_PROFIL
 62
     4
 10
-18.55510042423305
 20
-146.8289139704832
 30
0.0
  0
VERTEX
  5
20A4
  8
SAPA_PROFIL
 62
     4
 10
-18.126646993110398
 20
-146.82891397048411
 30
0.0
 42
-0.5920056181162531
  0
VERTEX
  5
20A5
  8
SAPA_PROFIL
 62
     4
 10
-17.873638236792999
 20
-147.290117473012
 30
0.0
  0
VERTEX
  5
20A6
  8
SAPA_PROFIL
 62
     4
 10
-18.1348223129487
 20
-147.6923056809903
 30
0.0
 42
-0.2539676464746725
  0
VERTEX
  5
20A7
  8
SAPA_PROFIL
 62
     4
 10
-18.386423483332461
 20
-147.8289139704857
 30
0.0
  0
VERTEX
  5
20A8
  8
SAPA_PROFIL
 62
     4
 10
-40.613576502698137
 20
-147.82891397048411
 30
0.0
 42
-0.2539676464741819
  0
VERTEX
  5
20A9
  8
SAPA_PROFIL
 62
     4
 10
-40.865177673081007
 20
-147.6923056809903
 30
0.0
  0
VERTEX
  5
20AA
  8
SAPA_PROFIL
 62
     4
 10
-41.126361749234817
 20
-147.290117473012
 30
0.0
 42
-0.5920055144124249
  0
VERTEX
  5
20AB
  8
SAPA_PROFIL
 62
     4
 10
-40.873352992919308
 20
-146.82891397048411
 30
0.0
  0
VERTEX
  5
20AC
  8
SAPA_PROFIL
 62
     4
 10
-40.444899515629082
 20
-146.82891399575911
 30
0.0
 42
0.3735060174775405
  0
VERTEX
  5
20AD
  8
SAPA_PROFIL
 62
     4
 10
-40.1478748477194
 20
-146.57106072341901
 30
0.0
 42
0.0355900683670349
  0
VERTEX
  5
20AE
  8
SAPA_PROFIL
 62
     4
 10
-40.103981283687148
 20
-145.9551871366192
 30
0.0
 42
0.0624282003873116
  0
VERTEX
  5
20AF
  8
SAPA_PROFIL
 62
     4
 10
-40.238327605930081
 20
-144.88337394842409
 30
0.0
 42
0.3702522326309292
  0
VERTEX
  5
20B0
  8
SAPA_PROFIL
 62
     4
 10
-40.534850967723457
 20
-144.62891399575841
 30
0.0
  0
VERTEX
  5
20B1
  8
SAPA_PROFIL
 62
     4
 10
-45.551291954556973
 20
-144.62891397048219
 30
0.0
 42
0.5205670505515692
  0
VERTEX
  5
20B2
  8
SAPA_PROFIL
 62
     4
 10
-46.021138264950203
 20
-145.29992404214519
 30
0.0
  0
VERTEX
  5
20B3
  8
SAPA_PROFIL
 62
     4
 10
-45.584373983825238
 20
-146.4999240421547
 30
0.0
 42
0.3152987888807539
  0
VERTEX
  5
20B4
  8
SAPA_PROFIL
 62
     4
 10
-45.114527673429393
 20
-146.82891397049229
 30
0.0
  0
VERTEX
  5
20B5
  8
SAPA_PROFIL
 62
     4
 10
-44.1733529929203
 20
-146.8289139704855
 30
0.0
 42
-0.5862175119221242
  0
VERTEX
  5
20B6
  8
SAPA_PROFIL
 62
     4
 10
-43.917611061938352
 20
-147.28574529624061
 30
0.0
 42
0.0000002084758573
  0
SEQEND
  5
20B7
  8
SAPA_PROFIL
 62
     4
  0
POLYLINE
  5
1679
  8
SAPA_PROFIL
 62
     4
 66
     1
 10
0.0
 20
0.0
 30
0.0
  0
VERTEX
  5
20B8
  8
SAPA_PROFIL
 62
     4
 10
-20.450670870617369
 20
-98.203367111222889
 30
0.0
 42
-0.5571646428658034
  0
VERTEX
  5
20B9
  8
SAPA_PROFIL
 62
     4
 10
-20.987631374754201
 20
-99.071086025378463
 30
0.0
  0
VERTEX
  5
20BA
  8
SAPA_PROFIL
 62
     4
 10
-38.012368611275399
 20
-99.07108602537798
 30
0.0
 42
-0.5571645048035741
  0
VERTEX
  5
20BB
  8
SAPA_PROFIL
 62
     4
 10
-38.549329228236459
 20
-98.203367337511835
 30
0.0
  0
VERTEX
  5
20BC
  8
SAPA_PROFIL
 62
     4
 10
-37.71862214068976
 20
-96.537226681443784
 30
0.0
 42
-0.284385813979063
  0
VERTEX
  5
20BD
  8
SAPA_PROFIL
 62
     4
 10
-37.450141832209411
 20
-96.371086025376357
 30
0.0
  0
VERTEX
  5
20BE
  8
SAPA_PROFIL
 62
     4
 10
-21.5498581538201
 20
-96.371086025376357
 30
0.0
 42
-0.2843858139786238
  0
VERTEX
  5
20BF
  8
SAPA_PROFIL
 62
     4
 10
-21.281377845339811
 20
-96.537226681443286
 30
0.0
  0
VERTEX
  5
20C0
  8
SAPA_PROFIL
 62
     4
 10
-20.450670757792651
 20
-98.203367337512631
 30
0.0
  0
SEQEND
  5
20C1
  8
SAPA_PROFIL
 62
     4
  0
POLYLINE
  5
167A
  8
SAPA_PROFIL
 62
     4
 66
     1
 10
0.0
 20
0.0
 30
0.0
 70
     1
  0
VERTEX
  5
20C2
  8
SAPA_PROFIL
 62
     4
 10
-43.917611177682041
 20
-96.014254510878771
 30
0.0
  0
VERTEX
  5
20C3
  8
SAPA_PROFIL
 62
     4
 10
-44.181634456058049
 20
-95.607694314874635
 30
0.0
 42
0.2539676464751066
  0
VERTEX
  5
20C4
  8
SAPA_PROFIL
 62
     4
 10
-44.433235626442759
 20
-95.471086025378526
 30
0.0
  0
VERTEX
  5
20C5
  8
SAPA_PROFIL
 62
     4
 10
-45.814735211648113
 20
-95.471086025378526
 30
0.0
 42
0.3152987888790479
  0
VERTEX
  5
20C6
  8
SAPA_PROFIL
 62
     4
 10
-46.284581522040419
 20
-95.800075953716686
 30
0.0
  0
VERTEX
  5
20C7
  8
SAPA_PROFIL
 62
     4
 10
-47.180250462949033
 20
-98.260906144167976
 30
0.0
 42
-0.2694959974287434
  0
VERTEX
  5
20C8
  8
SAPA_PROFIL
 62
     4
 10
-47.411769509350378
 20
-98.45403811851186
 30
0.0
 42
-0.0612686379508233
  0
VERTEX
  5
20C9
  8
SAPA_PROFIL
 62
     4
 10
-47.704444942203658
 20
-98.467621489142374
 30
0.0
  0
VERTEX
  5
20CA
  8
SAPA_PROFIL
 62
     4
 10
-48.053863119511931
 20
-98.669358167871195
 30
0.0
 42
-0.5773502691891679
  0
VERTEX
  5
20CB
  8
SAPA_PROFIL
 62
     4
 10
-48.368863119511509
 20
-98.487492833076629
 30
0.0
  0
VERTEX
  5
20CC
  8
SAPA_PROFIL
 62
     4
 10
-48.368863119511751
 20
-98.220378304950316
 30
0.0
  0
VERTEX
  5
20CD
  8
SAPA_PROFIL
 62
     4
 10
-49.767390820146012
 20
-97.411694843641996
 30
0.0
 42
0.1318219888653519
  0
VERTEX
  5
20CE
  8
SAPA_PROFIL
 62
     4
 10
-49.917563922618349
 20
-97.3714024471046
 30
0.0
  0
VERTEX
  5
20CF
  8
SAPA_PROFIL
 62
     4
 10
-50.099999993055128
 20
-97.371402447110967
 30
0.0
 42
0.4142135623724291
  0
VERTEX
  5
20D0
  8
SAPA_PROFIL
 62
     4
 10
-50.499999993055681
 20
-97.771402447110603
 30
0.0
  0
VERTEX
  5
20D1
  8
SAPA_PROFIL
 62
     4
 10
-50.49999999305431
 20
-101.1714024471116
 30
0.0
 42
0.4142135623744271
  0
VERTEX
  5
20D2
  8
SAPA_PROFIL
 62
     4
 10
-50.099999993055128
 20
-101.5714024471126
 30
0.0
  0
VERTEX
  5
20D3
  8
SAPA_PROFIL
 62
     4
 10
-49.920384750783832
 20
-101.5714024471132
 30
0.0
 42
0.1316524975874005
  0
VERTEX
  5
20D4
  8
SAPA_PROFIL
 62
     4
 10
-49.770384750787017
 20
-101.5312100682476
 30
0.0
  0
VERTEX
  5
20D5
  8
SAPA_PROFIL
 62
     4
 10
-48.166246853784763
 20
-100.6050606215951
 30
0.0
 42
-0.1316524975875904
  0
VERTEX
  5
20D6
  8
SAPA_PROFIL
 62
     4
 10
-47.666246853783051
 20
-100.4710860253803
 30
0.0
  0
VERTEX
  5
20D7
  8
SAPA_PROFIL
 62
     4
 10
-47.249999993055681
 20
-100.4710860253803
 30
0.0
 42
-0.4142135623730951
  0
VERTEX
  5
20D8
  8
SAPA_PROFIL
 62
     4
 10
-46.249999993055667
 20
-101.4710860253803
 30
0.0
  0
VERTEX
  5
20D9
  8
SAPA_PROFIL
 62
     4
 10
-46.249999993055667
 20
-104.4710860253776
 30
0.0
 42
0.9999996830128083
  0
VERTEX
  5
20DA
  8
SAPA_PROFIL
 62
     4
 10
-45.249999993055681
 20
-104.47108602537941
 30
0.0
  0
VERTEX
  5
20DB
  8
SAPA_PROFIL
 62
     4
 10
-45.249999993055681
 20
-101.47108602537941
 30
0.0
 42
-0.4142135623730951
  0
VERTEX
  5
20DC
  8
SAPA_PROFIL
 62
     4
 10
-44.249999993055681
 20
-100.47108602537941
 30
0.0
  0
VERTEX
  5
20DD
  8
SAPA_PROFIL
 62
     4
 10
-14.7499999929711
 20
-100.47108602537941
 30
0.0
 42
-0.4142135623730951
  0
VERTEX
  5
20DE
  8
SAPA_PROFIL
 62
     4
 10
-13.7499999929711
 20
-101.47108602537941
 30
0.0
  0
VERTEX
  5
20DF
  8
SAPA_PROFIL
 62
     4
 10
-13.7499999929711
 20
-104.4710860253776
 30
0.0
 42
0.9999999999999998
  0
VERTEX
  5
20E0
  8
SAPA_PROFIL
 62
     4
 10
-12.7499999929711
 20
-104.4710860253776
 30
0.0
  0
VERTEX
  5
20E1
  8
SAPA_PROFIL
 62
     4
 10
-12.7499999929711
 20
-101.47108602537941
 30
0.0
 42
-0.4142135623736278
  0
VERTEX
  5
20E2
  8
SAPA_PROFIL
 62
     4
 10
-11.7499999929711
 20
-100.47108602537941
 30
0.0
  0
VERTEX
  5
20E3
  8
SAPA_PROFIL
 62
     4
 10
-11.33375313224464
 20
-100.47108602537941
 30
0.0
 42
-0.1316524975874375
  0
VERTEX
  5
20E4
  8
SAPA_PROFIL
 62
     4
 10
-10.833753132244439
 20
-100.6050606215955
 30
0.0
  0
VERTEX
  5
20E5
  8
SAPA_PROFIL
 62
     4
 10
-9.2296152352424912
 20
-101.5312100682476
 30
0.0
 42
0.1316524975874
  0
VERTEX
  5
20E6
  8
SAPA_PROFIL
 62
     4
 10
-9.0796152352429473
 20
-101.5714024471132
 30
0.0
  0
VERTEX
  5
20E7
  8
SAPA_PROFIL
 62
     4
 10
-8.8999999929716438
 20
-101.5714024471126
 30
0.0
 42
0.4142135623744271
  0
VERTEX
  5
20E8
  8
SAPA_PROFIL
 62
     4
 10
-8.4999999929724623
 20
-101.1714024471116
 30
0.0
  0
VERTEX
  5
20E9
  8
SAPA_PROFIL
 62
     4
 10
-8.4999999929710981
 20
-97.771402447110631
 30
0.0
 42
0.4142135623724291
  0
VERTEX
  5
20EA
  8
SAPA_PROFIL
 62
     4
 10
-8.8999999929716438
 20
-97.371402447110995
 30
0.0
  0
VERTEX
  5
20EB
  8
SAPA_PROFIL
 62
     4
 10
-9.0824360634084211
 20
-97.371402447104614
 30
0.0
 42
0.1318219888653524
  0
VERTEX
  5
20EC
  8
SAPA_PROFIL
 62
     4
 10
-9.2326091658807652
 20
-97.411694843641996
 30
0.0
  0
VERTEX
  5
20ED
  8
SAPA_PROFIL
 62
     4
 10
-10.63113686636042
 20
-98.220378304866344
 30
0.0
  0
VERTEX
  5
20EE
  8
SAPA_PROFIL
 62
     4
 10
-10.63113686636042
 20
-98.487492833079386
 30
0.0
 42
-0.577350269189159
  0
VERTEX
  5
20EF
  8
SAPA_PROFIL
 62
     4
 10
-10.946136866360019
 20
-98.669358167873938
 30
0.0
  0
VERTEX
  5
20F0
  8
SAPA_PROFIL
 62
     4
 10
-11.29555504357868
 20
-98.46762148919683
 30
0.0
 42
-0.0612687673629489
  0
VERTEX
  5
20F1
  8
SAPA_PROFIL
 62
     4
 10
-11.58823047667889
 20
-98.454038118510624
 30
0.0
 42
-0.2694959974285039
  0
VERTEX
  5
20F2
  8
SAPA_PROFIL
 62
     4
 10
-11.819749523079411
 20
-98.260906144166697
 30
0.0
  0
VERTEX
  5
20F3
  8
SAPA_PROFIL
 62
     4
 10
-12.71541846398908
 20
-95.800075953713517
 30
0.0
 42
0.3152987888784035
  0
VERTEX
  5
20F4
  8
SAPA_PROFIL
 62
     4
 10
-13.185264774382301
 20
-95.471086025376934
 30
0.0
  0
VERTEX
  5
20F5
  8
SAPA_PROFIL
 62
     4
 10
-14.56676435958674
 20
-95.471086025378526
 30
0.0
 42
0.2539676464741841
  0
VERTEX
  5
20F6
  8
SAPA_PROFIL
 62
     4
 10
-14.818365529970819
 20
-95.607694314873811
 30
0.0
  0
VERTEX
  5
20F7
  8
SAPA_PROFIL
 62
     4
 10
-15.08238880834746
 20
-96.014254510878786
 30
0.0
 42
0.5862177598324623
  0
VERTEX
  5
20F8
  8
SAPA_PROFIL
 62
     4
 10
-14.82664699310911
 20
-96.471086025375286
 30
0.0
  0
VERTEX
  5
20F9
  8
SAPA_PROFIL
 62
     4
 10
-13.885472312599299
 20
-96.471086025367626
 30
0.0
 42
-0.3152987888813165
  0
VERTEX
  5
20FA
  8
SAPA_PROFIL
 62
     4
 10
-13.415626002201551
 20
-96.800075953704379
 30
0.0
  0
VERTEX
  5
20FB
  8
SAPA_PROFIL
 62
     4
 10
-12.978861721077591
 20
-98.000075953715594
 30
0.0
 42
-0.5205670505515651
  0
VERTEX
  5
20FC
  8
SAPA_PROFIL
 62
     4
 10
-13.44870803147081
 20
-98.671086025378358
 30
0.0
  0
VERTEX
  5
20FD
  8
SAPA_PROFIL
 62
     4
 10
-18.465148972139659
 20
-98.671086025378386
 30
0.0
 42
-0.3702522326300203
  0
VERTEX
  5
20FE
  8
SAPA_PROFIL
 62
     4
 10
-18.761672333932989
 20
-98.416626072712674
 30
0.0
 42
-0.0982365330332397
  0
VERTEX
  5
20FF
  8
SAPA_PROFIL
 62
     4
 10
-18.852125092143929
 20
-96.728939297717673
 30
0.0
 42
-0.3735060174783164
  0
VERTEX
  5
2100
  8
SAPA_PROFIL
 62
     4
 10
-18.55510042423295
 20
-96.47108602537763
 30
0.0
  0
VERTEX
  5
2101
  8
SAPA_PROFIL
 62
     4
 10
-18.126646993110299
 20
-96.471086025376721
 30
0.0
 42
0.5920056181162531
  0
VERTEX
  5
2102
  8
SAPA_PROFIL
 62
     4
 10
-17.8736382367929
 20
-96.009882522848798
 30
0.0
  0
VERTEX
  5
2103
  8
SAPA_PROFIL
 62
     4
 10
-18.1348223129486
 20
-95.607694314870514
 30
0.0
 42
0.2539676464746725
  0
VERTEX
  5
2104
  8
SAPA_PROFIL
 62
     4
 10
-18.386423483332361
 20
-95.471086025375115
 30
0.0
  0
VERTEX
  5
2105
  8
SAPA_PROFIL
 62
     4
 10
-40.613576502698052
 20
-95.471086025376707
 30
0.0
 42
0.2539676464741819
  0
VERTEX
  5
2106
  8
SAPA_PROFIL
 62
     4
 10
-40.8651776730809
 20
-95.607694314870486
 30
0.0
  0
VERTEX
  5
2107
  8
SAPA_PROFIL
 62
     4
 10
-41.126361749234718
 20
-96.009882522848827
 30
0.0
 42
0.5920055144124249
  0
VERTEX
  5
2108
  8
SAPA_PROFIL
 62
     4
 10
-40.873352992919209
 20
-96.471086025376707
 30
0.0
  0
VERTEX
  5
2109
  8
SAPA_PROFIL
 62
     4
 10
-40.44489951562899
 20
-96.471086000101707
 30
0.0
 42
-0.3735060174775405
  0
VERTEX
  5
210A
  8
SAPA_PROFIL
 62
     4
 10
-40.147874847719301
 20
-96.728939272441806
 30
0.0
 42
-0.0355900683670349
  0
VERTEX
  5
210B
  8
SAPA_PROFIL
 62
     4
 10
-40.103981283687048
 20
-97.344812859241586
 30
0.0
 42
-0.0624282003873116
  0
VERTEX
  5
210C
  8
SAPA_PROFIL
 62
     4
 10
-40.238327605929982
 20
-98.416626047436708
 30
0.0
 42
-0.3702522326309292
  0
VERTEX
  5
210D
  8
SAPA_PROFIL
 62
     4
 10
-40.534850967723372
 20
-98.671086000102434
 30
0.0
  0
VERTEX
  5
210E
  8
SAPA_PROFIL
 62
     4
 10
-45.551291954556874
 20
-98.671086025378571
 30
0.0
 42
-0.5205670505515692
  0
VERTEX
  5
210F
  8
SAPA_PROFIL
 62
     4
 10
-46.021138264950089
 20
-98.000075953715594
 30
0.0
  0
VERTEX
  5
2110
  8
SAPA_PROFIL
 62
     4
 10
-45.584373983825152
 20
-96.800075953706155
 30
0.0
 42
-0.3152987888807539
  0
VERTEX
  5
2111
  8
SAPA_PROFIL
 62
     4
 10
-45.114527673429293
 20
-96.471086025368535
 30
0.0
  0
VERTEX
  5
2112
  8
SAPA_PROFIL
 62
     4
 10
-44.173352992920201
 20
-96.471086025375357
 30
0.0
 42
0.5862175119221242
  0
VERTEX
  5
2113
  8
SAPA_PROFIL
 62
     4
 10
-43.917611061938253
 20
-96.014254699620224
 30
0.0
 42
-0.0000002084758573
  0
SEQEND
  5
2114
  8
SAPA_PROFIL
 62
     4
  0
CIRCLE
  5
167B
  8
SAPA_PROFIL
 62
     2
 10
-67.317340025554529
 20
-86.831507495362402
 30
0.1
 40
0.25
  0
INSERT
  5
167C
  8
SAPA_PROFIL
  6
CONTINUOUS
 62
     2
  2
*U136
 10
0.0
 20
0.0
 30
0.0
1001
ACAD
1002
{
1000
R14_HATCH_DATA
1000
167C
1011
1.0
1021
0.0
1031
0.0
1021
0.0
1031
0.0
1011
0.0
1021
0.0
1031
0.0
1021
1.0
1031
0.0
1011
0.0
1021
0.0
1031
0.0
1021
0.0
1031
1.0
1040
0.1
1010
0.0
1020
0.0
1030
1.0
1000
SOLID
1070
     1
1070
     1
1071
        1
1071
        7
1070
     1
1070
     1
1071
        2
1040
-67.067340025554529
1040
-86.831507495362402
1040
1.0
1040
-67.567340025554529
1040
-86.831507495362402
1040
1.0
1071
        1
1005
167B
1070
     0
1070
     1
1040
0.0095408196840103
1071
        1
1040
-67.21734002555452
1040
-86.831507495362402
1040
0.1
1002
}
  0
POLYLINE
  5
167D
  8
SAPA_PROFIL
 62
     2
 66
     1
 10
0.0
 20
0.0
 30
0.1
 70
     1
  0
VERTEX
  5
2126
  8
SAPA_PROFIL
 62
     2
 10
-69.991719264420411
 20
-84.499974494019369
 30
0.1
  0
VERTEX
  5
2127
  8
SAPA_PROFIL
 62
     2
 10
-69.991719264420411
 20
-84.399974494019361
 30
0.1
 42
-0.4142135623730959
  0
VERTEX
  5
2128
  8
SAPA_PROFIL
 62
     2
 10
-69.291719264420408
 20
-83.699974494019372
 30
0.1
  0
VERTEX
  5
2129
  8
SAPA_PROFIL
 62
     2
 10
-68.191719264420399
 20
-83.699974494019372
 30
0.1
 42
-0.4142135623730961
  0
VERTEX
  5
212A
  8
SAPA_PROFIL
 62
     2
 10
-67.991719264420411
 20
-83.899974494019375
 30
0.1
  0
VERTEX
  5
212B
  8
SAPA_PROFIL
 62
     2
 10
-67.991719264420411
 20
-84.999974494019355
 30
0.1
 42
-0.4142135623730956
  0
VERTEX
  5
212C
  8
SAPA_PROFIL
 62
     2
 10
-68.191719264420414
 20
-85.199974494019372
 30
0.1
  0
VERTEX
  5
212D
  8
SAPA_PROFIL
 62
     2
 10
-69.291719264420408
 20
-85.199974494019358
 30
0.1
 42
-0.4142135623730946
  0
SEQEND
  5
212E
  8
SAPA_PROFIL
 62
     2
  0
POLYLINE
  5
167E
  8
SAPA_PROFIL
 62
     2
 66
     1
 10
0.0
 20
0.0
 30
0.1
  0
VERTEX
  5
212F
  8
SAPA_PROFIL
 62
     2
 10
-68.691719264420414
 20
-85.999974494019369
 30
0.1
  0
VERTEX
  5
2130
  8
SAPA_PROFIL
 62
     2
 10
-68.043953699147323
 20
-85.999974494019369
 30
0.1
 42
-0.4416942457848117
  0
VERTEX
  5
2131
  8
SAPA_PROFIL
 62
     2
 10
-67.84481621965439
 20
-86.218528853647285
 30
0.1
  0
VERTEX
  5
2132
  8
SAPA_PROFIL
 62
     2
 10
-67.934532284912436
 20
-87.181420134391459
 30
0.1
 42
0.4416942457848106
  0
VERTEX
  5
2133
  8
SAPA_PROFIL
 62
     2
 10
-67.735394805419503
 20
-87.399974494019375
 30
0.1
  0
VERTEX
  5
2134
  8
SAPA_PROFIL
 62
     2
 10
-67.185412465827952
 20
-87.399974494019375
 30
0.1
 42
0.5445962197109637
  0
VERTEX
  5
2135
  8
SAPA_PROFIL
 62
     2
 10
-66.729675556766082
 20
-86.694295448614284
 30
0.1
  0
VERTEX
  5
2136
  8
SAPA_PROFIL
 62
     2
 10
-66.891719264420416
 20
-86.335244295329019
 30
0.1
  0
VERTEX
  5
2137
  8
SAPA_PROFIL
 62
     2
 10
-66.891719264420402
 20
-84.862285056581143
 30
0.1
 42
0.336437923496554
  0
VERTEX
  5
2138
  8
SAPA_PROFIL
 62
     2
 10
-67.079226082262139
 20
-83.790541326966306
 30
0.1
  0
VERTEX
  5
2139
  8
SAPA_PROFIL
 62
     2
 10
-67.079226082262139
 20
-83.228677691142579
 30
0.1
 42
-0.1919812372740513
  0
VERTEX
  5
213A
  8
SAPA_PROFIL
 62
     2
 10
-66.942093704244883
 20
-82.884690643542555
 30
0.1
  0
VERTEX
  5
213B
  8
SAPA_PROFIL
 62
     2
 10
-66.570616227954844
 20
-82.492823713139245
 30
0.1
 42
-0.9249153594910841
  0
VERTEX
  5
213C
  8
SAPA_PROFIL
 62
     2
 10
-64.33692141287554
 20
-84.158601641661477
 30
0.1
  0
VERTEX
  5
213D
  8
SAPA_PROFIL
 62
     2
 10
-64.870469468127183
 20
-85.243146581330237
 30
0.1
 42
0.4184584792862776
  0
VERTEX
  5
213E
  8
SAPA_PROFIL
 62
     2
 10
-64.466717347707444
 20
-85.829848897901655
 30
0.1
 42
0.3891337693453737
  0
VERTEX
  5
213F
  8
SAPA_PROFIL
 62
     2
 10
-64.238628039764848
 20
-85.684682006361186
 30
0.1
  0
VERTEX
  5
2140
  8
SAPA_PROFIL
 62
     2
 10
-63.67572298727697
 20
-84.598785915796185
 30
0.1
 42
0.8864286961344978
  0
VERTEX
  5
2141
  8
SAPA_PROFIL
 62
     2
 10
-67.034921742797692
 20
-81.927006013859625
 30
0.1
  0
VERTEX
  5
2142
  8
SAPA_PROFIL
 62
     2
 10
-67.150289716086803
 20
-81.496446875978378
 30
0.1
 42
0.9163311740174273
  0
VERTEX
  5
2143
  8
SAPA_PROFIL
 62
     2
 10
-67.935137925839129
 20
-81.634836791118445
 30
0.1
  0
VERTEX
  5
2144
  8
SAPA_PROFIL
 62
     2
 10
-67.843475479631564
 20
-82.682543345469838
 30
0.1
 42
-0.4400105308918339
  0
VERTEX
  5
2145
  8
SAPA_PROFIL
 62
     2
 10
-68.042714419249918
 20
-82.899974494019347
 30
0.1
  0
VERTEX
  5
2146
  8
SAPA_PROFIL
 62
     2
 10
-68.891719264420402
 20
-82.899974494019347
 30
0.1
  0
VERTEX
  5
2147
  8
SAPA_PROFIL
 62
     2
 10
-68.891719264420402
 20
-82.499974494019355
 30
0.1
 42
0.569380983920789
  0
VERTEX
  5
2148
  8
SAPA_PROFIL
 62
     2
 10
-69.187535636123044
 20
-82.324420448455783
 30
0.1
  0
VERTEX
  5
2149
  8
SAPA_PROFIL
 62
     2
 10
-70.47916837952836
 20
-83.029386048354851
 30
0.1
 42
0.274387813087548
  0
VERTEX
  5
214A
  8
SAPA_PROFIL
 62
     2
 10
-70.791719264420394
 20
-83.556048185045569
 30
0.1
  0
VERTEX
  5
214B
  8
SAPA_PROFIL
 62
     2
 10
-70.791719264420394
 20
-85.343900802993147
 30
0.1
 42
0.274387813087548
  0
VERTEX
  5
214C
  8
SAPA_PROFIL
 62
     2
 10
-70.47916837952836
 20
-85.870562939683865
 30
0.1
  0
VERTEX
  5
214D
  8
SAPA_PROFIL
 62
     2
 10
-69.187535636123044
 20
-86.575528539582947
 30
0.1
 42
0.5693809839207892
  0
VERTEX
  5
214E
  8
SAPA_PROFIL
 62
     2
 10
-68.891719264420416
 20
-86.399974494019375
 30
0.1
  0
VERTEX
  5
214F
  8
SAPA_PROFIL
 62
     2
 10
-68.891719264420416
 20
-85.999974494019369
 30
0.1
  0
VERTEX
  5
2150
  8
SAPA_PROFIL
 62
     2
 10
-68.042714419249933
 20
-85.999974494019369
 30
0.1
  0
SEQEND
  5
2151
  8
SAPA_PROFIL
 62
     2
  0
POLYLINE
  5
167F
  8
SAPA_PROFIL
 66
     1
 10
0.0
 20
0.0
 30
0.0
 70
     1
  0
VERTEX
  5
2152
  8
SAPA_PROFIL
 10
-8.4999999990094022
 20
-81.453514569158429
 30
0.0
 42
0.2134217652834387
  0
VERTEX
  5
2153
  8
SAPA_PROFIL
 10
-8.3999999990092942
 20
-81.677121366908537
 30
0.0
 42
-0.7625858545243219
  0
VERTEX
  5
2154
  8
SAPA_PROFIL
 10
-8.5845792012067719
 20
-82.007447447925557
 30
0.0
  0
VERTEX
  5
2155
  8
SAPA_PROFIL
 10
-8.7759622012004925
 20
-81.949373810936464
 30
0.0
  0
VERTEX
  5
2156
  8
SAPA_PROFIL
 10
-10.661805893061549
 20
-80.864809363964724
 30
0.0
  0
VERTEX
  5
2157
  8
SAPA_PROFIL
 10
-10.65124452683456
 20
-80.543051635746465
 30
0.0
 42
0.5773502691897439
  0
VERTEX
  5
2158
  8
SAPA_PROFIL
 10
-10.94540082708941
 20
-80.360097895636301
 30
0.0
  0
VERTEX
  5
2159
  8
SAPA_PROFIL
 10
-11.23008311032104
 20
-80.512231806745035
 30
0.0
 42
0.2216946626430187
  0
VERTEX
  5
215A
  8
SAPA_PROFIL
 10
-11.635892015475839
 20
-81.053111638221836
 30
0.0
  0
VERTEX
  5
215B
  8
SAPA_PROFIL
 10
-12.017338611603551
 20
-82.866342108880076
 30
0.0
 42
0.4769755326981641
  0
VERTEX
  5
215C
  8
SAPA_PROFIL
 10
-11.71508578709709
 20
-83.237998983825975
 30
0.0
  0
VERTEX
  5
215D
  8
SAPA_PROFIL
 10
-10.21198470633508
 20
-83.237915375942322
 30
0.0
  0
VERTEX
  5
215E
  8
SAPA_PROFIL
 10
-10.197466297087979
 20
-83.190069625943835
 30
0.0
 42
-0.4142135623730944
  0
VERTEX
  5
215F
  8
SAPA_PROFIL
 10
-9.8232813416121658
 20
-82.990105581436438
 30
0.0
  0
VERTEX
  5
2160
  8
SAPA_PROFIL
 10
-8.5040483398507547
 20
-83.499999999999915
 30
0.0
  0
VERTEX
  5
2161
  8
SAPA_PROFIL
 10
11.23147839764675
 20
-83.499999999999986
 30
0.0
 42
-0.38217120901707
  0
VERTEX
  5
2162
  8
SAPA_PROFIL
 10
11.529644592748671
 20
-83.766880215905715
 30
0.0
  0
VERTEX
  5
2163
  8
SAPA_PROFIL
 10
12.05548412771366
 20
-90.344850999999949
 30
0.0
 42
-0.4469990000000265
  0
VERTEX
  5
2164
  8
SAPA_PROFIL
 10
11.558540127713609
 20
-90.900051000000076
 30
0.0
  0
VERTEX
  5
2165
  8
SAPA_PROFIL
 10
9.8000000009906163
 20
-90.900050999999976
 30
0.0
 42
0.4142139999999868
  0
VERTEX
  5
2166
  8
SAPA_PROFIL
 10
8.8000000009906447
 20
-91.900050999999905
 30
0.0
  0
VERTEX
  5
2167
  8
SAPA_PROFIL
 10
8.8000000009906021
 20
-92.167595000000006
 30
0.0
 42
0.2896899999999956
  0
VERTEX
  5
2168
  8
SAPA_PROFIL
 10
9.3714280009906776
 20
-93.071102999999994
 30
0.0
 42
0.5507599999999603
  0
VERTEX
  5
2169
  8
SAPA_PROFIL
 10
9.8000000009906163
 20
-92.800050999999954
 30
0.0
  0
VERTEX
  5
216A
  8
SAPA_PROFIL
 10
9.8000000009906127
 20
-92.500050999999985
 30
0.0
 42
-0.4142140000001095
  0
VERTEX
  5
216B
  8
SAPA_PROFIL
 10
10.00000000099066
 20
-92.300050999999897
 30
0.0
  0
VERTEX
  5
216C
  8
SAPA_PROFIL
 10
11.100000000990629
 20
-92.300050999999968
 30
0.0
 42
-0.4142139999999826
  0
VERTEX
  5
216D
  8
SAPA_PROFIL
 10
12.10000000099056
 20
-93.300050999999925
 30
0.0
  0
VERTEX
  5
216E
  8
SAPA_PROFIL
 10
12.100000000990621
 20
-95.600000000000023
 30
0.0
 42
-0.4142139999999877
  0
VERTEX
  5
216F
  8
SAPA_PROFIL
 10
11.10000000099067
 20
-96.599999999999994
 30
0.0
  0
VERTEX
  5
2170
  8
SAPA_PROFIL
 10
10.0000000009906
 20
-96.600000000000037
 30
0.0
 42
-0.4142139999999481
  0
VERTEX
  5
2171
  8
SAPA_PROFIL
 10
9.8000000009906536
 20
-96.399999999999935
 30
0.0
  0
VERTEX
  5
2172
  8
SAPA_PROFIL
 10
9.8000000009906092
 20
-96.100051000000022
 30
0.0
 42
0.5507600000000124
  0
VERTEX
  5
2173
  8
SAPA_PROFIL
 10
9.3714280009906101
 20
-95.828997999999956
 30
0.0
 42
0.2896899999999978
  0
VERTEX
  5
2174
  8
SAPA_PROFIL
 10
8.8000000009905897
 20
-96.732505999999887
 30
0.0
  0
VERTEX
  5
2175
  8
SAPA_PROFIL
 10
8.8000000009906145
 20
-97.0
 30
0.0
 42
0.4142140000000002
  0
VERTEX
  5
2176
  8
SAPA_PROFIL
 10
9.8000000009906287
 20
-98.0
 30
0.0
  0
VERTEX
  5
2177
  8
SAPA_PROFIL
 10
11.5000000009906
 20
-98.000000000000043
 30
0.0
 42
0.4142139999999887
  0
VERTEX
  5
2178
  8
SAPA_PROFIL
 10
13.50000000099066
 20
-95.999999999999972
 30
0.0
  0
VERTEX
  5
2179
  8
SAPA_PROFIL
 10
13.5000000009906
 20
-31.200000000000038
 30
0.0
 42
0.4142135623730847
  0
VERTEX
  5
217A
  8
SAPA_PROFIL
 10
13.3000000009906
 20
-31.000000000000039
 30
0.0
  0
VERTEX
  5
217B
  8
SAPA_PROFIL
 10
10.61138300099064
 20
-31.00000000000005
 30
0.0
 42
0.2596810000000924
  0
VERTEX
  5
217C
  8
SAPA_PROFIL
 10
10.44135200099061
 20
-31.09469300000006
 30
0.0
  0
VERTEX
  5
217D
  8
SAPA_PROFIL
 10
9.5449530009906063
 20
-32.542039999999993
 30
0.0
 42
0.5877030000000333
  0
VERTEX
  5
217E
  8
SAPA_PROFIL
 10
9.8000000009906678
 20
-33.000000000000071
 30
0.0
  0
VERTEX
  5
217F
  8
SAPA_PROFIL
 10
11.200000000990631
 20
-33.000000000000057
 30
0.0
 42
-0.4142139999999517
  0
VERTEX
  5
2180
  8
SAPA_PROFIL
 10
11.500000000990619
 20
-33.299999999999983
 30
0.0
  0
VERTEX
  5
2181
  8
SAPA_PROFIL
 10
11.500000000990591
 20
-35.699999999999989
 30
0.0
 42
-0.4142140000000525
  0
VERTEX
  5
2182
  8
SAPA_PROFIL
 10
11.20000000099064
 20
-36.0
 30
0.0
  0
VERTEX
  5
2183
  8
SAPA_PROFIL
 10
-6.1999999990093402
 20
-36.000000000000057
 30
0.0
 42
-0.4142140000001183
  0
VERTEX
  5
2184
  8
SAPA_PROFIL
 10
-6.4999999990095221
 20
-35.69999999999996
 30
0.0
  0
VERTEX
  5
2185
  8
SAPA_PROFIL
 10
-6.4999999990094146
 20
-33.299999999999962
 30
0.0
 42
-0.4142140000000144
  0
VERTEX
  5
2186
  8
SAPA_PROFIL
 10
-6.199999999009397
 20
-33.000000000000107
 30
0.0
  0
VERTEX
  5
2187
  8
SAPA_PROFIL
 10
-4.799999999009362
 20
-33.000000000000057
 30
0.0
 42
0.5920054160710128
  0
VERTEX
  5
2188
  8
SAPA_PROFIL
 10
-4.5469914862516321
 20
-32.538796661885158
 30
0.0
  0
VERTEX
  5
2189
  8
SAPA_PROFIL
 10
-5.3410445160732438
 20
-31.292531005672171
 30
0.0
 42
0.2562769852931535
  0
VERTEX
  5
218A
  8
SAPA_PROFIL
 10
-5.5097170249718683
 20
-31.200000000000081
 30
0.0
  0
VERTEX
  5
218B
  8
SAPA_PROFIL
 10
-8.5040483398502467
 20
-31.20000000000006
 30
0.0
  0
VERTEX
  5
218C
  8
SAPA_PROFIL
 10
-9.8232813416121481
 20
-31.709894418563739
 30
0.0
 42
-0.4142135623730948
  0
VERTEX
  5
218D
  8
SAPA_PROFIL
 10
-10.19746629708796
 20
-31.509930374056339
 30
0.0
  0
VERTEX
  5
218E
  8
SAPA_PROFIL
 10
-10.211984706335061
 20
-31.462084624057859
 30
0.0
  0
VERTEX
  5
218F
  8
SAPA_PROFIL
 10
-11.71508578709707
 20
-31.46200101617422
 30
0.0
 42
0.4769755326981646
  0
VERTEX
  5
2190
  8
SAPA_PROFIL
 10
-12.01733861160354
 20
-31.833657891120069
 30
0.0
  0
VERTEX
  5
2191
  8
SAPA_PROFIL
 10
-11.635892015475809
 20
-33.646888361778323
 30
0.0
 42
0.2216946626430189
  0
VERTEX
  5
2192
  8
SAPA_PROFIL
 10
-11.23008311032102
 20
-34.18776819325511
 30
0.0
  0
VERTEX
  5
2193
  8
SAPA_PROFIL
 10
-10.945400827089371
 20
-34.339902104363887
 30
0.0
 42
0.5773502691897443
  0
VERTEX
  5
2194
  8
SAPA_PROFIL
 10
-10.65124452683456
 20
-34.156948364253701
 30
0.0
  0
VERTEX
  5
2195
  8
SAPA_PROFIL
 10
-10.66180589306153
 20
-33.835190636035449
 30
0.0
  0
VERTEX
  5
2196
  8
SAPA_PROFIL
 10
-8.7759622012004748
 20
-32.750626189063709
 30
0.0
  0
VERTEX
  5
2197
  8
SAPA_PROFIL
 10
-8.5845792012067612
 20
-32.692552552074631
 30
0.0
 42
-0.7625858545243274
  0
VERTEX
  5
2198
  8
SAPA_PROFIL
 10
-8.3999999990092569
 20
-33.022878633091629
 30
0.0
 42
0.2134217652834391
  0
VERTEX
  5
2199
  8
SAPA_PROFIL
 10
-8.4999999990093791
 20
-33.246485430841751
 30
0.0
  0
VERTEX
  5
219A
  8
SAPA_PROFIL
 10
-8.4999999990094004
 20
-37.099271835341767
 30
0.0
 42
-0.4142135623729077
  0
VERTEX
  5
219B
  8
SAPA_PROFIL
 10
-8.7999999990094757
 20
-37.399271835341672
 30
0.0
  0
VERTEX
  5
219C
  8
SAPA_PROFIL
 10
-9.0999999990096576
 20
-37.399271835341722
 30
0.0
  0
VERTEX
  5
219D
  8
SAPA_PROFIL
 10
-10.699999999009281
 20
-36.475511404638439
 30
0.0
 42
0.5773502691897674
  0
VERTEX
  5
219E
  8
SAPA_PROFIL
 10
-10.999999999009409
 20
-36.648716485395198
 30
0.0
  0
VERTEX
  5
219F
  8
SAPA_PROFIL
 10
-10.999999999009409
 20
-38.034357131450349
 30
0.0
 42
0.2679491924311062
  0
VERTEX
  5
21A0
  8
SAPA_PROFIL
 10
-10.49999999900959
 20
-38.900382535234783
 30
0.0
  0
VERTEX
  5
21A1
  8
SAPA_PROFIL
 10
-8.7499999990093489
 20
-39.910745506316857
 30
0.0
 42
-0.267949192431108
  0
VERTEX
  5
21A2
  8
SAPA_PROFIL
 10
-8.4999999990093986
 20
-40.343758208209067
 30
0.0
  0
VERTEX
  5
21A3
  8
SAPA_PROFIL
 10
-8.4999999990093915
 20
-74.356241791790922
 30
0.0
 42
-0.2679491924311069
  0
VERTEX
  5
21A4
  8
SAPA_PROFIL
 10
-8.7499999990093702
 20
-74.789254493683131
 30
0.0
  0
VERTEX
  5
21A5
  8
SAPA_PROFIL
 10
-10.499999999009511
 20
-75.79961746476522
 30
0.0
 42
0.2679491924311082
  0
VERTEX
  5
21A6
  8
SAPA_PROFIL
 10
-10.99999999900939
 20
-76.665642868549625
 30
0.0
  0
VERTEX
  5
21A7
  8
SAPA_PROFIL
 10
-10.9999999990094
 20
-78.051283514604734
 30
0.0
 42
0.5773502691897738
  0
VERTEX
  5
21A8
  8
SAPA_PROFIL
 10
-10.69999999900932
 20
-78.224488595361521
 30
0.0
  0
VERTEX
  5
21A9
  8
SAPA_PROFIL
 10
-9.0999999990096487
 20
-77.300728164658267
 30
0.0
  0
VERTEX
  5
21AA
  8
SAPA_PROFIL
 10
-8.7999999990094668
 20
-77.300728164658267
 30
0.0
 42
-0.4142135623729009
  0
VERTEX
  5
21AB
  8
SAPA_PROFIL
 10
-8.4999999990093347
 20
-77.600728164658136
 30
0.0
  0
SEQEND
  5
21AC
  8
SAPA_PROFIL
  0
POLYLINE
  5
1680
  8
SAPA_PROFIL
 66
     1
 10
0.0
 20
0.0
 30
0.0
 70
     1
  0
VERTEX
  5
21AD
  8
SAPA_PROFIL
 10
-6.399999999009375
 20
-79.800000000000026
 30
0.0
 42
0.4142135623730951
  0
VERTEX
  5
21AE
  8
SAPA_PROFIL
 10
-6.1999999990093304
 20
-79.600000000000023
 30
0.0
  0
VERTEX
  5
21AF
  8
SAPA_PROFIL
 10
-6.1999999990093873
 20
-78.0
 30
0.0
 42
0.4142135623730951
  0
VERTEX
  5
21B0
  8
SAPA_PROFIL
 10
-6.399999999009375
 20
-77.799999999999955
 30
0.0
  0
VERTEX
  5
21B1
  8
SAPA_PROFIL
 10
-6.7000000828827044
 20
-77.799999999999955
 30
0.0
  0
VERTEX
  5
21B2
  8
SAPA_PROFIL
 10
-6.7000000828827124
 20
-41.699999999999989
 30
0.0
  0
VERTEX
  5
21B3
  8
SAPA_PROFIL
 10
-6.399999999009383
 20
-41.70000000000001
 30
0.0
 42
0.4142135623730951
  0
VERTEX
  5
21B4
  8
SAPA_PROFIL
 10
-6.1999999990093384
 20
-41.5
 30
0.0
  0
VERTEX
  5
21B5
  8
SAPA_PROFIL
 10
-6.1999999990093961
 20
-39.899999999999977
 30
0.0
 42
0.4142135623730951
  0
VERTEX
  5
21B6
  8
SAPA_PROFIL
 10
-6.3999999990093839
 20
-39.699999999999989
 30
0.0
  0
VERTEX
  5
21B7
  8
SAPA_PROFIL
 10
-6.7000000828827133
 20
-39.699999999999989
 30
0.0
  0
VERTEX
  5
21B8
  8
SAPA_PROFIL
 10
-6.7000000828826627
 20
-38.0
 30
0.0
 42
-0.4142135623730951
  0
VERTEX
  5
21B9
  8
SAPA_PROFIL
 10
-6.4000000828827011
 20
-37.699999999999989
 30
0.0
  0
VERTEX
  5
21BA
  8
SAPA_PROFIL
 10
11.200000000990631
 20
-37.700000000000017
 30
0.0
 42
-0.414213562373095
  0
VERTEX
  5
21BB
  8
SAPA_PROFIL
 10
11.500000000990591
 20
-38.0
 30
0.0
  0
VERTEX
  5
21BC
  8
SAPA_PROFIL
 10
11.500000000990591
 20
-39.699999999999989
 30
0.0
  0
VERTEX
  5
21BD
  8
SAPA_PROFIL
 10
11.40000000099057
 20
-39.699999999999989
 30
0.0
 42
0.4142135623730951
  0
VERTEX
  5
21BE
  8
SAPA_PROFIL
 10
11.20000000099064
 20
-39.899999999999977
 30
0.0
  0
VERTEX
  5
21BF
  8
SAPA_PROFIL
 10
11.200000000990579
 20
-41.5
 30
0.0
 42
0.4142135623730951
  0
VERTEX
  5
21C0
  8
SAPA_PROFIL
 10
11.40000000099057
 20
-41.699999999999989
 30
0.0
  0
VERTEX
  5
21C1
  8
SAPA_PROFIL
 10
11.500000000990591
 20
-41.699999999999989
 30
0.0
  0
VERTEX
  5
21C2
  8
SAPA_PROFIL
 10
11.5000000009906
 20
-77.799999999999955
 30
0.0
  0
VERTEX
  5
21C3
  8
SAPA_PROFIL
 10
11.40000000099058
 20
-77.800000000000011
 30
0.0
 42
0.4142135623730951
  0
VERTEX
  5
21C4
  8
SAPA_PROFIL
 10
11.20000000099064
 20
-78.0
 30
0.0
  0
VERTEX
  5
21C5
  8
SAPA_PROFIL
 10
11.200000000990601
 20
-79.600000000000023
 30
0.0
 42
0.4142135623730898
  0
VERTEX
  5
21C6
  8
SAPA_PROFIL
 10
11.40000000099058
 20
-79.799999999999955
 30
0.0
  0
VERTEX
  5
21C7
  8
SAPA_PROFIL
 10
11.5000000009906
 20
-79.799999999999955
 30
0.0
  0
VERTEX
  5
21C8
  8
SAPA_PROFIL
 10
11.50000000099066
 20
-81.5
 30
0.0
 42
-0.4142135623730953
  0
VERTEX
  5
21C9
  8
SAPA_PROFIL
 10
11.20000000099065
 20
-81.799999999999955
 30
0.0
  0
VERTEX
  5
21CA
  8
SAPA_PROFIL
 10
-6.4000000828826922
 20
-81.800000000000011
 30
0.0
 42
-0.4142135623730951
  0
VERTEX
  5
21CB
  8
SAPA_PROFIL
 10
-6.7000000828827027
 20
-81.5
 30
0.0
  0
VERTEX
  5
21CC
  8
SAPA_PROFIL
 10
-6.7000000828827044
 20
-79.799999999999955
 30
0.0
  0
SEQEND
  5
21CD
  8
SAPA_PROFIL
  0
POLYLINE
  5
1681
  8
SAPA_PROFIL
 66
     1
 10
0.0
 20
0.0
 30
0.0
 70
     1
  0
VERTEX
  5
21CE
  8
SAPA_PROFIL
 10
-50.499999999009361
 20
-33.246485430841638
 30
0.0
  0
VERTEX
  5
21CF
  8
SAPA_PROFIL
 10
-50.499999999009361
 20
-37.099271835341689
 30
0.0
 42
0.414213562372901
  0
VERTEX
  5
21D0
  8
SAPA_PROFIL
 10
-50.1999999990093
 20
-37.399271835341558
 30
0.0
  0
VERTEX
  5
21D1
  8
SAPA_PROFIL
 10
-49.899999999009118
 20
-37.399271835341622
 30
0.0
  0
VERTEX
  5
21D2
  8
SAPA_PROFIL
 10
-48.299999999009451
 20
-36.475511404638333
 30
0.0
 42
-0.5773502691897976
  0
VERTEX
  5
21D3
  8
SAPA_PROFIL
 10
-47.999999999009361
 20
-36.648716485395092
 30
0.0
  0
VERTEX
  5
21D4
  8
SAPA_PROFIL
 10
-47.999999999009361
 20
-38.034357131450243
 30
0.0
 42
-0.2679491924311222
  0
VERTEX
  5
21D5
  8
SAPA_PROFIL
 10
-48.499999999009233
 20
-38.900382535234662
 30
0.0
  0
VERTEX
  5
21D6
  8
SAPA_PROFIL
 10
-50.249999999009397
 20
-39.910745506316751
 30
0.0
 42
0.2679491924310994
  0
VERTEX
  5
21D7
  8
SAPA_PROFIL
 10
-50.499999999009397
 20
-40.343758208208961
 30
0.0
  0
VERTEX
  5
21D8
  8
SAPA_PROFIL
 10
-50.499999999009368
 20
-74.35624179179085
 30
0.0
 42
0.2679491924311005
  0
VERTEX
  5
21D9
  8
SAPA_PROFIL
 10
-50.249999999009397
 20
-74.78925449368306
 30
0.0
  0
VERTEX
  5
21DA
  8
SAPA_PROFIL
 10
-48.499999999009198
 20
-75.79961746476512
 30
0.0
 42
-0.2679491924311199
  0
VERTEX
  5
21DB
  8
SAPA_PROFIL
 10
-47.999999999009368
 20
-76.665642868549554
 30
0.0
  0
VERTEX
  5
21DC
  8
SAPA_PROFIL
 10
-47.999999999009347
 20
-78.051283514604691
 30
0.0
 42
-0.5773502691897738
  0
VERTEX
  5
21DD
  8
SAPA_PROFIL
 10
-48.299999999009451
 20
-78.224488595361478
 30
0.0
  0
VERTEX
  5
21DE
  8
SAPA_PROFIL
 10
-49.899999999009133
 20
-77.300728164658167
 30
0.0
  0
VERTEX
  5
21DF
  8
SAPA_PROFIL
 10
-50.199999999009307
 20
-77.300728164658167
 30
0.0
 42
0.414213562372901
  0
VERTEX
  5
21E0
  8
SAPA_PROFIL
 10
-50.499999999009432
 20
-77.600728164658094
 30
0.0
  0
VERTEX
  5
21E1
  8
SAPA_PROFIL
 10
-50.499999999009368
 20
-81.453514569158159
 30
0.0
 42
-0.2134217652834299
  0
VERTEX
  5
21E2
  8
SAPA_PROFIL
 10
-50.599999999009491
 20
-81.677121366908253
 30
0.0
 42
0.7625858545243327
  0
VERTEX
  5
21E3
  8
SAPA_PROFIL
 10
-50.415420796812029
 20
-82.007447447925287
 30
0.0
  0
VERTEX
  5
21E4
  8
SAPA_PROFIL
 10
-50.224037796818301
 20
-81.949373810936194
 30
0.0
  0
VERTEX
  5
21E5
  8
SAPA_PROFIL
 10
-48.338194104957253
 20
-80.864809363964454
 30
0.0
  0
VERTEX
  5
21E6
  8
SAPA_PROFIL
 10
-48.348755471184226
 20
-80.543051635746181
 30
0.0
 42
-0.5773502691897466
  0
VERTEX
  5
21E7
  8
SAPA_PROFIL
 10
-48.054599170929393
 20
-80.360097895636031
 30
0.0
  0
VERTEX
  5
21E8
  8
SAPA_PROFIL
 10
-47.769916887697747
 20
-80.512231806744765
 30
0.0
 42
-0.221694662643014
  0
VERTEX
  5
21E9
  8
SAPA_PROFIL
 10
-47.364107982542961
 20
-81.053111638221566
 30
0.0
  0
VERTEX
  5
21EA
  8
SAPA_PROFIL
 10
-46.982661386415238
 20
-82.866342108879806
 30
0.0
 42
-0.4769755326981641
  0
VERTEX
  5
21EB
  8
SAPA_PROFIL
 10
-47.284914210921713
 20
-83.237998983825705
 30
0.0
  0
VERTEX
  5
21EC
  8
SAPA_PROFIL
 10
-48.78801529168372
 20
-83.237915375942052
 30
0.0
  0
VERTEX
  5
21ED
  8
SAPA_PROFIL
 10
-48.80253370093083
 20
-83.190069625943565
 30
0.0
 42
0.4142135623730878
  0
VERTEX
  5
21EE
  8
SAPA_PROFIL
 10
-49.176718656406628
 20
-82.990105581436168
 30
0.0
  0
VERTEX
  5
21EF
  8
SAPA_PROFIL
 10
-50.495951658168451
 20
-83.499999999999844
 30
0.0
  0
VERTEX
  5
21F0
  8
SAPA_PROFIL
 10
-61.899999915161807
 20
-83.499999999999872
 30
0.0
 42
0.4142135623730847
  0
VERTEX
  5
21F1
  8
SAPA_PROFIL
 10
-62.09999991516181
 20
-83.699999999999875
 30
0.0
  0
VERTEX
  5
21F2
  8
SAPA_PROFIL
 10
-62.099999915161803
 20
-85.299999997930456
 30
0.0
 42
-0.4142135623730951
  0
VERTEX
  5
21F3
  8
SAPA_PROFIL
 10
-62.29999991516182
 20
-85.499999997930473
 30
0.0
  0
VERTEX
  5
21F4
  8
SAPA_PROFIL
 10
-62.79999991516231
 20
-85.499999997930473
 30
0.0
 42
-0.4142135623730951
  0
VERTEX
  5
21F5
  8
SAPA_PROFIL
 10
-63.799999915161877
 20
-84.499999997930828
 30
0.0
  0
VERTEX
  5
21F6
  8
SAPA_PROFIL
 10
-63.799999915161877
 20
-76.999999250856135
 30
0.0
 42
0.4142135623730951
  0
VERTEX
  5
21F7
  8
SAPA_PROFIL
 10
-64.799999168087467
 20
-75.999999997930544
 30
0.0
  0
VERTEX
  5
21F8
  8
SAPA_PROFIL
 10
-70.499999999009376
 20
-75.999999997930402
 30
0.0
 42
-0.4142135623730951
  0
VERTEX
  5
21F9
  8
SAPA_PROFIL
 10
-72.499999999009376
 20
-73.999999997930402
 30
0.0
  0
VERTEX
  5
21FA
  8
SAPA_PROFIL
 10
-72.499999999009361
 20
-9.4999999999999272
 30
0.0
 42
-0.4142139999999795
  0
VERTEX
  5
21FB
  8
SAPA_PROFIL
 10
-71.999999999009361
 20
-8.9999999999999272
 30
0.0
  0
VERTEX
  5
21FC
  8
SAPA_PROFIL
 10
-68.299999999009344
 20
-8.9999999999999467
 30
0.0
 42
-0.414213999999917
  0
VERTEX
  5
21FD
  8
SAPA_PROFIL
 10
-67.999999999009361
 20
-9.2999999999998728
 30
0.0
  0
VERTEX
  5
21FE
  8
SAPA_PROFIL
 10
-67.999999999009361
 20
-10.06754499999991
 30
0.0
 42
-0.2896899999999867
  0
VERTEX
  5
21FF
  8
SAPA_PROFIL
 10
-68.571427999009359
 20
-10.97105299999987
 30
0.0
 42
-0.5507600000000635
  0
VERTEX
  5
2200
  8
SAPA_PROFIL
 10
-68.999999999009361
 20
-10.699999999999919
 30
0.0
  0
VERTEX
  5
2201
  8
SAPA_PROFIL
 10
-68.999999999009361
 20
-10.499999999999931
 30
0.0
 42
0.4142140000000558
  0
VERTEX
  5
2202
  8
SAPA_PROFIL
 10
-69.29999999900933
 20
-10.199999999999861
 30
0.0
  0
VERTEX
  5
2203
  8
SAPA_PROFIL
 10
-70.799999999009344
 20
-10.1999999999999
 30
0.0
 42
0.4142139999999795
  0
VERTEX
  5
2204
  8
SAPA_PROFIL
 10
-71.29999999900933
 20
-10.699999999999919
 30
0.0
  0
VERTEX
  5
2205
  8
SAPA_PROFIL
 10
-71.299999999009344
 20
-13.999999999999959
 30
0.0
 42
0.4142140000000003
  0
VERTEX
  5
2206
  8
SAPA_PROFIL
 10
-70.799999999009344
 20
-14.5
 30
0.0
  0
VERTEX
  5
2207
  8
SAPA_PROFIL
 10
-69.299999999009344
 20
-14.49999999999995
 30
0.0
 42
0.4142140000000143
  0
VERTEX
  5
2208
  8
SAPA_PROFIL
 10
-68.999999999009319
 20
-14.199999999999889
 30
0.0
  0
VERTEX
  5
2209
  8
SAPA_PROFIL
 10
-68.999999999009361
 20
-13.999999999999959
 30
0.0
 42
-0.5507599999999967
  0
VERTEX
  5
220A
  8
SAPA_PROFIL
 10
-68.571427999009344
 20
-13.72894799999996
 30
0.0
 42
-0.2896899999999865
  0
VERTEX
  5
220B
  8
SAPA_PROFIL
 10
-67.999999999009361
 20
-14.63245599999988
 30
0.0
  0
VERTEX
  5
220C
  8
SAPA_PROFIL
 10
-67.999999999009361
 20
-15.629926999999871
 30
0.0
 42
-0.0436609999999814
  0
VERTEX
  5
220D
  8
SAPA_PROFIL
 10
-68.007595999009368
 20
-15.71675199999984
 30
0.0
  0
VERTEX
  5
220E
  8
SAPA_PROFIL
 10
-68.284441999009317
 20
-17.286823999999871
 30
0.0
 42
-0.839099999999982
  0
VERTEX
  5
220F
  8
SAPA_PROFIL
 10
-69.269249999009375
 20
-17.286823999999871
 30
0.0
  0
VERTEX
  5
2210
  8
SAPA_PROFIL
 10
-69.476194999009351
 20
-16.113175999999871
 30
0.0
 42
0.3639700000000465
  0
VERTEX
  5
2211
  8
SAPA_PROFIL
 10
-69.968598999009387
 20
-15.69999999999987
 30
0.0
  0
VERTEX
  5
2212
  8
SAPA_PROFIL
 10
-70.779999999009334
 20
-15.69999999999987
 30
0.0
 42
0.4373279999999983
  0
VERTEX
  5
2213
  8
SAPA_PROFIL
 10
-71.278468999009391
 20
-16.239094999999882
 30
0.0
  0
VERTEX
  5
2214
  8
SAPA_PROFIL
 10
-70.711670512613509
 20
-30.712153273416281
 30
0.0
 42
0.4023941355297885
  0
VERTEX
  5
2215
  8
SAPA_PROFIL
 10
-70.411916783787177
 20
-31.0
 30
0.0
  0
VERTEX
  5
2216
  8
SAPA_PROFIL
 10
-69.611382999009351
 20
-30.999999999999972
 30
0.0
 42
-0.2596810000001162
  0
VERTEX
  5
2217
  8
SAPA_PROFIL
 10
-69.441351999009356
 20
-31.094692999999971
 30
0.0
  0
VERTEX
  5
2218
  8
SAPA_PROFIL
 10
-68.544952999009354
 20
-32.542039999999872
 30
0.0
 42
-0.5877030000000189
  0
VERTEX
  5
2219
  8
SAPA_PROFIL
 10
-68.799999999009373
 20
-32.999999999999972
 30
0.0
  0
VERTEX
  5
221A
  8
SAPA_PROFIL
 10
-70.19999999900935
 20
-32.999999999999972
 30
0.0
 42
0.4142139999999518
  0
VERTEX
  5
221B
  8
SAPA_PROFIL
 10
-70.499999999009333
 20
-33.299999999999869
 30
0.0
  0
VERTEX
  5
221C
  8
SAPA_PROFIL
 10
-70.499999999009361
 20
-35.699999999999882
 30
0.0
 42
0.4142140000000629
  0
VERTEX
  5
221D
  8
SAPA_PROFIL
 10
-70.19999999900935
 20
-35.999999999999922
 30
0.0
  0
VERTEX
  5
221E
  8
SAPA_PROFIL
 10
-52.79999999900938
 20
-35.99999999999995
 30
0.0
 42
0.4142140000001044
  0
VERTEX
  5
221F
  8
SAPA_PROFIL
 10
-52.49999999900929
 20
-35.699999999999882
 30
0.0
  0
VERTEX
  5
2220
  8
SAPA_PROFIL
 10
-52.499999999009368
 20
-33.299999999999883
 30
0.0
 42
0.4142140000000074
  0
VERTEX
  5
2221
  8
SAPA_PROFIL
 10
-52.79999999900938
 20
-33.000000000000007
 30
0.0
  0
VERTEX
  5
2222
  8
SAPA_PROFIL
 10
-54.199999999009357
 20
-33.000000000000007
 30
0.0
 42
-0.5920054160709848
  0
VERTEX
  5
2223
  8
SAPA_PROFIL
 10
-54.453008511767109
 20
-32.538796661885051
 30
0.0
  0
VERTEX
  5
2224
  8
SAPA_PROFIL
 10
-53.658955481945441
 20
-31.292531005672089
 30
0.0
 42
-0.2562769852931301
  0
VERTEX
  5
2225
  8
SAPA_PROFIL
 10
-53.490282973046853
 20
-31.19999999999996
 30
0.0
  0
VERTEX
  5
2226
  8
SAPA_PROFIL
 10
-50.495951658167847
 20
-31.19999999999996
 30
0.0
  0
VERTEX
  5
2227
  8
SAPA_PROFIL
 10
-49.176718656406628
 20
-31.70989441856339
 30
0.0
 42
0.4142135623730872
  0
VERTEX
  5
2228
  8
SAPA_PROFIL
 10
-48.802533700930823
 20
-31.50993037405599
 30
0.0
  0
VERTEX
  5
2229
  8
SAPA_PROFIL
 10
-48.788015291683713
 20
-31.4620846240575
 30
0.0
  0
VERTEX
  5
222A
  8
SAPA_PROFIL
 10
-47.284914210921698
 20
-31.462001016173879
 30
0.0
 42
-0.4769755326981643
  0
VERTEX
  5
222B
  8
SAPA_PROFIL
 10
-46.982661386415238
 20
-31.833657891119721
 30
0.0
  0
VERTEX
  5
222C
  8
SAPA_PROFIL
 10
-47.36410798254294
 20
-33.646888361777997
 30
0.0
 42
-0.221694662643016
  0
VERTEX
  5
222D
  8
SAPA_PROFIL
 10
-47.769916887697747
 20
-34.187768193254762
 30
0.0
  0
VERTEX
  5
222E
  8
SAPA_PROFIL
 10
-48.0545991709294
 20
-34.339902104363517
 30
0.0
 42
-0.5773502691897466
  0
VERTEX
  5
222F
  8
SAPA_PROFIL
 10
-48.348755471184212
 20
-34.156948364253353
 30
0.0
  0
VERTEX
  5
2230
  8
SAPA_PROFIL
 10
-48.338194104957239
 20
-33.835190636035101
 30
0.0
  0
VERTEX
  5
2231
  8
SAPA_PROFIL
 10
-50.224037796818301
 20
-32.750626189063361
 30
0.0
  0
VERTEX
  5
2232
  8
SAPA_PROFIL
 10
-50.415420796812022
 20
-32.692552552074268
 30
0.0
 42
0.7625858545243331
  0
VERTEX
  5
2233
  8
SAPA_PROFIL
 10
-50.599999999009491
 20
-33.022878633091267
 30
0.0
 42
-0.2134217652834442
  0
SEQEND
  5
2234
  8
SAPA_PROFIL
  0
POLYLINE
  5
1682
  8
SAPA_PROFIL
 66
     1
 10
0.0
 20
0.0
 30
0.0
 70
     1
  0
VERTEX
  5
2235
  8
SAPA_PROFIL
 10
-52.59999999900937
 20
-71.999999957930456
 30
0.0
 42
-0.4142135623730951
  0
VERTEX
  5
2236
  8
SAPA_PROFIL
 10
-52.799999999009387
 20
-71.799999957930439
 30
0.0
  0
VERTEX
  5
2237
  8
SAPA_PROFIL
 10
-52.799999999009358
 20
-70.199999957930387
 30
0.0
 42
-0.4142135623730951
  0
VERTEX
  5
2238
  8
SAPA_PROFIL
 10
-52.59999999900937
 20
-69.999999957930385
 30
0.0
  0
VERTEX
  5
2239
  8
SAPA_PROFIL
 10
-52.29999991513607
 20
-69.999999957930385
 30
0.0
  0
VERTEX
  5
223A
  8
SAPA_PROFIL
 10
-52.299999915136063
 20
-41.699999999999882
 30
0.0
  0
VERTEX
  5
223B
  8
SAPA_PROFIL
 10
-52.599999999009363
 20
-41.699999999999882
 30
0.0
 42
-0.4142135623730951
  0
VERTEX
  5
223C
  8
SAPA_PROFIL
 10
-52.79999999900938
 20
-41.499999999999893
 30
0.0
  0
VERTEX
  5
223D
  8
SAPA_PROFIL
 10
-52.799999999009351
 20
-39.899999999999871
 30
0.0
 42
-0.4142135623730951
  0
VERTEX
  5
223E
  8
SAPA_PROFIL
 10
-52.599999999009363
 20
-39.699999999999882
 30
0.0
  0
VERTEX
  5
223F
  8
SAPA_PROFIL
 10
-52.299999915136063
 20
-39.699999999999882
 30
0.0
  0
VERTEX
  5
2240
  8
SAPA_PROFIL
 10
-52.299999915136063
 20
-37.999999999999901
 30
0.0
 42
0.4142135623730951
  0
VERTEX
  5
2241
  8
SAPA_PROFIL
 10
-52.599999915136017
 20
-37.699999999999882
 30
0.0
  0
VERTEX
  5
2242
  8
SAPA_PROFIL
 10
-70.199999999009364
 20
-37.699999999999882
 30
0.0
 42
0.4142135623730951
  0
VERTEX
  5
2243
  8
SAPA_PROFIL
 10
-70.499999999009376
 20
-37.999999999999893
 30
0.0
  0
VERTEX
  5
2244
  8
SAPA_PROFIL
 10
-70.499999999009376
 20
-39.699999999999882
 30
0.0
  0
VERTEX
  5
2245
  8
SAPA_PROFIL
 10
-70.399999999009353
 20
-39.699999999999882
 30
0.0
 42
-0.4142135623730951
  0
VERTEX
  5
2246
  8
SAPA_PROFIL
 10
-70.199999999009364
 20
-39.899999999999856
 30
0.0
  0
VERTEX
  5
2247
  8
SAPA_PROFIL
 10
-70.199999999009364
 20
-41.499999999999879
 30
0.0
 42
-0.4142135623730951
  0
VERTEX
  5
2248
  8
SAPA_PROFIL
 10
-70.399999999009353
 20
-41.699999999999868
 30
0.0
  0
VERTEX
  5
2249
  8
SAPA_PROFIL
 10
-70.499999999009376
 20
-41.699999999999868
 30
0.0
  0
VERTEX
  5
224A
  8
SAPA_PROFIL
 10
-70.499999999009376
 20
-69.999999957930385
 30
0.0
  0
VERTEX
  5
224B
  8
SAPA_PROFIL
 10
-70.399999999009353
 20
-69.999999957930385
 30
0.0
 42
-0.4142135623730951
  0
VERTEX
  5
224C
  8
SAPA_PROFIL
 10
-70.199999999009364
 20
-70.199999957930387
 30
0.0
  0
VERTEX
  5
224D
  8
SAPA_PROFIL
 10
-70.199999999009378
 20
-71.799999957930439
 30
0.0
 42
-0.4142135623730951
  0
VERTEX
  5
224E
  8
SAPA_PROFIL
 10
-70.399999999009353
 20
-71.999999957930399
 30
0.0
  0
VERTEX
  5
224F
  8
SAPA_PROFIL
 10
-70.499999999009376
 20
-71.999999957930399
 30
0.0
  0
VERTEX
  5
2250
  8
SAPA_PROFIL
 10
-70.499999999009376
 20
-73.999999997930431
 30
0.0
 42
0.4142135623732158
  0
VERTEX
  5
2251
  8
SAPA_PROFIL
 10
-70.199999999009393
 20
-74.299999997930527
 30
0.0
  0
VERTEX
  5
2252
  8
SAPA_PROFIL
 10
-64.799999168087467
 20
-74.29999999793047
 30
0.0
 42
-0.4142135623730951
  0
VERTEX
  5
2253
  8
SAPA_PROFIL
 10
-62.099999915161803
 20
-76.999999250856135
 30
0.0
  0
VERTEX
  5
2254
  8
SAPA_PROFIL
 10
-62.099999915161803
 20
-81.499999999999886
 30
0.0
 42
0.4142135623730951
  0
VERTEX
  5
2255
  8
SAPA_PROFIL
 10
-61.79999991516182
 20
-81.799999999999883
 30
0.0
  0
VERTEX
  5
2256
  8
SAPA_PROFIL
 10
-52.599999915136017
 20
-81.799999999999883
 30
0.0
 42
0.4142135623730951
  0
VERTEX
  5
2257
  8
SAPA_PROFIL
 10
-52.29999991513607
 20
-81.499999999999872
 30
0.0
  0
VERTEX
  5
2258
  8
SAPA_PROFIL
 10
-52.29999991513607
 20
-71.999999957930399
 30
0.0
  0
SEQEND
  5
2259
  8
SAPA_PROFIL
  0
POLYLINE
  5
1683
  8
SAPA_PROFIL
 62
     4
 66
     1
 10
0.0
 20
0.0
 30
0.0
  0
VERTEX
  5
225A
  8
SAPA_PROFIL
 62
     4
 10
-38.54932912144907
 20
-33.932281085846917
 30
0.0
 42
0.5571646428658034
  0
VERTEX
  5
225B
  8
SAPA_PROFIL
 62
     4
 10
-38.012368617312241
 20
-34.800000000002463
 30
0.0
  0
VERTEX
  5
225C
  8
SAPA_PROFIL
 62
     4
 10
-20.98763138079104
 20
-34.800000000002001
 30
0.0
 42
0.5571645048035741
  0
VERTEX
  5
225D
  8
SAPA_PROFIL
 62
     4
 10
-20.45067076382999
 20
-33.932281312135842
 30
0.0
  0
VERTEX
  5
225E
  8
SAPA_PROFIL
 62
     4
 10
-21.281377851376678
 20
-32.266140656067797
 30
0.0
 42
0.284385813979063
  0
VERTEX
  5
225F
  8
SAPA_PROFIL
 62
     4
 10
-21.549858159857031
 20
-32.100000000000371
 30
0.0
  0
VERTEX
  5
2260
  8
SAPA_PROFIL
 62
     4
 10
-37.450141838246353
 20
-32.100000000000371
 30
0.0
 42
0.2843858139786238
  0
VERTEX
  5
2261
  8
SAPA_PROFIL
 62
     4
 10
-37.718622146726631
 20
-32.2661406560673
 30
0.0
  0
VERTEX
  5
2262
  8
SAPA_PROFIL
 62
     4
 10
-38.549329234273792
 20
-33.932281312136638
 30
0.0
  0
SEQEND
  5
2263
  8
SAPA_PROFIL
 62
     4
  0
POLYLINE
  5
1684
  8
SAPA_PROFIL
 62
     4
 66
     1
 10
0.0
 20
0.0
 30
0.0
 70
     1
  0
VERTEX
  5
2264
  8
SAPA_PROFIL
 62
     4
 10
-15.082388814384389
 20
-31.743168485502789
 30
0.0
  0
VERTEX
  5
2265
  8
SAPA_PROFIL
 62
     4
 10
-14.818365536008381
 20
-31.336608289498649
 30
0.0
 42
-0.2539676464751066
  0
VERTEX
  5
2266
  8
SAPA_PROFIL
 62
     4
 10
-14.566764365623669
 20
-31.20000000000255
 30
0.0
  0
VERTEX
  5
2267
  8
SAPA_PROFIL
 62
     4
 10
-13.185264780418329
 20
-31.20000000000255
 30
0.0
 42
-0.3152987888790479
  0
VERTEX
  5
2268
  8
SAPA_PROFIL
 62
     4
 10
-12.715418470026011
 20
-31.52898992834071
 30
0.0
  0
VERTEX
  5
2269
  8
SAPA_PROFIL
 62
     4
 10
-11.819749529117409
 20
-33.989820118791982
 30
0.0
 42
0.2694959974287434
  0
VERTEX
  5
226A
  8
SAPA_PROFIL
 62
     4
 10
-11.58823048271605
 20
-34.182952093135867
 30
0.0
 42
0.0612686379508233
  0
VERTEX
  5
226B
  8
SAPA_PROFIL
 62
     4
 10
-11.29555504986277
 20
-34.196535463766402
 30
0.0
  0
VERTEX
  5
226C
  8
SAPA_PROFIL
 62
     4
 10
-10.94613687255451
 20
-34.398272142495223
 30
0.0
 42
0.5773502691891679
  0
VERTEX
  5
226D
  8
SAPA_PROFIL
 62
     4
 10
-10.63113687255492
 20
-34.21640680770065
 30
0.0
  0
VERTEX
  5
226E
  8
SAPA_PROFIL
 62
     4
 10
-10.631136872554681
 20
-33.94929227957433
 30
0.0
  0
VERTEX
  5
226F
  8
SAPA_PROFIL
 62
     4
 10
-9.2326091719204282
 20
-33.140608818266017
 30
0.0
 42
-0.1318219888653519
  0
VERTEX
  5
2270
  8
SAPA_PROFIL
 62
     4
 10
-9.0824360694480841
 20
-33.100316421728621
 30
0.0
  0
VERTEX
  5
2271
  8
SAPA_PROFIL
 62
     4
 10
-8.8999999990113068
 20
-33.100316421734988
 30
0.0
 42
-0.4142135623724291
  0
VERTEX
  5
2272
  8
SAPA_PROFIL
 62
     4
 10
-8.4999999990107611
 20
-33.500316421734617
 30
0.0
  0
VERTEX
  5
2273
  8
SAPA_PROFIL
 62
     4
 10
-8.4999999990121253
 20
-36.900316421735631
 30
0.0
 42
-0.4142135623744271
  0
VERTEX
  5
2274
  8
SAPA_PROFIL
 62
     4
 10
-8.8999999990113068
 20
-37.300316421736632
 30
0.0
  0
VERTEX
  5
2275
  8
SAPA_PROFIL
 62
     4
 10
-9.0796152412826086
 20
-37.300316421737257
 30
0.0
 42
-0.1316524975874005
  0
VERTEX
  5
2276
  8
SAPA_PROFIL
 62
     4
 10
-9.2296152412794257
 20
-37.260124042871666
 30
0.0
  0
VERTEX
  5
2277
  8
SAPA_PROFIL
 62
     4
 10
-10.833753138281679
 20
-36.333974596219129
 30
0.0
 42
0.1316524975875904
  0
VERTEX
  5
2278
  8
SAPA_PROFIL
 62
     4
 10
-11.33375313828339
 20
-36.200000000004373
 30
0.0
  0
VERTEX
  5
2279
  8
SAPA_PROFIL
 62
     4
 10
-11.749999999010759
 20
-36.200000000004373
 30
0.0
 42
0.4142135623730951
  0
VERTEX
  5
227A
  8
SAPA_PROFIL
 62
     4
 10
-12.749999999010759
 20
-37.200000000004373
 30
0.0
  0
VERTEX
  5
227B
  8
SAPA_PROFIL
 62
     4
 10
-12.749999999010759
 20
-40.20000000000163
 30
0.0
 42
-0.9999996830128083
  0
VERTEX
  5
227C
  8
SAPA_PROFIL
 62
     4
 10
-13.749999999010759
 20
-40.200000000003449
 30
0.0
  0
VERTEX
  5
227D
  8
SAPA_PROFIL
 62
     4
 10
-13.749999999010759
 20
-37.200000000003463
 30
0.0
 42
0.4142135623730951
  0
VERTEX
  5
227E
  8
SAPA_PROFIL
 62
     4
 10
-14.749999999010759
 20
-36.200000000003463
 30
0.0
  0
VERTEX
  5
227F
  8
SAPA_PROFIL
 62
     4
 10
-44.249999999095337
 20
-36.200000000003463
 30
0.0
 42
0.4142135623730951
  0
VERTEX
  5
2280
  8
SAPA_PROFIL
 62
     4
 10
-45.249999999095337
 20
-37.20000000000347
 30
0.0
  0
VERTEX
  5
2281
  8
SAPA_PROFIL
 62
     4
 10
-45.249999999095337
 20
-40.200000000001651
 30
0.0
 42
-0.9999999999999998
  0
VERTEX
  5
2282
  8
SAPA_PROFIL
 62
     4
 10
-46.249999999095337
 20
-40.200000000001651
 30
0.0
  0
VERTEX
  5
2283
  8
SAPA_PROFIL
 62
     4
 10
-46.249999999095337
 20
-37.20000000000347
 30
0.0
 42
0.4142135623736278
  0
VERTEX
  5
2284
  8
SAPA_PROFIL
 62
     4
 10
-47.249999999095337
 20
-36.20000000000347
 30
0.0
  0
VERTEX
  5
2285
  8
SAPA_PROFIL
 62
     4
 10
-47.666246859821797
 20
-36.20000000000347
 30
0.0
 42
0.1316524975874375
  0
VERTEX
  5
2286
  8
SAPA_PROFIL
 62
     4
 10
-48.166246859822003
 20
-36.333974596219512
 30
0.0
  0
VERTEX
  5
2287
  8
SAPA_PROFIL
 62
     4
 10
-49.770384756823951
 20
-37.260124042871681
 30
0.0
 42
-0.1316524975874
  0
VERTEX
  5
2288
  8
SAPA_PROFIL
 62
     4
 10
-49.920384756823488
 20
-37.300316421737271
 30
0.0
  0
VERTEX
  5
2289
  8
SAPA_PROFIL
 62
     4
 10
-50.099999999094798
 20
-37.300316421736639
 30
0.0
 42
-0.4142135623744271
  0
VERTEX
  5
228A
  8
SAPA_PROFIL
 62
     4
 10
-50.49999999909398
 20
-36.900316421735639
 30
0.0
  0
VERTEX
  5
228B
  8
SAPA_PROFIL
 62
     4
 10
-50.499999999095337
 20
-33.500316421734638
 30
0.0
 42
-0.4142135623724291
  0
VERTEX
  5
228C
  8
SAPA_PROFIL
 62
     4
 10
-50.099999999094798
 20
-33.100316421735002
 30
0.0
  0
VERTEX
  5
228D
  8
SAPA_PROFIL
 62
     4
 10
-49.917563928658019
 20
-33.100316421728643
 30
0.0
 42
-0.1318219888653524
  0
VERTEX
  5
228E
  8
SAPA_PROFIL
 62
     4
 10
-49.767390826185682
 20
-33.140608818266017
 30
0.0
  0
VERTEX
  5
228F
  8
SAPA_PROFIL
 62
     4
 10
-48.368863125706021
 20
-33.949292279490358
 30
0.0
  0
VERTEX
  5
2290
  8
SAPA_PROFIL
 62
     4
 10
-48.368863125706021
 20
-34.2164068077034
 30
0.0
 42
0.577350269189159
  0
VERTEX
  5
2291
  8
SAPA_PROFIL
 62
     4
 10
-48.053863125706421
 20
-34.398272142497959
 30
0.0
  0
VERTEX
  5
2292
  8
SAPA_PROFIL
 62
     4
 10
-47.704444948487762
 20
-34.196535463820858
 30
0.0
 42
0.0612687673629489
  0
VERTEX
  5
2293
  8
SAPA_PROFIL
 62
     4
 10
-47.41176951538754
 20
-34.182952093134652
 30
0.0
 42
0.2694959974285039
  0
VERTEX
  5
2294
  8
SAPA_PROFIL
 62
     4
 10
-47.180250468987019
 20
-33.989820118790703
 30
0.0
  0
VERTEX
  5
2295
  8
SAPA_PROFIL
 62
     4
 10
-46.284581528077361
 20
-31.528989928337531
 30
0.0
 42
-0.3152987888784035
  0
VERTEX
  5
2296
  8
SAPA_PROFIL
 62
     4
 10
-45.814735217684138
 20
-31.200000000000959
 30
0.0
  0
VERTEX
  5
2297
  8
SAPA_PROFIL
 62
     4
 10
-44.4332356324797
 20
-31.200000000002561
 30
0.0
 42
-0.2539676464741841
  0
VERTEX
  5
2298
  8
SAPA_PROFIL
 62
     4
 10
-44.181634462095623
 20
-31.336608289497828
 30
0.0
  0
VERTEX
  5
2299
  8
SAPA_PROFIL
 62
     4
 10
-43.917611183718982
 20
-31.7431684855028
 30
0.0
 42
-0.5862177598324623
  0
VERTEX
  5
229A
  8
SAPA_PROFIL
 62
     4
 10
-44.17335299895732
 20
-32.199999999999307
 30
0.0
  0
VERTEX
  5
229B
  8
SAPA_PROFIL
 62
     4
 10
-45.11452767946713
 20
-32.19999999999164
 30
0.0
 42
0.3152987888813165
  0
VERTEX
  5
229C
  8
SAPA_PROFIL
 62
     4
 10
-45.584373989864893
 20
-32.5289899283284
 30
0.0
  0
VERTEX
  5
229D
  8
SAPA_PROFIL
 62
     4
 10
-46.02113827098885
 20
-33.72898992833963
 30
0.0
 42
0.5205670505515651
  0
VERTEX
  5
229E
  8
SAPA_PROFIL
 62
     4
 10
-45.551291960595627
 20
-34.400000000002372
 30
0.0
  0
VERTEX
  5
229F
  8
SAPA_PROFIL
 62
     4
 10
-40.534851019926769
 20
-34.4000000000024
 30
0.0
 42
0.3702522326300203
  0
VERTEX
  5
22A0
  8
SAPA_PROFIL
 62
     4
 10
-40.238327658133443
 20
-34.145540047336702
 30
0.0
 42
0.0982365330332397
  0
VERTEX
  5
22A1
  8
SAPA_PROFIL
 62
     4
 10
-40.147874899922499
 20
-32.457853272341687
 30
0.0
 42
0.3735060174783164
  0
VERTEX
  5
22A2
  8
SAPA_PROFIL
 62
     4
 10
-40.444899567833481
 20
-32.200000000001651
 30
0.0
  0
VERTEX
  5
22A3
  8
SAPA_PROFIL
 62
     4
 10
-40.873352998956143
 20
-32.200000000000728
 30
0.0
 42
-0.5920056181162531
  0
VERTEX
  5
22A4
  8
SAPA_PROFIL
 62
     4
 10
-41.126361755273543
 20
-31.738796497472809
 30
0.0
  0
VERTEX
  5
22A5
  8
SAPA_PROFIL
 62
     4
 10
-40.865177679117842
 20
-31.336608289494521
 30
0.0
 42
-0.2539676464746725
  0
VERTEX
  5
22A6
  8
SAPA_PROFIL
 62
     4
 10
-40.61357650873407
 20
-31.199999999999161
 30
0.0
  0
VERTEX
  5
22A7
  8
SAPA_PROFIL
 62
     4
 10
-18.38642348936839
 20
-31.200000000000731
 30
0.0
 42
-0.2539676464741819
  0
VERTEX
  5
22A8
  8
SAPA_PROFIL
 62
     4
 10
-18.134822318985531
 20
-31.33660828949451
 30
0.0
  0
VERTEX
  5
22A9
  8
SAPA_PROFIL
 62
     4
 10
-17.873638242831721
 20
-31.738796497472851
 30
0.0
 42
-0.5920055144124249
  0
VERTEX
  5
22AA
  8
SAPA_PROFIL
 62
     4
 10
-18.12664699914723
 20
-32.200000000000728
 30
0.0
  0
VERTEX
  5
22AB
  8
SAPA_PROFIL
 62
     4
 10
-18.555100476437449
 20
-32.199999974725721
 30
0.0
 42
0.3735060174775405
  0
VERTEX
  5
22AC
  8
SAPA_PROFIL
 62
     4
 10
-18.852125144347141
 20
-32.457853247065813
 30
0.0
 42
0.0355900683670349
  0
VERTEX
  5
22AD
  8
SAPA_PROFIL
 62
     4
 10
-18.89601870837939
 20
-33.073726833865599
 30
0.0
 42
0.0624282003873116
  0
VERTEX
  5
22AE
  8
SAPA_PROFIL
 62
     4
 10
-18.76167238613645
 20
-34.145540022060729
 30
0.0
 42
0.3702522326309292
  0
VERTEX
  5
22AF
  8
SAPA_PROFIL
 62
     4
 10
-18.46514902434307
 20
-34.399999974726448
 30
0.0
  0
VERTEX
  5
22B0
  8
SAPA_PROFIL
 62
     4
 10
-13.44870803750957
 20
-34.400000000002592
 30
0.0
 42
0.5205670505515692
  0
VERTEX
  5
22B1
  8
SAPA_PROFIL
 62
     4
 10
-12.978861727116341
 20
-33.728989928339622
 30
0.0
  0
VERTEX
  5
22B2
  8
SAPA_PROFIL
 62
     4
 10
-13.41562600824129
 20
-32.528989928330169
 30
0.0
 42
0.3152987888807539
  0
VERTEX
  5
22B3
  8
SAPA_PROFIL
 62
     4
 10
-13.88547231863715
 20
-32.199999999992549
 30
0.0
  0
VERTEX
  5
22B4
  8
SAPA_PROFIL
 62
     4
 10
-14.826646999146231
 20
-32.19999999999937
 30
0.0
 42
-0.5862175119221242
  0
VERTEX
  5
22B5
  8
SAPA_PROFIL
 62
     4
 10
-15.082388930128189
 20
-31.743168674244231
 30
0.0
 42
0.0000002084758573
  0
SEQEND
  5
22B6
  8
SAPA_PROFIL
 62
     4
  0
POLYLINE
  5
1685
  8
SAPA_PROFIL
 62
     4
 66
     1
 10
0.0
 20
0.0
 30
0.0
  0
VERTEX
  5
22B7
  8
SAPA_PROFIL
 62
     4
 10
-38.549329121449077
 20
-80.767718914153036
 30
0.0
 42
-0.5571646428658034
  0
VERTEX
  5
22B8
  8
SAPA_PROFIL
 62
     4
 10
-38.012368617312248
 20
-79.899999999997476
 30
0.0
  0
VERTEX
  5
22B9
  8
SAPA_PROFIL
 62
     4
 10
-20.987631380791051
 20
-79.899999999997931
 30
0.0
 42
-0.5571645048035741
  0
VERTEX
  5
22BA
  8
SAPA_PROFIL
 62
     4
 10
-20.450670763830001
 20
-80.767718687864104
 30
0.0
  0
VERTEX
  5
22BB
  8
SAPA_PROFIL
 62
     4
 10
-21.281377851376689
 20
-82.433859343932127
 30
0.0
 42
-0.284385813979063
  0
VERTEX
  5
22BC
  8
SAPA_PROFIL
 62
     4
 10
-21.549858159857038
 20
-82.599999999999568
 30
0.0
  0
VERTEX
  5
22BD
  8
SAPA_PROFIL
 62
     4
 10
-37.450141838246353
 20
-82.599999999999568
 30
0.0
 42
-0.2843858139786238
  0
VERTEX
  5
22BE
  8
SAPA_PROFIL
 62
     4
 10
-37.718622146726652
 20
-82.433859343932639
 30
0.0
  0
VERTEX
  5
22BF
  8
SAPA_PROFIL
 62
     4
 10
-38.549329234273799
 20
-80.767718687863294
 30
0.0
  0
SEQEND
  5
22C0
  8
SAPA_PROFIL
 62
     4
  0
POLYLINE
  5
1686
  8
SAPA_PROFIL
 62
     4
 66
     1
 10
0.0
 20
0.0
 30
0.0
 70
     1
  0
VERTEX
  5
22C1
  8
SAPA_PROFIL
 62
     4
 10
-15.0823888143844
 20
-82.956831514497125
 30
0.0
  0
VERTEX
  5
22C2
  8
SAPA_PROFIL
 62
     4
 10
-14.81836553600839
 20
-83.363391710501276
 30
0.0
 42
0.2539676464751066
  0
VERTEX
  5
22C3
  8
SAPA_PROFIL
 62
     4
 10
-14.56676436562369
 20
-83.499999999997385
 30
0.0
  0
VERTEX
  5
22C4
  8
SAPA_PROFIL
 62
     4
 10
-13.18526478041834
 20
-83.499999999997385
 30
0.0
 42
0.3152987888790479
  0
VERTEX
  5
22C5
  8
SAPA_PROFIL
 62
     4
 10
-12.71541847002602
 20
-83.171010071659225
 30
0.0
  0
VERTEX
  5
22C6
  8
SAPA_PROFIL
 62
     4
 10
-11.81974952911742
 20
-80.710179881207949
 30
0.0
 42
-0.2694959974287434
  0
VERTEX
  5
22C7
  8
SAPA_PROFIL
 62
     4
 10
-11.58823048271606
 20
-80.517047906864065
 30
0.0
 42
-0.0612686379508233
  0
VERTEX
  5
22C8
  8
SAPA_PROFIL
 62
     4
 10
-11.29555504986279
 20
-80.503464536233537
 30
0.0
  0
VERTEX
  5
22C9
  8
SAPA_PROFIL
 62
     4
 10
-10.94613687255452
 20
-80.301727857504716
 30
0.0
 42
-0.5773502691891679
  0
VERTEX
  5
22CA
  8
SAPA_PROFIL
 62
     4
 10
-10.631136872554929
 20
-80.483593192299296
 30
0.0
  0
VERTEX
  5
22CB
  8
SAPA_PROFIL
 62
     4
 10
-10.63113687255469
 20
-80.750707720425595
 30
0.0
  0
VERTEX
  5
22CC
  8
SAPA_PROFIL
 62
     4
 10
-9.2326091719204406
 20
-81.559391181733915
 30
0.0
 42
0.1318219888653519
  0
VERTEX
  5
22CD
  8
SAPA_PROFIL
 62
     4
 10
-9.0824360694480966
 20
-81.599683578271296
 30
0.0
  0
VERTEX
  5
22CE
  8
SAPA_PROFIL
 62
     4
 10
-8.8999999990113174
 20
-81.599683578264944
 30
0.0
 42
0.4142135623724291
  0
VERTEX
  5
22CF
  8
SAPA_PROFIL
 62
     4
 10
-8.4999999990107717
 20
-81.199683578265308
 30
0.0
  0
VERTEX
  5
22D0
  8
SAPA_PROFIL
 62
     4
 10
-8.4999999990121342
 20
-77.799683578264293
 30
0.0
 42
0.4142135623744271
  0
VERTEX
  5
22D1
  8
SAPA_PROFIL
 62
     4
 10
-8.8999999990113174
 20
-77.399683578263307
 30
0.0
  0
VERTEX
  5
22D2
  8
SAPA_PROFIL
 62
     4
 10
-9.0796152412826192
 20
-77.399683578262668
 30
0.0
 42
0.1316524975874005
  0
VERTEX
  5
22D3
  8
SAPA_PROFIL
 62
     4
 10
-9.2296152412794363
 20
-77.439875957128265
 30
0.0
  0
VERTEX
  5
22D4
  8
SAPA_PROFIL
 62
     4
 10
-10.83375313828169
 20
-78.366025403780796
 30
0.0
 42
-0.1316524975875904
  0
VERTEX
  5
22D5
  8
SAPA_PROFIL
 62
     4
 10
-11.3337531382834
 20
-78.499999999995566
 30
0.0
  0
VERTEX
  5
22D6
  8
SAPA_PROFIL
 62
     4
 10
-11.74999999901077
 20
-78.499999999995566
 30
0.0
 42
-0.4142135623730951
  0
VERTEX
  5
22D7
  8
SAPA_PROFIL
 62
     4
 10
-12.74999999901077
 20
-77.499999999995566
 30
0.0
  0
VERTEX
  5
22D8
  8
SAPA_PROFIL
 62
     4
 10
-12.74999999901077
 20
-74.499999999998295
 30
0.0
 42
0.9999996830128083
  0
VERTEX
  5
22D9
  8
SAPA_PROFIL
 62
     4
 10
-13.74999999901077
 20
-74.499999999996476
 30
0.0
  0
VERTEX
  5
22DA
  8
SAPA_PROFIL
 62
     4
 10
-13.74999999901077
 20
-77.499999999996476
 30
0.0
 42
-0.4142135623730951
  0
VERTEX
  5
22DB
  8
SAPA_PROFIL
 62
     4
 10
-14.74999999901077
 20
-78.499999999996476
 30
0.0
  0
VERTEX
  5
22DC
  8
SAPA_PROFIL
 62
     4
 10
-44.249999999095351
 20
-78.499999999996476
 30
0.0
 42
-0.4142135623730951
  0
VERTEX
  5
22DD
  8
SAPA_PROFIL
 62
     4
 10
-45.249999999095337
 20
-77.499999999996476
 30
0.0
  0
VERTEX
  5
22DE
  8
SAPA_PROFIL
 62
     4
 10
-45.249999999095337
 20
-74.499999999998295
 30
0.0
 42
0.9999999999999998
  0
VERTEX
  5
22DF
  8
SAPA_PROFIL
 62
     4
 10
-46.249999999095351
 20
-74.499999999998295
 30
0.0
  0
VERTEX
  5
22E0
  8
SAPA_PROFIL
 62
     4
 10
-46.249999999095351
 20
-77.499999999996476
 30
0.0
 42
-0.4142135623736278
  0
VERTEX
  5
22E1
  8
SAPA_PROFIL
 62
     4
 10
-47.249999999095351
 20
-78.499999999996476
 30
0.0
  0
VERTEX
  5
22E2
  8
SAPA_PROFIL
 62
     4
 10
-47.666246859821811
 20
-78.499999999996476
 30
0.0
 42
-0.1316524975874375
  0
VERTEX
  5
22E3
  8
SAPA_PROFIL
 62
     4
 10
-48.16624685982201
 20
-78.366025403780441
 30
0.0
  0
VERTEX
  5
22E4
  8
SAPA_PROFIL
 62
     4
 10
-49.770384756823951
 20
-77.439875957128265
 30
0.0
 42
0.1316524975874
  0
VERTEX
  5
22E5
  8
SAPA_PROFIL
 62
     4
 10
-49.920384756823509
 20
-77.399683578262668
 30
0.0
  0
VERTEX
  5
22E6
  8
SAPA_PROFIL
 62
     4
 10
-50.099999999094813
 20
-77.399683578263307
 30
0.0
 42
0.4142135623744271
  0
VERTEX
  5
22E7
  8
SAPA_PROFIL
 62
     4
 10
-50.499999999093987
 20
-77.799683578264293
 30
0.0
  0
VERTEX
  5
22E8
  8
SAPA_PROFIL
 62
     4
 10
-50.499999999095351
 20
-81.199683578265308
 30
0.0
 42
0.4142135623724291
  0
VERTEX
  5
22E9
  8
SAPA_PROFIL
 62
     4
 10
-50.099999999094813
 20
-81.599683578264944
 30
0.0
  0
VERTEX
  5
22EA
  8
SAPA_PROFIL
 62
     4
 10
-49.917563928658019
 20
-81.599683578271296
 30
0.0
 42
0.1318219888653524
  0
VERTEX
  5
22EB
  8
SAPA_PROFIL
 62
     4
 10
-49.767390826185689
 20
-81.559391181733915
 30
0.0
  0
VERTEX
  5
22EC
  8
SAPA_PROFIL
 62
     4
 10
-48.368863125706021
 20
-80.750707720509581
 30
0.0
  0
VERTEX
  5
22ED
  8
SAPA_PROFIL
 62
     4
 10
-48.368863125706021
 20
-80.483593192296524
 30
0.0
 42
-0.577350269189159
  0
VERTEX
  5
22EE
  8
SAPA_PROFIL
 62
     4
 10
-48.053863125706428
 20
-80.301727857501973
 30
0.0
  0
VERTEX
  5
22EF
  8
SAPA_PROFIL
 62
     4
 10
-47.704444948487769
 20
-80.503464536179081
 30
0.0
 42
-0.0612687673629489
  0
VERTEX
  5
22F0
  8
SAPA_PROFIL
 62
     4
 10
-47.411769515387562
 20
-80.517047906865287
 30
0.0
 42
-0.2694959974285039
  0
VERTEX
  5
22F1
  8
SAPA_PROFIL
 62
     4
 10
-47.18025046898704
 20
-80.710179881209243
 30
0.0
  0
VERTEX
  5
22F2
  8
SAPA_PROFIL
 62
     4
 10
-46.284581528077368
 20
-83.171010071662408
 30
0.0
 42
0.3152987888784035
  0
VERTEX
  5
22F3
  8
SAPA_PROFIL
 62
     4
 10
-45.814735217684152
 20
-83.499999999998977
 30
0.0
  0
VERTEX
  5
22F4
  8
SAPA_PROFIL
 62
     4
 10
-44.433235632479708
 20
-83.499999999997385
 30
0.0
 42
0.2539676464741841
  0
VERTEX
  5
22F5
  8
SAPA_PROFIL
 62
     4
 10
-44.18163446209563
 20
-83.363391710502114
 30
0.0
  0
VERTEX
  5
22F6
  8
SAPA_PROFIL
 62
     4
 10
-43.917611183718982
 20
-82.956831514497125
 30
0.0
 42
0.5862177598324623
  0
VERTEX
  5
22F7
  8
SAPA_PROFIL
 62
     4
 10
-44.173352998957341
 20
-82.500000000000625
 30
0.0
  0
VERTEX
  5
22F8
  8
SAPA_PROFIL
 62
     4
 10
-45.114527679467137
 20
-82.500000000008285
 30
0.0
 42
-0.3152987888813165
  0
VERTEX
  5
22F9
  8
SAPA_PROFIL
 62
     4
 10
-45.584373989864901
 20
-82.171010071671546
 30
0.0
  0
VERTEX
  5
22FA
  8
SAPA_PROFIL
 62
     4
 10
-46.02113827098885
 20
-80.971010071660316
 30
0.0
 42
-0.5205670505515651
  0
VERTEX
  5
22FB
  8
SAPA_PROFIL
 62
     4
 10
-45.551291960595627
 20
-80.299999999997567
 30
0.0
  0
VERTEX
  5
22FC
  8
SAPA_PROFIL
 62
     4
 10
-40.534851019926791
 20
-80.299999999997539
 30
0.0
 42
-0.3702522326300203
  0
VERTEX
  5
22FD
  8
SAPA_PROFIL
 62
     4
 10
-40.23832765813345
 20
-80.554459952663237
 30
0.0
 42
-0.0982365330332397
  0
VERTEX
  5
22FE
  8
SAPA_PROFIL
 62
     4
 10
-40.147874899922513
 20
-82.242146727658252
 30
0.0
 42
-0.3735060174783164
  0
VERTEX
  5
22FF
  8
SAPA_PROFIL
 62
     4
 10
-40.444899567833502
 20
-82.499999999998266
 30
0.0
  0
VERTEX
  5
2300
  8
SAPA_PROFIL
 62
     4
 10
-40.87335299895615
 20
-82.499999999999204
 30
0.0
 42
0.5920056181162531
  0
VERTEX
  5
2301
  8
SAPA_PROFIL
 62
     4
 10
-41.12636175527355
 20
-82.961203502527127
 30
0.0
  0
VERTEX
  5
2302
  8
SAPA_PROFIL
 62
     4
 10
-40.865177679117849
 20
-83.363391710505425
 30
0.0
 42
0.2539676464746725
  0
VERTEX
  5
2303
  8
SAPA_PROFIL
 62
     4
 10
-40.613576508734077
 20
-83.500000000000767
 30
0.0
  0
VERTEX
  5
2304
  8
SAPA_PROFIL
 62
     4
 10
-18.386423489368401
 20
-83.499999999999204
 30
0.0
 42
0.2539676464741819
  0
VERTEX
  5
2305
  8
SAPA_PROFIL
 62
     4
 10
-18.134822318985542
 20
-83.363391710505425
 30
0.0
  0
VERTEX
  5
2306
  8
SAPA_PROFIL
 62
     4
 10
-17.873638242831731
 20
-82.961203502527084
 30
0.0
 42
0.5920055144124249
  0
VERTEX
  5
2307
  8
SAPA_PROFIL
 62
     4
 10
-18.126646999147241
 20
-82.499999999999204
 30
0.0
  0
VERTEX
  5
2308
  8
SAPA_PROFIL
 62
     4
 10
-18.55510047643747
 20
-82.500000025274204
 30
0.0
 42
-0.3735060174775405
  0
VERTEX
  5
2309
  8
SAPA_PROFIL
 62
     4
 10
-18.852125144347148
 20
-82.242146752934119
 30
0.0
 42
-0.0355900683670349
  0
VERTEX
  5
230A
  8
SAPA_PROFIL
 62
     4
 10
-18.896018708379408
 20
-81.626273166134339
 30
0.0
 42
-0.0624282003873116
  0
VERTEX
  5
230B
  8
SAPA_PROFIL
 62
     4
 10
-18.76167238613646
 20
-80.554459977939203
 30
0.0
 42
-0.3702522326309292
  0
VERTEX
  5
230C
  8
SAPA_PROFIL
 62
     4
 10
-18.465149024343091
 20
-80.300000025273476
 30
0.0
  0
VERTEX
  5
230D
  8
SAPA_PROFIL
 62
     4
 10
-13.448708037509579
 20
-80.29999999999734
 30
0.0
 42
-0.5205670505515692
  0
VERTEX
  5
230E
  8
SAPA_PROFIL
 62
     4
 10
-12.97886172711635
 20
-80.971010071660316
 30
0.0
  0
VERTEX
  5
230F
  8
SAPA_PROFIL
 62
     4
 10
-13.415626008241309
 20
-82.171010071669755
 30
0.0
 42
-0.3152987888807539
  0
VERTEX
  5
2310
  8
SAPA_PROFIL
 62
     4
 10
-13.885472318637159
 20
-82.500000000007375
 30
0.0
  0
VERTEX
  5
2311
  8
SAPA_PROFIL
 62
     4
 10
-14.82664699914624
 20
-82.500000000000554
 30
0.0
 42
0.5862175119221242
  0
VERTEX
  5
2312
  8
SAPA_PROFIL
 62
     4
 10
-15.0823889301282
 20
-82.956831325755701
 30
0.0
 42
-0.0000002084758573
  0
SEQEND
  5
2313
  8
SAPA_PROFIL
 62
     4
  0
POLYLINE
  5
1687
  8
SAPA_PROFIL
 62
     4
 66
     1
 10
0.0
 20
0.0
 30
0.0
 70
     1
  0
VERTEX
  5
2314
  8
SAPA_PROFIL
 62
     4
 10
-58.70294355321078
 20
-14.90000000090207
 30
0.0
  0
VERTEX
  5
2315
  8
SAPA_PROFIL
 62
     4
 10
-62.897056102907698
 20
-14.900000000900249
 30
0.0
 42
-0.1989123673786592
  0
VERTEX
  5
2316
  8
SAPA_PROFIL
 62
     4
 10
-63.109188137263523
 20
-14.81213203525679
 30
0.0
  0
VERTEX
  5
2317
  8
SAPA_PROFIL
 62
     4
 10
-65.333452205974424
 20
-12.587867966545881
 30
0.0
 42
0.1989123673785438
  0
VERTEX
  5
2318
  8
SAPA_PROFIL
 62
     4
 10
-65.545584240330243
 20
-12.50000000090243
 30
0.0
  0
VERTEX
  5
2319
  8
SAPA_PROFIL
 62
     4
 10
-65.999999828058606
 20
-12.500000000904249
 30
0.0
 42
0.4142135623730951
  0
VERTEX
  5
231A
  8
SAPA_PROFIL
 62
     4
 10
-66.299999828058787
 20
-12.80000000090352
 30
0.0
  0
VERTEX
  5
231B
  8
SAPA_PROFIL
 62
     4
 10
-66.299999828058787
 20
-24.700000000899699
 30
0.0
 42
-0.4142135623730951
  0
VERTEX
  5
231C
  8
SAPA_PROFIL
 62
     4
 10
-66.799999828058773
 20
-25.200000000899699
 30
0.0
  0
VERTEX
  5
231D
  8
SAPA_PROFIL
 62
     4
 10
-68.499999828058606
 20
-25.200000000899699
 30
0.0
 42
0.4142135623739832
  0
VERTEX
  5
231E
  8
SAPA_PROFIL
 62
     4
 10
-68.799999828058787
 20
-25.500000000898979
 30
0.0
  0
VERTEX
  5
231F
  8
SAPA_PROFIL
 62
     4
 10
-68.799999828058787
 20
-29.200000000901341
 30
0.0
 42
0.414213562375759
  0
VERTEX
  5
2320
  8
SAPA_PROFIL
 62
     4
 10
-68.499999828058606
 20
-29.500000000902428
 30
0.0
  0
VERTEX
  5
2321
  8
SAPA_PROFIL
 62
     4
 10
-52.006576697655589
 20
-29.50000000090062
 30
0.0
 42
0.4142135623735391
  0
VERTEX
  5
2322
  8
SAPA_PROFIL
 62
     4
 10
-51.706576697655862
 20
-29.200000000901341
 30
0.0
  0
VERTEX
  5
2323
  8
SAPA_PROFIL
 62
     4
 10
-51.706576697655862
 20
-12.80000000090353
 30
0.0
 42
0.4142135623726511
  0
VERTEX
  5
2324
  8
SAPA_PROFIL
 62
     4
 10
-52.006576697655589
 20
-12.50000000090243
 30
0.0
  0
VERTEX
  5
2325
  8
SAPA_PROFIL
 62
     4
 10
-56.054415415786423
 20
-12.50000000090243
 30
0.0
 42
0.1989123673785438
  0
VERTEX
  5
2326
  8
SAPA_PROFIL
 62
     4
 10
-56.266547450142241
 20
-12.58786796654589
 30
0.0
  0
VERTEX
  5
2327
  8
SAPA_PROFIL
 62
     4
 10
-58.490811518854969
 20
-14.81213203525861
 30
0.0
 42
-0.1989123673798886
  0
SEQEND
  5
2328
  8
SAPA_PROFIL
 62
     4
  0
POLYLINE
  5
1688
  8
SAPA_PROFIL
 62
     4
 66
     1
 10
0.0
 20
0.0
 30
0.0
 70
     1
  0
VERTEX
  5
2329
  8
SAPA_PROFIL
 62
     4
 10
-45.299999828059008
 20
-29.500000000902428
 30
0.0
  0
VERTEX
  5
232A
  8
SAPA_PROFIL
 62
     4
 10
-50.106576697655491
 20
-29.50000000090062
 30
0.0
 42
-0.4142135623732061
  0
VERTEX
  5
232B
  8
SAPA_PROFIL
 62
     4
 10
-50.40657669765568
 20
-29.200000000901341
 30
0.0
  0
VERTEX
  5
232C
  8
SAPA_PROFIL
 62
     4
 10
-50.40657669765568
 20
-12.80000000090353
 30
0.0
 42
-0.4142135623730951
  0
VERTEX
  5
232D
  8
SAPA_PROFIL
 62
     4
 10
-50.106576697655491
 20
-12.50000000090243
 30
0.0
  0
VERTEX
  5
232E
  8
SAPA_PROFIL
 62
     4
 10
-45.299999828059008
 20
-12.500000000904249
 30
0.0
 42
-0.4142135623731173
  0
VERTEX
  5
232F
  8
SAPA_PROFIL
 62
     4
 10
-44.999999828058833
 20
-12.800000000905341
 30
0.0
  0
VERTEX
  5
2330
  8
SAPA_PROFIL
 62
     4
 10
-44.999999828058833
 20
-29.20000000090317
 30
0.0
 42
-0.4142135623730951
  0
SEQEND
  5
2331
  8
SAPA_PROFIL
 62
     4
  0
POLYLINE
  5
1689
  8
SAPA_PROFIL
 62
     4
 66
     1
 10
0.0
 20
0.0
 30
0.0
 70
     1
  0
VERTEX
  5
2332
  8
SAPA_PROFIL
 62
     4
 10
-56.675735759346431
 20
-11.00000000090243
 30
0.0
 42
0.1989123673799838
  0
VERTEX
  5
2333
  8
SAPA_PROFIL
 62
     4
 10
-56.887867793703151
 20
-11.08786796654771
 30
0.0
  0
VERTEX
  5
2334
  8
SAPA_PROFIL
 62
     4
 10
-59.11213186241406
 20
-13.31213203525861
 30
0.0
 42
-0.1989123673811189
  0
VERTEX
  5
2335
  8
SAPA_PROFIL
 62
     4
 10
-59.324263896769871
 20
-13.40000000090207
 30
0.0
  0
VERTEX
  5
2336
  8
SAPA_PROFIL
 62
     4
 10
-62.27573575934769
 20
-13.400000000900249
 30
0.0
 42
-0.1989123673785447
  0
VERTEX
  5
2337
  8
SAPA_PROFIL
 62
     4
 10
-62.487867793703522
 20
-13.31213203525679
 30
0.0
  0
VERTEX
  5
2338
  8
SAPA_PROFIL
 62
     4
 10
-64.712131862415333
 20
-11.087867966545881
 30
0.0
 42
0.1989123673785445
  0
VERTEX
  5
2339
  8
SAPA_PROFIL
 62
     4
 10
-64.924263896771151
 20
-11.00000000090243
 30
0.0
  0
VERTEX
  5
233A
  8
SAPA_PROFIL
 62
     4
 10
-67.299999828058773
 20
-11.000000000904249
 30
0.0
 42
0.4142135623730951
  0
VERTEX
  5
233B
  8
SAPA_PROFIL
 62
     4
 10
-67.799999828058787
 20
-11.500000000904249
 30
0.0
  0
VERTEX
  5
233C
  8
SAPA_PROFIL
 62
     4
 10
-67.799999828058787
 20
-23.40000000090043
 30
0.0
 42
-0.4142135623737615
  0
VERTEX
  5
233D
  8
SAPA_PROFIL
 62
     4
 10
-68.099999828058969
 20
-23.700000000899699
 30
0.0
  0
VERTEX
  5
233E
  8
SAPA_PROFIL
 62
     4
 10
-69.799999828058773
 20
-23.700000000899699
 30
0.0
 42
0.4142135623730951
  0
VERTEX
  5
233F
  8
SAPA_PROFIL
 62
     4
 10
-70.299999828058787
 20
-24.20000000089971
 30
0.0
  0
VERTEX
  5
2340
  8
SAPA_PROFIL
 62
     4
 10
-70.299999828058787
 20
-30.500000000902428
 30
0.0
 42
0.4142135623730951
  0
VERTEX
  5
2341
  8
SAPA_PROFIL
 62
     4
 10
-69.799999828058773
 20
-31.000000000902428
 30
0.0
  0
VERTEX
  5
2342
  8
SAPA_PROFIL
 62
     4
 10
-68.799999828058404
 20
-31.000000000898801
 30
0.0
 42
-0.4142135623735387
  0
VERTEX
  5
2343
  8
SAPA_PROFIL
 62
     4
 10
-68.499999828058463
 20
-31.30000000089807
 30
0.0
  0
VERTEX
  5
2344
  8
SAPA_PROFIL
 62
     4
 10
-68.499999828058918
 20
-32.900000000900249
 30
0.0
 42
-0.4142135623735394
  0
VERTEX
  5
2345
  8
SAPA_PROFIL
 62
     4
 10
-68.799999828058645
 20
-33.200000000899522
 30
0.0
  0
VERTEX
  5
2346
  8
SAPA_PROFIL
 62
     4
 10
-69.099999828058273
 20
-33.200000000897703
 30
0.0
 42
0.5923377296036106
  0
VERTEX
  5
2347
  8
SAPA_PROFIL
 62
     4
 10
-69.352849910662542
 20
-33.661452271639277
 30
0.0
  0
VERTEX
  5
2348
  8
SAPA_PROFIL
 62
     4
 10
-68.075790642365689
 20
-35.361452271640012
 30
0.0
 42
0.2560149538738703
  0
VERTEX
  5
2349
  8
SAPA_PROFIL
 62
     4
 10
-67.822940559760525
 20
-35.50000000090062
 30
0.0
  0
VERTEX
  5
234A
  8
SAPA_PROFIL
 62
     4
 10
-67.599999828057904
 20
-35.50000000090062
 30
0.0
 42
0.4142135623733172
  0
VERTEX
  5
234B
  8
SAPA_PROFIL
 62
     4
 10
-67.299999828058645
 20
-35.200000000901341
 30
0.0
  0
VERTEX
  5
234C
  8
SAPA_PROFIL
 62
     4
 10
-67.299999828058645
 20
-31.30000000089807
 30
0.0
 42
-0.4142135623735389
  0
VERTEX
  5
234D
  8
SAPA_PROFIL
 62
     4
 10
-66.999999828058691
 20
-31.000000000898801
 30
0.0
  0
VERTEX
  5
234E
  8
SAPA_PROFIL
 62
     4
 10
-55.999999828058513
 20
-31.00000000090062
 30
0.0
 42
-0.4142135623735387
  0
VERTEX
  5
234F
  8
SAPA_PROFIL
 62
     4
 10
-55.699999828058559
 20
-31.300000000899889
 30
0.0
  0
VERTEX
  5
2350
  8
SAPA_PROFIL
 62
     4
 10
-55.699999828058559
 20
-35.200000000901341
 30
0.0
 42
0.4142135623730951
  0
VERTEX
  5
2351
  8
SAPA_PROFIL
 62
     4
 10
-55.399999828059279
 20
-35.50000000090062
 30
0.0
  0
VERTEX
  5
2352
  8
SAPA_PROFIL
 62
     4
 10
-55.177059096356693
 20
-35.50000000090062
 30
0.0
 42
0.2560149538738701
  0
VERTEX
  5
2353
  8
SAPA_PROFIL
 62
     4
 10
-54.924209013751522
 20
-35.361452271640012
 30
0.0
  0
VERTEX
  5
2354
  8
SAPA_PROFIL
 62
     4
 10
-53.647149745454669
 20
-33.661452271639277
 30
0.0
 42
0.5923377296036115
  0
VERTEX
  5
2355
  8
SAPA_PROFIL
 62
     4
 10
-53.899999828058931
 20
-33.200000000897703
 30
0.0
  0
VERTEX
  5
2356
  8
SAPA_PROFIL
 62
     4
 10
-54.199999828058559
 20
-33.200000000899522
 30
0.0
 42
-0.4142135623735394
  0
VERTEX
  5
2357
  8
SAPA_PROFIL
 62
     4
 10
-54.499999828058279
 20
-32.900000000900249
 30
0.0
  0
VERTEX
  5
2358
  8
SAPA_PROFIL
 62
     4
 10
-54.499999828058741
 20
-31.300000000899889
 30
0.0
 42
-0.4142135623735389
  0
VERTEX
  5
2359
  8
SAPA_PROFIL
 62
     4
 10
-54.199999828058793
 20
-31.00000000090062
 30
0.0
  0
VERTEX
  5
235A
  8
SAPA_PROFIL
 62
     4
 10
-43.999999828058833
 20
-31.000000000906081
 30
0.0
 42
0.4142135623731242
  0
VERTEX
  5
235B
  8
SAPA_PROFIL
 62
     4
 10
-43.499999828058833
 20
-30.50000000090607
 30
0.0
  0
VERTEX
  5
235C
  8
SAPA_PROFIL
 62
     4
 10
-43.499999828058819
 20
-11.500000000904249
 30
0.0
 42
0.4142135623730951
  0
VERTEX
  5
235D
  8
SAPA_PROFIL
 62
     4
 10
-43.999999828058833
 20
-11.000000000904249
 30
0.0
  0
SEQEND
  5
235E
  8
SAPA_PROFIL
 62
     4
  0
POLYLINE
  5
168A
  8
SAPA_PROFIL
  6
CONTINUOUS
 66
     1
 10
0.0
 20
0.0
 30
0.0
 70
     1
  0
VERTEX
  5
235F
  8
SAPA_PROFIL
  6
CONTINUOUS
 10
-77.299999999998136
 20
-15.99999999999943
 30
0.0
 42
0.4142135623730951
  0
VERTEX
  5
2360
  8
SAPA_PROFIL
  6
CONTINUOUS
 10
-76.999999999998181
 20
-15.69999999999936
 30
0.0
  0
VERTEX
  5
2361
  8
SAPA_PROFIL
  6
CONTINUOUS
 10
-76.999999999998181
 20
-15.210050506337319
 30
0.0
 42
0.1989123673794033
  0
VERTEX
  5
2362
  8
SAPA_PROFIL
  6
CONTINUOUS
 10
-77.087867965642999
 20
-14.99791847198116
 30
0.0
  0
VERTEX
  5
2363
  8
SAPA_PROFIL
  6
CONTINUOUS
 10
-77.786482931164528
 20
-14.29930350646236
 30
0.0
 42
-0.2216946626434256
  0
VERTEX
  5
2364
  8
SAPA_PROFIL
  6
CONTINUOUS
 10
-77.873209306236504
 20
-14.06102474928173
 30
0.0
  0
VERTEX
  5
2365
  8
SAPA_PROFIL
  6
CONTINUOUS
 10
-77.752048178555583
 20
-12.67614672282332
 30
0.0
 42
0.440010530891594
  0
VERTEX
  5
2366
  8
SAPA_PROFIL
  6
CONTINUOUS
 10
-78.05090658798315
 20
-12.34999999999923
 30
0.0
  0
VERTEX
  5
2367
  8
SAPA_PROFIL
  6
CONTINUOUS
 10
-78.148160139423226
 20
-12.34999999999911
 30
0.0
 42
0.1989123669528273
  0
VERTEX
  5
2368
  8
SAPA_PROFIL
  6
CONTINUOUS
 10
-78.360292173430821
 20
-12.43786796529491
 30
0.0
  0
VERTEX
  5
2369
  8
SAPA_PROFIL
  6
CONTINUOUS
 10
-78.650551934370242
 20
-12.72812772528084
 30
0.0
 42
-0.4142135619519165
  0
VERTEX
  5
236A
  8
SAPA_PROFIL
  6
CONTINUOUS
 10
-79.074816002777084
 20
-12.72812772488896
 30
0.0
  0
VERTEX
  5
236B
  8
SAPA_PROFIL
  6
CONTINUOUS
 10
-85.21213203438856
 20
-6.5908116907696694
 30
0.0
 42
-0.1989123673373824
  0
VERTEX
  5
236C
  8
SAPA_PROFIL
  6
CONTINUOUS
 10
-85.299999999998136
 20
-6.3786796564482984
 30
0.0
  0
VERTEX
  5
236D
  8
SAPA_PROFIL
  6
CONTINUOUS
 10
-85.299999999998917
 20
6.3786796564498891
 30
0.0
 42
-0.1989123673373823
  0
VERTEX
  5
236E
  8
SAPA_PROFIL
  6
CONTINUOUS
 10
-85.212132034389128
 20
6.5908116907718286
 30
0.0
  0
VERTEX
  5
236F
  8
SAPA_PROFIL
  6
CONTINUOUS
 10
-79.074816002777084
 20
12.72812772489055
 30
0.0
 42
-0.4142135619518105
  0
VERTEX
  5
2370
  8
SAPA_PROFIL
  6
CONTINUOUS
 10
-78.650551934370242
 20
12.72812772528243
 30
0.0
  0
VERTEX
  5
2371
  8
SAPA_PROFIL
  6
CONTINUOUS
 10
-78.360292173430821
 20
12.437867965296279
 30
0.0
 42
0.1989123669527856
  0
VERTEX
  5
2372
  8
SAPA_PROFIL
  6
CONTINUOUS
 10
-78.148160139423226
 20
12.35000000000082
 30
0.0
  0
VERTEX
  5
2373
  8
SAPA_PROFIL
  6
CONTINUOUS
 10
-78.05090658798315
 20
12.3500000000007
 30
0.0
 42
0.4400105308917307
  0
VERTEX
  5
2374
  8
SAPA_PROFIL
  6
CONTINUOUS
 10
-77.752048178555583
 20
12.67614672282502
 30
0.0
  0
VERTEX
  5
2375
  8
SAPA_PROFIL
  6
CONTINUOUS
 10
-77.873209306236603
 20
14.06102474928332
 30
0.0
 42
-0.2216946626434257
  0
VERTEX
  5
2376
  8
SAPA_PROFIL
  6
CONTINUOUS
 10
-77.786482931164528
 20
14.299303506463961
 30
0.0
  0
VERTEX
  5
2377
  8
SAPA_PROFIL
  6
CONTINUOUS
 10
-77.087867965642999
 20
14.997918471982871
 30
0.0
 42
0.1989123673793253
  0
VERTEX
  5
2378
  8
SAPA_PROFIL
  6
CONTINUOUS
 10
-76.999999999998181
 20
15.210050506338799
 30
0.0
  0
VERTEX
  5
2379
  8
SAPA_PROFIL
  6
CONTINUOUS
 10
-76.999999999998181
 20
15.70000000000061
 30
0.0
 42
0.4142135623731617
  0
VERTEX
  5
237A
  8
SAPA_PROFIL
  6
CONTINUOUS
 10
-77.299999999998136
 20
16.000000000000789
 30
0.0
  0
VERTEX
  5
237B
  8
SAPA_PROFIL
  6
CONTINUOUS
 10
-77.375735931287181
 20
16.000000000000789
 30
0.0
 42
0.198912367379543
  0
VERTEX
  5
237C
  8
SAPA_PROFIL
  6
CONTINUOUS
 10
-77.587867965642999
 20
15.91213203435677
 30
0.0
  0
VERTEX
  5
237D
  8
SAPA_PROFIL
  6
CONTINUOUS
 10
-86.207106781185075
 20
7.2928932188146973
 30
0.0
 42
0.1989123673796771
  0
VERTEX
  5
237E
  8
SAPA_PROFIL
  6
CONTINUOUS
 10
-86.499999999998195
 20
6.5857864376276893
 30
0.0
  0
VERTEX
  5
237F
  8
SAPA_PROFIL
  6
CONTINUOUS
 10
-86.499999999998195
 20
-6.5857864376263251
 30
0.0
 42
0.1989123673794909
  0
VERTEX
  5
2380
  8
SAPA_PROFIL
  6
CONTINUOUS
 10
-86.207106781185075
 20
-7.292893218812309
 30
0.0
  0
VERTEX
  5
2381
  8
SAPA_PROFIL
  6
CONTINUOUS
 10
-77.587867965642999
 20
-15.91213203435529
 30
0.0
 42
0.1989123673795744
  0
VERTEX
  5
2382
  8
SAPA_PROFIL
  6
CONTINUOUS
 10
-77.375735931287181
 20
-15.99999999999932
 30
0.0
  0
SEQEND
  5
2383
  8
SAPA_PROFIL
  6
CONTINUOUS
  0
POLYLINE
  5
168B
  8
SAPA_PROFIL
  6
CONTINUOUS
 66
     1
 10
0.0
 20
0.0
 30
0.0
 70
     1
  0
VERTEX
  5
2384
  8
SAPA_PROFIL
  6
CONTINUOUS
 10
-76.987867965642707
 20
-5.9092893218803288
 30
0.0
 42
-0.6681786379191337
  0
VERTEX
  5
2385
  8
SAPA_PROFIL
  6
CONTINUOUS
 10
-77.499999999998636
 20
-5.697157287524341
 30
0.0
  0
VERTEX
  5
2386
  8
SAPA_PROFIL
  6
CONTINUOUS
 10
-77.499999999998195
 20
-5.2999999999991374
 30
0.0
 42
0.414213562374094
  0
VERTEX
  5
2387
  8
SAPA_PROFIL
  6
CONTINUOUS
 10
-77.799999999999173
 20
-4.999999999999182
 30
0.0
  0
VERTEX
  5
2388
  8
SAPA_PROFIL
  6
CONTINUOUS
 10
-80.199999999999164
 20
-4.9999999999991811
 30
0.0
 42
0.4142135623730951
  0
VERTEX
  5
2389
  8
SAPA_PROFIL
  6
CONTINUOUS
 10
-80.499999999999105
 20
-5.2999999999991356
 30
0.0
  0
VERTEX
  5
238A
  8
SAPA_PROFIL
  6
CONTINUOUS
 10
-80.499999999998195
 20
-8.0391854213350271
 30
0.0
 42
0.2216946626429604
  0
VERTEX
  5
238B
  8
SAPA_PROFIL
  6
CONTINUOUS
 10
-79.785575219371154
 20
-9.5712743075730842
 30
0.0
  0
VERTEX
  5
238C
  8
SAPA_PROFIL
  6
CONTINUOUS
 10
-78.63940868770915
 20
-10.533022221559159
 30
0.0
 42
0.1763269807085765
  0
VERTEX
  5
238D
  8
SAPA_PROFIL
  6
CONTINUOUS
 10
-78.318014882865171
 20
-10.650000000000009
 30
0.0
  0
VERTEX
  5
238E
  8
SAPA_PROFIL
  6
CONTINUOUS
 10
-77.79999999999815
 20
-10.64999999999813
 30
0.0
 42
0.4142135623733171
  0
VERTEX
  5
238F
  8
SAPA_PROFIL
  6
CONTINUOUS
 10
-77.499999999999034
 20
-10.34999999999869
 30
0.0
  0
VERTEX
  5
2390
  8
SAPA_PROFIL
  6
CONTINUOUS
 10
-77.499999999998636
 20
-9.2928427124741475
 30
0.0
 42
-0.6681786379192504
  0
VERTEX
  5
2391
  8
SAPA_PROFIL
  6
CONTINUOUS
 10
-76.987867965642707
 20
-9.0807106781181588
 30
0.0
  0
VERTEX
  5
2392
  8
SAPA_PROFIL
  6
CONTINUOUS
 10
-76.587867965643241
 20
-9.4807106781175676
 30
0.0
 42
-0.1989123673796784
  0
VERTEX
  5
2393
  8
SAPA_PROFIL
  6
CONTINUOUS
 10
-76.499999999999162
 20
-9.6928427124735563
 30
0.0
  0
VERTEX
  5
2394
  8
SAPA_PROFIL
  6
CONTINUOUS
 10
-76.499999999998195
 20
-14.65263912041403
 30
0.0
 42
-0.6808757648994829
  0
VERTEX
  5
2395
  8
SAPA_PROFIL
  6
CONTINUOUS
 10
-77.019406110484184
 20
-14.85723862843313
 30
0.0
  0
VERTEX
  5
2396
  8
SAPA_PROFIL
  6
CONTINUOUS
 10
-77.419406110484161
 20
-14.428291144423129
 30
0.0
 42
-0.189855932106766
  0
VERTEX
  5
2397
  8
SAPA_PROFIL
  6
CONTINUOUS
 10
-77.499999999998195
 20
-14.22369163640403
 30
0.0
  0
VERTEX
  5
2398
  8
SAPA_PROFIL
  6
CONTINUOUS
 10
-77.499999999998195
 20
-12.37022832743216
 30
0.0
 42
0.7002075382100549
  0
VERTEX
  5
2399
  8
SAPA_PROFIL
  6
CONTINUOUS
 10
-78.203095694837842
 20
-12.114322422670091
 30
0.0
  0
VERTEX
  5
239A
  8
SAPA_PROFIL
  6
CONTINUOUS
 10
-78.562661516914957
 20
-12.54283628290486
 30
0.0
 42
-0.2216946626430935
  0
VERTEX
  5
239B
  8
SAPA_PROFIL
  6
CONTINUOUS
 10
-78.792474849850763
 20
-12.64999999999916
 30
0.0
  0
VERTEX
  5
239C
  8
SAPA_PROFIL
  6
CONTINUOUS
 10
-78.947146456085889
 20
-12.64999999999916
 30
0.0
 42
-0.2079979736432576
  0
VERTEX
  5
239D
  8
SAPA_PROFIL
  6
CONTINUOUS
 10
-79.166550742311657
 20
-12.554601464279671
 30
0.0
  0
VERTEX
  5
239E
  8
SAPA_PROFIL
  6
CONTINUOUS
 10
-84.719406110485195
 20
-6.599999561242134
 30
0.0
 42
-0.1898559321065746
  0
VERTEX
  5
239F
  8
SAPA_PROFIL
  6
CONTINUOUS
 10
-84.79999999999815
 20
-6.3954000532241704
 30
0.0
  0
VERTEX
  5
23A0
  8
SAPA_PROFIL
  6
CONTINUOUS
 10
-84.79999999999815
 20
-0.7732050807561337
 30
0.0
 42
-0.131652497587957
  0
VERTEX
  5
23A1
  8
SAPA_PROFIL
  6
CONTINUOUS
 10
-84.759807621134144
 20
-0.6232050807551332
 30
0.0
  0
VERTEX
  5
23A2
  8
SAPA_PROFIL
  6
CONTINUOUS
 10
-84.399999999999196
 20
0.0000000000008184
 30
0.0
  0
VERTEX
  5
23A3
  8
SAPA_PROFIL
  6
CONTINUOUS
 10
-84.759807621134144
 20
0.623205080757964
 30
0.0
 42
-0.1316524975871203
  0
VERTEX
  5
23A4
  8
SAPA_PROFIL
  6
CONTINUOUS
 10
-84.79999999999815
 20
0.7732050807578276
 30
0.0
  0
VERTEX
  5
23A5
  8
SAPA_PROFIL
  6
CONTINUOUS
 10
-84.79999999999815
 20
6.395400053225921
 30
0.0
 42
-0.1898559321066236
  0
VERTEX
  5
23A6
  8
SAPA_PROFIL
  6
CONTINUOUS
 10
-84.719406110485195
 20
6.5999995612439424
 30
0.0
  0
VERTEX
  5
23A7
  8
SAPA_PROFIL
  6
CONTINUOUS
 10
-79.166550742311657
 20
12.55460146428142
 30
0.0
 42
-0.207997973643366
  0
VERTEX
  5
23A8
  8
SAPA_PROFIL
  6
CONTINUOUS
 10
-78.947146456085889
 20
12.65000000000096
 30
0.0
  0
VERTEX
  5
23A9
  8
SAPA_PROFIL
  6
CONTINUOUS
 10
-78.792474849850763
 20
12.65000000000091
 30
0.0
 42
-0.221694662643129
  0
VERTEX
  5
23AA
  8
SAPA_PROFIL
  6
CONTINUOUS
 10
-78.562661516914957
 20
12.54283628290673
 30
0.0
  0
VERTEX
  5
23AB
  8
SAPA_PROFIL
  6
CONTINUOUS
 10
-78.203095694837955
 20
12.11432242267167
 30
0.0
 42
0.7002075382100074
  0
VERTEX
  5
23AC
  8
SAPA_PROFIL
  6
CONTINUOUS
 10
-77.499999999998195
 20
12.37022832743386
 30
0.0
  0
VERTEX
  5
23AD
  8
SAPA_PROFIL
  6
CONTINUOUS
 10
-77.499999999998479
 20
14.223691636405951
 30
0.0
 42
-0.1898559321066891
  0
VERTEX
  5
23AE
  8
SAPA_PROFIL
  6
CONTINUOUS
 10
-77.419406110484161
 20
14.428291144424939
 30
0.0
  0
VERTEX
  5
23AF
  8
SAPA_PROFIL
  6
CONTINUOUS
 10
-77.019406110483899
 20
14.857238628434651
 30
0.0
 42
-0.6808757648995032
  0
VERTEX
  5
23B0
  8
SAPA_PROFIL
  6
CONTINUOUS
 10
-76.499999999998195
 20
14.65263912041595
 30
0.0
  0
VERTEX
  5
23B1
  8
SAPA_PROFIL
  6
CONTINUOUS
 10
-76.499999999999162
 20
9.6928427124751906
 30
0.0
 42
-0.1989123673797132
  0
VERTEX
  5
23B2
  8
SAPA_PROFIL
  6
CONTINUOUS
 10
-76.587867965643241
 20
9.4807106781192587
 30
0.0
  0
VERTEX
  5
23B3
  8
SAPA_PROFIL
  6
CONTINUOUS
 10
-76.987867965642707
 20
9.080710678119793
 30
0.0
 42
-0.6681786379192504
  0
VERTEX
  5
23B4
  8
SAPA_PROFIL
  6
CONTINUOUS
 10
-77.499999999998636
 20
9.2928427124757818
 30
0.0
  0
VERTEX
  5
23B5
  8
SAPA_PROFIL
  6
CONTINUOUS
 10
-77.499999999999162
 20
10.350000000001801
 30
0.0
 42
0.4142135623719851
  0
VERTEX
  5
23B6
  8
SAPA_PROFIL
  6
CONTINUOUS
 10
-77.79999999999815
 20
10.649999999999769
 30
0.0
  0
VERTEX
  5
23B7
  8
SAPA_PROFIL
  6
CONTINUOUS
 10
-78.318014882865171
 20
10.650000000000791
 30
0.0
 42
0.176326980708563
  0
VERTEX
  5
23B8
  8
SAPA_PROFIL
  6
CONTINUOUS
 10
-78.63940868770915
 20
10.53302222156079
 30
0.0
  0
VERTEX
  5
23B9
  8
SAPA_PROFIL
  6
CONTINUOUS
 10
-79.785575219371097
 20
9.5712743075746616
 30
0.0
 42
0.2216946626429643
  0
VERTEX
  5
23BA
  8
SAPA_PROFIL
  6
CONTINUOUS
 10
-80.499999999998195
 20
8.0391854213366614
 30
0.0
  0
VERTEX
  5
23BB
  8
SAPA_PROFIL
  6
CONTINUOUS
 10
-80.499999999998195
 20
5.3000000000007716
 30
0.0
 42
0.4142135623730951
  0
VERTEX
  5
23BC
  8
SAPA_PROFIL
  6
CONTINUOUS
 10
-80.199999999999164
 20
5.000000000000818
 30
0.0
  0
VERTEX
  5
23BD
  8
SAPA_PROFIL
  6
CONTINUOUS
 10
-77.799999999999173
 20
5.0000000000008171
 30
0.0
 42
0.414213562374094
  0
VERTEX
  5
23BE
  8
SAPA_PROFIL
  6
CONTINUOUS
 10
-77.499999999998195
 20
5.3000000000007708
 30
0.0
  0
VERTEX
  5
23BF
  8
SAPA_PROFIL
  6
CONTINUOUS
 10
-77.499999999998636
 20
5.6971572875259753
 30
0.0
 42
-0.6681786379192504
  0
VERTEX
  5
23C0
  8
SAPA_PROFIL
  6
CONTINUOUS
 10
-76.987867965642707
 20
5.9092893218819631
 30
0.0
  0
VERTEX
  5
23C1
  8
SAPA_PROFIL
  6
CONTINUOUS
 10
-76.587867965643241
 20
5.5092893218825552
 30
0.0
 42
-0.1989123673796784
  0
VERTEX
  5
23C2
  8
SAPA_PROFIL
  6
CONTINUOUS
 10
-76.499999999999162
 20
5.2971572875265656
 30
0.0
  0
VERTEX
  5
23C3
  8
SAPA_PROFIL
  6
CONTINUOUS
 10
-76.499999999999162
 20
-5.2971572875248754
 30
0.0
 42
-0.1989123673796928
  0
VERTEX
  5
23C4
  8
SAPA_PROFIL
  6
CONTINUOUS
 10
-76.587867965643241
 20
-5.5092893218808641
 30
0.0
  0
SEQEND
  5
23C5
  8
SAPA_PROFIL
  6
CONTINUOUS
  0
POLYLINE
  5
168C
  8
SAPA_PROFIL
 62
     4
 66
     1
 10
0.0
 20
0.0
 30
0.0
 70
     1
  0
VERTEX
  5
23C6
  8
SAPA_PROFIL
 62
     4
 10
-48.849999999999618
 20
-1.1499999999999471
 30
0.0
  0
VERTEX
  5
23C7
  8
SAPA_PROFIL
 62
     4
 10
-46.649999999999579
 20
-1.149999999999948
 30
0.0
 42
1.0
  0
VERTEX
  5
23C8
  8
SAPA_PROFIL
 62
     4
 10
-46.649999999999579
 20
1.1500000000000059
 30
0.0
  0
VERTEX
  5
23C9
  8
SAPA_PROFIL
 62
     4
 10
-48.849999999999618
 20
1.15000000000012
 30
0.0
 42
1.0
  0
SEQEND
  5
23CA
  8
SAPA_PROFIL
 62
     4
  0
POLYLINE
  5
168D
  8
SAPA_PROFIL
 62
     4
 66
     1
 10
0.0
 20
0.0
 30
0.0
 70
     1
  0
VERTEX
  5
23CB
  8
SAPA_PROFIL
 62
     4
 10
-63.999999999999602
 20
-3.9999999999999658
 30
0.0
  0
VERTEX
  5
23CC
  8
SAPA_PROFIL
 62
     4
 10
-67.050832149035841
 20
-3.9999999999999649
 30
0.0
  0
VERTEX
  5
23CD
  8
SAPA_PROFIL
 62
     4
 10
-70.378679656439942
 20
-3.999999999999964
 30
0.0
 42
-0.6681786379192966
  0
VERTEX
  5
23CE
  8
SAPA_PROFIL
 62
     4
 10
-70.732233047033162
 20
-3.1464466094067438
 30
0.0
  0
VERTEX
  5
23CF
  8
SAPA_PROFIL
 62
     4
 10
-68.585786439270066
 20
-1.000000011621772
 30
0.0
 42
0.1989123679837333
  0
VERTEX
  5
23D0
  8
SAPA_PROFIL
 62
     4
 10
-68.292893218813035
 20
-0.2928932287916627
 30
0.0
  0
VERTEX
  5
23D1
  8
SAPA_PROFIL
 62
     4
 10
-68.292893218813035
 20
0.2928932088352734
 30
0.0
 42
0.1989123667755704
  0
VERTEX
  5
23D2
  8
SAPA_PROFIL
 62
     4
 10
-68.585786435982925
 20
0.9999999883782418
 30
0.0
  0
VERTEX
  5
23D3
  8
SAPA_PROFIL
 62
     4
 10
-70.732233047033162
 20
3.1464466094068162
 30
0.0
 42
-0.6681786379192936
  0
VERTEX
  5
23D4
  8
SAPA_PROFIL
 62
     4
 10
-70.378679656439942
 20
4.0000000000000213
 30
0.0
  0
VERTEX
  5
23D5
  8
SAPA_PROFIL
 62
     4
 10
-67.050832149035841
 20
4.0000000000000204
 30
0.0
  0
VERTEX
  5
23D6
  8
SAPA_PROFIL
 62
     4
 10
-63.999999999999602
 20
4.0000000000000329
 30
0.0
 42
-0.4142135623730951
  0
VERTEX
  5
23D7
  8
SAPA_PROFIL
 62
     4
 10
-63.499999999999602
 20
3.5000000000000329
 30
0.0
  0
VERTEX
  5
23D8
  8
SAPA_PROFIL
 62
     4
 10
-63.499999999999602
 20
-3.4999999999999658
 30
0.0
 42
-0.4142135623730951
  0
SEQEND
  5
23D9
  8
SAPA_PROFIL
 62
     4
  0
POLYLINE
  5
168E
  8
SAPA_PROFIL
 62
     4
 66
     1
 10
0.0
 20
0.0
 30
0.0
 70
     1
  0
VERTEX
  5
23DA
  8
SAPA_PROFIL
 62
     4
 10
-53.45999999999961
 20
2.58578643762681
 30
0.0
  0
VERTEX
  5
23DB
  8
SAPA_PROFIL
 62
     4
 10
-52.06074462521957
 20
1.1465310628470049
 30
0.0
 42
-0.9251773977986363
  0
VERTEX
  5
23DC
  8
SAPA_PROFIL
 62
     4
 10
-52.06074462521957
 20
-1.1465310628468299
 30
0.0
  0
VERTEX
  5
23DD
  8
SAPA_PROFIL
 62
     4
 10
-53.45999999999961
 20
-2.5857864376267479
 30
0.0
  0
VERTEX
  5
23DE
  8
SAPA_PROFIL
 62
     4
 10
-53.45999999999961
 20
-3.499999999999968
 30
0.0
 42
-0.4142135623730769
  0
VERTEX
  5
23DF
  8
SAPA_PROFIL
 62
     4
 10
-53.95999999999961
 20
-3.999999999999968
 30
0.0
  0
VERTEX
  5
23E0
  8
SAPA_PROFIL
 62
     4
 10
-61.999999999999602
 20
-3.9999999999999658
 30
0.0
 42
-0.4142135623730951
  0
VERTEX
  5
23E1
  8
SAPA_PROFIL
 62
     4
 10
-62.499999999999602
 20
-3.4999999999999658
 30
0.0
  0
VERTEX
  5
23E2
  8
SAPA_PROFIL
 62
     4
 10
-62.499999999999602
 20
3.5000000000000329
 30
0.0
 42
-0.4142135623730951
  0
VERTEX
  5
23E3
  8
SAPA_PROFIL
 62
     4
 10
-61.999999999999602
 20
4.0000000000000329
 30
0.0
  0
VERTEX
  5
23E4
  8
SAPA_PROFIL
 62
     4
 10
-53.95999999999961
 20
4.0000000000000311
 30
0.0
 42
-0.4142135623730951
  0
VERTEX
  5
23E5
  8
SAPA_PROFIL
 62
     4
 10
-53.45999999999961
 20
3.5000000000000311
 30
0.0
  0
SEQEND
  5
23E6
  8
SAPA_PROFIL
 62
     4
  0
POLYLINE
  5
168F
  8
SAPA_PROFIL
 62
     4
 66
     1
 10
0.0
 20
0.0
 30
0.0
 70
     1
  0
VERTEX
  5
23E7
  8
SAPA_PROFIL
 62
     4
 10
-54.10999999999958
 20
-4.9999999999998552
 30
0.0
 42
-1.0
  0
VERTEX
  5
23E8
  8
SAPA_PROFIL
 62
     4
 10
-54.10999999999958
 20
-6.2999999999999234
 30
0.0
  0
VERTEX
  5
23E9
  8
SAPA_PROFIL
 62
     4
 10
-54.95999999999961
 20
-6.2999999999999234
 30
0.0
  0
VERTEX
  5
23EA
  8
SAPA_PROFIL
 62
     4
 10
-54.95999999999961
 20
-6.2499999999998552
 30
0.0
 42
1.0
  0
VERTEX
  5
23EB
  8
SAPA_PROFIL
 62
     4
 10
-55.45999999999961
 20
-6.2499999999998552
 30
0.0
  0
VERTEX
  5
23EC
  8
SAPA_PROFIL
 62
     4
 10
-55.45999999999961
 20
-6.6999999999998998
 30
0.0
 42
0.4142135623730951
  0
VERTEX
  5
23ED
  8
SAPA_PROFIL
 62
     4
 10
-55.159999999999542
 20
-6.9999999999998552
 30
0.0
  0
VERTEX
  5
23EE
  8
SAPA_PROFIL
 62
     4
 10
-53.45999999999961
 20
-6.9999999999998552
 30
0.0
 42
0.4225789089359373
  0
VERTEX
  5
23EF
  8
SAPA_PROFIL
 62
     4
 10
-52.499999999999488
 20
-5.9999999999998552
 30
0.0
  0
VERTEX
  5
23F0
  8
SAPA_PROFIL
 62
     4
 10
-52.499999999999488
 20
-2.9999999999998548
 30
0.0
  0
VERTEX
  5
23F1
  8
SAPA_PROFIL
 62
     4
 10
-51.649999999999579
 20
-2.1499999999999462
 30
0.0
  0
VERTEX
  5
23F2
  8
SAPA_PROFIL
 62
     4
 10
-45.499999999999602
 20
-2.149999999999948
 30
0.0
 42
0.4142135623730951
  0
VERTEX
  5
23F3
  8
SAPA_PROFIL
 62
     4
 10
-44.499999999999602
 20
-1.149999999999948
 30
0.0
  0
VERTEX
  5
23F4
  8
SAPA_PROFIL
 62
     4
 10
-44.499999999999602
 20
1.150000000000005
 30
0.0
 42
0.4142135623730951
  0
VERTEX
  5
23F5
  8
SAPA_PROFIL
 62
     4
 10
-45.499999999999602
 20
2.1500000000000061
 30
0.0
  0
VERTEX
  5
23F6
  8
SAPA_PROFIL
 62
     4
 10
-51.649999999999459
 20
2.150000000000007
 30
0.0
  0
VERTEX
  5
23F7
  8
SAPA_PROFIL
 62
     4
 10
-52.499999999999488
 20
3.0000000000000302
 30
0.0
  0
VERTEX
  5
23F8
  8
SAPA_PROFIL
 62
     4
 10
-52.499999999999488
 20
6.0000000000000311
 30
0.0
 42
0.4225789089359373
  0
VERTEX
  5
23F9
  8
SAPA_PROFIL
 62
     4
 10
-53.45999999999961
 20
7.0000000000000453
 30
0.0
  0
VERTEX
  5
23FA
  8
SAPA_PROFIL
 62
     4
 10
-55.159999999999542
 20
7.0000000000000453
 30
0.0
 42
0.4142135623730951
  0
VERTEX
  5
23FB
  8
SAPA_PROFIL
 62
     4
 10
-55.45999999999961
 20
6.699999999999962
 30
0.0
  0
VERTEX
  5
23FC
  8
SAPA_PROFIL
 62
     4
 10
-55.45999999999961
 20
6.2500000000000311
 30
0.0
 42
1.0
  0
VERTEX
  5
23FD
  8
SAPA_PROFIL
 62
     4
 10
-54.95999999999961
 20
6.2500000000000311
 30
0.0
  0
VERTEX
  5
23FE
  8
SAPA_PROFIL
 62
     4
 10
-54.95999999999961
 20
6.3000000000000993
 30
0.0
  0
VERTEX
  5
23FF
  8
SAPA_PROFIL
 62
     4
 10
-54.10999999999958
 20
6.3000000000000993
 30
0.0
 42
-1.0
  0
VERTEX
  5
2400
  8
SAPA_PROFIL
 62
     4
 10
-54.10999999999958
 20
5.0000000000000311
 30
0.0
  0
VERTEX
  5
2401
  8
SAPA_PROFIL
 62
     4
 10
-67.050832149035841
 20
5.0000000000000204
 30
0.0
  0
VERTEX
  5
2402
  8
SAPA_PROFIL
 62
     4
 10
-72.499999999999602
 20
5.0000000000000222
 30
0.0
  0
VERTEX
  5
2403
  8
SAPA_PROFIL
 62
     4
 10
-72.499999999999602
 20
3.500000000000036
 30
0.0
  0
VERTEX
  5
2404
  8
SAPA_PROFIL
 62
     4
 10
-69.353553390592822
 20
0.3535533905932553
 30
0.0
 42
-0.4142135623730951
  0
VERTEX
  5
2405
  8
SAPA_PROFIL
 62
     4
 10
-69.353553390592822
 20
-0.3535533905931843
 30
0.0
  0
VERTEX
  5
2406
  8
SAPA_PROFIL
 62
     4
 10
-72.499999999999602
 20
-3.4999999999999631
 30
0.0
  0
VERTEX
  5
2407
  8
SAPA_PROFIL
 62
     4
 10
-72.499999999999602
 20
-4.999999999999992
 30
0.0
  0
VERTEX
  5
2408
  8
SAPA_PROFIL
 62
     4
 10
-67.050832149035841
 20
-4.9999999999999512
 30
0.0
  0
VERTEX
  5
2409
  8
SAPA_PROFIL
 62
     4
 10
-54.40999999999957
 20
-4.9999999999998552
 30
0.0
  0
SEQEND
  5
240A
  8
SAPA_PROFIL
 62
     4
  0
POLYLINE
  5
1690
  8
SAPA_PROFIL
 66
     1
 10
0.0
 20
0.0
 30
0.0
 70
   128
  0
VERTEX
  5
240B
  8
SAPA_PROFIL
 10
-23.034074173710451
 20
22.441180954898179
 30
0.0
 42
-0.8769764629927568
  0
VERTEX
  5
240C
  8
SAPA_PROFIL
 10
-24.99999999999952
 20
22.700000000000731
 30
0.0
 42
0.8769764629927568
  0
VERTEX
  5
240D
  8
SAPA_PROFIL
 10
-23.034074173710511
 20
22.441180954898751
 30
0.0
  0
VERTEX
  5
240E
  8
SAPA_PROFIL
 10
-22.408020328491261
 20
24.777645713531459
 30
0.0
 42
-0.3394542588633806
  0
VERTEX
  5
240F
  8
SAPA_PROFIL
 10
-22.118242580604541
 20
25.000000000000679
 30
0.0
  0
VERTEX
  5
2410
  8
SAPA_PROFIL
 10
62.000000000000512
 20
24.999999999999659
 30
0.0
 42
-0.4142135623730951
  0
VERTEX
  5
2411
  8
SAPA_PROFIL
 10
62.500000000000512
 20
24.499999999999659
 30
0.0
  0
VERTEX
  5
2412
  8
SAPA_PROFIL
 10
62.500000000000462
 20
-24.499999999999321
 30
0.0
 42
-0.4142135623730951
  0
VERTEX
  5
2413
  8
SAPA_PROFIL
 10
62.000000000000448
 20
-24.999999999999321
 30
0.0
  0
VERTEX
  5
2414
  8
SAPA_PROFIL
 10
-22.118242580604541
 20
-25.000000000000231
 30
0.0
 42
-0.3394542588633758
  0
VERTEX
  5
2415
  8
SAPA_PROFIL
 10
-22.408020328490519
 20
-24.777645713531228
 30
0.0
  0
VERTEX
  5
2416
  8
SAPA_PROFIL
 10
-23.034074173710451
 20
-22.441180954897732
 30
0.0
 42
0.8769764629927491
  0
VERTEX
  5
2417
  8
SAPA_PROFIL
 10
-24.99999999999952
 20
-22.700000000000269
 30
0.0
  0
VERTEX
  5
2418
  8
SAPA_PROFIL
 10
-24.99999999999952
 20
-22.712613464860279
 30
0.0
 42
-0.4040262258351518
  0
VERTEX
  5
2419
  8
SAPA_PROFIL
 10
-26.93020100659453
 20
-24.711395118898281
 30
0.0
  0
VERTEX
  5
241A
  8
SAPA_PROFIL
 10
-35.189530150987771
 20
-24.999817248106979
 30
0.0
 42
-0.4244748162096047
  0
VERTEX
  5
241B
  8
SAPA_PROFIL
 10
-35.499999999998522
 20
-24.7000000000013
 30
0.0
  0
VERTEX
  5
241C
  8
SAPA_PROFIL
 10
-35.499999999999517
 20
-22.400000000001342
 30
0.0
  0
VERTEX
  5
241D
  8
SAPA_PROFIL
 10
-35.03507658043327
 20
-21.813615984240531
 30
0.0
 42
-0.7105995015650719
  0
VERTEX
  5
241E
  8
SAPA_PROFIL
 10
-34.499999999998522
 20
-22.000000000001251
 30
0.0
  0
VERTEX
  5
241F
  8
SAPA_PROFIL
 10
-34.499999999999552
 20
-22.900000000000318
 30
0.0
 42
0.4142135623731258
  0
VERTEX
  5
2420
  8
SAPA_PROFIL
 10
-34.199999999999541
 20
-23.200000000000269
 30
0.0
  0
VERTEX
  5
2421
  8
SAPA_PROFIL
 10
-31.799999999999532
 20
-23.200000000000269
 30
0.0
 42
0.4142135623731258
  0
VERTEX
  5
2422
  8
SAPA_PROFIL
 10
-31.49999999999952
 20
-22.900000000000318
 30
0.0
  0
VERTEX
  5
2423
  8
SAPA_PROFIL
 10
-31.49999999999952
 20
-18.000000000001251
 30
0.0
 42
0.4142135623730951
  0
VERTEX
  5
2424
  8
SAPA_PROFIL
 10
-31.799999999999532
 20
-17.700000000001289
 30
0.0
  0
VERTEX
  5
2425
  8
SAPA_PROFIL
 10
-34.199999999999541
 20
-17.700000000001289
 30
0.0
 42
0.4142135623731206
  0
VERTEX
  5
2426
  8
SAPA_PROFIL
 10
-34.499999999999517
 20
-18.000000000001251
 30
0.0
  0
VERTEX
  5
2427
  8
SAPA_PROFIL
 10
-34.499999999999517
 20
-18.400000000000318
 30
0.0
 42
-0.7105995015649539
  0
VERTEX
  5
2428
  8
SAPA_PROFIL
 10
-35.035076580433532
 20
-18.586384015761269
 30
0.0
  0
VERTEX
  5
2429
  8
SAPA_PROFIL
 10
-35.499999999999517
 20
-18.000000000001251
 30
0.0
  0
VERTEX
  5
242A
  8
SAPA_PROFIL
 10
-35.499999999999538
 20
-16.300000000001319
 30
0.0
 42
-0.4142135623730951
  0
VERTEX
  5
242B
  8
SAPA_PROFIL
 10
-35.199999999999527
 20
-16.000000000001251
 30
0.0
  0
VERTEX
  5
242C
  8
SAPA_PROFIL
 10
-34.647213595498528
 20
-16.000000000001251
 30
0.0
 42
-0.2134217652833428
  0
VERTEX
  5
242D
  8
SAPA_PROFIL
 10
-34.423606797749471
 20
-16.10000000000036
 30
0.0
 42
0.2134217652833501
  0
VERTEX
  5
242E
  8
SAPA_PROFIL
 10
-34.199999999999541
 20
-16.200000000000269
 30
0.0
  0
VERTEX
  5
242F
  8
SAPA_PROFIL
 10
-30.299999999999532
 20
-16.200000000001289
 30
0.0
 42
-0.4142135623731088
  0
VERTEX
  5
2430
  8
SAPA_PROFIL
 10
-29.99999999999952
 20
-16.500000000001251
 30
0.0
  0
VERTEX
  5
2431
  8
SAPA_PROFIL
 10
-29.99999999999952
 20
-22.299610616440312
 30
0.0
 42
0.4244748162096096
  0
VERTEX
  5
2432
  8
SAPA_PROFIL
 10
-29.482550251647531
 20
-22.79930602995023
 30
0.0
  0
VERTEX
  5
2433
  8
SAPA_PROFIL
 10
-27.48255025164827
 20
-22.729464490966851
 30
0.0
 42
0.4040262258351467
  0
VERTEX
  5
2434
  8
SAPA_PROFIL
 10
-26.99999999999952
 20
-22.229769077457259
 30
0.0
  0
VERTEX
  5
2435
  8
SAPA_PROFIL
 10
-26.99999999999952
 20
-2.1499999999992951
 30
0.0
 42
0.4142135623730951
  0
VERTEX
  5
2436
  8
SAPA_PROFIL
 10
-27.99999999999952
 20
-1.1499999999992949
 30
0.0
  0
VERTEX
  5
2437
  8
SAPA_PROFIL
 10
-31.49999999999952
 20
-1.1499999999992949
 30
0.0
 42
0.4142135623730992
  0
VERTEX
  5
2438
  8
SAPA_PROFIL
 10
-32.499999999999517
 20
-2.1500000000003179
 30
0.0
  0
VERTEX
  5
2439
  8
SAPA_PROFIL
 10
-32.499999999999517
 20
-4.0000000000003411
 30
0.0
 42
-0.4142135623730951
  0
VERTEX
  5
243A
  8
SAPA_PROFIL
 10
-33.499999999999517
 20
-5.0000000000003411
 30
0.0
  0
VERTEX
  5
243B
  8
SAPA_PROFIL
 10
-52.199999999999527
 20
-5.0000000000003411
 30
0.0
 42
-0.4142135623730967
  0
VERTEX
  5
243C
  8
SAPA_PROFIL
 10
-52.499999999999538
 20
-4.700000000000272
 30
0.0
  0
VERTEX
  5
243D
  8
SAPA_PROFIL
 10
-52.499999999999538
 20
-3.0757359312882491
 30
0.0
  0
VERTEX
  5
243E
  8
SAPA_PROFIL
 10
-51.5621320343555
 20
-2.1378679656443178
 30
0.0
 42
-0.6681786379193148
  0
VERTEX
  5
243F
  8
SAPA_PROFIL
 10
-51.049999999999528
 20
-2.3500000000002501
 30
0.0
  0
VERTEX
  5
2440
  8
SAPA_PROFIL
 10
-51.049999999999528
 20
-2.700000000000272
 30
0.0
  0
VERTEX
  5
2441
  8
SAPA_PROFIL
 10
-49.673765404325017
 20
-2.0767196957481242
 30
0.0
 42
-0.5450207774093593
  0
VERTEX
  5
2442
  8
SAPA_PROFIL
 10
-49.249999999999538
 20
-2.3500000000002501
 30
0.0
  0
VERTEX
  5
2443
  8
SAPA_PROFIL
 10
-49.249999999999538
 20
-2.700000000000272
 30
0.0
  0
VERTEX
  5
2444
  8
SAPA_PROFIL
 10
-47.873765404324963
 20
-2.0767196957481242
 30
0.0
 42
-0.5450207774092377
  0
VERTEX
  5
2445
  8
SAPA_PROFIL
 10
-47.449999999999527
 20
-2.3500000000002501
 30
0.0
  0
VERTEX
  5
2446
  8
SAPA_PROFIL
 10
-47.449999999999527
 20
-2.700000000000272
 30
0.0
  0
VERTEX
  5
2447
  8
SAPA_PROFIL
 10
-46.073765404324917
 20
-2.0767196957481242
 30
0.0
 42
-0.5450207774091275
  0
VERTEX
  5
2448
  8
SAPA_PROFIL
 10
-45.649999999999523
 20
-2.3500000000002501
 30
0.0
  0
VERTEX
  5
2449
  8
SAPA_PROFIL
 10
-45.649999999999523
 20
-2.700000000000272
 30
0.0
  0
VERTEX
  5
244A
  8
SAPA_PROFIL
 10
-44.273765404324898
 20
-2.0767196957481242
 30
0.0
 42
-0.545020777409056
  0
VERTEX
  5
244B
  8
SAPA_PROFIL
 10
-43.849999999999497
 20
-2.3500000000002501
 30
0.0
  0
VERTEX
  5
244C
  8
SAPA_PROFIL
 10
-43.849999999999497
 20
-2.700000000000272
 30
0.0
  0
VERTEX
  5
244D
  8
SAPA_PROFIL
 10
-42.473765404324951
 20
-2.0767196957481242
 30
0.0
 42
-0.5450207774091171
  0
VERTEX
  5
244E
  8
SAPA_PROFIL
 10
-42.049999999999521
 20
-2.3500000000002501
 30
0.0
  0
VERTEX
  5
244F
  8
SAPA_PROFIL
 10
-42.049999999999521
 20
-2.700000000000272
 30
0.0
  0
VERTEX
  5
2450
  8
SAPA_PROFIL
 10
-40.673765404325017
 20
-2.0767196957481242
 30
0.0
 42
-0.5450207774094031
  0
VERTEX
  5
2451
  8
SAPA_PROFIL
 10
-40.24999999999951
 20
-2.3500000000002501
 30
0.0
  0
VERTEX
  5
2452
  8
SAPA_PROFIL
 10
-40.24999999999951
 20
-2.700000000000272
 30
0.0
  0
VERTEX
  5
2453
  8
SAPA_PROFIL
 10
-38.873765404324899
 20
-2.0767196957481242
 30
0.0
 42
-0.5450207774091194
  0
VERTEX
  5
2454
  8
SAPA_PROFIL
 10
-38.449999999999541
 20
-2.3500000000002501
 30
0.0
  0
VERTEX
  5
2455
  8
SAPA_PROFIL
 10
-38.449999999999541
 20
-2.700000000000272
 30
0.0
  0
VERTEX
  5
2456
  8
SAPA_PROFIL
 10
-37.073765404324888
 20
-2.0767196957481242
 30
0.0
 42
-0.5450207774090981
  0
VERTEX
  5
2457
  8
SAPA_PROFIL
 10
-36.649999999999523
 20
-2.3500000000002501
 30
0.0
  0
VERTEX
  5
2458
  8
SAPA_PROFIL
 10
-36.649999999999523
 20
-2.700000000000272
 30
0.0
  0
VERTEX
  5
2459
  8
SAPA_PROFIL
 10
-35.499999999999517
 20
-2.700000000000272
 30
0.0
 42
0.4142135623730951
  0
VERTEX
  5
245A
  8
SAPA_PROFIL
 10
-34.499999999999517
 20
-1.700000000000272
 30
0.0
  0
VERTEX
  5
245B
  8
SAPA_PROFIL
 10
-34.499999999999517
 20
1.7000000000007269
 30
0.0
 42
0.4142135623730951
  0
VERTEX
  5
245C
  8
SAPA_PROFIL
 10
-35.499999999999517
 20
2.7000000000007272
 30
0.0
  0
VERTEX
  5
245D
  8
SAPA_PROFIL
 10
-35.749999999999517
 20
2.7000000000007272
 30
0.0
  0
VERTEX
  5
245E
  8
SAPA_PROFIL
 10
-35.749999999999517
 20
2.350000000000477
 30
0.0
 42
-0.5450207774088494
  0
VERTEX
  5
245F
  8
SAPA_PROFIL
 10
-36.173765404324513
 20
2.076719695747669
 30
0.0
  0
VERTEX
  5
2460
  8
SAPA_PROFIL
 10
-37.549999999999528
 20
2.7000000000007272
 30
0.0
  0
VERTEX
  5
2461
  8
SAPA_PROFIL
 10
-37.549999999999528
 20
2.350000000000477
 30
0.0
 42
-0.5450207774088274
  0
VERTEX
  5
2462
  8
SAPA_PROFIL
 10
-37.973765404324517
 20
2.076719695747669
 30
0.0
  0
VERTEX
  5
2463
  8
SAPA_PROFIL
 10
-39.349999999999511
 20
2.7000000000007272
 30
0.0
  0
VERTEX
  5
2464
  8
SAPA_PROFIL
 10
-39.349999999999511
 20
2.350000000000704
 30
0.0
 42
-0.5450207774090874
  0
VERTEX
  5
2465
  8
SAPA_PROFIL
 10
-39.773765404324543
 20
2.076719695747669
 30
0.0
  0
VERTEX
  5
2466
  8
SAPA_PROFIL
 10
-41.149999999999523
 20
2.7000000000007272
 30
0.0
  0
VERTEX
  5
2467
  8
SAPA_PROFIL
 10
-41.149999999999523
 20
2.350000000000477
 30
0.0
 42
-0.5450207774087519
  0
VERTEX
  5
2468
  8
SAPA_PROFIL
 10
-41.573765404324512
 20
2.076719695747669
 30
0.0
  0
VERTEX
  5
2469
  8
SAPA_PROFIL
 10
-42.949999999999527
 20
2.7000000000007272
 30
0.0
  0
VERTEX
  5
246A
  8
SAPA_PROFIL
 10
-42.949999999999527
 20
2.350000000000477
 30
0.0
 42
-0.5450207774088199
  0
VERTEX
  5
246B
  8
SAPA_PROFIL
 10
-43.37376540432453
 20
2.076719695747669
 30
0.0
  0
VERTEX
  5
246C
  8
SAPA_PROFIL
 10
-44.749999999999538
 20
2.7000000000007272
 30
0.0
  0
VERTEX
  5
246D
  8
SAPA_PROFIL
 10
-44.74999999999951
 20
2.350000000000477
 30
0.0
 42
-0.5450207774088308
  0
VERTEX
  5
246E
  8
SAPA_PROFIL
 10
-45.173765404324513
 20
2.076719695747669
 30
0.0
  0
VERTEX
  5
246F
  8
SAPA_PROFIL
 10
-46.549999999999528
 20
2.7000000000007272
 30
0.0
  0
VERTEX
  5
2470
  8
SAPA_PROFIL
 10
-46.549999999999528
 20
2.3500000000008181
 30
0.0
 42
-0.5450207774091407
  0
VERTEX
  5
2471
  8
SAPA_PROFIL
 10
-46.973765404324517
 20
2.076719695747669
 30
0.0
  0
VERTEX
  5
2472
  8
SAPA_PROFIL
 10
-48.349999999999511
 20
2.7000000000007272
 30
0.0
  0
VERTEX
  5
2473
  8
SAPA_PROFIL
 10
-48.349999999999511
 20
2.350000000000477
 30
0.0
 42
-0.5450207774088061
  0
VERTEX
  5
2474
  8
SAPA_PROFIL
 10
-48.773765404324543
 20
2.076719695747669
 30
0.0
  0
VERTEX
  5
2475
  8
SAPA_PROFIL
 10
-50.149999999999523
 20
2.7000000000007272
 30
0.0
  0
VERTEX
  5
2476
  8
SAPA_PROFIL
 10
-50.149999999999523
 20
2.0500000000007499
 30
0.0
  0
VERTEX
  5
2477
  8
SAPA_PROFIL
 10
-51.34999999999917
 20
2.0499999999997272
 30
0.0
 42
-0.1989123673804354
  0
VERTEX
  5
2478
  8
SAPA_PROFIL
 10
-51.562132034355528
 20
2.1378679656446589
 30
0.0
  0
VERTEX
  5
2479
  8
SAPA_PROFIL
 10
-52.499999999999538
 20
3.0757359312887038
 30
0.0
  0
VERTEX
  5
247A
  8
SAPA_PROFIL
 10
-52.499999999999538
 20
4.6999999999997044
 30
0.0
 42
-0.4142135623731001
  0
VERTEX
  5
247B
  8
SAPA_PROFIL
 10
-52.199999999999527
 20
4.9999999999996581
 30
0.0
  0
VERTEX
  5
247C
  8
SAPA_PROFIL
 10
-33.499999999999517
 20
4.9999999999996581
 30
0.0
 42
-0.4142135623730909
  0
VERTEX
  5
247D
  8
SAPA_PROFIL
 10
-32.499999999999517
 20
3.9999999999996581
 30
0.0
  0
VERTEX
  5
247E
  8
SAPA_PROFIL
 10
-32.499999999999517
 20
2.1500000000006589
 30
0.0
 42
0.4142135623730951
  0
VERTEX
  5
247F
  8
SAPA_PROFIL
 10
-31.49999999999952
 20
1.1500000000006589
 30
0.0
  0
VERTEX
  5
2480
  8
SAPA_PROFIL
 10
-27.99999999999952
 20
1.1500000000006589
 30
0.0
 42
0.4142135623730951
  0
VERTEX
  5
2481
  8
SAPA_PROFIL
 10
-26.99999999999952
 20
2.1500000000006589
 30
0.0
  0
VERTEX
  5
2482
  8
SAPA_PROFIL
 10
-26.99999999999952
 20
22.229769077457721
 30
0.0
 42
0.4040262258351549
  0
VERTEX
  5
2483
  8
SAPA_PROFIL
 10
-27.48255025164827
 20
22.729464490967299
 30
0.0
  0
VERTEX
  5
2484
  8
SAPA_PROFIL
 10
-29.482550251647531
 20
22.799306029950689
 30
0.0
 42
0.4244748162096052
  0
VERTEX
  5
2485
  8
SAPA_PROFIL
 10
-29.99999999999952
 20
22.299610616440759
 30
0.0
  0
VERTEX
  5
2486
  8
SAPA_PROFIL
 10
-29.99999999999952
 20
16.500000000001702
 30
0.0
 42
-0.414213562373102
  0
VERTEX
  5
2487
  8
SAPA_PROFIL
 10
-30.299999999999532
 20
16.200000000001751
 30
0.0
  0
VERTEX
  5
2488
  8
SAPA_PROFIL
 10
-34.199999999999541
 20
16.200000000000731
 30
0.0
 42
0.2134217652833544
  0
VERTEX
  5
2489
  8
SAPA_PROFIL
 10
-34.423606797749471
 20
16.100000000000701
 30
0.0
 42
-0.2134217652833613
  0
VERTEX
  5
248A
  8
SAPA_PROFIL
 10
-34.647213595498528
 20
16.000000000001702
 30
0.0
  0
VERTEX
  5
248B
  8
SAPA_PROFIL
 10
-35.199999999999527
 20
16.000000000001702
 30
0.0
 42
-0.4142135623731089
  0
VERTEX
  5
248C
  8
SAPA_PROFIL
 10
-35.499999999999517
 20
16.30000000000177
 30
0.0
  0
VERTEX
  5
248D
  8
SAPA_PROFIL
 10
-35.499999999999517
 20
18.000000000001702
 30
0.0
  0
VERTEX
  5
248E
  8
SAPA_PROFIL
 10
-35.035076580433532
 20
18.58638401576172
 30
0.0
 42
-0.7105995015649391
  0
VERTEX
  5
248F
  8
SAPA_PROFIL
 10
-34.499999999999517
 20
18.40000000000077
 30
0.0
  0
VERTEX
  5
2490
  8
SAPA_PROFIL
 10
-34.499999999999517
 20
18.000000000001702
 30
0.0
 42
0.4142135623731367
  0
VERTEX
  5
2491
  8
SAPA_PROFIL
 10
-34.199999999999541
 20
17.700000000001751
 30
0.0
  0
VERTEX
  5
2492
  8
SAPA_PROFIL
 10
-31.799999999999532
 20
17.700000000001751
 30
0.0
 42
0.4142135623730916
  0
VERTEX
  5
2493
  8
SAPA_PROFIL
 10
-31.49999999999952
 20
18.000000000001702
 30
0.0
  0
VERTEX
  5
2494
  8
SAPA_PROFIL
 10
-31.49999999999952
 20
22.900000000000659
 30
0.0
 42
0.4142135623730984
  0
VERTEX
  5
2495
  8
SAPA_PROFIL
 10
-31.799999999999532
 20
23.200000000000731
 30
0.0
  0
VERTEX
  5
2496
  8
SAPA_PROFIL
 10
-34.199999999999541
 20
23.200000000001751
 30
0.0
 42
0.4142135623731159
  0
VERTEX
  5
2497
  8
SAPA_PROFIL
 10
-34.499999999999517
 20
22.900000000001679
 30
0.0
  0
VERTEX
  5
2498
  8
SAPA_PROFIL
 10
-34.499999999998522
 20
22.000000000001709
 30
0.0
 42
-0.710599501565102
  0
VERTEX
  5
2499
  8
SAPA_PROFIL
 10
-35.03507658043327
 20
21.813615984240979
 30
0.0
  0
VERTEX
  5
249A
  8
SAPA_PROFIL
 10
-35.499999999999517
 20
22.400000000001679
 30
0.0
  0
VERTEX
  5
249B
  8
SAPA_PROFIL
 10
-35.499999999998522
 20
24.700000000001751
 30
0.0
 42
-0.424474816209507
  0
VERTEX
  5
249C
  8
SAPA_PROFIL
 10
-35.189530150987878
 20
24.99981724810743
 30
0.0
  0
VERTEX
  5
249D
  8
SAPA_PROFIL
 10
-26.93020100659453
 20
24.711395118898739
 30
0.0
 42
-0.4040262258351565
  0
VERTEX
  5
249E
  8
SAPA_PROFIL
 10
-24.99999999999952
 20
22.712613464860741
 30
0.0
  0
VERTEX
  5
249F
  8
SAPA_PROFIL
 10
-24.99999999999952
 20
22.700000000000731
 30
0.0
  0
VERTEX
  5
24A0
  8
SAPA_PROFIL
 10
-24.99999999999952
 20
22.712613464860741
 30
0.0
  0
SEQEND
  5
24A1
  8
SAPA_PROFIL
  0
POLYLINE
  5
1691
  8
SAPA_PROFIL
 66
     1
 10
0.0
 20
0.0
 30
0.0
 70
   129
  0
VERTEX
  5
24A2
  8
SAPA_PROFIL
 10
59.2000000000005
 20
22.699999999999712
 30
0.0
 42
-0.4142135623730951
  0
VERTEX
  5
24A3
  8
SAPA_PROFIL
 10
60.2000000000005
 20
21.699999999999712
 30
0.0
  0
VERTEX
  5
24A4
  8
SAPA_PROFIL
 10
60.200000000000443
 20
-21.69999999999936
 30
0.0
 42
-0.4142135623730898
  0
VERTEX
  5
24A5
  8
SAPA_PROFIL
 10
59.200000000000443
 20
-22.69999999999925
 30
0.0
  0
VERTEX
  5
24A6
  8
SAPA_PROFIL
 10
50.000000000000462
 20
-22.69999999999925
 30
0.0
 42
-0.4142135623731053
  0
VERTEX
  5
24A7
  8
SAPA_PROFIL
 10
49.000000000000448
 20
-21.69999999999925
 30
0.0
  0
VERTEX
  5
24A8
  8
SAPA_PROFIL
 10
49.000000000000448
 20
-17.799999999999269
 30
0.0
 42
0.4142135623730951
  0
VERTEX
  5
24A9
  8
SAPA_PROFIL
 10
48.500000000000483
 20
-17.299999999999269
 30
0.0
  0
VERTEX
  5
24AA
  8
SAPA_PROFIL
 10
46.400000000000453
 20
-17.299999999999269
 30
0.0
 42
0.4142135623730951
  0
VERTEX
  5
24AB
  8
SAPA_PROFIL
 10
46.100000000000477
 20
-17.599999999999341
 30
0.0
  0
VERTEX
  5
24AC
  8
SAPA_PROFIL
 10
46.100000000000477
 20
-18.099999999999341
 30
0.0
 42
0.4142135623729981
  0
VERTEX
  5
24AD
  8
SAPA_PROFIL
 10
46.400000000000453
 20
-18.399999999999292
 30
0.0
  0
VERTEX
  5
24AE
  8
SAPA_PROFIL
 10
46.736626924635203
 20
-18.399999999999629
 30
0.0
 42
-0.5643553431125428
  0
VERTEX
  5
24AF
  8
SAPA_PROFIL
 10
44.87439504323347
 20
-22.72439504323529
 30
0.0
  0
VERTEX
  5
24B0
  8
SAPA_PROFIL
 10
44.500000000000483
 20
-22.3500000000023
 30
0.0
  0
VERTEX
  5
24B1
  8
SAPA_PROFIL
 10
44.125604956763048
 20
-22.724395043233471
 30
0.0
 42
-0.5643553431119904
  0
VERTEX
  5
24B2
  8
SAPA_PROFIL
 10
42.263373075366466
 20
-18.399999999999292
 30
0.0
  0
VERTEX
  5
24B3
  8
SAPA_PROFIL
 10
42.60000000000047
 20
-18.399999999999292
 30
0.0
 42
0.4142135623730951
  0
VERTEX
  5
24B4
  8
SAPA_PROFIL
 10
42.90000000000046
 20
-18.099999999999341
 30
0.0
  0
VERTEX
  5
24B5
  8
SAPA_PROFIL
 10
42.90000000000046
 20
-17.599999999999341
 30
0.0
 42
0.4142135623730951
  0
VERTEX
  5
24B6
  8
SAPA_PROFIL
 10
42.60000000000047
 20
-17.299999999999269
 30
0.0
  0
VERTEX
  5
24B7
  8
SAPA_PROFIL
 10
40.500000000000483
 20
-17.299999999999269
 30
0.0
 42
0.4142135623730951
  0
VERTEX
  5
24B8
  8
SAPA_PROFIL
 10
40.000000000000483
 20
-17.799999999999269
 30
0.0
  0
VERTEX
  5
24B9
  8
SAPA_PROFIL
 10
40.000000000000483
 20
-21.69999999999925
 30
0.0
 42
-0.4142135623730951
  0
VERTEX
  5
24BA
  8
SAPA_PROFIL
 10
39.000000000000483
 20
-22.69999999999925
 30
0.0
  0
VERTEX
  5
24BB
  8
SAPA_PROFIL
 10
9.9999999999994316
 20
-22.69999999999925
 30
0.0
 42
-0.4142135623730951
  0
VERTEX
  5
24BC
  8
SAPA_PROFIL
 10
8.9999999999994884
 20
-21.69999999999925
 30
0.0
  0
VERTEX
  5
24BD
  8
SAPA_PROFIL
 10
8.9999999999994884
 20
-17.799999999999269
 30
0.0
 42
0.4142135623730951
  0
VERTEX
  5
24BE
  8
SAPA_PROFIL
 10
8.4999999999994884
 20
-17.299999999999269
 30
0.0
  0
VERTEX
  5
24BF
  8
SAPA_PROFIL
 10
6.3999999999994648
 20
-17.299999999999269
 30
0.0
 42
0.4142135623730951
  0
VERTEX
  5
24C0
  8
SAPA_PROFIL
 10
6.0999999999994818
 20
-17.599999999999341
 30
0.0
  0
VERTEX
  5
24C1
  8
SAPA_PROFIL
 10
6.0999999999994818
 20
-18.099999999999341
 30
0.0
 42
0.4142135623730389
  0
VERTEX
  5
24C2
  8
SAPA_PROFIL
 10
6.3999999999994648
 20
-18.399999999999292
 30
0.0
  0
VERTEX
  5
24C3
  8
SAPA_PROFIL
 10
6.736626924635174
 20
-18.399999999999629
 30
0.0
 42
-0.5643553431125485
  0
VERTEX
  5
24C4
  8
SAPA_PROFIL
 10
4.8743950432324823
 20
-22.72439504323529
 30
0.0
  0
VERTEX
  5
24C5
  8
SAPA_PROFIL
 10
4.4999999999994884
 20
-22.3500000000023
 30
0.0
  0
VERTEX
  5
24C6
  8
SAPA_PROFIL
 10
4.1256049567630271
 20
-22.724395043233471
 30
0.0
 42
-0.5643553431119904
  0
VERTEX
  5
24C7
  8
SAPA_PROFIL
 10
2.2633730753664731
 20
-18.399999999999292
 30
0.0
  0
VERTEX
  5
24C8
  8
SAPA_PROFIL
 10
2.600000000000505
 20
-18.399999999999292
 30
0.0
 42
0.4142135623730592
  0
VERTEX
  5
24C9
  8
SAPA_PROFIL
 10
2.90000000000046
 20
-18.099999999999341
 30
0.0
  0
VERTEX
  5
24CA
  8
SAPA_PROFIL
 10
2.90000000000046
 20
-17.599999999999341
 30
0.0
 42
0.4142135623730951
  0
VERTEX
  5
24CB
  8
SAPA_PROFIL
 10
2.600000000000477
 20
-17.299999999999269
 30
0.0
  0
VERTEX
  5
24CC
  8
SAPA_PROFIL
 10
0.4999999999994884
 20
-17.299999999999269
 30
0.0
 42
0.4142135623730951
  0
VERTEX
  5
24CD
  8
SAPA_PROFIL
 10
-0.0000000000005116
 20
-17.799999999999269
 30
0.0
  0
VERTEX
  5
24CE
  8
SAPA_PROFIL
 10
-0.0000000000005116
 20
-21.69999999999925
 30
0.0
 42
-0.4142135623730951
  0
VERTEX
  5
24CF
  8
SAPA_PROFIL
 10
-1.0000000000005109
 20
-22.69999999999925
 30
0.0
  0
VERTEX
  5
24D0
  8
SAPA_PROFIL
 10
-19.816261616667472
 20
-22.700000000000269
 30
0.0
 42
-0.3394542588633853
  0
VERTEX
  5
24D1
  8
SAPA_PROFIL
 10
-20.782187442956509
 20
-21.958819045103269
 30
0.0
  0
VERTEX
  5
24D2
  8
SAPA_PROFIL
 10
-20.812444773245598
 20
-21.845897151161921
 30
0.0
 42
0.3708012337423849
  0
VERTEX
  5
24D3
  8
SAPA_PROFIL
 10
-24.366666666666191
 20
-19.42043363300127
 30
0.0
 42
-0.4472135954999589
  0
VERTEX
  5
24D4
  8
SAPA_PROFIL
 10
-24.699999999999541
 20
-19.122291236001271
 30
0.0
  0
VERTEX
  5
24D5
  8
SAPA_PROFIL
 10
-24.699999999999541
 20
19.122291236001729
 30
0.0
 42
-0.4472135954999537
  0
VERTEX
  5
24D6
  8
SAPA_PROFIL
 10
-24.366666666666191
 20
19.420433633001721
 30
0.0
 42
0.3708012337423849
  0
VERTEX
  5
24D7
  8
SAPA_PROFIL
 10
-20.812444773245598
 20
21.845897151162379
 30
0.0
  0
VERTEX
  5
24D8
  8
SAPA_PROFIL
 10
-20.782187442956509
 20
21.95881904510372
 30
0.0
 42
-0.3394542588633807
  0
VERTEX
  5
24D9
  8
SAPA_PROFIL
 10
-19.816261616667472
 20
22.700000000000731
 30
0.0
  0
VERTEX
  5
24DA
  8
SAPA_PROFIL
 10
-1.0000000000005109
 20
22.699999999999712
 30
0.0
 42
-0.4142135623730951
  0
VERTEX
  5
24DB
  8
SAPA_PROFIL
 10
-0.0000000000005116
 20
21.699999999999712
 30
0.0
  0
VERTEX
  5
24DC
  8
SAPA_PROFIL
 10
-0.0000000000005116
 20
17.79999999999972
 30
0.0
 42
0.4142135623730951
  0
VERTEX
  5
24DD
  8
SAPA_PROFIL
 10
0.4999999999994884
 20
17.299999999999731
 30
0.0
  0
VERTEX
  5
24DE
  8
SAPA_PROFIL
 10
2.600000000000477
 20
17.299999999999731
 30
0.0
 42
0.4142135623730951
  0
VERTEX
  5
24DF
  8
SAPA_PROFIL
 10
2.90000000000046
 20
17.599999999999682
 30
0.0
  0
VERTEX
  5
24E0
  8
SAPA_PROFIL
 10
2.90000000000046
 20
18.099999999999682
 30
0.0
 42
0.4142135623730951
  0
VERTEX
  5
24E1
  8
SAPA_PROFIL
 10
2.600000000000477
 20
18.39999999999975
 30
0.0
  0
VERTEX
  5
24E2
  8
SAPA_PROFIL
 10
2.2633730753664731
 20
18.39999999999975
 30
0.0
 42
-0.5643553431119905
  0
VERTEX
  5
24E3
  8
SAPA_PROFIL
 10
4.1256049567629702
 20
22.72439504323393
 30
0.0
  0
VERTEX
  5
24E4
  8
SAPA_PROFIL
 10
4.4999999999994884
 20
22.350000000002751
 30
0.0
  0
VERTEX
  5
24E5
  8
SAPA_PROFIL
 10
4.8743950432324823
 20
22.724395043235749
 30
0.0
 42
-0.5643553431125659
  0
VERTEX
  5
24E6
  8
SAPA_PROFIL
 10
6.736626924635118
 20
18.399999999999981
 30
0.0
  0
VERTEX
  5
24E7
  8
SAPA_PROFIL
 10
6.3999999999994648
 20
18.39999999999975
 30
0.0
 42
0.4142135623730388
  0
VERTEX
  5
24E8
  8
SAPA_PROFIL
 10
6.0999999999994818
 20
18.099999999999682
 30
0.0
  0
VERTEX
  5
24E9
  8
SAPA_PROFIL
 10
6.0999999999994818
 20
17.599999999999682
 30
0.0
 42
0.4142135623731053
  0
VERTEX
  5
24EA
  8
SAPA_PROFIL
 10
6.3999999999994648
 20
17.299999999999731
 30
0.0
  0
VERTEX
  5
24EB
  8
SAPA_PROFIL
 10
8.4999999999994884
 20
17.299999999999731
 30
0.0
 42
0.4142135623730951
  0
VERTEX
  5
24EC
  8
SAPA_PROFIL
 10
8.9999999999994884
 20
17.79999999999972
 30
0.0
  0
VERTEX
  5
24ED
  8
SAPA_PROFIL
 10
8.9999999999994884
 20
21.699999999999712
 30
0.0
 42
-0.4142135623730951
  0
VERTEX
  5
24EE
  8
SAPA_PROFIL
 10
9.9999999999994884
 20
22.699999999999712
 30
0.0
  0
VERTEX
  5
24EF
  8
SAPA_PROFIL
 10
39.000000000000483
 20
22.699999999999712
 30
0.0
 42
-0.4142135623730951
  0
VERTEX
  5
24F0
  8
SAPA_PROFIL
 10
40.000000000000483
 20
21.699999999999712
 30
0.0
  0
VERTEX
  5
24F1
  8
SAPA_PROFIL
 10
40.000000000000483
 20
17.79999999999972
 30
0.0
 42
0.4142135623730951
  0
VERTEX
  5
24F2
  8
SAPA_PROFIL
 10
40.500000000000483
 20
17.299999999999731
 30
0.0
  0
VERTEX
  5
24F3
  8
SAPA_PROFIL
 10
42.60000000000047
 20
17.299999999999731
 30
0.0
 42
0.4142135623730951
  0
VERTEX
  5
24F4
  8
SAPA_PROFIL
 10
42.90000000000046
 20
17.599999999999682
 30
0.0
  0
VERTEX
  5
24F5
  8
SAPA_PROFIL
 10
42.90000000000046
 20
18.099999999999682
 30
0.0
 42
0.4142135623730951
  0
VERTEX
  5
24F6
  8
SAPA_PROFIL
 10
42.60000000000047
 20
18.39999999999975
 30
0.0
  0
VERTEX
  5
24F7
  8
SAPA_PROFIL
 10
42.263373075366466
 20
18.39999999999975
 30
0.0
 42
-0.5643553431119849
  0
VERTEX
  5
24F8
  8
SAPA_PROFIL
 10
44.125604956763958
 20
22.72439504323393
 30
0.0
  0
VERTEX
  5
24F9
  8
SAPA_PROFIL
 10
44.500000000000483
 20
22.350000000002751
 30
0.0
  0
VERTEX
  5
24FA
  8
SAPA_PROFIL
 10
44.87439504323347
 20
22.724395043235749
 30
0.0
 42
-0.5643553431125659
  0
VERTEX
  5
24FB
  8
SAPA_PROFIL
 10
46.736626924636141
 20
18.399999999999981
 30
0.0
  0
VERTEX
  5
24FC
  8
SAPA_PROFIL
 10
46.400000000000453
 20
18.39999999999975
 30
0.0
 42
0.414213562372998
  0
VERTEX
  5
24FD
  8
SAPA_PROFIL
 10
46.100000000000477
 20
18.099999999999682
 30
0.0
  0
VERTEX
  5
24FE
  8
SAPA_PROFIL
 10
46.100000000000477
 20
17.599999999999682
 30
0.0
 42
0.4142135623731053
  0
VERTEX
  5
24FF
  8
SAPA_PROFIL
 10
46.400000000000453
 20
17.299999999999731
 30
0.0
  0
VERTEX
  5
2500
  8
SAPA_PROFIL
 10
48.500000000000483
 20
17.299999999999731
 30
0.0
 42
0.4142135623730951
  0
VERTEX
  5
2501
  8
SAPA_PROFIL
 10
49.000000000000512
 20
17.79999999999972
 30
0.0
  0
VERTEX
  5
2502
  8
SAPA_PROFIL
 10
49.000000000000512
 20
21.699999999999712
 30
0.0
 42
-0.4142135623730951
  0
VERTEX
  5
2503
  8
SAPA_PROFIL
 10
50.000000000000512
 20
22.699999999999712
 30
0.0
  0
SEQEND
  5
2504
  8
SAPA_PROFIL
  0
TEXT
  5
16CD
  8
SAPA_ARTIKELNR
 62
     4
 10
20.051192314697911
 20
-210.17988547077891
 30
0.0
 40
3.0
  1
42762
 50
90.0
  7
BYGG-036634$0$STANDARD
 71
     4
 72
     4
 11
21.551192314697911
 21
-203.17988547077891
 31
0.0
  0
ARC
  5
16F0
  8
SAPA_GLAS
 10
-57.499999999997449
 20
-8.4769330888607701
 30
0.0
 40
21.455789953948951
 50
65.199046227935725
 51
114.8009537720615
  0
LINE
  5
16F1
  8
SAPA_GLAS
 10
-49.999999999996028
 20
15.99999999999978
 30
0.0
 11
-64.999999999998636
 21
15.99999999999978
 31
0.0
  0
ARC
  5
16F2
  8
SAPA_GLAS
 10
-49.999999999996028
 20
16.49999999999978
 30
0.0
 40
0.5
 50
270.0
 51
0.0
  0
LINE
  5
16F3
  8
SAPA_GLAS
 10
-49.499999999996028
 20
19.49999999999978
 30
0.0
 11
-49.499999999996042
 21
16.49999999999978
 31
0.0
  0
ARC
  5
16F4
  8
SAPA_GLAS
 10
-49.999999999996021
 20
19.49999999999978
 30
0.0
 40
0.5
 50
0.0
 51
89.999999999999986
  0
LINE
  5
16F5
  8
SAPA_GLAS
 10
-64.999999999998636
 20
19.99999999999978
 30
0.0
 11
-49.999999999996021
 21
19.99999999999978
 31
0.0
  0
ARC
  5
16F6
  8
SAPA_GLAS
 10
-64.999999999998636
 20
19.49999999999978
 30
0.0
 40
0.5
 50
89.999999999999986
 51
180.0
  0
LINE
  5
16F7
  8
SAPA_GLAS
 10
-65.49999999999865
 20
16.49999999999978
 30
0.0
 11
-65.49999999999865
 21
19.49999999999978
 31
0.0
  0
ARC
  5
16F8
  8
SAPA_GLAS
 10
-64.999999999998636
 20
16.49999999999978
 30
0.0
 40
0.5
 50
180.0
 51
270.0
  0
LINE
  5
16F9
  8
SAPA_GLAS
 10
-49.499999999996028
 20
24.49999999999978
 30
0.0
 11
-49.499999999996028
 21
21.49999999999979
 31
0.0
  0
ARC
  5
16FA
  8
SAPA_GLAS
 10
-49.999999999996021
 20
24.49999999999978
 30
0.0
 40
0.5
 50
0.0
 51
89.999999999999986
  0
LINE
  5
16FB
  8
SAPA_GLAS
 10
-64.999999999998636
 20
24.99999999999979
 30
0.0
 11
-49.999999999996021
 21
24.99999999999979
 31
0.0
  0
ARC
  5
16FC
  8
SAPA_GLAS
 10
-64.999999999998636
 20
24.49999999999978
 30
0.0
 40
0.5
 50
89.999999999999986
 51
180.0
  0
LINE
  5
16FD
  8
SAPA_GLAS
 10
-65.49999999999865
 20
21.49999999999979
 30
0.0
 11
-65.49999999999865
 21
24.49999999999978
 31
0.0
  0
ARC
  5
16FE
  8
SAPA_GLAS
 10
-64.999999999998636
 20
21.49999999999979
 30
0.0
 40
0.5
 50
180.0
 51
270.0
  0
LINE
  5
16FF
  8
SAPA_GLAS
 10
-49.999999999996021
 20
20.99999999999978
 30
0.0
 11
-64.999999999998636
 21
20.99999999999978
 31
0.0
  0
ARC
  5
1700
  8
SAPA_GLAS
 10
-49.999999999996021
 20
21.49999999999979
 30
0.0
 40
0.5
 50
270.0
 51
0.0
  0
LINE
  5
1701
  8
SAPA_GLAS
 10
-48.499999999996028
 20
10.99999999999978
 30
0.0
 11
-45.499999999996028
 21
10.99999999999978
 31
0.0
  0
LINE
  5
1702
  8
SAPA_GLAS
 10
-72.499999999998636
 20
10.99999999999978
 30
0.0
 11
-66.49999999999865
 21
10.99999999999978
 31
0.0
  0
LINE
  5
1703
  8
SAPA_GLAS
 10
-66.49999999999865
 20
14.99999999999978
 30
0.0
 11
-48.499999999996028
 21
14.99999999999978
 31
0.0
1001
ACAD
1000
ASC_BOUNDS
1002
{
1070
    19
1005
0
1002
}
  0
LINE
  5
1704
  8
SAPA_GLAS
 10
-66.49999999999865
 20
25.99999999999978
 30
0.0
 11
-48.499999999996021
 21
25.99999999999979
 31
0.0
  0
LINE
  5
1705
  8
SAPA_GLAS
 10
-66.49999999999865
 20
25.99999999999978
 30
0.0
 11
-48.499999999996021
 21
25.99999999999979
 31
0.0
1001
ACAD
1000
ASC_BOUNDS
1002
{
1070
    19
1005
0
1002
}
  0
LINE
  5
1706
  8
SAPA_GLAS
 10
-45.499999999996028
 20
10.99999999999978
 30
0.0
 11
-45.499999999996938
 21
50.99999999999978
 31
0.0
  0
LINE
  5
1707
  8
SAPA_GLAS
 10
-72.499999999998636
 20
10.99999999999978
 30
0.0
 11
-72.499999999998636
 21
50.999999999999787
 31
0.0
  0
LINE
  5
1708
  8
SAPA_GLAS
 10
-48.499999999996028
 20
10.99999999999978
 30
0.0
 11
-48.499999999996028
 21
50.99999999999978
 31
0.0
1001
ACAD
1000
ASC_BOUNDS
1002
{
1070
    19
1005
0
1005
0
1002
}
  0
LINE
  5
1709
  8
SAPA_GLAS
 10
-66.49999999999865
 20
10.99999999999978
 30
0.0
 11
-66.499999999998636
 21
50.999999999999787
 31
0.0
1001
ACAD
1000
ASC_BOUNDS
1002
{
1070
    19
1005
0
1005
0
1002
}
  0
LINE
  5
170A
  8
SAPA_GLAS
 10
-57.550000073848253
 20
-162.99999999793039
 30
0.0
 11
-42.550000073848253
 21
-162.99999999793039
 31
0.0
  0
POLYLINE
  5
170B
  8
SAPA_GLAS
 66
     1
 10
0.0
 20
0.0
 30
0.0
  0
VERTEX
  5
250A
  8
SAPA_GLAS
 10
-36.550000073848267
 20
-182.99999999793039
 30
0.0
  0
VERTEX
  5
250B
  8
SAPA_GLAS
 10
-36.550000073848253
 20
-152.99999999793039
 30
0.0
  0
VERTEX
  5
250C
  8
SAPA_GLAS
 10
-63.550000073848253
 20
-152.99999999793039
 30
0.0
  0
VERTEX
  5
250D
  8
SAPA_GLAS
 10
-63.550000073848267
 20
-182.99999999793039
 30
0.0
  0
SEQEND
  5
250E
  8
SAPA_GLAS
  0
LINE
  5
170C
  8
SAPA_GLAS
 10
-42.55000007384826
 20
-182.99999999793039
 30
0.0
 11
-42.550000073848253
 21
-152.99999999793039
 31
0.0
  0
LINE
  5
170D
  8
SAPA_GLAS
 10
-57.55000007384826
 20
-182.99999999793039
 30
0.0
 11
-57.550000073848253
 21
-152.99999999793039
 31
0.0
  0
LINE
  5
1718
  8
SAPA_ISOLATOR
 10
-7.3369832384352707
 20
-25.00001783612618
 30
0.0
 11
-7.3369832384352733
 21
-31.194641603309151
 31
0.0
  0
LINE
  5
1719
  8
SAPA_ISOLATOR
 10
-42.578680595394253
 20
-25.000017836126169
 30
0.0
 11
-7.3369832384352707
 21
-25.00001783612618
 31
0.0
  0
LINE
  5
171A
  8
SAPA_ISOLATOR
 10
-42.578680595394253
 20
-31.194641603310959
 30
0.0
 11
-42.578680595394253
 21
-25.000017836126169
 31
0.0
  0
LINE
  5
171B
  8
SAPA_ISOLATOR
 10
-7.3369832384352733
 20
-31.200017836126221
 30
0.0
 11
-42.578680595394253
 21
-31.194641603310959
 31
0.0
  0
LINE
  5
171C
  8
SAPA_ISOLATOR
 10
-42.578680595394253
 20
-31.194641603310959
 30
0.0
 11
-7.3369832384352707
 21
-25.00001783612618
 31
0.0
  0
LINE
  5
171D
  8
SAPA_ISOLATOR
 10
-7.3369832384352733
 20
-31.21660513901168
 30
0.0
 11
-42.578680595394253
 21
-25.011228906196369
 31
0.0
  0
POLYLINE
  5
1740
  8
SAPA_FOGBAND
 66
     1
 10
0.0
 20
0.0
 30
0.0
 70
     1
  0
VERTEX
  5
260E
  8
SAPA_FOGBAND
 10
-36.300000000000082
 20
-16.003393554726919
 30
0.0
  0
VERTEX
  5
260F
  8
SAPA_FOGBAND
 10
-36.300000000000082
 20
-23.303393554726881
 30
0.0
 42
0.4142135623730951
  0
VERTEX
  5
2610
  8
SAPA_FOGBAND
 10
-35.800000000000082
 20
-23.80339355472687
 30
0.0
  0
VERTEX
  5
2611
  8
SAPA_FOGBAND
 10
-35.500000000000121
 20
-23.80339355472687
 30
0.0
  0
VERTEX
  5
2612
  8
SAPA_FOGBAND
 10
-35.500000000000121
 20
-22.203393554726851
 30
0.0
 42
-0.4142135623730951
  0
VERTEX
  5
2613
  8
SAPA_FOGBAND
 10
-35.000000000000121
 20
-21.703393554726851
 30
0.0
  0
VERTEX
  5
2614
  8
SAPA_FOGBAND
 10
-34.058574583118236
 20
-21.703393554726851
 30
0.0
  0
VERTEX
  5
2615
  8
SAPA_FOGBAND
 10
-33.991114673807843
 20
-21.955157363747379
 30
0.0
 42
0.4740571810232243
  0
VERTEX
  5
2616
  8
SAPA_FOGBAND
 10
-33.708832088169181
 20
-22.08245122611094
 30
0.0
  0
VERTEX
  5
2617
  8
SAPA_FOGBAND
 10
-32.262625951409298
 20
-21.462350723352301
 30
0.0
 42
0.2846003776496037
  0
VERTEX
  5
2618
  8
SAPA_FOGBAND
 10
-31.98536950236133
 20
-21.014706544892189
 30
0.0
  0
VERTEX
  5
2619
  8
SAPA_FOGBAND
 10
-31.98536950236133
 20
-19.392080564561631
 30
0.0
 42
0.2846003776496048
  0
VERTEX
  5
261A
  8
SAPA_FOGBAND
 10
-32.262625951409298
 20
-18.944436386101408
 30
0.0
  0
VERTEX
  5
261B
  8
SAPA_FOGBAND
 10
-33.708832088169181
 20
-18.324335883342759
 30
0.0
 42
0.4740571810232242
  0
VERTEX
  5
261C
  8
SAPA_FOGBAND
 10
-33.991114673807843
 20
-18.45162974570643
 30
0.0
  0
VERTEX
  5
261D
  8
SAPA_FOGBAND
 10
-34.058574583118236
 20
-18.703393554726851
 30
0.0
  0
VERTEX
  5
261E
  8
SAPA_FOGBAND
 10
-35.000000000000121
 20
-18.703393554726851
 30
0.0
 42
-0.4142135623730951
  0
VERTEX
  5
261F
  8
SAPA_FOGBAND
 10
-35.500000000000121
 20
-18.203393554726851
 30
0.0
  0
VERTEX
  5
2620
  8
SAPA_FOGBAND
 10
-35.500000000000121
 20
-15.50339355472703
 30
0.0
  0
VERTEX
  5
2621
  8
SAPA_FOGBAND
 10
-35.800000000000082
 20
-15.503393554726919
 30
0.0
 42
0.4142135623730951
  0
SEQEND
  5
2622
  8
SAPA_FOGBAND
  0
POLYLINE
  5
1741
  8
SAPA_FOGBAND
 66
     1
 10
0.0
 20
0.0
 30
0.0
 70
     1
  0
VERTEX
  5
2623
  8
SAPA_FOGBAND
 10
-34.185369502361382
 20
-19.30339355472687
 30
0.0
  0
VERTEX
  5
2624
  8
SAPA_FOGBAND
 10
-33.585369502361353
 20
-19.30339355472687
 30
0.0
 42
-0.9999999999999998
  0
VERTEX
  5
2625
  8
SAPA_FOGBAND
 10
-33.585369502361353
 20
-21.103393554726829
 30
0.0
  0
VERTEX
  5
2626
  8
SAPA_FOGBAND
 10
-34.185369502361382
 20
-21.103393554726829
 30
0.0
 42
-0.9999999999999998
  0
SEQEND
  5
2627
  8
SAPA_FOGBAND
  0
POLYLINE
  5
1742
  8
SAPA_FOGBAND
 66
     1
 10
0.0
 20
0.0
 30
0.0
  0
VERTEX
  5
2628
  8
SAPA_FOGBAND
 10
-35.800000000000082
 20
-23.80339355472687
 30
0.0
  0
VERTEX
  5
2629
  8
SAPA_FOGBAND
 10
-35.500000000000121
 20
-23.80339355472687
 30
0.0
  0
VERTEX
  5
262A
  8
SAPA_FOGBAND
 10
-35.500000000000121
 20
-24.71555371810825
 30
0.0
 42
-0.4027293761437522
  0
VERTEX
  5
262B
  8
SAPA_FOGBAND
 10
-35.788192637469258
 20
-25.015321271706281
 30
0.0
  0
VERTEX
  5
262C
  8
SAPA_FOGBAND
 10
-42.423995511553358
 20
-25.635472610187431
 30
0.0
 42
-0.4366759199119207
  0
VERTEX
  5
262D
  8
SAPA_FOGBAND
 10
-43.500000000000682
 20
-24.63836513466844
 30
0.0
  0
VERTEX
  5
262E
  8
SAPA_FOGBAND
 10
-43.500000000000682
 20
-12.76316551867944
 30
0.0
 42
-0.1134871727417796
  0
VERTEX
  5
262F
  8
SAPA_FOGBAND
 10
-43.399568923853288
 20
-12.3263866830673
 30
0.0
  0
VERTEX
  5
2630
  8
SAPA_FOGBAND
 10
-40.440889661176492
 20
-5.2213249162897171
 30
0.0
 42
-0.2866770623134215
  0
VERTEX
  5
2631
  8
SAPA_FOGBAND
 10
-40.090931572824807
 20
-5.0020663702083246
 30
0.0
  0
VERTEX
  5
2632
  8
SAPA_FOGBAND
 10
-39.098088390160918
 20
-5.0020663702083246
 30
0.0
 42
-0.3386584782462731
  0
VERTEX
  5
2633
  8
SAPA_FOGBAND
 10
-38.325942004159991
 20
-5.5928058660856257
 30
0.0
  0
VERTEX
  5
2634
  8
SAPA_FOGBAND
 10
-35.546144059770661
 20
-15.050210687247951
 30
0.0
 42
-0.0644539213931785
  0
VERTEX
  5
2635
  8
SAPA_FOGBAND
 10
-35.500000000000121
 20
-15.406685220847971
 30
0.0
  0
VERTEX
  5
2636
  8
SAPA_FOGBAND
 10
-35.500000000000121
 20
-15.50339355472703
 30
0.0
  0
SEQEND
  5
2637
  8
SAPA_FOGBAND
  0
POLYLINE
  5
1743
  8
SAPA_FOGBAND
 66
     1
 10
0.0
 20
0.0
 30
0.0
 70
     1
  0
VERTEX
  5
2638
  8
SAPA_FOGBAND
 10
-37.605164153426422
 20
-11.880297213133179
 30
0.0
  0
VERTEX
  5
2639
  8
SAPA_FOGBAND
 10
-39.020702744132073
 20
-7.6042180012536562
 30
0.0
 42
0.444186966527488
  0
VERTEX
  5
263A
  8
SAPA_FOGBAND
 10
-39.495522529296842
 20
-7.5698481632940959
 30
0.0
  0
VERTEX
  5
263B
  8
SAPA_FOGBAND
 10
-41.890424100316352
 20
-11.76226131178009
 30
0.0
 42
0.5537304554466119
  0
VERTEX
  5
263C
  8
SAPA_FOGBAND
 10
-41.307503437659882
 20
-12.693293997256649
 30
0.0
  0
VERTEX
  5
263D
  8
SAPA_FOGBAND
 10
-38.231806045761239
 20
-12.693293997256649
 30
0.0
 42
0.4917973357877383
  0
SEQEND
  5
263E
  8
SAPA_FOGBAND
  0
POLYLINE
  5
1744
  8
SAPA_FOGBAND
 10
-40.020122589263551
 20
-21.926001341734001
 30
0.0
 66
     1
 70
     8
  0
VERTEX
  8
SAPA_FOGBAND
  5
27B7
 10
-40.0201
 20
-21.9260
 30
0.000000
  70
    32
  0
VERTEX
  8
SAPA_FOGBAND
  5
27B8
 10
-40.1350
 20
-21.9213
 30
0.000000
  70
    32
  0
VERTEX
  8
SAPA_FOGBAND
  5
27B9
 10
-40.2495
 20
-21.9094
 30
0.000000
  70
    32
  0
VERTEX
  8
SAPA_FOGBAND
  5
27BA
 10
-40.3634
 20
-21.8905
 30
0.000000
  70
    32
  0
VERTEX
  8
SAPA_FOGBAND
  5
27BB
 10
-40.4765
 20
-21.8644
 30
0.000000
  70
    32
  0
VERTEX
  8
SAPA_FOGBAND
  5
27BC
 10
-40.5883
 20
-21.8314
 30
0.000000
  70
    32
  0
VERTEX
  8
SAPA_FOGBAND
  5
27BD
 10
-40.6987
 20
-21.7914
 30
0.000000
  70
    32
  0
VERTEX
  8
SAPA_FOGBAND
  5
27BE
 10
-40.8074
 20
-21.7446
 30
0.000000
  70
    32
  0
VERTEX
  8
SAPA_FOGBAND
  5
27BF
 10
-40.9141
 20
-21.6911
 30
0.000000
  70
    32
  0
VERTEX
  8
SAPA_FOGBAND
  5
27C0
 10
-41.0186
 20
-21.6310
 30
0.000000
  70
    32
  0
VERTEX
  8
SAPA_FOGBAND
  5
27C1
 10
-41.1206
 20
-21.5645
 30
0.000000
  70
    32
  0
VERTEX
  8
SAPA_FOGBAND
  5
27C2
 10
-41.2199
 20
-21.4917
 30
0.000000
  70
    32
  0
VERTEX
  8
SAPA_FOGBAND
  5
27C3
 10
-41.3163
 20
-21.4128
 30
0.000000
  70
    32
  0
VERTEX
  8
SAPA_FOGBAND
  5
27C4
 10
-41.4094
 20
-21.3279
 30
0.000000
  70
    32
  0
VERTEX
  8
SAPA_FOGBAND
  5
27C5
 10
-41.4992
 20
-21.2374
 30
0.000000
  70
    32
  0
VERTEX
  8
SAPA_FOGBAND
  5
27C6
 10
-41.5852
 20
-21.1414
 30
0.000000
  70
    32
  0
VERTEX
  8
SAPA_FOGBAND
  5
27C7
 10
-41.6675
 20
-21.0401
 30
0.000000
  70
    32
  0
VERTEX
  8
SAPA_FOGBAND
  5
27C8
 10
-41.7457
 20
-20.9338
 30
0.000000
  70
    32
  0
VERTEX
  8
SAPA_FOGBAND
  5
27C9
 10
-41.8197
 20
-20.8227
 30
0.000000
  70
    32
  0
VERTEX
  8
SAPA_FOGBAND
  5
27CA
 10
-41.8893
 20
-20.7071
 30
0.000000
  70
    32
  0
VERTEX
  8
SAPA_FOGBAND
  5
27CB
 10
-41.9543
 20
-20.5874
 30
0.000000
  70
    32
  0
VERTEX
  8
SAPA_FOGBAND
  5
27CC
 10
-42.0146
 20
-20.4636
 30
0.000000
  70
    32
  0
VERTEX
  8
SAPA_FOGBAND
  5
27CD
 10
-42.0699
 20
-20.3363
 30
0.000000
  70
    32
  0
VERTEX
  8
SAPA_FOGBAND
  5
27CE
 10
-42.1203
 20
-20.2057
 30
0.000000
  70
    32
  0
VERTEX
  8
SAPA_FOGBAND
  5
27CF
 10
-42.1656
 20
-20.0720
 30
0.000000
  70
    32
  0
VERTEX
  8
SAPA_FOGBAND
  5
27D0
 10
-42.2056
 20
-19.9356
 30
0.000000
  70
    32
  0
VERTEX
  8
SAPA_FOGBAND
  5
27D1
 10
-42.2403
 20
-19.7969
 30
0.000000
  70
    32
  0
VERTEX
  8
SAPA_FOGBAND
  5
27D2
 10
-42.2696
 20
-19.6562
 30
0.000000
  70
    32
  0
VERTEX
  8
SAPA_FOGBAND
  5
27D3
 10
-42.2933
 20
-19.5138
 30
0.000000
  70
    32
  0
VERTEX
  8
SAPA_FOGBAND
  5
27D4
 10
-42.3115
 20
-19.3701
 30
0.000000
  70
    32
  0
VERTEX
  8
SAPA_FOGBAND
  5
27D5
 10
-42.3242
 20
-19.2253
 30
0.000000
  70
    32
  0
VERTEX
  8
SAPA_FOGBAND
  5
27D6
 10
-42.3312
 20
-19.0799
 30
0.000000
  70
    32
  0
VERTEX
  8
SAPA_FOGBAND
  5
27D7
 10
-42.3326
 20
-18.9342
 30
0.000000
  70
    32
  0
VERTEX
  8
SAPA_FOGBAND
  5
27D8
 10
-42.3283
 20
-18.7886
 30
0.000000
  70
    32
  0
VERTEX
  8
SAPA_FOGBAND
  5
27D9
 10
-42.3184
 20
-18.6434
 30
0.000000
  70
    32
  0
VERTEX
  8
SAPA_FOGBAND
  5
27DA
 10
-42.3029
 20
-18.4989
 30
0.000000
  70
    32
  0
VERTEX
  8
SAPA_FOGBAND
  5
27DB
 10
-42.2818
 20
-18.3556
 30
0.000000
  70
    32
  0
VERTEX
  8
SAPA_FOGBAND
  5
27DC
 10
-42.2552
 20
-18.2137
 30
0.000000
  70
    32
  0
VERTEX
  8
SAPA_FOGBAND
  5
27DD
 10
-42.2231
 20
-18.0736
 30
0.000000
  70
    32
  0
VERTEX
  8
SAPA_FOGBAND
  5
27DE
 10
-42.1857
 20
-17.9356
 30
0.000000
  70
    32
  0
VERTEX
  8
SAPA_FOGBAND
  5
27DF
 10
-42.1430
 20
-17.8001
 30
0.000000
  70
    32
  0
VERTEX
  8
SAPA_FOGBAND
  5
27E0
 10
-42.0951
 20
-17.6673
 30
0.000000
  70
    32
  0
VERTEX
  8
SAPA_FOGBAND
  5
27E1
 10
-42.0421
 20
-17.5377
 30
0.000000
  70
    32
  0
VERTEX
  8
SAPA_FOGBAND
  5
27E2
 10
-41.9842
 20
-17.4115
 30
0.000000
  70
    32
  0
VERTEX
  8
SAPA_FOGBAND
  5
27E3
 10
-41.9214
 20
-17.2890
 30
0.000000
  70
    32
  0
VERTEX
  8
SAPA_FOGBAND
  5
27E4
 10
-41.8541
 20
-17.1705
 30
0.000000
  70
    32
  0
VERTEX
  8
SAPA_FOGBAND
  5
27E5
 10
-41.7822
 20
-17.0564
 30
0.000000
  70
    32
  0
VERTEX
  8
SAPA_FOGBAND
  5
27E6
 10
-41.7060
 20
-16.9468
 30
0.000000
  70
    32
  0
VERTEX
  8
SAPA_FOGBAND
  5
27E7
 10
-41.6257
 20
-16.8421
 30
0.000000
  70
    32
  0
VERTEX
  8
SAPA_FOGBAND
  5
27E8
 10
-41.5415
 20
-16.7424
 30
0.000000
  70
    32
  0
VERTEX
  8
SAPA_FOGBAND
  5
27E9
 10
-41.4535
 20
-16.6481
 30
0.000000
  70
    32
  0
VERTEX
  8
SAPA_FOGBAND
  5
27EA
 10
-41.3620
 20
-16.5594
 30
0.000000
  70
    32
  0
VERTEX
  8
SAPA_FOGBAND
  5
27EB
 10
-41.2671
 20
-16.4764
 30
0.000000
  70
    32
  0
VERTEX
  8
SAPA_FOGBAND
  5
27EC
 10
-41.1693
 20
-16.3995
 30
0.000000
  70
    32
  0
VERTEX
  8
SAPA_FOGBAND
  5
27ED
 10
-41.0685
 20
-16.3286
 30
0.000000
  70
    32
  0
VERTEX
  8
SAPA_FOGBAND
  5
27EE
 10
-40.9652
 20
-16.2642
 30
0.000000
  70
    32
  0
VERTEX
  8
SAPA_FOGBAND
  5
27EF
 10
-40.8595
 20
-16.2062
 30
0.000000
  70
    32
  0
VERTEX
  8
SAPA_FOGBAND
  5
27F0
 10
-40.7517
 20
-16.1548
 30
0.000000
  70
    32
  0
VERTEX
  8
SAPA_FOGBAND
  5
27F1
 10
-40.6421
 20
-16.1102
 30
0.000000
  70
    32
  0
VERTEX
  8
SAPA_FOGBAND
  5
27F2
 10
-40.5310
 20
-16.0724
 30
0.000000
  70
    32
  0
VERTEX
  8
SAPA_FOGBAND
  5
27F3
 10
-40.4185
 20
-16.0416
 30
0.000000
  70
    32
  0
VERTEX
  8
SAPA_FOGBAND
  5
27F4
 10
-40.3050
 20
-16.0178
 30
0.000000
  70
    32
  0
VERTEX
  8
SAPA_FOGBAND
  5
27F5
 10
-40.1907
 20
-16.0011
 30
0.000000
  70
    32
  0
VERTEX
  8
SAPA_FOGBAND
  5
27F6
 10
-40.0760
 20
-15.9916
 30
0.000000
  70
    32
  0
VERTEX
  8
SAPA_FOGBAND
  5
27F7
 10
-39.9610
 20
-15.9891
 30
0.000000
  70
    32
  0
VERTEX
  8
SAPA_FOGBAND
  5
27F8
 10
-39.8462
 20
-15.9938
 30
0.000000
  70
    32
  0
VERTEX
  8
SAPA_FOGBAND
  5
27F9
 10
-39.7316
 20
-16.0057
 30
0.000000
  70
    32
  0
VERTEX
  8
SAPA_FOGBAND
  5
27FA
 10
-39.6177
 20
-16.0247
 30
0.000000
  70
    32
  0
VERTEX
  8
SAPA_FOGBAND
  5
27FB
 10
-39.5047
 20
-16.0507
 30
0.000000
  70
    32
  0
VERTEX
  8
SAPA_FOGBAND
  5
27FC
 10
-39.3929
 20
-16.0837
 30
0.000000
  70
    32
  0
VERTEX
  8
SAPA_FOGBAND
  5
27FD
 10
-39.2825
 20
-16.1237
 30
0.000000
  70
    32
  0
VERTEX
  8
SAPA_FOGBAND
  5
27FE
 10
-39.1738
 20
-16.1705
 30
0.000000
  70
    32
  0
VERTEX
  8
SAPA_FOGBAND
  5
27FF
 10
-39.0670
 20
-16.2240
 30
0.000000
  70
    32
  0
VERTEX
  8
SAPA_FOGBAND
  5
2800
 10
-38.9625
 20
-16.2841
 30
0.000000
  70
    32
  0
VERTEX
  8
SAPA_FOGBAND
  5
2801
 10
-38.8605
 20
-16.3506
 30
0.000000
  70
    32
  0
VERTEX
  8
SAPA_FOGBAND
  5
2802
 10
-38.7612
 20
-16.4234
 30
0.000000
  70
    32
  0
VERTEX
  8
SAPA_FOGBAND
  5
2803
 10
-38.6649
 20
-16.5023
 30
0.000000
  70
    32
  0
VERTEX
  8
SAPA_FOGBAND
  5
2804
 10
-38.5717
 20
-16.5872
 30
0.000000
  70
    32
  0
VERTEX
  8
SAPA_FOGBAND
  5
2805
 10
-38.4820
 20
-16.6777
 30
0.000000
  70
    32
  0
VERTEX
  8
SAPA_FOGBAND
  5
2806
 10
-38.3959
 20
-16.7737
 30
0.000000
  70
    32
  0
VERTEX
  8
SAPA_FOGBAND
  5
2807
 10
-38.3137
 20
-16.8750
 30
0.000000
  70
    32
  0
VERTEX
  8
SAPA_FOGBAND
  5
2808
 10
-38.2354
 20
-16.9813
 30
0.000000
  70
    32
  0
VERTEX
  8
SAPA_FOGBAND
  5
2809
 10
-38.1615
 20
-17.0924
 30
0.000000
  70
    32
  0
VERTEX
  8
SAPA_FOGBAND
  5
280A
 10
-38.0919
 20
-17.2080
 30
0.000000
  70
    32
  0
VERTEX
  8
SAPA_FOGBAND
  5
280B
 10
-38.0269
 20
-17.3278
 30
0.000000
  70
    32
  0
VERTEX
  8
SAPA_FOGBAND
  5
280C
 10
-37.9666
 20
-17.4515
 30
0.000000
  70
    32
  0
VERTEX
  8
SAPA_FOGBAND
  5
280D
 10
-37.9112
 20
-17.5788
 30
0.000000
  70
    32
  0
VERTEX
  8
SAPA_FOGBAND
  5
280E
 10
-37.8608
 20
-17.7095
 30
0.000000
  70
    32
  0
VERTEX
  8
SAPA_FOGBAND
  5
280F
 10
-37.8156
 20
-17.8431
 30
0.000000
  70
    32
  0
VERTEX
  8
SAPA_FOGBAND
  5
2810
 10
-37.7755
 20
-17.9795
 30
0.000000
  70
    32
  0
VERTEX
  8
SAPA_FOGBAND
  5
2811
 10
-37.7409
 20
-18.1182
 30
0.000000
  70
    32
  0
VERTEX
  8
SAPA_FOGBAND
  5
2812
 10
-37.7116
 20
-18.2589
 30
0.000000
  70
    32
  0
VERTEX
  8
SAPA_FOGBAND
  5
2813
 10
-37.6878
 20
-18.4013
 30
0.000000
  70
    32
  0
VERTEX
  8
SAPA_FOGBAND
  5
2814
 10
-37.6696
 20
-18.5451
 30
0.000000
  70
    32
  0
VERTEX
  8
SAPA_FOGBAND
  5
2815
 10
-37.6570
 20
-18.6898
 30
0.000000
  70
    32
  0
VERTEX
  8
SAPA_FOGBAND
  5
2816
 10
-37.6500
 20
-18.8352
 30
0.000000
  70
    32
  0
VERTEX
  8
SAPA_FOGBAND
  5
2817
 10
-37.6486
 20
-18.9809
 30
0.000000
  70
    32
  0
VERTEX
  8
SAPA_FOGBAND
  5
2818
 10
-37.6529
 20
-19.1265
 30
0.000000
  70
    32
  0
VERTEX
  8
SAPA_FOGBAND
  5
2819
 10
-37.6628
 20
-19.2717
 30
0.000000
  70
    32
  0
VERTEX
  8
SAPA_FOGBAND
  5
281A
 10
-37.6783
 20
-19.4162
 30
0.000000
  70
    32
  0
VERTEX
  8
SAPA_FOGBAND
  5
281B
 10
-37.6994
 20
-19.5595
 30
0.000000
  70
    32
  0
VERTEX
  8
SAPA_FOGBAND
  5
281C
 10
-37.7260
 20
-19.7014
 30
0.000000
  70
    32
  0
VERTEX
  8
SAPA_FOGBAND
  5
281D
 10
-37.7580
 20
-19.8416
 30
0.000000
  70
    32
  0
VERTEX
  8
SAPA_FOGBAND
  5
281E
 10
-37.7955
 20
-19.9795
 30
0.000000
  70
    32
  0
VERTEX
  8
SAPA_FOGBAND
  5
281F
 10
-37.8382
 20
-20.1151
 30
0.000000
  70
    32
  0
VERTEX
  8
SAPA_FOGBAND
  5
2820
 10
-37.8861
 20
-20.2478
 30
0.000000
  70
    32
  0
VERTEX
  8
SAPA_FOGBAND
  5
2821
 10
-37.9391
 20
-20.3774
 30
0.000000
  70
    32
  0
VERTEX
  8
SAPA_FOGBAND
  5
2822
 10
-37.9970
 20
-20.5036
 30
0.000000
  70
    32
  0
VERTEX
  8
SAPA_FOGBAND
  5
2823
 10
-38.0597
 20
-20.6261
 30
0.000000
  70
    32
  0
VERTEX
  8
SAPA_FOGBAND
  5
2824
 10
-38.1271
 20
-20.7446
 30
0.000000
  70
    32
  0
VERTEX
  8
SAPA_FOGBAND
  5
2825
 10
-38.1989
 20
-20.8587
 30
0.000000
  70
    32
  0
VERTEX
  8
SAPA_FOGBAND
  5
2826
 10
-38.2751
 20
-20.9683
 30
0.000000
  70
    32
  0
VERTEX
  8
SAPA_FOGBAND
  5
2827
 10
-38.3554
 20
-21.0730
 30
0.000000
  70
    32
  0
VERTEX
  8
SAPA_FOGBAND
  5
2828
 10
-38.4397
 20
-21.1727
 30
0.000000
  70
    32
  0
VERTEX
  8
SAPA_FOGBAND
  5
2829
 10
-38.5277
 20
-21.2670
 30
0.000000
  70
    32
  0
VERTEX
  8
SAPA_FOGBAND
  5
282A
 10
-38.6192
 20
-21.3557
 30
0.000000
  70
    32
  0
VERTEX
  8
SAPA_FOGBAND
  5
282B
 10
-38.7140
 20
-21.4387
 30
0.000000
  70
    32
  0
VERTEX
  8
SAPA_FOGBAND
  5
282C
 10
-38.8119
 20
-21.5157
 30
0.000000
  70
    32
  0
VERTEX
  8
SAPA_FOGBAND
  5
282D
 10
-38.9126
 20
-21.5865
 30
0.000000
  70
    32
  0
VERTEX
  8
SAPA_FOGBAND
  5
282E
 10
-39.0160
 20
-21.6510
 30
0.000000
  70
    32
  0
VERTEX
  8
SAPA_FOGBAND
  5
282F
 10
-39.1216
 20
-21.7090
 30
0.000000
  70
    32
  0
VERTEX
  8
SAPA_FOGBAND
  5
2830
 10
-39.2294
 20
-21.7603
 30
0.000000
  70
    32
  0
VERTEX
  8
SAPA_FOGBAND
  5
2831
 10
-39.3390
 20
-21.8049
 30
0.000000
  70
    32
  0
VERTEX
  8
SAPA_FOGBAND
  5
2832
 10
-39.4502
 20
-21.8427
 30
0.000000
  70
    32
  0
VERTEX
  8
SAPA_FOGBAND
  5
2833
 10
-39.5627
 20
-21.8735
 30
0.000000
  70
    32
  0
VERTEX
  8
SAPA_FOGBAND
  5
2834
 10
-39.6762
 20
-21.8973
 30
0.000000
  70
    32
  0
VERTEX
  8
SAPA_FOGBAND
  5
2835
 10
-39.7904
 20
-21.9140
 30
0.000000
  70
    32
  0
VERTEX
  8
SAPA_FOGBAND
  5
2836
 10
-39.9052
 20
-21.9236
 30
0.000000
  70
    32
  0
VERTEX
  8
SAPA_FOGBAND
  5
2837
 10
-40.0201
 20
-21.9260
 30
0.000000
  70
    32
  0
SEQEND
  8
SAPA_FOGBAND
  5
2838
  0
POLYLINE
  5
1745
  8
SAPA_FOGBAND
 62
     2
 66
     1
 10
0.0
 20
0.0
 30
0.0000000195376815
 70
     1
  0
VERTEX
  5
263F
  8
SAPA_FOGBAND
 62
     2
 10
10.873016923031329
 20
-94.415820339269104
 30
0.0000000195376815
  0
VERTEX
  5
2640
  8
SAPA_FOGBAND
 62
     2
 10
10.873016923031329
 20
-94.515820339269084
 30
0.0000000195376815
 42
-0.4142135623730959
  0
VERTEX
  5
2641
  8
SAPA_FOGBAND
 62
     2
 10
10.173016923031341
 20
-95.215820339269087
 30
0.0000000195376815
  0
VERTEX
  5
2642
  8
SAPA_FOGBAND
 62
     2
 10
9.0730169230313447
 20
-95.215820339269115
 30
0.0000000195376815
 42
-0.4142135623730961
  0
VERTEX
  5
2643
  8
SAPA_FOGBAND
 62
     2
 10
8.8730169230313276
 20
-95.015820339269098
 30
0.0000000195376815
  0
VERTEX
  5
2644
  8
SAPA_FOGBAND
 62
     2
 10
8.8730169230313276
 20
-93.915820339269104
 30
0.0000000195376815
 42
-0.4142135623730956
  0
VERTEX
  5
2645
  8
SAPA_FOGBAND
 62
     2
 10
9.0730169230313447
 20
-93.715820339269087
 30
0.0000000195376815
  0
VERTEX
  5
2646
  8
SAPA_FOGBAND
 62
     2
 10
10.173016923031341
 20
-93.715820339269115
 30
0.0000000195376815
 42
-0.4142135623730946
  0
SEQEND
  5
2647
  8
SAPA_FOGBAND
 62
     2
  0
POLYLINE
  5
1746
  8
SAPA_FOGBAND
 62
     2
 66
     1
 10
0.0
 20
0.0
 30
0.0000000195376815
 70
     1
  0
VERTEX
  5
2648
  8
SAPA_FOGBAND
 62
     2
 10
9.5730169230313447
 20
-92.915820339269104
 30
0.0000000195376815
  0
VERTEX
  5
2649
  8
SAPA_FOGBAND
 62
     2
 10
8.9252513577582544
 20
-92.915820339269104
 30
0.0000000195376815
 42
-0.4416942457848321
  0
VERTEX
  5
264A
  8
SAPA_FOGBAND
 62
     2
 10
8.7261138782653074
 20
-92.697265979641188
 30
0.0000000195376815
  0
VERTEX
  5
264B
  8
SAPA_FOGBAND
 62
     2
 10
8.8158299435233527
 20
-91.734374698897014
 30
0.0000000195376815
 42
0.441694245784789
  0
VERTEX
  5
264C
  8
SAPA_FOGBAND
 62
     2
 10
8.6166924640304341
 20
-91.515820339269098
 30
0.0000000195376815
  0
VERTEX
  5
264D
  8
SAPA_FOGBAND
 62
     2
 10
8.0667101244388686
 20
-91.515820339269098
 30
0.0000000195376815
 42
0.5445962197109614
  0
VERTEX
  5
264E
  8
SAPA_FOGBAND
 62
     2
 10
7.6109732153770278
 20
-92.221499384674175
 30
0.0000000195376815
  0
VERTEX
  5
264F
  8
SAPA_FOGBAND
 62
     2
 10
7.7730169230313333
 20
-92.580550537959439
 30
0.0000000195376815
  0
VERTEX
  5
2650
  8
SAPA_FOGBAND
 62
     2
 10
7.7730169230313351
 20
-94.053509776707344
 30
0.0000000195376815
 42
0.3364379234965429
  0
VERTEX
  5
2651
  8
SAPA_FOGBAND
 62
     2
 10
7.960523740873084
 20
-95.125253506322181
 30
0.0000000195376815
  0
VERTEX
  5
2652
  8
SAPA_FOGBAND
 62
     2
 10
7.960523740873084
 20
-95.68711714214588
 30
0.0000000195376815
 42
-0.1919812372740509
  0
VERTEX
  5
2653
  8
SAPA_FOGBAND
 62
     2
 10
7.8233913628558129
 20
-96.031104189745946
 30
0.0000000195376815
  0
VERTEX
  5
2654
  8
SAPA_FOGBAND
 62
     2
 10
7.4519138865657322
 20
-96.422971120149327
 30
0.0000000195376815
 42
-0.7523758382293955
  0
VERTEX
  5
2655
  8
SAPA_FOGBAND
 62
     2
 10
6.4633427131376227
 20
-92.182541309046826
 30
0.0000000195376815
 42
-0.020738253891463
  0
VERTEX
  5
2656
  8
SAPA_FOGBAND
 62
     2
 10
6.9665738422082288
 20
-91.936822091096374
 30
0.0000000195376815
 42
0.910188045100355
  0
VERTEX
  5
2657
  8
SAPA_FOGBAND
 62
     2
 10
6.6148269951945107
 20
-91.479522524415003
 30
0.0000000195376815
 42
0.8808478876171385
  0
VERTEX
  5
2658
  8
SAPA_FOGBAND
 62
     2
 10
7.9162194014086094
 20
-96.988788819428848
 30
0.0000000195376815
  0
VERTEX
  5
2659
  8
SAPA_FOGBAND
 62
     2
 10
8.0315873746977342
 20
-97.419347957310123
 30
0.0000000195376815
 42
0.9163311740173993
  0
VERTEX
  5
265A
  8
SAPA_FOGBAND
 62
     2
 10
8.8164355844500744
 20
-97.280958042170013
 30
0.0000000195376815
  0
VERTEX
  5
265B
  8
SAPA_FOGBAND
 62
     2
 10
8.7247731382425222
 20
-96.233251487818634
 30
0.0000000195376815
 42
-0.4400105308918154
  0
VERTEX
  5
265C
  8
SAPA_FOGBAND
 62
     2
 10
8.9240120778608638
 20
-96.015820339269084
 30
0.0000000195376815
  0
VERTEX
  5
265D
  8
SAPA_FOGBAND
 62
     2
 10
9.7730169230313333
 20
-96.015820339269084
 30
0.0000000195376815
  0
VERTEX
  5
265E
  8
SAPA_FOGBAND
 62
     2
 10
9.7730169230313333
 20
-96.415820339269104
 30
0.0000000195376815
 42
0.5693809839207589
  0
VERTEX
  5
265F
  8
SAPA_FOGBAND
 62
     2
 10
10.068833294734
 20
-96.591374384832704
 30
0.0000000195376815
  0
VERTEX
  5
2660
  8
SAPA_FOGBAND
 62
     2
 10
11.360466038139281
 20
-95.886408784933607
 30
0.0000000195376815
 42
0.2743878130875473
  0
VERTEX
  5
2661
  8
SAPA_FOGBAND
 62
     2
 10
11.67301692303135
 20
-95.359746648242876
 30
0.0000000195376815
  0
VERTEX
  5
2662
  8
SAPA_FOGBAND
 62
     2
 10
11.673016923031341
 20
-93.571894030295326
 30
0.0000000195376815
 42
0.2743878130875473
  0
VERTEX
  5
2663
  8
SAPA_FOGBAND
 62
     2
 10
11.360466038139259
 20
-93.045231893604608
 30
0.0000000195376815
  0
VERTEX
  5
2664
  8
SAPA_FOGBAND
 62
     2
 10
10.068833294734
 20
-92.340266293705525
 30
0.0000000195376815
 42
0.5693809839208268
  0
VERTEX
  5
2665
  8
SAPA_FOGBAND
 62
     2
 10
9.7730169230313013
 20
-92.515820339269098
 30
0.0000000195376815
  0
VERTEX
  5
2666
  8
SAPA_FOGBAND
 62
     2
 10
9.7730169230313333
 20
-92.915820339269104
 30
0.0000000195376815
  0
VERTEX
  5
2667
  8
SAPA_FOGBAND
 62
     2
 10
8.9240120778608638
 20
-92.915820339269104
 30
0.0000000195376815
  0
SEQEND
  5
2668
  8
SAPA_FOGBAND
 62
     2
  0
POLYLINE
  5
1747
  8
SAPA_FOGBAND
 66
     1
 10
0.0
 20
0.0
 30
0.0
 70
     1
  0
VERTEX
  5
2669
  8
SAPA_FOGBAND
 10
-33.499999999998863
 20
19.57367566877679
 30
0.0
  0
VERTEX
  5
266A
  8
SAPA_FOGBAND
 10
-35.29999999999859
 20
19.57367566877679
 30
0.0
 42
-0.4142135623730951
  0
VERTEX
  5
266B
  8
SAPA_FOGBAND
 10
-35.499999999998401
 20
19.773675668776612
 30
0.0
  0
VERTEX
  5
266C
  8
SAPA_FOGBAND
 10
-35.499999999998401
 20
20.673675668776252
 30
0.0
 42
-0.4142135623730951
  0
VERTEX
  5
266D
  8
SAPA_FOGBAND
 10
-35.29999999999859
 20
20.87367566877607
 30
0.0
  0
VERTEX
  5
266E
  8
SAPA_FOGBAND
 10
-33.499999999998863
 20
20.873675668776521
 30
0.0
 42
-0.9999999999999998
  0
SEQEND
  5
266F
  8
SAPA_FOGBAND
  0
CIRCLE
  5
1748
  8
SAPA_FOGBAND
 10
-36.799999999998583
 20
20.22367566877643
 30
0.0
 40
0.2549509756796394
  0
POLYLINE
  5
1749
  8
SAPA_FOGBAND
 66
     1
 10
0.0
 20
0.0
 30
0.0
 70
     1
  0
VERTEX
  5
2670
  8
SAPA_FOGBAND
 10
-35.499999999998408
 20
16.270085830290789
 30
0.0
 42
0.267949192431121
  0
VERTEX
  5
2671
  8
SAPA_FOGBAND
 10
-35.399999999998961
 20
16.09688074953306
 30
0.0
 42
-0.7673269879789569
  0
VERTEX
  5
2672
  8
SAPA_FOGBAND
 10
-35.499999999998408
 20
15.723675668776879
 30
0.0
  0
VERTEX
  5
2673
  8
SAPA_FOGBAND
 10
-44.69999999999915
 20
15.723675668776879
 30
0.0
 42
-0.4602937089574736
  0
VERTEX
  5
2674
  8
SAPA_FOGBAND
 10
-44.897610691435837
 20
15.95449797611696
 30
0.0
  0
VERTEX
  5
2675
  8
SAPA_FOGBAND
 10
-44.511746230889237
 20
18.428386189851391
 30
0.0
 42
0.6910703998708235
  0
VERTEX
  5
2676
  8
SAPA_FOGBAND
 10
-44.837173697181477
 20
18.613035907186489
 30
0.0
  0
VERTEX
  5
2677
  8
SAPA_FOGBAND
 10
-45.008963529986673
 20
15.83629773875351
 30
0.0
 42
-0.928378177954751
  0
VERTEX
  5
2678
  8
SAPA_FOGBAND
 10
-45.424442128142132
 20
16.266874786287421
 30
0.0
  0
VERTEX
  5
2679
  8
SAPA_FOGBAND
 10
-45.22854255902417
 20
19.476099419057618
 30
0.0
 42
0.6076316918600427
  0
VERTEX
  5
267A
  8
SAPA_FOGBAND
 10
-45.323096729691088
 20
19.725013792520489
 30
0.0
 42
-0.38070580105552
  0
VERTEX
  5
267B
  8
SAPA_FOGBAND
 10
-45.499999999998408
 20
19.923675668776252
 30
0.0
  0
VERTEX
  5
267C
  8
SAPA_FOGBAND
 10
-45.499999999998408
 20
20.22367566877643
 30
0.0
  0
VERTEX
  5
267D
  8
SAPA_FOGBAND
 10
-45.499999999998408
 20
20.523675668776612
 30
0.0
 42
-0.3807058010555201
  0
VERTEX
  5
267E
  8
SAPA_FOGBAND
 10
-45.323096729691088
 20
20.722337545032371
 30
0.0
 42
0.6076316918600374
  0
VERTEX
  5
267F
  8
SAPA_FOGBAND
 10
-45.22854255902417
 20
20.971251918495231
 30
0.0
  0
VERTEX
  5
2680
  8
SAPA_FOGBAND
 10
-45.421865476482942
 20
24.205028688483029
 30
0.0
 42
-0.9283781779547513
  0
VERTEX
  5
2681
  8
SAPA_FOGBAND
 10
-45.006386878327483
 20
24.6356057360174
 30
0.0
  0
VERTEX
  5
2682
  8
SAPA_FOGBAND
 10
-44.837173697181477
 20
21.834315430366821
 30
0.0
 42
0.6910703998708235
  0
VERTEX
  5
2683
  8
SAPA_FOGBAND
 10
-44.511746230890147
 20
22.018965147702382
 30
0.0
  0
VERTEX
  5
2684
  8
SAPA_FOGBAND
 10
-44.89761069143583
 20
24.49285336143635
 30
0.0
 42
-0.4602937089574736
  0
VERTEX
  5
2685
  8
SAPA_FOGBAND
 10
-44.699999999999143
 20
24.72367566877643
 30
0.0
  0
VERTEX
  5
2686
  8
SAPA_FOGBAND
 10
-35.499999999998401
 20
24.72367566877643
 30
0.0
 42
-0.7673269879789572
  0
VERTEX
  5
2687
  8
SAPA_FOGBAND
 10
-35.399999999998947
 20
24.3504705880198
 30
0.0
 42
0.267949192431121
  0
VERTEX
  5
2688
  8
SAPA_FOGBAND
 10
-35.499999999998401
 20
24.17726550726298
 30
0.0
  0
VERTEX
  5
2689
  8
SAPA_FOGBAND
 10
-35.499999999998401
 20
21.673675668776252
 30
0.0
  0
VERTEX
  5
268A
  8
SAPA_FOGBAND
 10
-34.399999999998947
 20
21.673675668776252
 30
0.0
  0
VERTEX
  5
268B
  8
SAPA_FOGBAND
 10
-34.291388579558081
 20
22.181730915002628
 30
0.0
 42
-0.4364998583843341
  0
VERTEX
  5
268C
  8
SAPA_FOGBAND
 10
-34.027676570637823
 20
22.310141004872779
 30
0.0
  0
VERTEX
  5
268D
  8
SAPA_FOGBAND
 10
-32.638382853194571
 20
21.77128221139106
 30
0.0
 42
-0.3095538907669666
  0
VERTEX
  5
268E
  8
SAPA_FOGBAND
 10
-31.999999999998408
 20
20.83895553090975
 30
0.0
  0
VERTEX
  5
268F
  8
SAPA_FOGBAND
 10
-31.99999999999886
 20
19.608395806643109
 30
0.0
 42
-0.3095538907669666
  0
VERTEX
  5
2690
  8
SAPA_FOGBAND
 10
-32.638382853194571
 20
18.676069126161799
 30
0.0
  0
VERTEX
  5
2691
  8
SAPA_FOGBAND
 10
-34.027676570638278
 20
18.137210332680532
 30
0.0
 42
-0.4364998583843338
  0
VERTEX
  5
2692
  8
SAPA_FOGBAND
 10
-34.291388579558088
 20
18.26562042255069
 30
0.0
  0
VERTEX
  5
2693
  8
SAPA_FOGBAND
 10
-34.399999999998961
 20
18.773675668776381
 30
0.0
  0
VERTEX
  5
2694
  8
SAPA_FOGBAND
 10
-35.499999999998408
 20
18.773675668776381
 30
0.0
  0
SEQEND
  5
2695
  8
SAPA_FOGBAND
  0
POLYLINE
  5
174A
  8
SAPA_FOGBAND
 66
     1
 10
0.0
 20
0.0
 30
0.0
 70
     1
  0
VERTEX
  5
2696
  8
SAPA_FOGBAND
 10
-37.99999999999843
 20
18.72367566877643
 30
0.0
 42
-0.3533664767746626
  0
VERTEX
  5
2697
  8
SAPA_FOGBAND
 10
-38.39473684210386
 20
18.23488157348698
 30
0.0
 42
-0.162847186097109
  0
VERTEX
  5
2698
  8
SAPA_FOGBAND
 10
-41.833847743324682
 20
18.286918832692439
 30
0.0
 42
-0.2572150309758587
  0
VERTEX
  5
2699
  8
SAPA_FOGBAND
 10
-42.190466027633889
 20
18.611937220160382
 30
0.0
 42
-0.1655934221057593
  0
VERTEX
  5
269A
  8
SAPA_FOGBAND
 10
-42.190466027633882
 20
21.835414117393391
 30
0.0
 42
-0.2572150309758567
  0
VERTEX
  5
269B
  8
SAPA_FOGBAND
 10
-41.833847743324668
 20
22.160432504860871
 30
0.0
 42
-0.1628471860971115
  0
VERTEX
  5
269C
  8
SAPA_FOGBAND
 10
-38.394736842103853
 20
22.212469764066341
 30
0.0
 42
-0.3533664767746627
  0
VERTEX
  5
269D
  8
SAPA_FOGBAND
 10
-37.999999999998423
 20
21.72367566877643
 30
0.0
  0
SEQEND
  5
269E
  8
SAPA_FOGBAND
  0
LINE
  5
174B
  8
SAPA_FOGBAND
 10
-73.499999999998636
 20
-17.599999999999671
 30
0.0
 11
-72.499999999998636
 21
-17.599999999999671
 31
0.0
  0
CIRCLE
  5
174C
  8
SAPA_FOGBAND
 10
-75.057534635653383
 20
-7.999999999999531
 30
0.0
 40
0.25
  0
LINE
  5
174D
  8
SAPA_FOGBAND
 10
-72.499999999998636
 20
-15.099999999999669
 30
0.0
 11
-73.499999999998636
 21
-15.099999999999669
 31
0.0
  0
LINE
  5
174E
  8
SAPA_FOGBAND
 10
-72.499999999998636
 20
-10.099999999999669
 30
0.0
 11
-73.499999999998636
 21
-10.09999999999966
 31
0.0
  0
LINE
  5
174F
  8
SAPA_FOGBAND
 10
-72.999999999998636
 20
-10.09999999999966
 30
0.0
 11
-72.999999999998636
 21
-15.099999999999669
 31
0.0
  0
LINE
  5
1750
  8
SAPA_FOGBAND
 10
-72.499999999998636
 20
-2.5999999999996679
 30
0.0
 11
-73.499999999998636
 21
-2.5999999999996679
 31
0.0
  0
POLYLINE
  5
1751
  8
SAPA_FOGBAND
 66
     1
 10
0.0
 20
0.0
 30
0.0
 70
     1
  0
VERTEX
  5
269F
  8
SAPA_FOGBAND
 10
-76.557534635653155
 20
-8.1500000000005315
 30
0.0
  0
VERTEX
  5
26A0
  8
SAPA_FOGBAND
 10
-78.357534635653792
 20
-8.1500000000000767
 30
0.0
 42
-0.9999999999999996
  0
VERTEX
  5
26A1
  8
SAPA_FOGBAND
 10
-78.357534635653792
 20
-6.8500000000005761
 30
0.0
  0
VERTEX
  5
26A2
  8
SAPA_FOGBAND
 10
-76.557534635653155
 20
-6.8500000000005761
 30
0.0
 42
-0.4142135623730951
  0
VERTEX
  5
26A3
  8
SAPA_FOGBAND
 10
-76.357534635653323
 20
-7.0500000000003951
 30
0.0
  0
VERTEX
  5
26A4
  8
SAPA_FOGBAND
 10
-76.357534635653323
 20
-7.9499999999995756
 30
0.0
 42
-0.4142135623730951
  0
SEQEND
  5
26A5
  8
SAPA_FOGBAND
  0
CIRCLE
  5
1752
  8
SAPA_FOGBAND
 10
-75.057534635653383
 20
7.9999999999995586
 30
0.0
 40
0.25
  0
POLYLINE
  5
1753
  8
SAPA_FOGBAND
 66
     1
 10
0.0
 20
0.0
 30
0.0
  0
VERTEX
  5
26A6
  8
SAPA_FOGBAND
 10
-76.357534635653323
 20
7.0500000000004226
 30
0.0
  0
VERTEX
  5
26A7
  8
SAPA_FOGBAND
 10
-76.35753463565311
 20
7.9499999999996041
 30
0.0
 42
0.4142135623730951
  0
VERTEX
  5
26A8
  8
SAPA_FOGBAND
 10
-76.557534635653155
 20
8.1500000000005581
 30
0.0
  0
VERTEX
  5
26A9
  8
SAPA_FOGBAND
 10
-78.357534635653792
 20
8.1500000000001052
 30
0.0
 42
0.9999999999999998
  0
VERTEX
  5
26AA
  8
SAPA_FOGBAND
 10
-78.357534635653792
 20
6.8499999999999233
 30
0.0
  0
VERTEX
  5
26AB
  8
SAPA_FOGBAND
 10
-76.557534635653155
 20
6.8500000000006054
 30
0.0
 42
0.4142135623730951
  0
VERTEX
  5
26AC
  8
SAPA_FOGBAND
 10
-76.357534635653323
 20
7.0500000000004226
 30
0.0
  0
VERTEX
  5
26AD
  8
SAPA_FOGBAND
 10
-76.357534635653323
 20
7.7999999999997414
 30
0.0
  0
SEQEND
  5
26AE
  8
SAPA_FOGBAND
  0
LINE
  5
1754
  8
SAPA_FOGBAND
 10
-72.499999999998636
 20
9.9000000000003308
 30
0.0
 11
-73.499999999998636
 21
9.9000000000003325
 31
0.0
  0
LINE
  5
1755
  8
SAPA_FOGBAND
 10
-72.499999999998636
 20
2.4000000000003312
 30
0.0
 11
-73.499999999998636
 21
2.4000000000003312
 31
0.0
  0
LINE
  5
1756
  8
SAPA_FOGBAND
 10
-72.499999999998636
 20
14.900000000000331
 30
0.0
 11
-73.499999999998636
 21
14.900000000000331
 31
0.0
  0
LINE
  5
1757
  8
SAPA_FOGBAND
 10
-72.499999999998636
 20
17.400000000000329
 30
0.0
 11
-73.499999999998636
 21
17.400000000000329
 31
0.0
  0
LINE
  5
1758
  8
SAPA_FOGBAND
 10
-72.999999999998636
 20
14.900000000000331
 30
0.0
 11
-72.999999999998636
 21
9.9000000000003325
 31
0.0
  0
LINE
  5
1759
  8
SAPA_FOGBAND
 10
-72.499999999998636
 20
-17.599999999999671
 30
0.0
 11
-72.499999999998636
 21
17.400000000000329
 31
0.0
  0
LINE
  5
175A
  8
SAPA_FOGBAND
 10
-73.499999999998636
 20
17.400000000000329
 30
0.0
 11
-73.499999999998636
 21
-17.599999999999671
 31
0.0
  0
POLYLINE
  5
175B
  8
SAPA_FOGBAND
 66
     1
 10
0.0
 20
0.0
 30
0.0
 70
     1
  0
VERTEX
  5
26AF
  8
SAPA_FOGBAND
 10
-72.534485185378571
 20
-21.651788769293471
 30
0.0
 42
-0.8497079118398895
  0
VERTEX
  5
26B0
  8
SAPA_FOGBAND
 10
-72.921427446888629
 20
-22.09999999999944
 30
0.0
  0
VERTEX
  5
26B1
  8
SAPA_FOGBAND
 10
-76.404540759853262
 20
-16.558529110705859
 30
0.0
 42
-0.2608822022991484
  0
VERTEX
  5
26B2
  8
SAPA_FOGBAND
 10
-76.499999999998408
 20
-16.388026238211051
 30
0.0
  0
VERTEX
  5
26B3
  8
SAPA_FOGBAND
 10
-76.499999999997954
 20
-9.1700000000002841
 30
0.0
 42
0.4142135623730951
  0
VERTEX
  5
26B4
  8
SAPA_FOGBAND
 10
-76.519999999997935
 20
-9.1499999999996202
 30
0.0
  0
VERTEX
  5
26B5
  8
SAPA_FOGBAND
 10
-77.499999999998636
 20
-9.1499999999996202
 30
0.0
  0
VERTEX
  5
26B6
  8
SAPA_FOGBAND
 10
-77.608611420439274
 20
-9.5080552462263626
 30
0.0
 42
-0.4364998583843544
  0
VERTEX
  5
26B7
  8
SAPA_FOGBAND
 10
-77.872323429359994
 20
-9.636465336096748
 30
0.0
  0
VERTEX
  5
26B8
  8
SAPA_FOGBAND
 10
-79.261617146802564
 20
-9.0976065426150257
 30
0.0
 42
-0.3095538907669633
  0
VERTEX
  5
26B9
  8
SAPA_FOGBAND
 10
-79.899999999998727
 20
-8.1652798621337155
 30
0.0
  0
VERTEX
  5
26BA
  8
SAPA_FOGBAND
 10
-79.899999999998499
 20
-6.8347201378662552
 30
0.0
 42
-0.309553890766963
  0
VERTEX
  5
26BB
  8
SAPA_FOGBAND
 10
-79.261617146803246
 20
-5.902393457384945
 30
0.0
  0
VERTEX
  5
26BC
  8
SAPA_FOGBAND
 10
-77.872323429359312
 20
-5.3635346639043604
 30
0.0
 42
-0.4364998583843053
  0
VERTEX
  5
26BD
  8
SAPA_FOGBAND
 10
-77.608611420439274
 20
-5.491944753774745
 30
0.0
  0
VERTEX
  5
26BE
  8
SAPA_FOGBAND
 10
-77.499999999998636
 20
-5.8500000000003487
 30
0.0
  0
VERTEX
  5
26BF
  8
SAPA_FOGBAND
 10
-76.549999999998363
 20
-5.8500000000003487
 30
0.0
 42
0.4142135623730953
  0
VERTEX
  5
26C0
  8
SAPA_FOGBAND
 10
-76.499999999998408
 20
-5.8000000000003951
 30
0.0
  0
VERTEX
  5
26C1
  8
SAPA_FOGBAND
 10
-76.499999999998408
 20
5.8000000000004226
 30
0.0
 42
0.4142135623730951
  0
VERTEX
  5
26C2
  8
SAPA_FOGBAND
 10
-76.549999999998363
 20
5.850000000000378
 30
0.0
  0
VERTEX
  5
26C3
  8
SAPA_FOGBAND
 10
-77.499999999998636
 20
5.850000000000378
 30
0.0
  0
VERTEX
  5
26C4
  8
SAPA_FOGBAND
 10
-77.608611420439274
 20
5.4919447537747743
 30
0.0
 42
-0.4364998583843054
  0
VERTEX
  5
26C5
  8
SAPA_FOGBAND
 10
-77.872323429359994
 20
5.3635346639043879
 30
0.0
  0
VERTEX
  5
26C6
  8
SAPA_FOGBAND
 10
-79.261617146802564
 20
5.9023934573849743
 30
0.0
 42
-0.309553890766963
  0
VERTEX
  5
26C7
  8
SAPA_FOGBAND
 10
-79.899999999998727
 20
6.8347201378662854
 30
0.0
  0
VERTEX
  5
26C8
  8
SAPA_FOGBAND
 10
-79.899999999998499
 20
8.1652798621337421
 30
0.0
 42
-0.3095538907669633
  0
VERTEX
  5
26C9
  8
SAPA_FOGBAND
 10
-79.261617146803246
 20
9.0976065426150541
 30
0.0
  0
VERTEX
  5
26CA
  8
SAPA_FOGBAND
 10
-77.872323429359312
 20
9.6364653360967765
 30
0.0
 42
-0.4364998583843544
  0
VERTEX
  5
26CB
  8
SAPA_FOGBAND
 10
-77.608611420439274
 20
9.5080552462263892
 30
0.0
  0
VERTEX
  5
26CC
  8
SAPA_FOGBAND
 10
-77.499999999998636
 20
9.1499999999996504
 30
0.0
  0
VERTEX
  5
26CD
  8
SAPA_FOGBAND
 10
-76.519999999997935
 20
9.1500000000003325
 30
0.0
 42
0.4142135623730951
  0
VERTEX
  5
26CE
  8
SAPA_FOGBAND
 10
-76.499999999998408
 20
9.1700000000003143
 30
0.0
  0
VERTEX
  5
26CF
  8
SAPA_FOGBAND
 10
-76.499999999998636
 20
16.388026238211079
 30
0.0
 42
-0.2608822022991486
  0
VERTEX
  5
26D0
  8
SAPA_FOGBAND
 10
-76.404540759852807
 20
16.558529110706122
 30
0.0
  0
VERTEX
  5
26D1
  8
SAPA_FOGBAND
 10
-72.922817216677231
 20
21.90000000000045
 30
0.0
 42
-0.8497079118398893
  0
VERTEX
  5
26D2
  8
SAPA_FOGBAND
 10
-72.535874955167174
 20
21.45178876929414
 30
0.0
  0
VERTEX
  5
26D3
  8
SAPA_FOGBAND
 10
-74.012665285346202
 20
15.274100189337121
 30
0.0
  0
VERTEX
  5
26D4
  8
SAPA_FOGBAND
 10
-73.999999999998408
 20
12.779098228429589
 30
0.0
  0
VERTEX
  5
26D5
  8
SAPA_FOGBAND
 10
-73.848341139642571
 20
13.07089734300054
 30
0.0
 42
-0.767326987978962
  0
VERTEX
  5
26D6
  8
SAPA_FOGBAND
 10
-73.515967214874763
 20
12.596121451851801
 30
0.0
  0
VERTEX
  5
26D7
  8
SAPA_FOGBAND
 10
-73.999999999998408
 20
11.00000000000024
 30
0.0
  0
VERTEX
  5
26D8
  8
SAPA_FOGBAND
 10
-73.999999999998408
 20
8.6000000000001506
 30
0.0
  0
VERTEX
  5
26D9
  8
SAPA_FOGBAND
 10
-73.515967214875204
 20
7.0038785481479078
 30
0.0
 42
-0.7673269879789616
  0
VERTEX
  5
26DA
  8
SAPA_FOGBAND
 10
-73.848341139642343
 20
6.5291026569991697
 30
0.0
  0
VERTEX
  5
26DB
  8
SAPA_FOGBAND
 10
-73.999999999998408
 20
6.820901771570802
 30
0.0
  0
VERTEX
  5
26DC
  8
SAPA_FOGBAND
 10
-73.999999999998408
 20
3.3286724168056159
 30
0.0
 42
0.2679491924311367
  0
VERTEX
  5
26DD
  8
SAPA_FOGBAND
 10
-73.899999999998727
 20
3.1554673360488001
 30
0.0
  0
VERTEX
  5
26DE
  8
SAPA_FOGBAND
 10
-72.617285126167189
 20
2.4148915583498489
 30
0.0
 42
-0.5773502691896298
  0
VERTEX
  5
26DF
  8
SAPA_FOGBAND
 10
-72.617285126168099
 20
2.0684813968355358
 30
0.0
  0
VERTEX
  5
26E0
  8
SAPA_FOGBAND
 10
-75.899999999998954
 20
0.1732050807561476
 30
0.0
  0
VERTEX
  5
26E1
  8
SAPA_FOGBAND
 10
-76.049999999998818
 20
0.0866025403786492
 30
0.0
 42
0.5773502691896253
  0
VERTEX
  5
26E2
  8
SAPA_FOGBAND
 10
-76.049999999998818
 20
-0.0866025403783939
 30
0.0
  0
VERTEX
  5
26E3
  8
SAPA_FOGBAND
 10
-75.899999999998954
 20
-0.1732050807572565
 30
0.0
  0
VERTEX
  5
26E4
  8
SAPA_FOGBAND
 10
-72.617285126167189
 20
-2.0684813968352822
 30
0.0
 42
-0.5773502691896298
  0
VERTEX
  5
26E5
  8
SAPA_FOGBAND
 10
-72.617285126168099
 20
-2.4148915583495949
 30
0.0
  0
VERTEX
  5
26E6
  8
SAPA_FOGBAND
 10
-73.899999999998499
 20
-3.1554673360494552
 30
0.0
 42
0.2679491924311367
  0
VERTEX
  5
26E7
  8
SAPA_FOGBAND
 10
-73.999999999998636
 20
-3.3286724168055879
 30
0.0
  0
VERTEX
  5
26E8
  8
SAPA_FOGBAND
 10
-73.999999999998408
 20
-6.8209017715707754
 30
0.0
  0
VERTEX
  5
26E9
  8
SAPA_FOGBAND
 10
-73.848341139642343
 20
-6.5291026570002799
 30
0.0
 42
-0.7673269879789616
  0
VERTEX
  5
26EA
  8
SAPA_FOGBAND
 10
-73.515967214874536
 20
-7.003878548147882
 30
0.0
  0
VERTEX
  5
26EB
  8
SAPA_FOGBAND
 10
-73.999999999998408
 20
-8.6000000000001222
 30
0.0
  0
VERTEX
  5
26EC
  8
SAPA_FOGBAND
 10
-73.999999999998408
 20
-11.00000000000021
 30
0.0
  0
VERTEX
  5
26ED
  8
SAPA_FOGBAND
 10
-73.515967214874763
 20
-12.596121451852451
 30
0.0
 42
-0.767326987978962
  0
VERTEX
  5
26EE
  8
SAPA_FOGBAND
 10
-73.848341139641875
 20
-13.07089734300005
 30
0.0
  0
VERTEX
  5
26EF
  8
SAPA_FOGBAND
 10
-73.999999999998408
 20
-12.779098228429559
 30
0.0
  0
VERTEX
  5
26F0
  8
SAPA_FOGBAND
 10
-73.991785768350155
 20
-15.57544619588019
 30
0.0
  0
SEQEND
  5
26F1
  8
SAPA_FOGBAND
  0
LINE
  5
175C
  8
SAPA_FOGBAND
 10
-72.999999999998636
 20
2.4000000000003312
 30
0.0
 11
-72.999999999998636
 21
-2.5999999999996679
 31
0.0
  0
POLYLINE
  5
175D
  8
SAPA_FOGBAND
 66
     1
 10
0.0
 20
0.0
 30
0.0
 70
     1
  0
VERTEX
  5
26F2
  8
SAPA_FOGBAND
 10
13.06077394688741
 20
-28.500000000685539
 30
0.0
  0
VERTEX
  5
26F3
  8
SAPA_FOGBAND
 10
10.22745498246768
 20
-28.500000000685539
 30
0.0
 42
-0.577350269189628
  0
VERTEX
  5
26F4
  8
SAPA_FOGBAND
 10
9.9676473613322312
 20
-28.05000000068549
 30
0.0
  0
VERTEX
  5
26F5
  8
SAPA_FOGBAND
 10
12.109361571817249
 20
-25.393650503841521
 30
0.0
 42
0.8769764629927237
  0
VERTEX
  5
26F6
  8
SAPA_FOGBAND
 10
11.63742191632598
 20
-25.031518469485611
 30
0.0
  0
VERTEX
  5
26F7
  8
SAPA_FOGBAND
 10
7.6676084073479212
 20
-28.207106781871971
 30
0.0
 42
-0.1989123673796493
  0
VERTEX
  5
26F8
  8
SAPA_FOGBAND
 10
6.9605016261614807
 20
-28.500000000685532
 30
0.0
  0
VERTEX
  5
26F9
  8
SAPA_FOGBAND
 10
5.2095454967269959
 20
-28.500000000685532
 30
0.0
 42
-0.577350269189628
  0
VERTEX
  5
26FA
  8
SAPA_FOGBAND
 10
4.9497378755917731
 20
-28.05000000068549
 30
0.0
  0
VERTEX
  5
26FB
  8
SAPA_FOGBAND
 10
7.0307859270717978
 20
-25.394519257021901
 30
0.0
 42
0.8769764629928424
  0
VERTEX
  5
26FC
  8
SAPA_FOGBAND
 10
6.5588462715805287
 20
-25.032387222665989
 30
0.0
  0
VERTEX
  5
26FD
  8
SAPA_FOGBAND
 10
2.0928932198042318
 20
-29.282961429185889
 30
0.0
 42
0.1989123673796579
  0
VERTEX
  5
26FE
  8
SAPA_FOGBAND
 10
1.800000000990899
 20
-29.990068210372328
 30
0.0
  0
VERTEX
  5
26FF
  8
SAPA_FOGBAND
 10
1.800000000990899
 20
-30.000000000685532
 30
0.0
 42
0.4142135623730951
  0
VERTEX
  5
2700
  8
SAPA_FOGBAND
 10
2.8000000009908979
 20
-31.000000000685532
 30
0.0
  0
VERTEX
  5
2701
  8
SAPA_FOGBAND
 10
10.03499250175814
 20
-32.16408459980903
 30
0.0
 42
0.6261632875160376
  0
VERTEX
  5
2702
  8
SAPA_FOGBAND
 10
10.344849430276829
 20
-31.72211779638269
 30
0.0
  0
VERTEX
  5
2703
  8
SAPA_FOGBAND
 10
10.191211435488009
 20
-31.445776150396568
 30
0.0
 42
-0.5719685712689121
  0
VERTEX
  5
2704
  8
SAPA_FOGBAND
 10
10.4534123397114
 20
-31.000000000685649
 30
0.0
  0
VERTEX
  5
2705
  8
SAPA_FOGBAND
 10
13.200000000990761
 20
-31.000000000685539
 30
0.0
 42
-0.4142135623730118
  0
VERTEX
  5
2706
  8
SAPA_FOGBAND
 10
13.500000000990941
 20
-31.30000000068549
 30
0.0
  0
VERTEX
  5
2707
  8
SAPA_FOGBAND
 10
13.50000000099071
 20
-32.700000000685577
 30
0.0
 42
0.7754026414785753
  0
VERTEX
  5
2708
  8
SAPA_FOGBAND
 10
14.062791996398619
 20
-32.844707868991463
 30
0.0
  0
VERTEX
  5
2709
  8
SAPA_FOGBAND
 10
18.216425669062509
 20
-25.384550969900491
 30
0.0
 42
0.8680589103333867
  0
VERTEX
  5
270A
  8
SAPA_FOGBAND
 10
17.74150163929874
 20
-25.02771106723856
 30
0.0
  0
VERTEX
  5
270B
  8
SAPA_FOGBAND
 10
13.76788072807385
 20
-28.207106781871978
 30
0.0
 42
-0.1989123673796493
  0
SEQEND
  5
270C
  8
SAPA_FOGBAND
  0
DIMENSION
  5
1767
  8
SAPA_MATT
  2
*D130
 10
-106.8283286202785
 20
-170.0000000037293
 30
0.0
 11
-109.3283286202785
 21
-125.5000000038352
 31
0.0
 70
     0
 13
-70.199949142376113
 23
-81.000000003941025
 33
0.0
 14
-71.699947648271831
 24
-170.0000000037293
 34
0.0
 50
90.0
1001
ACAD
1000
DSTYLE
1002
{
1070
   287
1070
     4
1070
    40
1040
1.0
1070
   279
1070
     1
1002
}
  0
DIMENSION
  5
1768
  8
SAPA_MATT
  2
*D129
 10
-106.8283286202785
 20
-81.000000003941025
 30
0.0
 11
-109.3283286202785
 21
-78.500000001971117
 31
0.0
 70
     0
 13
-64.499946820780622
 23
-76.00000000000118
 33
0.0
 14
-70.199949142376113
 24
-81.000000003941025
 34
0.0
 50
90.0
1001
ACAD
1000
DSTYLE
1002
{
1070
   287
1070
     4
1070
    40
1040
1.0
1070
   279
1070
     1
1002
}
  0
DIMENSION
  5
1769
  8
SAPA_MATT
  2
*D128
 10
-106.8283286202785
 20
-76.000000000001165
 30
0.0
 11
-109.3283286202785
 21
-46.000000000000682
 31
0.0
 70
     0
 13
-77.046446609434525
 23
-16.000000000000149
 33
0.0
 14
-64.499946820780622
 24
-76.00000000000118
 34
0.0
 50
90.0
1001
ACAD
1000
DSTYLE
1002
{
1070
   287
1070
     4
1070
    40
1040
1.0
1070
   279
1070
     1
1002
}
  0
DIMENSION
  5
176A
  8
SAPA_MATT
  2
*D127
 10
-106.8283286202785
 20
-16.000000000000139
 30
0.0
 11
-109.3283286202785
 21
-0.0000000000000216
 31
0.0
 70
     0
 13
-77.046446609404995
 23
16.000000000000131
 33
0.0
 14
-77.046446609434525
 24
-16.000000000000149
 34
0.0
 50
90.0
1001
ACAD
1000
DSTYLE
1002
{
1070
    40
1040
1.0
1002
}
  0
DIMENSION
  5
176B
  8
SAPA_MATT
  2
*D126
 10
79.681587957706242
 20
-24.999999999999321
 30
0.0
 11
77.181587957706242
 21
0.0000000000001802
 31
0.0
 70
     0
 13
61.700939698017777
 23
24.999999999999659
 33
0.0
 14
61.70093969801772
 24
-24.999999999999321
 34
0.0
 50
90.0
1001
ACAD
1000
DSTYLE
1002
{
1070
    40
1040
1.0
1002
}
  0
VIEWPORT
  5
C4
 67
     1
  8
0
 10
272.31690789058263
 20
143.07606935501099
 30
0.0
 40
716.39378764482683
 41
256.8421457311839
 68
     1
 69
     1
1001
ACAD
1000
MVIEW
1002
{
1070
    16
1010
0.0
1020
0.0
1030
0.0
1010
0.0
1020
0.0
1030
1.0
1040
0.0
1040
256.8421457311839
1040
272.31690789058263
1040
143.07606935501099
1040
50.0
1040
0.0
1040
0.0
1070
     0
1070
     0
1070
     1
1070
     1
1070
     0
1070
     0
1070
     0
1070
     0
1040
0.0
1040
0.0
1040
0.0
1040
10.0
1040
10.0
1040
10.0
1040
10.0
1070
     0
1002
{
1002
}
1002
}
  0
ENDSEC
  0
EOF
