  0
SECTION
  2
HEADER
  9
$ACADVER
  1
AC1009
  9
$INSBASE
 10
0.0
 20
0.0
 30
0.0
  9
$EXTMIN
 10
-95.641214679413125
 20
-92.04580783252257
 30
0.0
  9
$EXTMAX
 10
99.291214679413216
 20
11.449685758277271
 30
0.0
  9
$LIMMIN
 10
0.0
 20
0.0
  9
$LIMMAX
 10
790.0
 20
790.0
  9
$ORTHOMODE
 70
     1
  9
$REGENMODE
 70
     1
  9
$FILLMODE
 70
     1
  9
$QTEXTMODE
 70
     0
  9
$MIRRTEXT
 70
     1
  9
$DRAGMODE
 70
     2
  9
$LTSCALE
 40
4.0
  9
$OSMODE
 70
   167
  9
$ATTMODE
 70
     1
  9
$TEXTSIZE
 40
3.5
  9
$TRACEWID
 40
0.05
  9
$TEXTSTYLE
  7
ISO
  9
$CLAYER
  8
0
  9
$CELTYPE
  6
BYLAYER
  9
$CECOLOR
 62
   256
  9
$DIMSCALE
 40
0.0
  9
$DIMASZ
 40
3.0
  9
$DIMEXO
 40
1.5
  9
$DIMDLI
 40
10.0
  9
$DIMRND
 40
0.0
  9
$DIMDLE
 40
0.0
  9
$DIMEXE
 40
1.5
  9
$DIMTP
 40
0.0
  9
$DIMTM
 40
0.0
  9
$DIMTXT
 40
3.0
  9
$DIMCEN
 40
-5.0
  9
$DIMTSZ
 40
0.0
  9
$DIMTOL
 70
     0
  9
$DIMLIM
 70
     0
  9
$DIMTIH
 70
     0
  9
$DIMTOH
 70
     0
  9
$DIMSE1
 70
     0
  9
$DIMSE2
 70
     0
  9
$DIMTAD
 70
     1
  9
$DIMZIN
 70
     8
  9
$DIMBLK
  1

  9
$DIMASO
 70
     1
  9
$DIMSHO
 70
     1
  9
$DIMPOST
  1

  9
$DIMAPOST
  1

  9
$DIMALT
 70
     0
  9
$DIMALTD
 70
     0
  9
$DIMALTF
 40
25.399999999999999
  9
$DIMLFAC
 40
-1.0
  9
$DIMTOFL
 70
     1
  9
$DIMTVP
 40
0.0
  9
$DIMTIX
 70
     0
  9
$DIMSOXD
 70
     0
  9
$DIMSAH
 70
     0
  9
$DIMBLK1
  1

  9
$DIMBLK2
  1

  9
$DIMSTYLE
  2
MASKIN
  9
$DIMCLRD
 70
   256
  9
$DIMCLRE
 70
   256
  9
$DIMCLRT
 70
     2
  9
$DIMTFAC
 40
1.0
  9
$DIMGAP
 40
1.0
  9
$LUNITS
 70
     2
  9
$LUPREC
 70
     8
  9
$SKETCHINC
 40
0.1
  9
$FILLETRAD
 40
0.0
  9
$AUNITS
 70
     0
  9
$AUPREC
 70
     8
  9
$MENU
  1
ACAD
  9
$ELEVATION
 40
0.0
  9
$PELEVATION
 40
0.0
  9
$THICKNESS
 40
0.0
  9
$LIMCHECK
 70
     0
  9
$BLIPMODE
 70
     0
  9
$CHAMFERA
 40
0.0
  9
$CHAMFERB
 40
0.0
  9
$SKPOLY
 70
     0
  9
$TDCREATE
 40
2454903.7404775689
  9
$TDUPDATE
 40
2455056.6421833569
  9
$TDINDWG
 40
0.0053065394
  9
$TDUSRTIMER
 40
0.0053065394
  9
$USRTIMER
 70
     1
  9
$ANGBASE
 50
0.0
  9
$ANGDIR
 70
     0
  9
$PDMODE
 70
     0
  9
$PDSIZE
 40
0.0
  9
$PLINEWID
 40
0.0
  9
$COORDS
 70
     1
  9
$SPLFRAME
 70
     0
  9
$SPLINETYPE
 70
     6
  9
$SPLINESEGS
 70
     8
  9
$ATTDIA
 70
     0
  9
$ATTREQ
 70
     1
  9
$HANDLING
 70
     1
  9
$HANDSEED
  5
1196
  9
$SURFTAB1
 70
     6
  9
$SURFTAB2
 70
     6
  9
$SURFTYPE
 70
     6
  9
$SURFU
 70
     6
  9
$SURFV
 70
     6
  9
$UCSNAME
  2

  9
$UCSORG
 10
0.0
 20
0.0
 30
0.0
  9
$UCSXDIR
 10
1.0
 20
0.0
 30
0.0
  9
$UCSYDIR
 10
0.0
 20
1.0
 30
0.0
  9
$PUCSNAME
  2

  9
$PUCSORG
 10
0.0
 20
0.0
 30
0.0
  9
$PUCSXDIR
 10
1.0
 20
0.0
 30
0.0
  9
$PUCSYDIR
 10
0.0
 20
1.0
 30
0.0
  9
$USERI1
 70
     0
  9
$USERI2
 70
     0
  9
$USERI3
 70
     0
  9
$USERI4
 70
     0
  9
$USERI5
 70
     0
  9
$USERR1
 40
0.0
  9
$USERR2
 40
0.0
  9
$USERR3
 40
0.0
  9
$USERR4
 40
0.0
  9
$USERR5
 40
0.0
  9
$WORLDVIEW
 70
     1
  9
$SHADEDGE
 70
     3
  9
$SHADEDIF
 70
    70
  9
$TILEMODE
 70
     1
  9
$MAXACTVP
 70
    16
  9
$PLIMCHECK
 70
     0
  9
$PEXTMIN
 10
1.0000000000000000E+020
 20
1.0000000000000000E+020
 30
1.0000000000000000E+020
  9
$PEXTMAX
 10
-1.0000000000000000E+020
 20
-1.0000000000000000E+020
 30
-1.0000000000000000E+020
  9
$PLIMMIN
 10
-5.069427490234375
 20
-5.8737497329711914
  9
$PLIMMAX
 10
291.89889526367187
 20
204.0995779037475
  9
$UNITMODE
 70
     0
  9
$VISRETAIN
 70
     1
  9
$PLINEGEN
 70
     0
  9
$PSLTSCALE
 70
     1
  0
ENDSEC
  0
SECTION
  2
TABLES
  0
TABLE
  2
VPORT
 70
     1
  0
VPORT
  2
*ACTIVE
 70
     0
 10
0.0
 20
0.0
 11
1.0
 21
1.0
 12
43.744957736701643
 22
-41.467068656564258
 13
0.0
 23
0.0
 14
1.0
 24
1.0
 15
0.0
 25
0.0
 16
0.0
 26
0.0
 36
1.0
 17
0.0
 27
0.0
 37
0.0
 40
118.4178854637054
 41
2.362776025236593
 42
50.0
 43
0.0
 44
0.0
 50
0.0
 51
0.0
 71
     0
 72
   100
 73
     1
 74
     1
 75
     0
 76
     0
 77
     0
 78
     0
  0
ENDTAB
  0
TABLE
  2
LTYPE
 70
     3
  0
LTYPE
  2
CONTINUOUS
 70
     0
  3
Solid line
 72
    65
 73
     0
 40
0.0
  0
LTYPE
  2
BYGG-01457801$0$NEWDOT
 70
     0
  3
____ . ____ . ____ . ____ . ____ . ____ . ____
 72
    65
 73
     4
 40
2.0
 49
1.0
 49
-0.5
 49
0.0
 49
-0.5
  0
LTYPE
  2
BYGG-014198$0$DASHDOT
 70
     0
  3
__ . __ . __ . __ . __ . __ . __ . __ . __ . __
 72
    65
 73
     4
 40
1.0
 49
0.5
 49
-0.25
 49
0.0
 49
-0.25
  0
ENDTAB
  0
TABLE
  2
LAYER
 70
    36
  0
LAYER
  2
0
 70
     0
 62
     7
  6
CONTINUOUS
  0
LAYER
  2
DEFPOINTS
 70
     0
 62
     7
  6
CONTINUOUS
  0
LAYER
  2
SAPA_ARTIKELNR
 70
     0
 62
     4
  6
CONTINUOUS
  0
LAYER
  2
SAPA_LIGHT
 70
     1
 62
     1
  6
CONTINUOUS
  0
LAYER
  2
SAPA_MATT
 70
     0
 62
     1
  6
CONTINUOUS
  0
LAYER
  2
SAPA_GLAS
 70
     0
 62
     4
  6
CONTINUOUS
  0
LAYER
  2
SAPA_FOGBAND
 70
     0
 62
     2
  6
CONTINUOUS
  0
LAYER
  2
SAPA_PROFIL
 70
     0
 62
     7
  6
CONTINUOUS
  0
ENDTAB
  0
TABLE
  2
STYLE
 70
    11
  0
STYLE
  2
STANDARD
 70
     0
 40
0.0
 41
1.0
 50
0.0
 71
     0
 42
0.2
  3
txt
  4

  0
STYLE
  2
ISO
 70
     0
 40
0.0
 41
1.0
 50
0.0
 71
     0
 42
3.5
  3
txt
  4

  0
STYLE
  2
BYGG-022634$0$STANDARD
 70
     0
 40
0.0
 41
1.0
 50
0.0
 71
     0
 42
0.2
  3
txt
  4

  0
STYLE
  2
BYGG-022634$0$ISO
 70
     0
 40
0.0
 41
1.0
 50
0.0
 71
     0
 42
3.5
  3
txt
  4

  0
STYLE
  2
BYGG-01457801$0$STANDARD
 70
     0
 40
0.0
 41
1.0
 50
0.0
 71
     0
 42
0.2
  3
txt
  4

  0
STYLE
  2
BYGG-01457801$0$ISO
 70
     0
 40
0.0
 41
1.0
 50
0.0
 71
     0
 42
2.5
  3
isocp3.shx
  4

  0
STYLE
  2
BYGG-01457801$0$ANNOTATIVE
 70
     0
 40
0.0
 41
1.0
 50
0.0
 71
     0
 42
0.2
  3
txt
  4

  0
STYLE
  2
BYGG-022709$0$STANDARD
 70
     0
 40
0.0
 41
1.0
 50
0.0
 71
     0
 42
0.2
  3
txt
  4

  0
STYLE
  2
BYGG-022709$0$ISO
 70
     0
 40
0.0
 41
1.0
 50
0.0
 71
     0
 42
3.5
  3
txt
  4

  0
STYLE
  2
BYGG-014198$0$STANDARD
 70
     0
 40
0.0
 41
1.0
 50
0.0
 71
     0
 42
0.2
  3
txt
  4

  0
STYLE
  2
BYGG-014198$0$ISO
 70
     0
 40
0.0
 41
1.0
 50
0.0
 71
     0
 42
3.5
  3
isocp3.shx
  4

  0
ENDTAB
  0
TABLE
  2
VIEW
 70
     0
  0
ENDTAB
  0
TABLE
  2
UCS
 70
     0
  0
ENDTAB
  0
TABLE
  2
APPID
 70
    15
  0
APPID
  2
ACAD
 70
     0
  0
APPID
  2
ACAD_DSTYLE_DIMTEXT_FILL
 70
     0
  0
APPID
  2
ACAD_DSTYLE_DIMEXT_LENGTH
 70
     0
  0
APPID
  2
ACAD_DSTYLE_DIMEXT_ENABLED
 70
     0
  0
APPID
  2
ACAD_DSTYLE_DIM_LINETYPE
 70
     0
  0
APPID
  2
ACAD_DSTYLE_DIM_EXT1_LINETYPE
 70
     0
  0
APPID
  2
ACAD_DSTYLE_DIM_EXT2_LINETYPE
 70
     0
  0
APPID
  2
ACAD_DSTYLE_DIMJOGGED_JOGA
 70
     0
  0
APPID
  2
ACAD_DSTYLE_DIMARC_LENGTH_
 70
     0
  0
APPID
  2
ACAD_PSEXT
 70
     0
  0
APPID
  2
ACAD_MLEADERVER
 70
     0
  0
APPID
  2
ACAD_EXEMPT_FROM_CAD_STANDARDS
 70
     0
  0
APPID
  2
ACADANNOTATIVE
 70
     0
  0
APPID
  2
AMG_ARCHIVE11
 70
     0
  0
APPID
  2
ACAECLAYERSTANDARD
 70
     0
  0
ENDTAB
  0
TABLE
  2
DIMSTYLE
 70
    10
  0
DIMSTYLE
  2
MASKIN
 70
     0
  3

  4

  5

  6

  7

 40
0.0
 41
3.0
 42
1.5
 43
10.0
 44
1.5
 45
0.0
 46
0.0
 47
0.0
 48
0.0
140
3.0
141
-5.0
142
0.0
143
25.399999999999999
144
-1.0
145
0.0
146
1.0
147
1.0
 71
     0
 72
     0
 73
     0
 74
     0
 75
     0
 76
     0
 77
     1
 78
     8
170
     0
171
     0
172
     1
173
     0
174
     0
175
     0
176
   256
177
   256
178
     2
  0
DIMSTYLE
  2
BYGG-022634$0$STANDARD
 70
     0
  3

  4

  5

  6

  7

 40
1.0
 41
0.18
 42
0.0625
 43
0.38
 44
0.18
 45
0.0
 46
0.0
 47
0.0
 48
0.0
140
0.18
141
0.09
142
0.0
143
25.399999999999999
144
1.0
145
0.0
146
1.0
147
0.09
 71
     0
 72
     0
 73
     1
 74
     1
 75
     0
 76
     0
 77
     0
 78
     0
170
     0
171
     2
172
     0
173
     0
174
     0
175
     0
176
     0
177
     0
178
     0
  0
DIMSTYLE
  2
BYGG-022634$0$MASKIN
 70
     0
  3

  4

  5

  6

  7

 40
0.0
 41
3.0
 42
1.5
 43
10.0
 44
1.5
 45
0.0
 46
0.0
 47
0.0
 48
0.0
140
3.0
141
-5.0
142
0.0
143
25.399999999999999
144
-1.0
145
0.0
146
1.0
147
1.0
 71
     0
 72
     0
 73
     0
 74
     0
 75
     0
 76
     0
 77
     1
 78
     8
170
     0
171
     0
172
     1
173
     0
174
     0
175
     0
176
   256
177
   256
178
     2
  0
DIMSTYLE
  2
BYGG-01457801$0$STANDARD
 70
     0
  3

  4

  5

  6

  7

 40
1.0
 41
0.18
 42
0.0625
 43
0.38
 44
0.18
 45
0.0
 46
0.0
 47
0.0
 48
0.0
140
0.18
141
0.09
142
0.0
143
25.399999999999999
144
1.0
145
0.0
146
1.0
147
0.09
 71
     0
 72
     0
 73
     1
 74
     1
 75
     0
 76
     0
 77
     0
 78
     0
170
     0
171
     2
172
     0
173
     0
174
     0
175
     0
176
     0
177
     0
178
     0
  0
DIMSTYLE
  2
BYGG-01457801$0$MASKIN
 70
     0
  3

  4

  5

  6

  7

 40
0.0
 41
3.0
 42
1.5
 43
10.0
 44
1.5
 45
0.0
 46
0.0
 47
0.0
 48
0.0
140
3.0
141
-5.0
142
0.0
143
25.399999999999999
144
-1.0
145
0.0
146
1.0
147
1.0
 71
     0
 72
     0
 73
     0
 74
     1
 75
     0
 76
     0
 77
     1
 78
     8
170
     0
171
     0
172
     1
173
     0
174
     0
175
     0
176
   256
177
   256
178
     2
  0
DIMSTYLE
  2
BYGG-01457801$0$ANNOTATIVE
 70
     0
  3

  4

  5

  6

  7

 40
1.0
 41
0.18
 42
0.0625
 43
0.38
 44
0.18
 45
0.0
 46
0.0
 47
0.0
 48
0.0
140
0.18
141
0.09
142
0.0
143
25.399999999999999
144
1.0
145
0.0
146
1.0
147
0.09
 71
     0
 72
     0
 73
     1
 74
     1
 75
     0
 76
     0
 77
     0
 78
     0
170
     0
171
     2
172
     0
173
     0
174
     0
175
     0
176
     0
177
     0
178
     0
  0
DIMSTYLE
  2
BYGG-022709$0$STANDARD
 70
     0
  3

  4

  5

  6

  7

 40
1.0
 41
0.18
 42
0.0625
 43
0.38
 44
0.18
 45
0.0
 46
0.0
 47
0.0
 48
0.0
140
0.18
141
0.09
142
0.0
143
25.399999999999999
144
1.0
145
0.0
146
1.0
147
0.09
 71
     0
 72
     0
 73
     1
 74
     1
 75
     0
 76
     0
 77
     0
 78
     0
170
     0
171
     2
172
     0
173
     0
174
     0
175
     0
176
     0
177
     0
178
     0
  0
DIMSTYLE
  2
BYGG-022709$0$MASKIN
 70
     0
  3

  4

  5

  6

  7

 40
0.0
 41
3.0
 42
1.5
 43
10.0
 44
1.5
 45
0.0
 46
0.0
 47
0.0
 48
0.0
140
3.0
141
-5.0
142
0.0
143
25.399999999999999
144
-1.0
145
0.0
146
1.0
147
1.0
 71
     0
 72
     0
 73
     0
 74
     0
 75
     0
 76
     0
 77
     1
 78
     8
170
     0
171
     0
172
     1
173
     0
174
     0
175
     0
176
   256
177
   256
178
     2
  0
DIMSTYLE
  2
BYGG-014198$0$STANDARD
 70
     0
  3

  4

  5

  6

  7

 40
1.0
 41
0.18
 42
0.0625
 43
0.38
 44
0.18
 45
0.0
 46
0.0
 47
0.0
 48
0.0
140
0.18
141
0.09
142
0.0
143
25.399999999999999
144
1.0
145
0.0
146
1.0
147
0.09
 71
     0
 72
     0
 73
     1
 74
     1
 75
     0
 76
     0
 77
     0
 78
     0
170
     0
171
     2
172
     0
173
     0
174
     0
175
     0
176
     0
177
     0
178
     0
  0
DIMSTYLE
  2
BYGG-014198$0$MASKIN
 70
     0
  3

  4

  5

  6

  7

 40
0.0
 41
3.0
 42
1.5
 43
10.0
 44
1.5
 45
0.0
 46
0.0
 47
0.0
 48
0.0
140
3.0
141
-5.0
142
0.0
143
25.399999999999999
144
-1.0
145
0.0
146
1.0
147
1.0
 71
     0
 72
     0
 73
     0
 74
     0
 75
     0
 76
     0
 77
     1
 78
     8
170
     0
171
     0
172
     1
173
     0
174
     0
175
     0
176
   256
177
   256
178
   256
  0
ENDTAB
  0
ENDSEC
  0
SECTION
  2
BLOCKS
  0
BLOCK
  8
0
  2
$MODEL_SPACE
 70
     0
 10
0.0
 20
0.0
 30
0.0
  3
$MODEL_SPACE
  1

  0
ENDBLK
  5
37
  8
0
  0
BLOCK
 67
     1
  8
0
  2
$PAPER_SPACE
 70
     0
 10
0.0
 20
0.0
 30
0.0
  3
$PAPER_SPACE
  1

  0
ENDBLK
  5
35
 67
     1
  8
0
  0
BLOCK
  8
0
  2
*D26
 70
     1
 10
0.0
 20
0.0
 30
0.0
  3
*D26
  1

  0
LINE
  5
A39
  8
SAPA_MATT
 10
-77.999999999999915
 20
-59.60000000000025
 30
0.0
 11
-77.999999999999915
 21
-92.045807832522485
 31
0.0
  0
LINE
  5
A3A
  8
SAPA_MATT
 10
0.0000000000000852
 20
-60.050000000000352
 30
0.0
 11
0.0000000000000832
 21
-92.045807832522485
 31
0.0
  0
LINE
  5
A3B
  8
SAPA_MATT
 10
-74.999999999999915
 20
-90.545807832522485
 30
0.0
 11
-2.9999999999999161
 21
-90.545807832522485
 31
0.0
  0
SOLID
  5
A3C
  8
SAPA_MATT
 10
-74.999999999999915
 20
-90.045807832522485
 30
0.0
 11
-74.999999999999915
 21
-91.045807832522485
 31
0.0
 12
-77.999999999999915
 22
-90.545807832522485
 32
0.0
 13
-77.999999999999915
 23
-90.545807832522485
 33
0.0
  0
SOLID
  5
A3D
  8
SAPA_MATT
 10
-2.9999999999999161
 20
-90.045807832522485
 30
0.0
 11
-2.9999999999999161
 21
-91.045807832522485
 31
0.0
 12
0.0000000000000833
 22
-90.545807832522485
 32
0.0
 13
0.0000000000000833
 23
-90.545807832522485
 33
0.0
  0
INSERT
  5
A3E
  8
0
  2
*U51
 10
0.0
 20
0.0
 30
0.0
  0
POINT
  5
A3F
  8
DEFPOINTS
 62
     0
 10
-77.999999999999915
 20
-58.10000000000025
 30
0.0
  0
POINT
  5
A40
  8
DEFPOINTS
 62
     0
 10
0.0000000000000853
 20
-58.550000000000352
 30
0.0
  0
POINT
  5
A41
  8
DEFPOINTS
 62
     0
 10
0.0000000000000833
 20
-90.545807832522485
 30
0.0
  0
ENDBLK
  5
A0A
  8
0
  0
BLOCK
  8
0
  2
*D27
 70
     1
 10
0.0
 20
0.0
 30
0.0
  3
*D27
  1

  0
LINE
  5
1185
  8
SAPA_MATT
 10
0.0000000000000852
 20
-60.050000000000352
 30
0.0
 11
0.0000000000000832
 21
-92.045807832522485
 31
0.0
  0
LINE
  5
1186
  8
SAPA_MATT
 10
5.9999999999999991
 20
-60.050000000000303
 30
0.0
 11
5.9999999999999973
 21
-92.045807832522485
 31
0.0
  0
LINE
  5
1187
  8
SAPA_MATT
 10
-2.9999999999999161
 20
-90.545807832522485
 30
0.0
 11
-5.9999999999999156
 21
-90.545807832522485
 31
0.0
  0
LINE
  5
1188
  8
SAPA_MATT
 10
8.9999999999999964
 20
-90.545807832522485
 30
0.0
 11
11.999999999999989
 21
-90.545807832522485
 31
0.0
  0
LINE
  5
1189
  8
SAPA_MATT
 10
0.0000000000000833
 20
-90.545807832522485
 30
0.0
 11
5.9999999999999973
 21
-90.545807832522485
 31
0.0
  0
SOLID
  5
118A
  8
SAPA_MATT
 10
-2.9999999999999161
 20
-90.045807832522485
 30
0.0
 11
-2.9999999999999161
 21
-91.045807832522485
 31
0.0
 12
0.0000000000000833
 22
-90.545807832522485
 32
0.0
 13
0.0000000000000833
 23
-90.545807832522485
 33
0.0
  0
SOLID
  5
118B
  8
SAPA_MATT
 10
8.9999999999999964
 20
-90.045807832522485
 30
0.0
 11
8.9999999999999964
 21
-91.045807832522485
 31
0.0
 12
5.9999999999999973
 22
-90.545807832522485
 32
0.0
 13
5.9999999999999973
 23
-90.545807832522485
 33
0.0
  0
TEXT
  8
SAPA_MATT
  40
3
  5
1194
  62
2
  72
0
  71
0
 10
-3.00000
 20
-93.3558
 30
0.000000
  1
6
  7
ISO
  0
POINT
  5
118D
  8
DEFPOINTS
 62
     0
 10
0.0000000000000853
 20
-58.550000000000352
 30
0.0
  0
POINT
  5
118E
  8
DEFPOINTS
 62
     0
 10
5.9999999999999991
 20
-58.550000000000288
 30
0.0
  0
POINT
  5
118F
  8
DEFPOINTS
 62
     0
 10
5.9999999999999973
 20
-90.545807832522485
 30
0.0
  0
ENDBLK
  5
A18
  8
0
  0
BLOCK
  8
0
  2
*D28
 70
     1
 10
0.0
 20
0.0
 30
0.0
  3
*D28
  1

  0
LINE
  5
117C
  8
SAPA_MATT
 10
5.9999999999999991
 20
-60.050000000000303
 30
0.0
 11
5.9999999999999973
 21
-92.04580783252257
 31
0.0
  0
LINE
  5
117D
  8
SAPA_MATT
 10
84.0
 20
-59.60000000000025
 30
0.0
 11
84.0
 21
-92.04580783252257
 31
0.0
  0
LINE
  5
117E
  8
SAPA_MATT
 10
8.9999999999999964
 20
-90.54580783252257
 30
0.0
 11
81.0
 21
-90.54580783252257
 31
0.0
  0
SOLID
  5
117F
  8
SAPA_MATT
 10
8.9999999999999964
 20
-90.045807832522556
 30
0.0
 11
8.9999999999999964
 21
-91.045807832522584
 31
0.0
 12
5.9999999999999973
 22
-90.54580783252257
 32
0.0
 13
5.9999999999999973
 23
-90.54580783252257
 33
0.0
  0
SOLID
  5
1180
  8
SAPA_MATT
 10
81.0
 20
-90.045807832522556
 30
0.0
 11
81.0
 21
-91.045807832522584
 31
0.0
 12
84.0
 22
-90.54580783252257
 32
0.0
 13
84.0
 23
-90.54580783252257
 33
0.0
  0
TEXT
  8
SAPA_MATT
  40
3
  5
1195
  62
2
  72
0
  71
0
 10
39.0000
 20
-93.3558
 30
0.000000
  1
78
  7
ISO
  0
POINT
  5
1182
  8
DEFPOINTS
 62
     0
 10
5.9999999999999991
 20
-58.550000000000288
 30
0.0
  0
POINT
  5
1183
  8
DEFPOINTS
 62
     0
 10
84.0
 20
-58.10000000000025
 30
0.0
  0
POINT
  5
1184
  8
DEFPOINTS
 62
     0
 10
84.0
 20
-90.54580783252257
 30
0.0
  0
ENDBLK
  5
A24
  8
0
  0
BLOCK
  8
0
  2
*U29
 70
     1
 10
0.0
 20
0.0
 30
0.0
  3
*U29
  1

  0
TEXT
  5
A5A
  8
SAPA_ARTIKELNR
 10
-40.322592269381637
 20
-6.356010996214934
 30
0.0
 40
3.5
  1
68074
  7
ISO
  0
ENDBLK
  5
A5C
  8
0
  0
BLOCK
  8
0
  2
*U30
 70
     1
 10
0.0
 20
0.0
 30
0.0
  3
*U30
  1

  0
TEXT
  5
A5E
  8
SAPA_ARTIKELNR
 10
-73.746695659973511
 20
-6.356010996214934
 30
0.0
 40
3.5
  1
42072
  7
ISO
  0
ENDBLK
  5
A60
  8
0
  0
BLOCK
  8
0
  2
*U31
 70
     1
 10
0.0
 20
0.0
 30
0.0
  3
*U31
  1

  0
TEXT
  5
A62
  8
SAPA_ARTIKELNR
 10
27.005829708367308
 20
-6.356010996214934
 30
0.0
 40
3.5
  1
68074
  7
ISO
  0
ENDBLK
  5
A64
  8
0
  0
BLOCK
  8
0
  2
*U32
 70
     1
 10
0.0
 20
0.0
 30
0.0
  3
*U32
  1

  0
TEXT
  5
A66
  8
SAPA_ARTIKELNR
 10
66.790165166677895
 20
-6.356010996214934
 30
0.0
 40
3.5
  1
42072
  7
ISO
  0
ENDBLK
  5
A68
  8
0
  0
BLOCK
  8
0
  2
*U33
 70
     1
 10
0.0
 20
0.0
 30
0.0
  3
*U33
  1

  0
TEXT
  5
A6A
  8
0
 62
     2
 10
-41.099999999999909
 20
-89.545807832522485
 30
0.0
 40
3.0
  1
78
  7
ISO
  0
ENDBLK
  5
A6C
  8
0
  0
BLOCK
  8
0
  2
*U34
 70
     1
 10
0.0
 20
0.0
 30
0.0
  3
*U34
  1

  0
TEXT
  5
B43
  8
0
 62
     2
 10
919.72391383653485
 20
547.10253458471277
 30
0.0
 40
3.0
  1
56
  7
BYGG-01457801$0$ISO
  0
ENDBLK
  5
B45
  8
0
  0
BLOCK
  8
0
  2
*U35
 70
     1
 10
0.0
 20
0.0
 30
0.0
  3
*U35
  1

  0
TEXT
  5
B47
  8
0
 62
     2
 10
970.27478805316582
 20
506.99537380256618
 30
0.0
 40
3.0
  1
50
 50
90.0
  7
BYGG-01457801$0$ISO
  0
ENDBLK
  5
B49
  8
0
  0
BLOCK
  8
0
  2
*U36
 70
     1
 10
0.0
 20
0.0
 30
0.0
  3
*U36
  1

  0
TEXT
  5
B4B
  8
0
 62
     2
 10
908.7983232853536
 20
471.11520364751999
 30
0.0
 40
3.0
  1
78
  7
BYGG-01457801$0$ISO
  0
ENDBLK
  5
B4D
  8
0
  0
BLOCK
  8
0
  2
*U37
 70
     1
 10
0.0
 20
0.0
 30
0.0
  3
*U37
  1

  0
TEXT
  5
BF4
  8
0
 10
37.055390465841519
 20
-420.46468390418471
 30
0.0
 40
3.0
  1
11.5
  7
BYGG-014198$0$ISO
  0
ENDBLK
  5
BF6
  8
0
  0
BLOCK
  8
0
  2
*U38
 70
     1
 10
0.0
 20
0.0
 30
0.0
  3
*U38
  1

  0
TEXT
  5
BFC
  8
0
 10
61.316617707294021
 20
-447.47946737143371
 30
0.0
 40
3.0
  1
22
 50
90.0
  7
BYGG-014198$0$ISO
  0
ENDBLK
  5
BFE
  8
0
  0
BLOCK
  8
0
  2
*U39
 70
     1
 10
0.0
 20
0.0
 30
0.0
  3
*U39
  1

  0
TEXT
  5
C01
  8
0
 62
     2
 10
1.9500000000000399
 20
-89.545807832522485
 30
0.0
 40
3.0
  1
6
  7
ISO
  0
ENDBLK
  5
C03
  8
0
  0
BLOCK
  8
0
  2
*U40
 70
     1
 10
0.0
 20
0.0
 30
0.0
  3
*U40
  1

  0
TEXT
  5
C05
  8
0
 62
     2
 10
42.899999999999999
 20
-89.54580783252257
 30
0.0
 40
3.0
  1
78
  7
ISO
  0
ENDBLK
  5
C07
  8
0
  0
BLOCK
  8
0
  2
*U41
 70
     1
 10
0.0
 20
0.0
 30
0.0
  3
*U41
  1

  0
TEXT
  5
C09
  8
0
 10
-92.791214679413073
 20
-17.662132034356279
 30
0.0
 40
3.0
  1
11.5
 50
90.0
  7
BYGG-014198$0$ISO
  0
ENDBLK
  5
C0B
  8
0
  0
BLOCK
  8
0
  2
*U42
 70
     1
 10
0.0
 20
0.0
 30
0.0
  3
*U42
  1

  0
TEXT
  5
C0D
  8
0
 10
-70.080427275156225
 20
8.5996857582772641
 30
0.0
 40
3.0
  1
22
  7
BYGG-014198$0$ISO
  0
ENDBLK
  5
C0F
  8
0
  0
BLOCK
  8
0
  2
*U43
 70
     1
 10
0.0
 20
0.0
 30
0.0
  3
*U43
  1

  0
TEXT
  5
C11
  8
0
 62
     2
 10
36.174409448818793
 20
2.155979679784199
 30
0.0
 40
3.0
  1
56
 50
180.0
  7
BYGG-01457801$0$ISO
  0
ENDBLK
  5
C13
  8
0
  0
BLOCK
  8
0
  2
*U44
 70
     1
 10
0.0
 20
0.0
 30
0.0
  3
*U44
  1

  0
TEXT
  5
C15
  8
0
 62
     2
 10
-14.37646476781241
 20
-31.748818897638159
 30
0.0
 40
3.0
  1
50
 50
270.0
  7
BYGG-01457801$0$ISO
  0
ENDBLK
  5
C17
  8
0
  0
BLOCK
  8
0
  2
*U45
 70
     1
 10
0.0
 20
0.0
 30
0.0
  3
*U45
  1

  0
TEXT
  5
C19
  8
0
 62
     2
 10
47.100000000000001
 20
-73.831351257408656
 30
0.0
 40
3.0
  1
78
 50
180.0
  7
BYGG-01457801$0$ISO
  0
ENDBLK
  5
C1B
  8
0
  0
BLOCK
  8
0
  2
*U46
 70
     1
 10
0.0
 20
0.0
 30
0.0
  3
*U46
  1

  0
TEXT
  5
C1D
  8
0
 10
96.791214679413216
 20
-17.662132034356269
 30
0.0
 40
3.0
  1
11.5
 50
90.000000000000028
  7
BYGG-014198$0$ISO
  0
ENDBLK
  5
C1F
  8
0
  0
BLOCK
  8
0
  2
*U47
 70
     1
 10
0.0
 20
0.0
 30
0.0
  3
*U47
  1

  0
TEXT
  5
C21
  8
0
 10
76.080427275156339
 20
6.5990952070961733
 30
0.0
 40
3.0
  1
22
 50
180.0
  7
BYGG-014198$0$ISO
  0
ENDBLK
  5
C23
  8
0
  0
BLOCK
  8
0
  2
*U48
 70
     1
 10
0.0
 20
0.0
 30
0.0
  3
*U48
  1

  0
TEXT
  5
F19
  8
0
 62
     2
 10
-30.174409448818778
 20
4.1559796797841946
 30
0.0
 40
3.0
  1
56
  7
BYGG-01457801$0$ISO
  0
ENDBLK
  5
F1B
  8
0
  0
BLOCK
  8
0
  2
*U49
 70
     1
 10
0.0
 20
0.0
 30
0.0
  3
*U49
  1

  0
TEXT
  5
F1D
  8
0
 62
     2
 10
20.376464767812429
 20
-35.951181102362568
 30
0.0
 40
3.0
  1
50
 50
90.0
  7
BYGG-01457801$0$ISO
  0
ENDBLK
  5
F1F
  8
0
  0
BLOCK
  8
0
  2
*U50
 70
     1
 10
0.0
 20
0.0
 30
0.0
  3
*U50
  1

  0
TEXT
  5
F21
  8
0
 62
     2
 10
-41.100000000000001
 20
-71.831351257408642
 30
0.0
 40
3.0
  1
78
  7
BYGG-01457801$0$ISO
  0
ENDBLK
  5
F23
  8
0
  0
BLOCK
  8
0
  2
*U51
 70
     1
 10
0.0
 20
0.0
 30
0.0
  3
*U51
  1

  0
TEXT
  5
1191
  8
SAPA_MATT
 62
     2
 10
-41.099999999999909
 20
-89.545807832522485
 30
0.0
 40
3.0
  1
78
  7
ISO
  0
ENDBLK
  5
1193
  8
0
  0
ENDSEC
  0
SECTION
  2
ENTITIES
  0
INSERT
  5
6D5
  8
0
  2
*U29
 10
0.0
 20
0.0
 30
0.0
  0
INSERT
  5
6D6
  8
0
  2
*U30
 10
0.0
 20
0.0
 30
0.0
  0
INSERT
  5
6D7
  8
0
  2
*U31
 10
0.0
 20
0.0
 30
0.0
  0
INSERT
  5
6D8
  8
0
  2
*U32
 10
0.0
 20
0.0
 30
0.0
  0
POLYLINE
  5
76E
  8
SAPA_LIGHT
 66
     1
 10
0.0
 20
0.0
 30
0.0
  0
VERTEX
  5
A6D
  8
SAPA_LIGHT
 10
-77.999999999999901
 20
-58.850000000000321
 30
0.0
  0
VERTEX
  5
A6E
  8
SAPA_LIGHT
 10
2.9852612810228711
 20
-58.85000000000035
 30
0.0
  0
VERTEX
  5
A6F
  8
SAPA_LIGHT
 10
2.9852612810228991
 20
-8.8500000000003638
 30
0.0
  0
VERTEX
  5
A70
  8
SAPA_LIGHT
 10
-78.0
 20
-8.8500000000003602
 30
0.0
  0
VERTEX
  5
A71
  8
SAPA_LIGHT
 10
-77.999999999999858
 20
-26.450000000000351
 30
0.0
  0
VERTEX
  5
A72
  8
SAPA_LIGHT
 10
-55.799999999999841
 20
-26.450000000000351
 30
0.0
  0
VERTEX
  5
A73
  8
SAPA_LIGHT
 10
-55.799999999999869
 20
-54.350000000000357
 30
0.0
  0
VERTEX
  5
A74
  8
SAPA_LIGHT
 10
-77.999999999999872
 20
-54.35000000000035
 30
0.0
  0
VERTEX
  5
A75
  8
SAPA_LIGHT
 10
-77.999999999999901
 20
-58.850000000000321
 30
0.0
  0
SEQEND
  5
A76
  8
SAPA_LIGHT
  0
POLYLINE
  5
76F
  8
SAPA_LIGHT
 66
     1
 10
0.0
 20
0.0
 30
0.0
  0
VERTEX
  5
A77
  8
SAPA_LIGHT
 10
-89.799999999999983
 20
-50.450000000000223
 30
0.0
  0
VERTEX
  5
A78
  8
SAPA_LIGHT
 10
-61.000000000000199
 20
-50.450000000000223
 30
0.0
  0
VERTEX
  5
A79
  8
SAPA_LIGHT
 10
-61.000000000000199
 20
-26.45000000000022
 30
0.0
  0
VERTEX
  5
A7A
  8
SAPA_LIGHT
 10
-89.799999999999983
 20
-26.45000000000044
 30
0.0
  0
SEQEND
  5
A7B
  8
SAPA_LIGHT
  0
POLYLINE
  5
770
  8
SAPA_LIGHT
 66
     1
 10
0.0
 20
0.0
 30
0.0
  0
VERTEX
  5
A7C
  8
SAPA_LIGHT
 10
84.000000000000014
 20
-58.850000000000321
 30
0.0
  0
VERTEX
  5
A7D
  8
SAPA_LIGHT
 10
2.9852612810228991
 20
-58.85000000000035
 30
0.0
  0
VERTEX
  5
A7E
  8
SAPA_LIGHT
 10
2.9852612810228711
 20
-8.8500000000003638
 30
0.0
  0
VERTEX
  5
A7F
  8
SAPA_LIGHT
 10
84.000000000000114
 20
-8.8500000000003602
 30
0.0
  0
VERTEX
  5
A80
  8
SAPA_LIGHT
 10
83.999999999999957
 20
-26.450000000000351
 30
0.0
  0
VERTEX
  5
A81
  8
SAPA_LIGHT
 10
61.799999999999962
 20
-26.450000000000351
 30
0.0
  0
VERTEX
  5
A82
  8
SAPA_LIGHT
 10
61.79999999999999
 20
-54.350000000000357
 30
0.0
  0
VERTEX
  5
A83
  8
SAPA_LIGHT
 10
83.999999999999986
 20
-54.35000000000035
 30
0.0
  0
VERTEX
  5
A84
  8
SAPA_LIGHT
 10
84.000000000000014
 20
-58.850000000000321
 30
0.0
  0
SEQEND
  5
A85
  8
SAPA_LIGHT
  0
POLYLINE
  5
771
  8
SAPA_LIGHT
 66
     1
 10
0.0
 20
0.0
 30
0.0
  0
VERTEX
  5
A86
  8
SAPA_LIGHT
 10
95.800000000000097
 20
-50.450000000000223
 30
0.0
  0
VERTEX
  5
A87
  8
SAPA_LIGHT
 10
67.000000000000313
 20
-50.450000000000223
 30
0.0
  0
VERTEX
  5
A88
  8
SAPA_LIGHT
 10
67.000000000000313
 20
-26.45000000000022
 30
0.0
  0
VERTEX
  5
A89
  8
SAPA_LIGHT
 10
95.800000000000097
 20
-26.45000000000044
 30
0.0
  0
SEQEND
  5
A8A
  8
SAPA_LIGHT
  0
POLYLINE
  5
9A8
  8
SAPA_PROFIL
 66
     1
 10
0.0
 20
0.0
 30
0.0
 70
     1
  0
VERTEX
  5
D9E
  8
SAPA_PROFIL
 10
84.000000000000114
 20
-20.050000000000349
 30
0.0
 42
-0.4142135623730951
  0
VERTEX
  5
D9F
  8
SAPA_PROFIL
 10
83.700000000000088
 20
-20.350000000000311
 30
0.0
  0
VERTEX
  5
DA0
  8
SAPA_PROFIL
 10
82.49000000000018
 20
-20.350000000000311
 30
0.0
 42
-0.4142135623730951
  0
VERTEX
  5
DA1
  8
SAPA_PROFIL
 10
81.500000000000185
 20
-19.360000000000301
 30
0.0
  0
VERTEX
  5
DA2
  8
SAPA_PROFIL
 10
81.500000000000185
 20
-19.150000000000261
 30
0.0
  0
VERTEX
  5
DA3
  8
SAPA_PROFIL
 10
82.750000000000185
 20
-19.150000000000261
 30
0.0
  0
VERTEX
  5
DA4
  8
SAPA_PROFIL
 10
82.750000000000185
 20
-17.850000000000311
 30
0.0
 42
0.4142135623730951
  0
VERTEX
  5
DA5
  8
SAPA_PROFIL
 10
82.250000000000171
 20
-17.3500000000003
 30
0.0
  0
VERTEX
  5
DA6
  8
SAPA_PROFIL
 10
74.250000000000171
 20
-17.3500000000003
 30
0.0
 42
0.4142135623730951
  0
VERTEX
  5
DA7
  8
SAPA_PROFIL
 10
73.750000000000171
 20
-17.850000000000311
 30
0.0
  0
VERTEX
  5
DA8
  8
SAPA_PROFIL
 10
73.750000000000171
 20
-19.150000000000261
 30
0.0
  0
VERTEX
  5
DA9
  8
SAPA_PROFIL
 10
75.000000000000171
 20
-19.150000000000261
 30
0.0
  0
VERTEX
  5
DAA
  8
SAPA_PROFIL
 10
75.000000000000171
 20
-19.360000000000301
 30
0.0
 42
-0.4142135623730867
  0
VERTEX
  5
DAB
  8
SAPA_PROFIL
 10
74.010000000000161
 20
-20.350000000000311
 30
0.0
  0
VERTEX
  5
DAC
  8
SAPA_PROFIL
 10
73.490000000000165
 20
-20.350000000000311
 30
0.0
 42
-0.4142135623730951
  0
VERTEX
  5
DAD
  8
SAPA_PROFIL
 10
72.500000000000171
 20
-19.360000000000301
 30
0.0
  0
VERTEX
  5
DAE
  8
SAPA_PROFIL
 10
72.500000000000171
 20
-17.150000000000261
 30
0.0
 42
-0.4142135623730951
  0
VERTEX
  5
DAF
  8
SAPA_PROFIL
 10
74.000000000000171
 20
-15.65000000000026
 30
0.0
  0
VERTEX
  5
DB0
  8
SAPA_PROFIL
 10
82.000000000000171
 20
-15.65000000000026
 30
0.0
 42
0.4142135623730951
  0
VERTEX
  5
DB1
  8
SAPA_PROFIL
 10
82.500000000000171
 20
-15.15000000000026
 30
0.0
  0
VERTEX
  5
DB2
  8
SAPA_PROFIL
 10
82.500000000000171
 20
-10.850000000000311
 30
0.0
 42
0.4142135623730951
  0
VERTEX
  5
DB3
  8
SAPA_PROFIL
 10
82.000000000000171
 20
-10.350000000000311
 30
0.0
  0
VERTEX
  5
DB4
  8
SAPA_PROFIL
 10
69.258153378746329
 20
-10.350000000000311
 30
0.0
 42
0.493145426031308
  0
VERTEX
  5
DB5
  8
SAPA_PROFIL
 10
68.775190465601781
 20
-10.979409522551631
 30
0.0
  0
VERTEX
  5
DB6
  8
SAPA_PROFIL
 10
69.241158122023649
 20
-12.718424491001709
 30
0.0
 42
-0.9999999999999452
  0
VERTEX
  5
DB7
  8
SAPA_PROFIL
 10
68.275232295734554
 20
-12.97724353610425
 30
0.0
  0
VERTEX
  5
DB8
  8
SAPA_PROFIL
 10
67.914306240702103
 20
-11.63024916094747
 30
0.0
 42
0.6613727838043239
  0
VERTEX
  5
DB9
  8
SAPA_PROFIL
 10
65.980410903292807
 20
-11.3733884699705
 30
0.0
  0
VERTEX
  5
DBA
  8
SAPA_PROFIL
 10
62.671264511915638
 20
-17.104998149518959
 30
0.0
  0
VERTEX
  5
DBB
  8
SAPA_PROFIL
 10
62.671264511915638
 20
-21.393078061834959
 30
0.0
  0
VERTEX
  5
DBC
  8
SAPA_PROFIL
 10
59.078483428499283
 20
-25.550000000000299
 30
0.0
  0
VERTEX
  5
DBD
  8
SAPA_PROFIL
 10
59.078483428499233
 20
-27.549999545087591
 30
0.0
 42
-1.0
  0
VERTEX
  5
DBE
  8
SAPA_PROFIL
 10
58.078483428499283
 20
-27.550000000000299
 30
0.0
  0
VERTEX
  5
DBF
  8
SAPA_PROFIL
 10
58.078483428499283
 20
-25.350000000000311
 30
0.0
  0
VERTEX
  5
DC0
  8
SAPA_PROFIL
 10
61.171264511915631
 20
-21.275436851032111
 30
0.0
  0
VERTEX
  5
DC1
  8
SAPA_PROFIL
 10
61.171264511915631
 20
-16.703074360872218
 30
0.0
  0
VERTEX
  5
DC2
  8
SAPA_PROFIL
 10
61.372226406239001
 20
-16.354998149518959
 30
0.0
  0
VERTEX
  5
DC3
  8
SAPA_PROFIL
 10
62.346953113330983
 20
-15.100000000000311
 30
0.0
 42
0.5773502691896074
  0
VERTEX
  5
DC4
  8
SAPA_PROFIL
 10
61.91394041143883
 20
-14.3500000000003
 30
0.0
  0
VERTEX
  5
DC5
  8
SAPA_PROFIL
 10
61.72929854587062
 20
-14.3500000000003
 30
0.0
  0
VERTEX
  5
DC6
  8
SAPA_PROFIL
 10
61.72929854587062
 20
-12.850000000000311
 30
0.0
  0
VERTEX
  5
DC7
  8
SAPA_PROFIL
 10
63.107162896777929
 20
-12.850000000000311
 30
0.0
 42
0.2679491924311161
  0
VERTEX
  5
DC8
  8
SAPA_PROFIL
 10
63.540175598670089
 20
-12.600000000000311
 30
0.0
  0
VERTEX
  5
DC9
  8
SAPA_PROFIL
 10
64.406201002454509
 20
-11.1000000000003
 30
0.0
 42
0.3494280882832233
  0
VERTEX
  5
DCA
  8
SAPA_PROFIL
 10
63.187594325157647
 20
-10.350000000000311
 30
0.0
  0
VERTEX
  5
DCB
  8
SAPA_PROFIL
 10
62.928429243660268
 20
-10.350000000000311
 30
0.0
  0
VERTEX
  5
DCC
  8
SAPA_PROFIL
 10
62.928429243660268
 20
-10.139684938534
 30
0.0
  0
VERTEX
  5
DCD
  8
SAPA_PROFIL
 10
62.928429243660268
 20
-8.8500000000003052
 30
0.0
  0
VERTEX
  5
DCE
  8
SAPA_PROFIL
 10
83.700000000000088
 20
-8.8500000000003052
 30
0.0
 42
-0.4142135623730951
  0
VERTEX
  5
DCF
  8
SAPA_PROFIL
 10
84.000000000000114
 20
-9.1500000000003752
 30
0.0
  0
SEQEND
  5
DD0
  8
SAPA_PROFIL
  0
POLYLINE
  5
9A9
  8
SAPA_PROFIL
 66
     1
 10
0.0
 20
0.0
 30
0.0
 70
     1
  0
VERTEX
  5
DD1
  8
SAPA_PROFIL
 10
11.299999999999949
 20
-26.050000000000409
 30
0.0
  0
VERTEX
  5
DD2
  8
SAPA_PROFIL
 10
11.299999999999949
 20
-18.575000000000269
 30
0.0
 42
-0.4142135623730951
  0
VERTEX
  5
DD3
  8
SAPA_PROFIL
 10
11.799999999999949
 20
-18.075000000000269
 30
0.0
  0
VERTEX
  5
DD4
  8
SAPA_PROFIL
 10
13.499999999999879
 20
-18.07500000000039
 30
0.0
 42
0.4142135623730951
  0
VERTEX
  5
DD5
  8
SAPA_PROFIL
 10
18.099999999999909
 20
-13.47500000000036
 30
0.0
  0
VERTEX
  5
DD6
  8
SAPA_PROFIL
 10
18.099999999999909
 20
-11.65000000000032
 30
0.0
 42
-0.4142135623730951
  0
VERTEX
  5
DD7
  8
SAPA_PROFIL
 10
19.099999999999909
 20
-10.65000000000032
 30
0.0
  0
VERTEX
  5
DD8
  8
SAPA_PROFIL
 10
53.500000000000121
 20
-10.65000000000043
 30
0.0
 42
-0.4142135623730951
  0
VERTEX
  5
DD9
  8
SAPA_PROFIL
 10
54.500000000000107
 20
-11.65000000000043
 30
0.0
  0
VERTEX
  5
DDA
  8
SAPA_PROFIL
 10
54.500000000000107
 20
-31.750000000000458
 30
0.0
 42
0.4142135623730951
  0
VERTEX
  5
DDB
  8
SAPA_PROFIL
 10
55.000000000000107
 20
-32.250000000000462
 30
0.0
  0
VERTEX
  5
DDC
  8
SAPA_PROFIL
 10
55.700000000000038
 20
-32.250000000000462
 30
0.0
 42
0.4150844288340716
  0
VERTEX
  5
DDD
  8
SAPA_PROFIL
 10
56.199997791198832
 20
-31.74851379802044
 30
0.0
 42
-0.3121484461588222
  0
VERTEX
  5
DDE
  8
SAPA_PROFIL
 10
56.522216822930432
 20
-31.27970039516055
 30
0.0
 42
-0.482358125222547
  0
VERTEX
  5
DDF
  8
SAPA_PROFIL
 10
60.224395043236079
 20
-33.475604956763959
 30
0.0
  0
VERTEX
  5
DE0
  8
SAPA_PROFIL
 10
59.849999999999561
 20
-33.850000000000371
 30
0.0
  0
VERTEX
  5
DE1
  8
SAPA_PROFIL
 10
60.224395043236079
 20
-34.224395043236882
 30
0.0
 42
-0.4823574778722663
  0
VERTEX
  5
DE2
  8
SAPA_PROFIL
 10
56.522222222222346
 20
-36.420301658811702
 30
0.0
 42
-0.311333703729445
  0
VERTEX
  5
DE3
  8
SAPA_PROFIL
 10
56.200000000000038
 20
-35.952974084482442
 30
0.0
  0
VERTEX
  5
DE4
  8
SAPA_PROFIL
 10
56.200000000000038
 20
-35.950000000000387
 30
0.0
 42
0.4142135623730951
  0
VERTEX
  5
DE5
  8
SAPA_PROFIL
 10
55.700000000000038
 20
-35.450000000000387
 30
0.0
  0
VERTEX
  5
DE6
  8
SAPA_PROFIL
 10
55.000000000000107
 20
-35.450000000000387
 30
0.0
 42
0.4142135623731117
  0
VERTEX
  5
DE7
  8
SAPA_PROFIL
 10
54.5
 20
-35.950000000000387
 30
0.0
  0
VERTEX
  5
DE8
  8
SAPA_PROFIL
 10
54.5
 20
-56.050000000000352
 30
0.0
 42
-0.4142135623730951
  0
VERTEX
  5
DE9
  8
SAPA_PROFIL
 10
53.5
 20
-57.050000000000352
 30
0.0
  0
VERTEX
  5
DEA
  8
SAPA_PROFIL
 10
19.100000000000019
 20
-57.050000000000352
 30
0.0
 42
-0.4142135623730951
  0
VERTEX
  5
DEB
  8
SAPA_PROFIL
 10
18.100000000000019
 20
-56.050000000000352
 30
0.0
  0
VERTEX
  5
DEC
  8
SAPA_PROFIL
 10
18.100000000000019
 20
-54.225000000000357
 30
0.0
 42
0.4142135623730914
  0
VERTEX
  5
DED
  8
SAPA_PROFIL
 10
13.5
 20
-49.625000000000398
 30
0.0
  0
VERTEX
  5
DEE
  8
SAPA_PROFIL
 10
11.80000000000007
 20
-49.625000000000448
 30
0.0
 42
-0.4142135623730951
  0
VERTEX
  5
DEF
  8
SAPA_PROFIL
 10
11.300000000000059
 20
-49.125000000000448
 30
0.0
  0
VERTEX
  5
DF0
  8
SAPA_PROFIL
 10
11.299999999999949
 20
-41.650000000000368
 30
0.0
 42
-0.4142135623730951
  0
VERTEX
  5
DF1
  8
SAPA_PROFIL
 10
11.600000000000019
 20
-41.35000000000047
 30
0.0
  0
VERTEX
  5
DF2
  8
SAPA_PROFIL
 10
11.70000000000004
 20
-41.350000000000357
 30
0.0
 42
0.4142135623730951
  0
VERTEX
  5
DF3
  8
SAPA_PROFIL
 10
12.0
 20
-41.050000000000409
 30
0.0
  0
VERTEX
  5
DF4
  8
SAPA_PROFIL
 10
12.0
 20
-26.650000000000439
 30
0.0
 42
0.4142135623730951
  0
VERTEX
  5
DF5
  8
SAPA_PROFIL
 10
11.70000000000004
 20
-26.350000000000481
 30
0.0
  0
VERTEX
  5
DF6
  8
SAPA_PROFIL
 10
11.600000000000019
 20
-26.350000000000371
 30
0.0
 42
-0.4142135623730951
  0
SEQEND
  5
DF7
  8
SAPA_PROFIL
  0
POLYLINE
  5
9AA
  8
SAPA_PROFIL
 66
     1
 10
0.0
 20
0.0
 30
0.0
 70
     1
  0
VERTEX
  5
DF8
  8
SAPA_PROFIL
 10
60.999999999999879
 20
-12.85000000000036
 30
0.0
  0
VERTEX
  5
DF9
  8
SAPA_PROFIL
 10
59.999999999999893
 20
-12.85000000000036
 30
0.0
  0
VERTEX
  5
DFA
  8
SAPA_PROFIL
 10
59.999999999999893
 20
-10.65000000000032
 30
0.0
  0
VERTEX
  5
DFB
  8
SAPA_PROFIL
 10
56.999999999999879
 20
-10.65000000000032
 30
0.0
  0
VERTEX
  5
DFC
  8
SAPA_PROFIL
 10
57.0
 20
-29.35000000000036
 30
0.0
  0
VERTEX
  5
DFD
  8
SAPA_PROFIL
 10
60.0
 20
-29.35000000000036
 30
0.0
  0
VERTEX
  5
DFE
  8
SAPA_PROFIL
 10
60.0
 20
-26.85000000000036
 30
0.0
  0
VERTEX
  5
DFF
  8
SAPA_PROFIL
 10
61.0
 20
-26.85000000000036
 30
0.0
  0
VERTEX
  5
E00
  8
SAPA_PROFIL
 10
61.799999999999962
 20
-27.650000000000428
 30
0.0
  0
VERTEX
  5
E01
  8
SAPA_PROFIL
 10
61.799999999999962
 20
-33.330384757729689
 30
0.0
  0
VERTEX
  5
E02
  8
SAPA_PROFIL
 10
61.5
 20
-33.850000000000371
 30
0.0
  0
VERTEX
  5
E03
  8
SAPA_PROFIL
 10
61.799999999999962
 20
-34.369615242271038
 30
0.0
  0
VERTEX
  5
E04
  8
SAPA_PROFIL
 10
61.799999999999962
 20
-40.050000000000402
 30
0.0
  0
VERTEX
  5
E05
  8
SAPA_PROFIL
 10
61.0
 20
-40.850000000000357
 30
0.0
  0
VERTEX
  5
E06
  8
SAPA_PROFIL
 10
60.0
 20
-40.850000000000357
 30
0.0
  0
VERTEX
  5
E07
  8
SAPA_PROFIL
 10
60.0
 20
-38.350000000000357
 30
0.0
  0
VERTEX
  5
E08
  8
SAPA_PROFIL
 10
57.0
 20
-38.350000000000357
 30
0.0
  0
VERTEX
  5
E09
  8
SAPA_PROFIL
 10
57.0
 20
-57.050000000000352
 30
0.0
  0
VERTEX
  5
E0A
  8
SAPA_PROFIL
 10
60.0
 20
-57.050000000000352
 30
0.0
  0
VERTEX
  5
E0B
  8
SAPA_PROFIL
 10
60.0
 20
-54.850000000000357
 30
0.0
  0
VERTEX
  5
E0C
  8
SAPA_PROFIL
 10
61.0
 20
-54.850000000000357
 30
0.0
  0
VERTEX
  5
E0D
  8
SAPA_PROFIL
 10
62.0
 20
-55.850000000000357
 30
0.0
  0
VERTEX
  5
E0E
  8
SAPA_PROFIL
 10
62.0
 20
-57.050000000000352
 30
0.0
  0
VERTEX
  5
E0F
  8
SAPA_PROFIL
 10
72.0
 20
-57.050000000000303
 30
0.0
 42
0.4142135623730951
  0
VERTEX
  5
E10
  8
SAPA_PROFIL
 10
72.5
 20
-56.550000000000288
 30
0.0
  0
VERTEX
  5
E11
  8
SAPA_PROFIL
 10
72.5
 20
-55.340000000000309
 30
0.0
 42
-0.4142135623730951
  0
VERTEX
  5
E12
  8
SAPA_PROFIL
 10
73.490000000000009
 20
-54.350000000000357
 30
0.0
  0
VERTEX
  5
E13
  8
SAPA_PROFIL
 10
74.009999999999991
 20
-54.3500000000003
 30
0.0
 42
-0.4142135623730951
  0
VERTEX
  5
E14
  8
SAPA_PROFIL
 10
75.0
 20
-55.340000000000309
 30
0.0
  0
VERTEX
  5
E15
  8
SAPA_PROFIL
 10
75.0
 20
-55.350000000000307
 30
0.0
  0
VERTEX
  5
E16
  8
SAPA_PROFIL
 10
73.75
 20
-55.350000000000307
 30
0.0
  0
VERTEX
  5
E17
  8
SAPA_PROFIL
 10
73.75
 20
-56.8500000000003
 30
0.0
 42
0.4142135623730951
  0
VERTEX
  5
E18
  8
SAPA_PROFIL
 10
74.25
 20
-57.350000000000307
 30
0.0
  0
VERTEX
  5
E19
  8
SAPA_PROFIL
 10
82.249999999999986
 20
-57.350000000000307
 30
0.0
 42
0.4142135623730951
  0
VERTEX
  5
E1A
  8
SAPA_PROFIL
 10
82.75
 20
-56.8500000000003
 30
0.0
  0
VERTEX
  5
E1B
  8
SAPA_PROFIL
 10
82.75
 20
-55.350000000000307
 30
0.0
  0
VERTEX
  5
E1C
  8
SAPA_PROFIL
 10
81.5
 20
-55.350000000000307
 30
0.0
  0
VERTEX
  5
E1D
  8
SAPA_PROFIL
 10
81.5
 20
-55.340000000000309
 30
0.0
 42
-0.4142135623730951
  0
VERTEX
  5
E1E
  8
SAPA_PROFIL
 10
82.489999999999995
 20
-54.350000000000357
 30
0.0
  0
VERTEX
  5
E1F
  8
SAPA_PROFIL
 10
83.699999999999932
 20
-54.3500000000003
 30
0.0
 42
-0.4142135623731229
  0
VERTEX
  5
E20
  8
SAPA_PROFIL
 10
84.0
 20
-54.650000000000311
 30
0.0
  0
VERTEX
  5
E21
  8
SAPA_PROFIL
 10
84.0
 20
-58.550000000000288
 30
0.0
 42
-0.4142135623730675
  0
VERTEX
  5
E22
  8
SAPA_PROFIL
 10
83.699999999999932
 20
-58.8500000000003
 30
0.0
  0
VERTEX
  5
E23
  8
SAPA_PROFIL
 10
6.2999999999999536
 20
-58.850000000000371
 30
0.0
 42
-0.4142135623731227
  0
VERTEX
  5
E24
  8
SAPA_PROFIL
 10
6.0
 20
-58.550000000000352
 30
0.0
  0
VERTEX
  5
E25
  8
SAPA_PROFIL
 10
6.0
 20
-57.050000000000352
 30
0.0
 42
-0.4142135623730951
  0
VERTEX
  5
E26
  8
SAPA_PROFIL
 10
7.5
 20
-55.550000000000352
 30
0.0
  0
VERTEX
  5
E27
  8
SAPA_PROFIL
 10
8.0
 20
-55.550000000000352
 30
0.0
  0
VERTEX
  5
E28
  8
SAPA_PROFIL
 10
8.0
 20
-56.825000000000387
 30
0.0
  0
VERTEX
  5
E29
  8
SAPA_PROFIL
 10
9.1000000000000227
 20
-56.825000000000387
 30
0.0
  0
VERTEX
  5
E2A
  8
SAPA_PROFIL
 10
9.1000000000000227
 20
-55.850000000000357
 30
0.0
 42
-0.4142135623731227
  0
VERTEX
  5
E2B
  8
SAPA_PROFIL
 10
9.3999999999999773
 20
-55.550000000000409
 30
0.0
  0
VERTEX
  5
E2C
  8
SAPA_PROFIL
 10
10.399999999999981
 20
-55.550000000000409
 30
0.0
  0
VERTEX
  5
E2D
  8
SAPA_PROFIL
 10
10.399999999999981
 20
-56.825000000000387
 30
0.0
  0
VERTEX
  5
E2E
  8
SAPA_PROFIL
 10
13.5
 20
-56.825000000000387
 30
0.0
 42
1.0
  0
VERTEX
  5
E2F
  8
SAPA_PROFIL
 10
13.5
 20
-51.625000000000398
 30
0.0
  0
VERTEX
  5
E30
  8
SAPA_PROFIL
 10
10.400000000000089
 20
-51.625000000000341
 30
0.0
  0
VERTEX
  5
E31
  8
SAPA_PROFIL
 10
10.400000000000089
 20
-52.850000000000421
 30
0.0
  0
VERTEX
  5
E32
  8
SAPA_PROFIL
 10
9.3999999999999773
 20
-52.850000000000421
 30
0.0
 42
-0.4142135623730673
  0
VERTEX
  5
E33
  8
SAPA_PROFIL
 10
9.1000000000000227
 20
-52.550000000000409
 30
0.0
  0
VERTEX
  5
E34
  8
SAPA_PROFIL
 10
9.1000000000000227
 20
-51.625000000000341
 30
0.0
  0
VERTEX
  5
E35
  8
SAPA_PROFIL
 10
8.0
 20
-51.625000000000341
 30
0.0
  0
VERTEX
  5
E36
  8
SAPA_PROFIL
 10
8.0
 20
-52.850000000000357
 30
0.0
  0
VERTEX
  5
E37
  8
SAPA_PROFIL
 10
7.5
 20
-52.850000000000357
 30
0.0
 42
-0.4142135623730951
  0
VERTEX
  5
E38
  8
SAPA_PROFIL
 10
6.0
 20
-51.350000000000371
 30
0.0
  0
VERTEX
  5
E39
  8
SAPA_PROFIL
 10
6.0
 20
-49.900000000000368
 30
0.0
 42
-0.4142135623731227
  0
VERTEX
  5
E3A
  8
SAPA_PROFIL
 10
6.2999999999999536
 20
-49.600000000000357
 30
0.0
  0
VERTEX
  5
E3B
  8
SAPA_PROFIL
 10
8.7999999999999545
 20
-49.600000000000357
 30
0.0
  0
VERTEX
  5
E3C
  8
SAPA_PROFIL
 10
8.7999999999999545
 20
-34.369615242271038
 30
0.0
  0
VERTEX
  5
E3D
  8
SAPA_PROFIL
 10
9.0999999999999091
 20
-33.850000000000371
 30
0.0
  0
VERTEX
  5
E3E
  8
SAPA_PROFIL
 10
8.7999999999999545
 20
-33.330384757729803
 30
0.0
  0
VERTEX
  5
E3F
  8
SAPA_PROFIL
 10
8.7999999999999545
 20
-18.10000000000036
 30
0.0
  0
VERTEX
  5
E40
  8
SAPA_PROFIL
 10
6.2999999999999536
 20
-18.10000000000036
 30
0.0
 42
-0.4142135623730951
  0
VERTEX
  5
E41
  8
SAPA_PROFIL
 10
5.9999999999998863
 20
-17.800000000000288
 30
0.0
  0
VERTEX
  5
E42
  8
SAPA_PROFIL
 10
5.9999999999998863
 20
-16.35000000000036
 30
0.0
 42
-0.4142135623730951
  0
VERTEX
  5
E43
  8
SAPA_PROFIL
 10
7.4999999999998863
 20
-14.85000000000036
 30
0.0
  0
VERTEX
  5
E44
  8
SAPA_PROFIL
 10
7.9999999999998863
 20
-14.85000000000036
 30
0.0
  0
VERTEX
  5
E45
  8
SAPA_PROFIL
 10
7.9999999999998863
 20
-16.07500000000039
 30
0.0
  0
VERTEX
  5
E46
  8
SAPA_PROFIL
 10
9.0999999999999091
 20
-16.07500000000039
 30
0.0
  0
VERTEX
  5
E47
  8
SAPA_PROFIL
 10
9.0999999999999091
 20
-15.15000000000032
 30
0.0
 42
-0.4142135623730951
  0
VERTEX
  5
E48
  8
SAPA_PROFIL
 10
9.3999999999998636
 20
-14.85000000000036
 30
0.0
  0
VERTEX
  5
E49
  8
SAPA_PROFIL
 10
10.399999999999981
 20
-14.85000000000036
 30
0.0
  0
VERTEX
  5
E4A
  8
SAPA_PROFIL
 10
10.399999999999981
 20
-16.07500000000039
 30
0.0
  0
VERTEX
  5
E4B
  8
SAPA_PROFIL
 10
13.499999999999879
 20
-16.07500000000039
 30
0.0
 42
1.0
  0
VERTEX
  5
E4C
  8
SAPA_PROFIL
 10
13.499999999999879
 20
-10.875000000000339
 30
0.0
  0
VERTEX
  5
E4D
  8
SAPA_PROFIL
 10
10.399999999999981
 20
-10.875000000000339
 30
0.0
  0
VERTEX
  5
E4E
  8
SAPA_PROFIL
 10
10.399999999999981
 20
-12.15000000000032
 30
0.0
  0
VERTEX
  5
E4F
  8
SAPA_PROFIL
 10
9.3999999999999773
 20
-12.15000000000032
 30
0.0
 42
-0.4142135623730951
  0
VERTEX
  5
E50
  8
SAPA_PROFIL
 10
9.0999999999999091
 20
-11.85000000000036
 30
0.0
  0
VERTEX
  5
E51
  8
SAPA_PROFIL
 10
9.0999999999999091
 20
-10.875000000000339
 30
0.0
  0
VERTEX
  5
E52
  8
SAPA_PROFIL
 10
7.9999999999998863
 20
-10.875000000000339
 30
0.0
  0
VERTEX
  5
E53
  8
SAPA_PROFIL
 10
7.9999999999998863
 20
-12.15000000000032
 30
0.0
  0
VERTEX
  5
E54
  8
SAPA_PROFIL
 10
7.4999999999998863
 20
-12.15000000000032
 30
0.0
 42
-0.4142135623730951
  0
VERTEX
  5
E55
  8
SAPA_PROFIL
 10
5.9999999999998863
 20
-10.65000000000032
 30
0.0
  0
VERTEX
  5
E56
  8
SAPA_PROFIL
 10
5.9999999999998863
 20
-9.1500000000003183
 30
0.0
 42
-0.4142135623730951
  0
VERTEX
  5
E57
  8
SAPA_PROFIL
 10
6.2999999999999536
 20
-8.8500000000003638
 30
0.0
  0
VERTEX
  5
E58
  8
SAPA_PROFIL
 10
61.999999999999879
 20
-8.8500000000003638
 30
0.0
  0
VERTEX
  5
E59
  8
SAPA_PROFIL
 10
61.999999999999879
 20
-11.85000000000036
 30
0.0
  0
SEQEND
  5
E5A
  8
SAPA_PROFIL
  0
POLYLINE
  5
9AB
  8
SAPA_PROFIL
 66
     1
 10
0.0
 20
0.0
 30
0.0
 70
     1
  0
VERTEX
  5
E5B
  8
SAPA_PROFIL
 10
-78.0
 20
-20.050000000000349
 30
0.0
 42
0.4142135623730951
  0
VERTEX
  5
E5C
  8
SAPA_PROFIL
 10
-77.699999999999989
 20
-20.350000000000311
 30
0.0
  0
VERTEX
  5
E5D
  8
SAPA_PROFIL
 10
-76.490000000000066
 20
-20.350000000000311
 30
0.0
 42
0.4142135623730951
  0
VERTEX
  5
E5E
  8
SAPA_PROFIL
 10
-75.500000000000057
 20
-19.360000000000301
 30
0.0
  0
VERTEX
  5
E5F
  8
SAPA_PROFIL
 10
-75.500000000000057
 20
-19.150000000000261
 30
0.0
  0
VERTEX
  5
E60
  8
SAPA_PROFIL
 10
-76.750000000000057
 20
-19.150000000000261
 30
0.0
  0
VERTEX
  5
E61
  8
SAPA_PROFIL
 10
-76.750000000000057
 20
-17.850000000000311
 30
0.0
 42
-0.4142135623730951
  0
VERTEX
  5
E62
  8
SAPA_PROFIL
 10
-76.250000000000057
 20
-17.3500000000003
 30
0.0
  0
VERTEX
  5
E63
  8
SAPA_PROFIL
 10
-68.250000000000057
 20
-17.3500000000003
 30
0.0
 42
-0.4142135623730951
  0
VERTEX
  5
E64
  8
SAPA_PROFIL
 10
-67.750000000000057
 20
-17.850000000000311
 30
0.0
  0
VERTEX
  5
E65
  8
SAPA_PROFIL
 10
-67.750000000000057
 20
-19.150000000000261
 30
0.0
  0
VERTEX
  5
E66
  8
SAPA_PROFIL
 10
-69.000000000000057
 20
-19.150000000000261
 30
0.0
  0
VERTEX
  5
E67
  8
SAPA_PROFIL
 10
-69.000000000000057
 20
-19.360000000000301
 30
0.0
 42
0.4142135623730867
  0
VERTEX
  5
E68
  8
SAPA_PROFIL
 10
-68.010000000000048
 20
-20.350000000000311
 30
0.0
  0
VERTEX
  5
E69
  8
SAPA_PROFIL
 10
-67.490000000000066
 20
-20.350000000000311
 30
0.0
 42
0.4142135623730951
  0
VERTEX
  5
E6A
  8
SAPA_PROFIL
 10
-66.500000000000057
 20
-19.360000000000301
 30
0.0
  0
VERTEX
  5
E6B
  8
SAPA_PROFIL
 10
-66.500000000000057
 20
-17.150000000000261
 30
0.0
 42
0.4142135623730951
  0
VERTEX
  5
E6C
  8
SAPA_PROFIL
 10
-68.000000000000057
 20
-15.65000000000026
 30
0.0
  0
VERTEX
  5
E6D
  8
SAPA_PROFIL
 10
-76.000000000000057
 20
-15.65000000000026
 30
0.0
 42
-0.4142135623730951
  0
VERTEX
  5
E6E
  8
SAPA_PROFIL
 10
-76.500000000000057
 20
-15.15000000000026
 30
0.0
  0
VERTEX
  5
E6F
  8
SAPA_PROFIL
 10
-76.500000000000057
 20
-10.850000000000311
 30
0.0
 42
-0.4142135623730951
  0
VERTEX
  5
E70
  8
SAPA_PROFIL
 10
-76.000000000000057
 20
-10.350000000000311
 30
0.0
  0
VERTEX
  5
E71
  8
SAPA_PROFIL
 10
-63.258153378746222
 20
-10.350000000000311
 30
0.0
 42
-0.493145426031308
  0
VERTEX
  5
E72
  8
SAPA_PROFIL
 10
-62.775190465601668
 20
-10.979409522551631
 30
0.0
  0
VERTEX
  5
E73
  8
SAPA_PROFIL
 10
-63.241158122023542
 20
-12.718424491001709
 30
0.0
 42
0.9999999999999452
  0
VERTEX
  5
E74
  8
SAPA_PROFIL
 10
-62.27523229573444
 20
-12.97724353610425
 30
0.0
  0
VERTEX
  5
E75
  8
SAPA_PROFIL
 10
-61.91430624070199
 20
-11.63024916094747
 30
0.0
 42
-0.6613727838043239
  0
VERTEX
  5
E76
  8
SAPA_PROFIL
 10
-59.9804109032927
 20
-11.3733884699705
 30
0.0
  0
VERTEX
  5
E77
  8
SAPA_PROFIL
 10
-56.671264511915531
 20
-17.104998149518959
 30
0.0
  0
VERTEX
  5
E78
  8
SAPA_PROFIL
 10
-56.671264511915531
 20
-21.393078061834959
 30
0.0
  0
VERTEX
  5
E79
  8
SAPA_PROFIL
 10
-53.078483428499169
 20
-25.550000000000299
 30
0.0
  0
VERTEX
  5
E7A
  8
SAPA_PROFIL
 10
-53.078483428499112
 20
-27.549999545087591
 30
0.0
 42
1.0
  0
VERTEX
  5
E7B
  8
SAPA_PROFIL
 10
-52.078483428499169
 20
-27.550000000000299
 30
0.0
  0
VERTEX
  5
E7C
  8
SAPA_PROFIL
 10
-52.078483428499169
 20
-25.350000000000311
 30
0.0
  0
VERTEX
  5
E7D
  8
SAPA_PROFIL
 10
-55.171264511915517
 20
-21.275436851032111
 30
0.0
  0
VERTEX
  5
E7E
  8
SAPA_PROFIL
 10
-55.171264511915517
 20
-16.703074360872218
 30
0.0
  0
VERTEX
  5
E7F
  8
SAPA_PROFIL
 10
-55.372226406238887
 20
-16.354998149518959
 30
0.0
  0
VERTEX
  5
E80
  8
SAPA_PROFIL
 10
-56.346953113330869
 20
-15.100000000000311
 30
0.0
 42
-0.5773502691896074
  0
VERTEX
  5
E81
  8
SAPA_PROFIL
 10
-55.913940411438709
 20
-14.3500000000003
 30
0.0
  0
VERTEX
  5
E82
  8
SAPA_PROFIL
 10
-55.729298545870513
 20
-14.3500000000003
 30
0.0
  0
VERTEX
  5
E83
  8
SAPA_PROFIL
 10
-55.729298545870513
 20
-12.850000000000311
 30
0.0
  0
VERTEX
  5
E84
  8
SAPA_PROFIL
 10
-57.107162896777822
 20
-12.850000000000311
 30
0.0
 42
-0.2679491924311161
  0
VERTEX
  5
E85
  8
SAPA_PROFIL
 10
-57.540175598669983
 20
-12.600000000000311
 30
0.0
  0
VERTEX
  5
E86
  8
SAPA_PROFIL
 10
-58.406201002454388
 20
-11.1000000000003
 30
0.0
 42
-0.3494280882832233
  0
VERTEX
  5
E87
  8
SAPA_PROFIL
 10
-57.187594325157526
 20
-10.350000000000311
 30
0.0
  0
VERTEX
  5
E88
  8
SAPA_PROFIL
 10
-56.928429243660162
 20
-10.350000000000311
 30
0.0
  0
VERTEX
  5
E89
  8
SAPA_PROFIL
 10
-56.928429243660162
 20
-10.139684938534
 30
0.0
  0
VERTEX
  5
E8A
  8
SAPA_PROFIL
 10
-56.928429243660162
 20
-8.8500000000003052
 30
0.0
  0
VERTEX
  5
E8B
  8
SAPA_PROFIL
 10
-77.699999999999989
 20
-8.8500000000003052
 30
0.0
 42
0.4142135623730951
  0
VERTEX
  5
E8C
  8
SAPA_PROFIL
 10
-78.0
 20
-9.1500000000003752
 30
0.0
  0
SEQEND
  5
E8D
  8
SAPA_PROFIL
  0
POLYLINE
  5
9AC
  8
SAPA_PROFIL
 66
     1
 10
0.0
 20
0.0
 30
0.0
 70
     1
  0
VERTEX
  5
E8E
  8
SAPA_PROFIL
 10
-5.2999999999999536
 20
-26.050000000000409
 30
0.0
  0
VERTEX
  5
E8F
  8
SAPA_PROFIL
 10
-5.2999999999999536
 20
-18.575000000000269
 30
0.0
 42
0.4142135623730951
  0
VERTEX
  5
E90
  8
SAPA_PROFIL
 10
-5.7999999999999536
 20
-18.075000000000269
 30
0.0
  0
VERTEX
  5
E91
  8
SAPA_PROFIL
 10
-7.4999999999998863
 20
-18.07500000000039
 30
0.0
 42
-0.4142135623730951
  0
VERTEX
  5
E92
  8
SAPA_PROFIL
 10
-12.099999999999911
 20
-13.47500000000036
 30
0.0
  0
VERTEX
  5
E93
  8
SAPA_PROFIL
 10
-12.099999999999911
 20
-11.65000000000032
 30
0.0
 42
0.4142135623730951
  0
VERTEX
  5
E94
  8
SAPA_PROFIL
 10
-13.099999999999911
 20
-10.65000000000032
 30
0.0
  0
VERTEX
  5
E95
  8
SAPA_PROFIL
 10
-47.500000000000107
 20
-10.65000000000043
 30
0.0
 42
0.4142135623730951
  0
VERTEX
  5
E96
  8
SAPA_PROFIL
 10
-48.500000000000121
 20
-11.65000000000043
 30
0.0
  0
VERTEX
  5
E97
  8
SAPA_PROFIL
 10
-48.500000000000121
 20
-31.750000000000458
 30
0.0
 42
-0.4142135623730951
  0
VERTEX
  5
E98
  8
SAPA_PROFIL
 10
-49.000000000000107
 20
-32.250000000000462
 30
0.0
  0
VERTEX
  5
E99
  8
SAPA_PROFIL
 10
-49.700000000000053
 20
-32.250000000000462
 30
0.0
 42
-0.4150844288340716
  0
VERTEX
  5
E9A
  8
SAPA_PROFIL
 10
-50.199997791198818
 20
-31.74851379802044
 30
0.0
 42
0.3121484461588222
  0
VERTEX
  5
E9B
  8
SAPA_PROFIL
 10
-50.522216822930432
 20
-31.27970039516055
 30
0.0
 42
0.482358125222547
  0
VERTEX
  5
E9C
  8
SAPA_PROFIL
 10
-54.224395043236093
 20
-33.475604956763959
 30
0.0
  0
VERTEX
  5
E9D
  8
SAPA_PROFIL
 10
-53.849999999999568
 20
-33.850000000000371
 30
0.0
  0
VERTEX
  5
E9E
  8
SAPA_PROFIL
 10
-54.224395043236093
 20
-34.224395043236882
 30
0.0
 42
0.4823574778722663
  0
VERTEX
  5
E9F
  8
SAPA_PROFIL
 10
-50.522222222222346
 20
-36.420301658811702
 30
0.0
 42
0.311333703729445
  0
VERTEX
  5
EA0
  8
SAPA_PROFIL
 10
-50.200000000000038
 20
-35.952974084482442
 30
0.0
  0
VERTEX
  5
EA1
  8
SAPA_PROFIL
 10
-50.200000000000038
 20
-35.950000000000387
 30
0.0
 42
-0.4142135623730951
  0
VERTEX
  5
EA2
  8
SAPA_PROFIL
 10
-49.700000000000053
 20
-35.450000000000387
 30
0.0
  0
VERTEX
  5
EA3
  8
SAPA_PROFIL
 10
-49.000000000000107
 20
-35.450000000000387
 30
0.0
 42
-0.4142135623731117
  0
VERTEX
  5
EA4
  8
SAPA_PROFIL
 10
-48.5
 20
-35.950000000000387
 30
0.0
  0
VERTEX
  5
EA5
  8
SAPA_PROFIL
 10
-48.5
 20
-56.050000000000352
 30
0.0
 42
0.4142135623730951
  0
VERTEX
  5
EA6
  8
SAPA_PROFIL
 10
-47.5
 20
-57.050000000000352
 30
0.0
  0
VERTEX
  5
EA7
  8
SAPA_PROFIL
 10
-13.100000000000019
 20
-57.050000000000352
 30
0.0
 42
0.4142135623730951
  0
VERTEX
  5
EA8
  8
SAPA_PROFIL
 10
-12.100000000000019
 20
-56.050000000000352
 30
0.0
  0
VERTEX
  5
EA9
  8
SAPA_PROFIL
 10
-12.100000000000019
 20
-54.225000000000357
 30
0.0
 42
-0.4142135623730914
  0
VERTEX
  5
EAA
  8
SAPA_PROFIL
 10
-7.5
 20
-49.625000000000398
 30
0.0
  0
VERTEX
  5
EAB
  8
SAPA_PROFIL
 10
-5.8000000000000682
 20
-49.625000000000448
 30
0.0
 42
0.4142135623730951
  0
VERTEX
  5
EAC
  8
SAPA_PROFIL
 10
-5.3000000000000682
 20
-49.125000000000448
 30
0.0
  0
VERTEX
  5
EAD
  8
SAPA_PROFIL
 10
-5.2999999999999536
 20
-41.650000000000368
 30
0.0
 42
0.4142135623730951
  0
VERTEX
  5
EAE
  8
SAPA_PROFIL
 10
-5.6000000000000218
 20
-41.35000000000047
 30
0.0
  0
VERTEX
  5
EAF
  8
SAPA_PROFIL
 10
-5.7000000000000446
 20
-41.350000000000357
 30
0.0
 42
-0.4142135623730951
  0
VERTEX
  5
EB0
  8
SAPA_PROFIL
 10
-6.0
 20
-41.050000000000409
 30
0.0
  0
VERTEX
  5
EB1
  8
SAPA_PROFIL
 10
-6.0
 20
-26.650000000000439
 30
0.0
 42
-0.4142135623730951
  0
VERTEX
  5
EB2
  8
SAPA_PROFIL
 10
-5.7000000000000446
 20
-26.350000000000481
 30
0.0
  0
VERTEX
  5
EB3
  8
SAPA_PROFIL
 10
-5.6000000000000218
 20
-26.350000000000371
 30
0.0
 42
0.4142135623730951
  0
SEQEND
  5
EB4
  8
SAPA_PROFIL
  0
POLYLINE
  5
9AD
  8
SAPA_PROFIL
 66
     1
 10
0.0
 20
0.0
 30
0.0
 70
     1
  0
VERTEX
  5
EB5
  8
SAPA_PROFIL
 10
-54.999999999999893
 20
-12.85000000000036
 30
0.0
  0
VERTEX
  5
EB6
  8
SAPA_PROFIL
 10
-53.999999999999879
 20
-12.85000000000036
 30
0.0
  0
VERTEX
  5
EB7
  8
SAPA_PROFIL
 10
-53.999999999999879
 20
-10.65000000000032
 30
0.0
  0
VERTEX
  5
EB8
  8
SAPA_PROFIL
 10
-50.999999999999879
 20
-10.65000000000032
 30
0.0
  0
VERTEX
  5
EB9
  8
SAPA_PROFIL
 10
-51.0
 20
-29.35000000000036
 30
0.0
  0
VERTEX
  5
EBA
  8
SAPA_PROFIL
 10
-54.0
 20
-29.35000000000036
 30
0.0
  0
VERTEX
  5
EBB
  8
SAPA_PROFIL
 10
-54.0
 20
-26.85000000000036
 30
0.0
  0
VERTEX
  5
EBC
  8
SAPA_PROFIL
 10
-55.0
 20
-26.85000000000036
 30
0.0
  0
VERTEX
  5
EBD
  8
SAPA_PROFIL
 10
-55.799999999999947
 20
-27.650000000000428
 30
0.0
  0
VERTEX
  5
EBE
  8
SAPA_PROFIL
 10
-55.799999999999947
 20
-33.330384757729689
 30
0.0
  0
VERTEX
  5
EBF
  8
SAPA_PROFIL
 10
-55.5
 20
-33.850000000000371
 30
0.0
  0
VERTEX
  5
EC0
  8
SAPA_PROFIL
 10
-55.799999999999947
 20
-34.369615242271038
 30
0.0
  0
VERTEX
  5
EC1
  8
SAPA_PROFIL
 10
-55.799999999999947
 20
-40.050000000000402
 30
0.0
  0
VERTEX
  5
EC2
  8
SAPA_PROFIL
 10
-55.0
 20
-40.850000000000357
 30
0.0
  0
VERTEX
  5
EC3
  8
SAPA_PROFIL
 10
-54.0
 20
-40.850000000000357
 30
0.0
  0
VERTEX
  5
EC4
  8
SAPA_PROFIL
 10
-54.0
 20
-38.350000000000357
 30
0.0
  0
VERTEX
  5
EC5
  8
SAPA_PROFIL
 10
-51.0
 20
-38.350000000000357
 30
0.0
  0
VERTEX
  5
EC6
  8
SAPA_PROFIL
 10
-51.0
 20
-57.050000000000352
 30
0.0
  0
VERTEX
  5
EC7
  8
SAPA_PROFIL
 10
-54.0
 20
-57.050000000000352
 30
0.0
  0
VERTEX
  5
EC8
  8
SAPA_PROFIL
 10
-54.0
 20
-54.850000000000357
 30
0.0
  0
VERTEX
  5
EC9
  8
SAPA_PROFIL
 10
-55.0
 20
-54.850000000000357
 30
0.0
  0
VERTEX
  5
ECA
  8
SAPA_PROFIL
 10
-56.0
 20
-55.850000000000357
 30
0.0
  0
VERTEX
  5
ECB
  8
SAPA_PROFIL
 10
-56.0
 20
-57.050000000000352
 30
0.0
  0
VERTEX
  5
ECC
  8
SAPA_PROFIL
 10
-66.0
 20
-57.050000000000303
 30
0.0
 42
-0.4142135623730951
  0
VERTEX
  5
ECD
  8
SAPA_PROFIL
 10
-66.5
 20
-56.550000000000288
 30
0.0
  0
VERTEX
  5
ECE
  8
SAPA_PROFIL
 10
-66.5
 20
-55.340000000000309
 30
0.0
 42
0.4142135623730951
  0
VERTEX
  5
ECF
  8
SAPA_PROFIL
 10
-67.490000000000009
 20
-54.350000000000357
 30
0.0
  0
VERTEX
  5
ED0
  8
SAPA_PROFIL
 10
-68.009999999999991
 20
-54.3500000000003
 30
0.0
 42
0.4142135623730951
  0
VERTEX
  5
ED1
  8
SAPA_PROFIL
 10
-69.0
 20
-55.340000000000309
 30
0.0
  0
VERTEX
  5
ED2
  8
SAPA_PROFIL
 10
-69.0
 20
-55.350000000000307
 30
0.0
  0
VERTEX
  5
ED3
  8
SAPA_PROFIL
 10
-67.75
 20
-55.350000000000307
 30
0.0
  0
VERTEX
  5
ED4
  8
SAPA_PROFIL
 10
-67.75
 20
-56.8500000000003
 30
0.0
 42
-0.4142135623730951
  0
VERTEX
  5
ED5
  8
SAPA_PROFIL
 10
-68.25
 20
-57.350000000000307
 30
0.0
  0
VERTEX
  5
ED6
  8
SAPA_PROFIL
 10
-76.25
 20
-57.350000000000307
 30
0.0
 42
-0.4142135623730951
  0
VERTEX
  5
ED7
  8
SAPA_PROFIL
 10
-76.75
 20
-56.8500000000003
 30
0.0
  0
VERTEX
  5
ED8
  8
SAPA_PROFIL
 10
-76.75
 20
-55.350000000000307
 30
0.0
  0
VERTEX
  5
ED9
  8
SAPA_PROFIL
 10
-75.5
 20
-55.350000000000307
 30
0.0
  0
VERTEX
  5
EDA
  8
SAPA_PROFIL
 10
-75.5
 20
-55.340000000000309
 30
0.0
 42
0.4142135623730951
  0
VERTEX
  5
EDB
  8
SAPA_PROFIL
 10
-76.489999999999995
 20
-54.350000000000357
 30
0.0
  0
VERTEX
  5
EDC
  8
SAPA_PROFIL
 10
-77.699999999999932
 20
-54.3500000000003
 30
0.0
 42
0.4142135623731229
  0
VERTEX
  5
EDD
  8
SAPA_PROFIL
 10
-78.0
 20
-54.650000000000311
 30
0.0
  0
VERTEX
  5
EDE
  8
SAPA_PROFIL
 10
-78.0
 20
-58.550000000000288
 30
0.0
 42
0.4142135623730675
  0
VERTEX
  5
EDF
  8
SAPA_PROFIL
 10
-77.699999999999932
 20
-58.8500000000003
 30
0.0
  0
VERTEX
  5
EE0
  8
SAPA_PROFIL
 10
-0.2999999999999545
 20
-58.850000000000371
 30
0.0
 42
0.4142135623731227
  0
VERTEX
  5
EE1
  8
SAPA_PROFIL
 10
0.0
 20
-58.550000000000352
 30
0.0
  0
VERTEX
  5
EE2
  8
SAPA_PROFIL
 10
0.0
 20
-57.050000000000352
 30
0.0
 42
0.4142135623730951
  0
VERTEX
  5
EE3
  8
SAPA_PROFIL
 10
-1.5
 20
-55.550000000000352
 30
0.0
  0
VERTEX
  5
EE4
  8
SAPA_PROFIL
 10
-2.0
 20
-55.550000000000352
 30
0.0
  0
VERTEX
  5
EE5
  8
SAPA_PROFIL
 10
-2.0
 20
-56.825000000000387
 30
0.0
  0
VERTEX
  5
EE6
  8
SAPA_PROFIL
 10
-3.1000000000000218
 20
-56.825000000000387
 30
0.0
  0
VERTEX
  5
EE7
  8
SAPA_PROFIL
 10
-3.1000000000000218
 20
-55.850000000000357
 30
0.0
 42
0.4142135623731227
  0
VERTEX
  5
EE8
  8
SAPA_PROFIL
 10
-3.3999999999999768
 20
-55.550000000000409
 30
0.0
  0
VERTEX
  5
EE9
  8
SAPA_PROFIL
 10
-4.3999999999999773
 20
-55.550000000000409
 30
0.0
  0
VERTEX
  5
EEA
  8
SAPA_PROFIL
 10
-4.3999999999999773
 20
-56.825000000000387
 30
0.0
  0
VERTEX
  5
EEB
  8
SAPA_PROFIL
 10
-7.5
 20
-56.825000000000387
 30
0.0
 42
-1.0
  0
VERTEX
  5
EEC
  8
SAPA_PROFIL
 10
-7.5
 20
-51.625000000000398
 30
0.0
  0
VERTEX
  5
EED
  8
SAPA_PROFIL
 10
-4.4000000000000901
 20
-51.625000000000341
 30
0.0
  0
VERTEX
  5
EEE
  8
SAPA_PROFIL
 10
-4.4000000000000901
 20
-52.850000000000421
 30
0.0
  0
VERTEX
  5
EEF
  8
SAPA_PROFIL
 10
-3.3999999999999768
 20
-52.850000000000421
 30
0.0
 42
0.4142135623730673
  0
VERTEX
  5
EF0
  8
SAPA_PROFIL
 10
-3.1000000000000218
 20
-52.550000000000409
 30
0.0
  0
VERTEX
  5
EF1
  8
SAPA_PROFIL
 10
-3.1000000000000218
 20
-51.625000000000341
 30
0.0
  0
VERTEX
  5
EF2
  8
SAPA_PROFIL
 10
-2.0
 20
-51.625000000000341
 30
0.0
  0
VERTEX
  5
EF3
  8
SAPA_PROFIL
 10
-2.0
 20
-52.850000000000357
 30
0.0
  0
VERTEX
  5
EF4
  8
SAPA_PROFIL
 10
-1.5
 20
-52.850000000000357
 30
0.0
 42
0.4142135623730951
  0
VERTEX
  5
EF5
  8
SAPA_PROFIL
 10
0.0
 20
-51.350000000000371
 30
0.0
  0
VERTEX
  5
EF6
  8
SAPA_PROFIL
 10
0.0
 20
-49.900000000000368
 30
0.0
 42
0.4142135623731227
  0
VERTEX
  5
EF7
  8
SAPA_PROFIL
 10
-0.2999999999999545
 20
-49.600000000000357
 30
0.0
  0
VERTEX
  5
EF8
  8
SAPA_PROFIL
 10
-2.7999999999999541
 20
-49.600000000000357
 30
0.0
  0
VERTEX
  5
EF9
  8
SAPA_PROFIL
 10
-2.7999999999999541
 20
-34.369615242271038
 30
0.0
  0
VERTEX
  5
EFA
  8
SAPA_PROFIL
 10
-3.0999999999999091
 20
-33.850000000000371
 30
0.0
  0
VERTEX
  5
EFB
  8
SAPA_PROFIL
 10
-2.7999999999999541
 20
-33.330384757729803
 30
0.0
  0
VERTEX
  5
EFC
  8
SAPA_PROFIL
 10
-2.7999999999999541
 20
-18.10000000000036
 30
0.0
  0
VERTEX
  5
EFD
  8
SAPA_PROFIL
 10
-0.2999999999999545
 20
-18.10000000000036
 30
0.0
 42
0.4142135623730951
  0
VERTEX
  5
EFE
  8
SAPA_PROFIL
 10
0.0000000000001137
 20
-17.800000000000288
 30
0.0
  0
VERTEX
  5
EFF
  8
SAPA_PROFIL
 10
0.0000000000001137
 20
-16.35000000000036
 30
0.0
 42
0.4142135623730951
  0
VERTEX
  5
F00
  8
SAPA_PROFIL
 10
-1.4999999999998861
 20
-14.85000000000036
 30
0.0
  0
VERTEX
  5
F01
  8
SAPA_PROFIL
 10
-1.9999999999998861
 20
-14.85000000000036
 30
0.0
  0
VERTEX
  5
F02
  8
SAPA_PROFIL
 10
-1.9999999999998861
 20
-16.07500000000039
 30
0.0
  0
VERTEX
  5
F03
  8
SAPA_PROFIL
 10
-3.0999999999999091
 20
-16.07500000000039
 30
0.0
  0
VERTEX
  5
F04
  8
SAPA_PROFIL
 10
-3.0999999999999091
 20
-15.15000000000032
 30
0.0
 42
0.4142135623730951
  0
VERTEX
  5
F05
  8
SAPA_PROFIL
 10
-3.3999999999998631
 20
-14.85000000000036
 30
0.0
  0
VERTEX
  5
F06
  8
SAPA_PROFIL
 10
-4.3999999999999773
 20
-14.85000000000036
 30
0.0
  0
VERTEX
  5
F07
  8
SAPA_PROFIL
 10
-4.3999999999999773
 20
-16.07500000000039
 30
0.0
  0
VERTEX
  5
F08
  8
SAPA_PROFIL
 10
-7.4999999999998863
 20
-16.07500000000039
 30
0.0
 42
-1.0
  0
VERTEX
  5
F09
  8
SAPA_PROFIL
 10
-7.4999999999998863
 20
-10.875000000000339
 30
0.0
  0
VERTEX
  5
F0A
  8
SAPA_PROFIL
 10
-4.3999999999999773
 20
-10.875000000000339
 30
0.0
  0
VERTEX
  5
F0B
  8
SAPA_PROFIL
 10
-4.3999999999999773
 20
-12.15000000000032
 30
0.0
  0
VERTEX
  5
F0C
  8
SAPA_PROFIL
 10
-3.3999999999999768
 20
-12.15000000000032
 30
0.0
 42
0.4142135623730951
  0
VERTEX
  5
F0D
  8
SAPA_PROFIL
 10
-3.0999999999999091
 20
-11.85000000000036
 30
0.0
  0
VERTEX
  5
F0E
  8
SAPA_PROFIL
 10
-3.0999999999999091
 20
-10.875000000000339
 30
0.0
  0
VERTEX
  5
F0F
  8
SAPA_PROFIL
 10
-1.9999999999998861
 20
-10.875000000000339
 30
0.0
  0
VERTEX
  5
F10
  8
SAPA_PROFIL
 10
-1.9999999999998861
 20
-12.15000000000032
 30
0.0
  0
VERTEX
  5
F11
  8
SAPA_PROFIL
 10
-1.4999999999998861
 20
-12.15000000000032
 30
0.0
 42
0.4142135623730951
  0
VERTEX
  5
F12
  8
SAPA_PROFIL
 10
0.0000000000001137
 20
-10.65000000000032
 30
0.0
  0
VERTEX
  5
F13
  8
SAPA_PROFIL
 10
0.0000000000001137
 20
-9.1500000000003183
 30
0.0
 42
0.4142135623730951
  0
VERTEX
  5
F14
  8
SAPA_PROFIL
 10
-0.2999999999999545
 20
-8.8500000000003638
 30
0.0
  0
VERTEX
  5
F15
  8
SAPA_PROFIL
 10
-55.999999999999879
 20
-8.8500000000003638
 30
0.0
  0
VERTEX
  5
F16
  8
SAPA_PROFIL
 10
-55.999999999999879
 20
-11.85000000000036
 30
0.0
  0
SEQEND
  5
F17
  8
SAPA_PROFIL
  0
POLYLINE
  5
9D3
  8
SAPA_GLAS
 66
     1
 10
0.0
 20
0.0
 30
0.0
  0
VERTEX
  5
F42
  8
SAPA_GLAS
 10
-89.799999999999983
 20
-32.450000000000223
 30
0.0
  0
VERTEX
  5
F43
  8
SAPA_GLAS
 10
-61.000000000000199
 20
-32.450000000000223
 30
0.0
  0
VERTEX
  5
F44
  8
SAPA_GLAS
 10
-61.000000000000199
 20
-26.45000000000022
 30
0.0
  0
VERTEX
  5
F45
  8
SAPA_GLAS
 10
-89.799999999999983
 20
-26.45000000000044
 30
0.0
  0
SEQEND
  5
F46
  8
SAPA_GLAS
  0
POLYLINE
  5
9D4
  8
SAPA_GLAS
 66
     1
 10
0.0
 20
0.0
 30
0.0
 70
     1
  0
VERTEX
  5
F47
  8
SAPA_GLAS
 10
-71.000000000000313
 20
-44.450000000000209
 30
0.0
  0
VERTEX
  5
F48
  8
SAPA_GLAS
 10
-71.000000000000313
 20
-32.450000000000223
 30
0.0
  0
VERTEX
  5
F49
  8
SAPA_GLAS
 10
-61.000000000000199
 20
-32.450000000000223
 30
0.0
  0
VERTEX
  5
F4A
  8
SAPA_GLAS
 10
-61.000000000000199
 20
-44.450000000000209
 30
0.0
  0
SEQEND
  5
F4B
  8
SAPA_GLAS
  0
POLYLINE
  5
9D5
  8
SAPA_GLAS
 66
     1
 10
0.0
 20
0.0
 30
0.0
  0
VERTEX
  5
F4C
  8
SAPA_GLAS
 10
-89.799999999999983
 20
-50.450000000000223
 30
0.0
  0
VERTEX
  5
F4D
  8
SAPA_GLAS
 10
-61.000000000000199
 20
-50.450000000000223
 30
0.0
  0
VERTEX
  5
F4E
  8
SAPA_GLAS
 10
-61.000000000000199
 20
-44.450000000000209
 30
0.0
  0
VERTEX
  5
F4F
  8
SAPA_GLAS
 10
-89.799999999999983
 20
-44.450000000000209
 30
0.0
  0
SEQEND
  5
F50
  8
SAPA_GLAS
  0
POLYLINE
  5
9D6
  8
SAPA_GLAS
 66
     1
 10
0.0
 20
0.0
 30
0.0
  0
VERTEX
  5
F51
  8
SAPA_GLAS
 10
95.800000000000068
 20
-32.450000000000223
 30
0.0
  0
VERTEX
  5
F52
  8
SAPA_GLAS
 10
67.000000000000284
 20
-32.450000000000223
 30
0.0
  0
VERTEX
  5
F53
  8
SAPA_GLAS
 10
67.000000000000284
 20
-26.45000000000022
 30
0.0
  0
VERTEX
  5
F54
  8
SAPA_GLAS
 10
95.800000000000068
 20
-26.45000000000044
 30
0.0
  0
SEQEND
  5
F55
  8
SAPA_GLAS
  0
POLYLINE
  5
9D7
  8
SAPA_GLAS
 66
     1
 10
0.0
 20
0.0
 30
0.0
 70
     1
  0
VERTEX
  5
F56
  8
SAPA_GLAS
 10
77.000000000000398
 20
-44.450000000000209
 30
0.0
  0
VERTEX
  5
F57
  8
SAPA_GLAS
 10
77.000000000000398
 20
-32.450000000000223
 30
0.0
  0
VERTEX
  5
F58
  8
SAPA_GLAS
 10
67.000000000000284
 20
-32.450000000000223
 30
0.0
  0
VERTEX
  5
F59
  8
SAPA_GLAS
 10
67.000000000000284
 20
-44.450000000000209
 30
0.0
  0
SEQEND
  5
F5A
  8
SAPA_GLAS
  0
POLYLINE
  5
9D8
  8
SAPA_GLAS
 66
     1
 10
0.0
 20
0.0
 30
0.0
  0
VERTEX
  5
F5B
  8
SAPA_GLAS
 10
95.800000000000068
 20
-50.450000000000223
 30
0.0
  0
VERTEX
  5
F5C
  8
SAPA_GLAS
 10
67.000000000000284
 20
-50.450000000000223
 30
0.0
  0
VERTEX
  5
F5D
  8
SAPA_GLAS
 10
67.000000000000284
 20
-44.450000000000209
 30
0.0
  0
VERTEX
  5
F5E
  8
SAPA_GLAS
 10
95.800000000000068
 20
-44.450000000000209
 30
0.0
  0
SEQEND
  5
F5F
  8
SAPA_GLAS
  0
POLYLINE
  5
9E9
  8
SAPA_FOGBAND
 66
     1
 10
0.0
 20
0.0
 30
0.0
 70
     1
  0
VERTEX
  5
106E
  8
SAPA_FOGBAND
 10
0.9169627533631513
 20
-56.927417567796169
 30
0.0
  0
VERTEX
  5
106F
  8
SAPA_FOGBAND
 10
0.9169627533631513
 20
-51.534377944586602
 30
0.0
 42
-0.4738611492357303
  0
SEQEND
  5
1070
  8
SAPA_FOGBAND
  0
POLYLINE
  5
9EA
  8
SAPA_FOGBAND
 66
     1
 10
0.0
 20
0.0
 30
0.0
 70
     1
  0
VERTEX
  5
1071
  8
SAPA_FOGBAND
 10
-0.8648789335867093
 20
-55.12744502024043
 30
0.0
  0
VERTEX
  5
1072
  8
SAPA_FOGBAND
 10
-2.0000000000000848
 20
-55.12744502024043
 30
0.0
  0
VERTEX
  5
1073
  8
SAPA_FOGBAND
 10
-2.3684164864675661
 20
-55.799556177985103
 30
0.0
  0
VERTEX
  5
1074
  8
SAPA_FOGBAND
 10
-2.86129800214698
 20
-55.12744502024043
 30
0.0
  0
VERTEX
  5
1075
  8
SAPA_FOGBAND
 10
-4.8378026660334106
 20
-55.12744502024043
 30
0.0
  0
VERTEX
  5
1076
  8
SAPA_FOGBAND
 10
-4.8378026660334106
 20
-56.337245104180973
 30
0.0
  0
VERTEX
  5
1077
  8
SAPA_FOGBAND
 10
-7.3246139301620303
 20
-54.59607417046368
 30
0.0
 42
-0.520586437893792
  0
VERTEX
  5
1078
  8
SAPA_FOGBAND
 10
-7.324613930162144
 20
-53.77690462833197
 30
0.0
  0
VERTEX
  5
1079
  8
SAPA_FOGBAND
 10
-4.8378026660334106
 20
-52.035733694614578
 30
0.0
  0
VERTEX
  5
107A
  8
SAPA_FOGBAND
 10
-4.8378026660334106
 20
-53.245533778555121
 30
0.0
  0
VERTEX
  5
107B
  8
SAPA_FOGBAND
 10
-2.86129800214698
 20
-53.245533778555121
 30
0.0
  0
VERTEX
  5
107C
  8
SAPA_FOGBAND
 10
-2.3684164864675661
 20
-52.573422620810327
 30
0.0
  0
VERTEX
  5
107D
  8
SAPA_FOGBAND
 10
-2.0000000000000848
 20
-53.245533778555121
 30
0.0
  0
VERTEX
  5
107E
  8
SAPA_FOGBAND
 10
-0.8648789335867093
 20
-53.245533778555121
 30
0.0
 42
0.2915551853799308
  0
VERTEX
  5
107F
  8
SAPA_FOGBAND
 10
0.2243350116489466
 20
-51.638460864869216
 30
0.0
  0
VERTEX
  5
1080
  8
SAPA_FOGBAND
 10
0.2243350116481508
 20
-50.201718113390818
 30
0.0
 42
-0.692495361703289
  0
VERTEX
  5
1081
  8
SAPA_FOGBAND
 10
0.224917602965121
 20
-58.259858473516601
 30
0.0
  0
VERTEX
  5
1082
  8
SAPA_FOGBAND
 10
0.224917602965121
 20
-56.763173197406218
 30
0.0
 42
0.2958644904018718
  0
SEQEND
  5
1083
  8
SAPA_FOGBAND
  0
POLYLINE
  5
9EB
  8
SAPA_FOGBAND
 66
     1
 10
0.0
 20
0.0
 30
0.0
 70
     1
  0
VERTEX
  5
1084
  8
SAPA_FOGBAND
 10
-0.8648789335867093
 20
-12.572554979758589
 30
0.0
  0
VERTEX
  5
1085
  8
SAPA_FOGBAND
 10
-2.0000000000000848
 20
-12.572554979758589
 30
0.0
  0
VERTEX
  5
1086
  8
SAPA_FOGBAND
 10
-2.3684164864675661
 20
-11.900443822013919
 30
0.0
  0
VERTEX
  5
1087
  8
SAPA_FOGBAND
 10
-2.86129800214698
 20
-12.572554979758589
 30
0.0
  0
VERTEX
  5
1088
  8
SAPA_FOGBAND
 10
-4.8378026660334106
 20
-12.572554979758589
 30
0.0
  0
VERTEX
  5
1089
  8
SAPA_FOGBAND
 10
-4.8378026660334106
 20
-11.36275489581805
 30
0.0
  0
VERTEX
  5
108A
  8
SAPA_FOGBAND
 10
-7.3246139301620303
 20
-13.10392582953534
 30
0.0
 42
0.520586437893792
  0
VERTEX
  5
108B
  8
SAPA_FOGBAND
 10
-7.324613930162144
 20
-13.92309537166704
 30
0.0
  0
VERTEX
  5
108C
  8
SAPA_FOGBAND
 10
-4.8378026660334106
 20
-15.664266305384441
 30
0.0
  0
VERTEX
  5
108D
  8
SAPA_FOGBAND
 10
-4.8378026660334106
 20
-14.45446622144391
 30
0.0
  0
VERTEX
  5
108E
  8
SAPA_FOGBAND
 10
-2.86129800214698
 20
-14.45446622144391
 30
0.0
  0
VERTEX
  5
108F
  8
SAPA_FOGBAND
 10
-2.3684164864675661
 20
-15.12657737918869
 30
0.0
  0
VERTEX
  5
1090
  8
SAPA_FOGBAND
 10
-2.0000000000000848
 20
-14.45446622144391
 30
0.0
  0
VERTEX
  5
1091
  8
SAPA_FOGBAND
 10
-0.8648789335867093
 20
-14.45446622144391
 30
0.0
 42
-0.2915551853799308
  0
VERTEX
  5
1092
  8
SAPA_FOGBAND
 10
0.2243350116489466
 20
-16.061539135129799
 30
0.0
  0
VERTEX
  5
1093
  8
SAPA_FOGBAND
 10
0.2243350116481508
 20
-17.498281886608201
 30
0.0
 42
0.692495361703289
  0
VERTEX
  5
1094
  8
SAPA_FOGBAND
 10
0.224917602965121
 20
-9.4401415264824209
 30
0.0
  0
VERTEX
  5
1095
  8
SAPA_FOGBAND
 10
0.224917602965121
 20
-10.936826802592799
 30
0.0
 42
-0.2958644904018718
  0
SEQEND
  5
1096
  8
SAPA_FOGBAND
  0
POLYLINE
  5
9EC
  8
SAPA_FOGBAND
 66
     1
 10
0.0
 20
0.0
 30
0.0
 70
     1
  0
VERTEX
  5
1097
  8
SAPA_FOGBAND
 10
0.9169627533631513
 20
-10.772582432202849
 30
0.0
  0
VERTEX
  5
1098
  8
SAPA_FOGBAND
 10
0.9169627533631513
 20
-16.16562205541242
 30
0.0
 42
0.4738611492357303
  0
SEQEND
  5
1099
  8
SAPA_FOGBAND
  0
POLYLINE
  5
9ED
  8
SAPA_FOGBAND
 66
     1
 10
0.0
 20
0.0
 30
0.0
 70
     1
  0
VERTEX
  5
109A
  8
SAPA_FOGBAND
 10
-67.497490090368132
 20
-20.346247987221151
 30
0.0
  0
VERTEX
  5
109B
  8
SAPA_FOGBAND
 10
-68.697490090368177
 20
-20.346247987221151
 30
0.0
 42
-0.4142135623730951
  0
VERTEX
  5
109C
  8
SAPA_FOGBAND
 10
-68.997490090368132
 20
-20.046247987221189
 30
0.0
  0
VERTEX
  5
109D
  8
SAPA_FOGBAND
 10
-68.997490090368132
 20
-19.146247987221098
 30
0.0
  0
VERTEX
  5
109E
  8
SAPA_FOGBAND
 10
-68.647490090367995
 20
-19.146247987221098
 30
0.0
 42
0.6681786379192988
  0
VERTEX
  5
109F
  8
SAPA_FOGBAND
 10
-68.435358056012063
 20
-18.634115952865329
 30
0.0
  0
VERTEX
  5
10A0
  8
SAPA_FOGBAND
 10
-69.288911446605283
 20
-17.780562562271989
 30
0.0
 42
0.1989123673796552
  0
VERTEX
  5
10A1
  8
SAPA_FOGBAND
 10
-69.854596871554662
 20
-17.546247987221189
 30
0.0
  0
VERTEX
  5
10A2
  8
SAPA_FOGBAND
 10
-70.017291993974453
 20
-17.546247987221189
 30
0.0
 42
0.3394542588633746
  0
VERTEX
  5
10A3
  8
SAPA_FOGBAND
 10
-70.307069741861227
 20
-17.768602273690419
 30
0.0
  0
VERTEX
  5
10A4
  8
SAPA_FOGBAND
 10
-70.670218985251125
 20
-19.123893700751921
 30
0.0
 42
-0.3394542588633746
  0
VERTEX
  5
10A5
  8
SAPA_FOGBAND
 10
-70.959996733137899
 20
-19.346247987221151
 30
0.0
  0
VERTEX
  5
10A6
  8
SAPA_FOGBAND
 10
-73.534983447598364
 20
-19.346247987221151
 30
0.0
 42
-0.3394542588633746
  0
VERTEX
  5
10A7
  8
SAPA_FOGBAND
 10
-73.824761195485124
 20
-19.123893700751921
 30
0.0
  0
VERTEX
  5
10A8
  8
SAPA_FOGBAND
 10
-74.187910438875036
 20
-17.768602273690419
 30
0.0
 42
0.3394542588633744
  0
VERTEX
  5
10A9
  8
SAPA_FOGBAND
 10
-74.47768818676181
 20
-17.546247987221189
 30
0.0
  0
VERTEX
  5
10AA
  8
SAPA_FOGBAND
 10
-74.640383309181601
 20
-17.546247987221189
 30
0.0
 42
0.1989123673796526
  0
VERTEX
  5
10AB
  8
SAPA_FOGBAND
 10
-75.206068734130753
 20
-17.780562562271989
 30
0.0
  0
VERTEX
  5
10AC
  8
SAPA_FOGBAND
 10
-76.059622124724086
 20
-18.634115952865329
 30
0.0
 42
0.6681786379193474
  0
VERTEX
  5
10AD
  8
SAPA_FOGBAND
 10
-75.847490090368254
 20
-19.146247987221098
 30
0.0
  0
VERTEX
  5
10AE
  8
SAPA_FOGBAND
 10
-75.497490090368132
 20
-19.146247987221098
 30
0.0
  0
VERTEX
  5
10AF
  8
SAPA_FOGBAND
 10
-75.497490090368132
 20
-20.046247987221189
 30
0.0
 42
-0.4142135623730951
  0
VERTEX
  5
10B0
  8
SAPA_FOGBAND
 10
-75.797490090368086
 20
-20.346247987221151
 30
0.0
  0
VERTEX
  5
10B1
  8
SAPA_FOGBAND
 10
-77.897490090368223
 20
-20.346247987221151
 30
0.0
 42
-0.4142135623730951
  0
VERTEX
  5
10B2
  8
SAPA_FOGBAND
 10
-78.197490090368177
 20
-20.046247987221189
 30
0.0
  0
VERTEX
  5
10B3
  8
SAPA_FOGBAND
 10
-78.197490090368177
 20
-18.646247987221098
 30
0.0
 42
0.7754026414786132
  0
VERTEX
  5
10B4
  8
SAPA_FOGBAND
 10
-78.760282085775856
 20
-18.501540118915209
 30
0.0
 42
-0.1137347954614569
  0
VERTEX
  5
10B5
  8
SAPA_FOGBAND
 10
-82.910330244366463
 20
-25.978027877239981
 30
0.0
 42
0.8680589103334746
  0
VERTEX
  5
10B6
  8
SAPA_FOGBAND
 10
-82.435406214602921
 20
-26.334867779901689
 30
0.0
  0
VERTEX
  5
10B7
  8
SAPA_FOGBAND
 10
-78.465370817451074
 20
-23.958662090569931
 30
0.0
 42
-0.1989123673796536
  0
VERTEX
  5
10B8
  8
SAPA_FOGBAND
 10
-77.758264036264649
 20
-23.665768871756601
 30
0.0
  0
VERTEX
  5
10B9
  8
SAPA_FOGBAND
 10
-74.924945071844917
 20
-23.665768871756601
 30
0.0
 42
-0.577350269189628
  0
VERTEX
  5
10BA
  8
SAPA_FOGBAND
 10
-74.665137450709466
 20
-24.115768871756419
 30
0.0
  0
VERTEX
  5
10BB
  8
SAPA_FOGBAND
 10
-76.803266147121207
 20
-25.968928343298732
 30
0.0
 42
0.8769764629927301
  0
VERTEX
  5
10BC
  8
SAPA_FOGBAND
 10
-76.331326491629937
 20
-26.331060377654861
 30
0.0
  0
VERTEX
  5
10BD
  8
SAPA_FOGBAND
 10
-72.365098496725267
 20
-23.958662090569931
 30
0.0
 42
-0.198912367379658
  0
VERTEX
  5
10BE
  8
SAPA_FOGBAND
 10
-71.657991715538714
 20
-23.665768871756601
 30
0.0
  0
VERTEX
  5
10BF
  8
SAPA_FOGBAND
 10
-69.425717353317026
 20
-23.665768871756601
 30
0.0
 42
-0.5773502691896441
  0
VERTEX
  5
10C0
  8
SAPA_FOGBAND
 10
-69.165909732181802
 20
-24.115768871756419
 30
0.0
  0
VERTEX
  5
10C1
  8
SAPA_FOGBAND
 10
-71.303536853711051
 20
-25.968059590118351
 30
0.0
 42
0.87697646299276
  0
VERTEX
  5
10C2
  8
SAPA_FOGBAND
 10
-70.831597198219782
 20
-26.33019162447448
 30
0.0
  0
VERTEX
  5
10C3
  8
SAPA_FOGBAND
 10
-66.790383309181578
 20
-23.88280744325624
 30
0.0
 42
0.198912367379658
  0
VERTEX
  5
10C4
  8
SAPA_FOGBAND
 10
-66.497490090368132
 20
-23.175700662069801
 30
0.0
  0
VERTEX
  5
10C5
  8
SAPA_FOGBAND
 10
-66.497490090368132
 20
-21.346247987221151
 30
0.0
  0
VERTEX
  5
10C6
  8
SAPA_FOGBAND
 10
-66.497490090368132
 20
-21.356179777534351
 30
0.0
  0
SEQEND
  5
10C7
  8
SAPA_FOGBAND
  0
POLYLINE
  5
9EE
  8
SAPA_FOGBAND
 66
     1
 10
0.0
 20
0.0
 30
0.0
 70
     1
  0
VERTEX
  5
10C8
  8
SAPA_FOGBAND
 10
-66.437172509476994
 20
-53.427386987235359
 30
0.0
 42
-0.4142135623730951
  0
VERTEX
  5
10C9
  8
SAPA_FOGBAND
 10
-67.437172509476994
 20
-54.427386987235373
 30
0.0
  0
VERTEX
  5
10CA
  8
SAPA_FOGBAND
 10
-68.63717250947704
 20
-54.427386987235373
 30
0.0
 42
0.4142135623730951
  0
VERTEX
  5
10CB
  8
SAPA_FOGBAND
 10
-68.937172509476994
 20
-54.72738698723532
 30
0.0
  0
VERTEX
  5
10CC
  8
SAPA_FOGBAND
 10
-68.937172509476994
 20
-55.627386987235411
 30
0.0
  0
VERTEX
  5
10CD
  8
SAPA_FOGBAND
 10
-68.587172509476858
 20
-55.627386987235411
 30
0.0
 42
-0.6681786379193472
  0
VERTEX
  5
10CE
  8
SAPA_FOGBAND
 10
-68.37504047512104
 20
-56.139519021591411
 30
0.0
  0
VERTEX
  5
10CF
  8
SAPA_FOGBAND
 10
-69.228593865714259
 20
-56.993072412184738
 30
0.0
 42
-0.1989123673796526
  0
VERTEX
  5
10D0
  8
SAPA_FOGBAND
 10
-69.794279290663525
 20
-57.22738698723532
 30
0.0
  0
VERTEX
  5
10D1
  8
SAPA_FOGBAND
 10
-69.956974413083316
 20
-57.22738698723532
 30
0.0
 42
-0.3394542588633746
  0
VERTEX
  5
10D2
  8
SAPA_FOGBAND
 10
-70.246752160970075
 20
-57.005032700766087
 30
0.0
  0
VERTEX
  5
10D3
  8
SAPA_FOGBAND
 10
-70.609901404359988
 20
-55.649741273704592
 30
0.0
 42
0.3394542588633744
  0
VERTEX
  5
10D4
  8
SAPA_FOGBAND
 10
-70.899679152246762
 20
-55.427386987235359
 30
0.0
  0
VERTEX
  5
10D5
  8
SAPA_FOGBAND
 10
-73.474665866707227
 20
-55.427386987235359
 30
0.0
 42
0.3394542588633746
  0
VERTEX
  5
10D6
  8
SAPA_FOGBAND
 10
-73.764443614594001
 20
-55.649741273704592
 30
0.0
  0
VERTEX
  5
10D7
  8
SAPA_FOGBAND
 10
-74.127592857983899
 20
-57.005032700766087
 30
0.0
 42
-0.3394542588633747
  0
VERTEX
  5
10D8
  8
SAPA_FOGBAND
 10
-74.417370605870673
 20
-57.22738698723532
 30
0.0
  0
VERTEX
  5
10D9
  8
SAPA_FOGBAND
 10
-74.580065728290464
 20
-57.22738698723532
 30
0.0
 42
-0.1989123673796526
  0
VERTEX
  5
10DA
  8
SAPA_FOGBAND
 10
-75.145751153239843
 20
-56.993072412184738
 30
0.0
  0
VERTEX
  5
10DB
  8
SAPA_FOGBAND
 10
-75.999304543832949
 20
-56.139519021591411
 30
0.0
 42
-0.6681786379193474
  0
VERTEX
  5
10DC
  8
SAPA_FOGBAND
 10
-75.787172509477131
 20
-55.627386987235411
 30
0.0
  0
VERTEX
  5
10DD
  8
SAPA_FOGBAND
 10
-75.437172509476994
 20
-55.627386987235411
 30
0.0
  0
VERTEX
  5
10DE
  8
SAPA_FOGBAND
 10
-75.437172509476994
 20
-54.72738698723532
 30
0.0
 42
0.4142135623730951
  0
VERTEX
  5
10DF
  8
SAPA_FOGBAND
 10
-75.737172509476935
 20
-54.427386987235373
 30
0.0
  0
VERTEX
  5
10E0
  8
SAPA_FOGBAND
 10
-77.837172509477085
 20
-54.427386987235373
 30
0.0
 42
0.4142135623730951
  0
VERTEX
  5
10E1
  8
SAPA_FOGBAND
 10
-78.137172509477026
 20
-54.72738698723532
 30
0.0
  0
VERTEX
  5
10E2
  8
SAPA_FOGBAND
 10
-78.137172509477026
 20
-56.127386987235411
 30
0.0
 42
-0.7754026414785753
  0
VERTEX
  5
10E3
  8
SAPA_FOGBAND
 10
-78.699964504884704
 20
-56.27209485554129
 30
0.0
  0
VERTEX
  5
10E4
  8
SAPA_FOGBAND
 10
-82.219667015430076
 20
-50.88898908295544
 30
0.0
 42
-0.8680589103334742
  0
VERTEX
  5
10E5
  8
SAPA_FOGBAND
 10
-81.744742985666534
 20
-50.532149180293743
 30
0.0
  0
VERTEX
  5
10E6
  8
SAPA_FOGBAND
 10
-78.405053236560164
 20
-52.634493768422033
 30
0.0
 42
0.198912367379658
  0
VERTEX
  5
10E7
  8
SAPA_FOGBAND
 10
-77.697946455373511
 20
-52.927386987235359
 30
0.0
  0
VERTEX
  5
10E8
  8
SAPA_FOGBAND
 10
-74.864627490953779
 20
-52.927386987235359
 30
0.0
 42
0.5773502691896282
  0
VERTEX
  5
10E9
  8
SAPA_FOGBAND
 10
-74.604819869818556
 20
-52.47738698723532
 30
0.0
  0
VERTEX
  5
10EA
  8
SAPA_FOGBAND
 10
-76.112602918184805
 20
-50.8980886168967
 30
0.0
 42
-0.8769764629927299
  0
VERTEX
  5
10EB
  8
SAPA_FOGBAND
 10
-75.64066326269355
 20
-50.535956582540571
 30
0.0
  0
VERTEX
  5
10EC
  8
SAPA_FOGBAND
 10
-72.304780915834243
 20
-52.634493768422033
 30
0.0
 42
0.198912367379658
  0
VERTEX
  5
10ED
  8
SAPA_FOGBAND
 10
-71.597674134647576
 20
-52.927386987235359
 30
0.0
  0
VERTEX
  5
10EE
  8
SAPA_FOGBAND
 10
-69.365399772426002
 20
-52.927386987235359
 30
0.0
 42
0.5773502691896282
  0
VERTEX
  5
10EF
  8
SAPA_FOGBAND
 10
-69.105592151290665
 20
-52.47738698723532
 30
0.0
  0
VERTEX
  5
10F0
  8
SAPA_FOGBAND
 10
-70.612873624774437
 20
-50.898957370077078
 30
0.0
 42
-0.8769764629927299
  0
VERTEX
  5
10F1
  8
SAPA_FOGBAND
 10
-70.140933969283154
 20
-50.536825335720948
 30
0.0
  0
VERTEX
  5
10F2
  8
SAPA_FOGBAND
 10
-66.730065728290555
 20
-52.710348415735723
 30
0.0
 42
-0.198912367379658
  0
VERTEX
  5
10F3
  8
SAPA_FOGBAND
 10
-66.437172509476994
 20
-53.417455196922162
 30
0.0
  0
SEQEND
  5
10F4
  8
SAPA_FOGBAND
  0
POLYLINE
  5
9EF
  8
SAPA_FOGBAND
 66
     1
 10
0.0
 20
0.0
 30
0.0
 70
     1
  0
VERTEX
  5
10F5
  8
SAPA_FOGBAND
 10
5.083037246636934
 20
-56.927417567796169
 30
0.0
  0
VERTEX
  5
10F6
  8
SAPA_FOGBAND
 10
5.083037246636934
 20
-51.534377944586602
 30
0.0
 42
0.4738611492357303
  0
SEQEND
  5
10F7
  8
SAPA_FOGBAND
  0
POLYLINE
  5
9F0
  8
SAPA_FOGBAND
 66
     1
 10
0.0
 20
0.0
 30
0.0
 70
     1
  0
VERTEX
  5
10F8
  8
SAPA_FOGBAND
 10
6.8648789335867937
 20
-55.12744502024043
 30
0.0
  0
VERTEX
  5
10F9
  8
SAPA_FOGBAND
 10
8.0000000000001705
 20
-55.12744502024043
 30
0.0
  0
VERTEX
  5
10FA
  8
SAPA_FOGBAND
 10
8.3684164864676518
 20
-55.799556177985103
 30
0.0
  0
VERTEX
  5
10FB
  8
SAPA_FOGBAND
 10
8.8612980021470662
 20
-55.12744502024043
 30
0.0
  0
VERTEX
  5
10FC
  8
SAPA_FOGBAND
 10
10.8378026660335
 20
-55.12744502024043
 30
0.0
  0
VERTEX
  5
10FD
  8
SAPA_FOGBAND
 10
10.8378026660335
 20
-56.337245104180973
 30
0.0
  0
VERTEX
  5
10FE
  8
SAPA_FOGBAND
 10
13.32461393016211
 20
-54.59607417046368
 30
0.0
 42
0.520586437893792
  0
VERTEX
  5
10FF
  8
SAPA_FOGBAND
 10
13.324613930162229
 20
-53.77690462833197
 30
0.0
  0
VERTEX
  5
1100
  8
SAPA_FOGBAND
 10
10.8378026660335
 20
-52.035733694614578
 30
0.0
  0
VERTEX
  5
1101
  8
SAPA_FOGBAND
 10
10.8378026660335
 20
-53.245533778555121
 30
0.0
  0
VERTEX
  5
1102
  8
SAPA_FOGBAND
 10
8.8612980021470662
 20
-53.245533778555121
 30
0.0
  0
VERTEX
  5
1103
  8
SAPA_FOGBAND
 10
8.3684164864676518
 20
-52.573422620810327
 30
0.0
  0
VERTEX
  5
1104
  8
SAPA_FOGBAND
 10
8.0000000000001705
 20
-53.245533778555121
 30
0.0
  0
VERTEX
  5
1105
  8
SAPA_FOGBAND
 10
6.8648789335867937
 20
-53.245533778555121
 30
0.0
 42
-0.2915551853799308
  0
VERTEX
  5
1106
  8
SAPA_FOGBAND
 10
5.7756649883511377
 20
-51.638460864869216
 30
0.0
  0
VERTEX
  5
1107
  8
SAPA_FOGBAND
 10
5.7756649883519344
 20
-50.201718113390818
 30
0.0
 42
0.692495361703289
  0
VERTEX
  5
1108
  8
SAPA_FOGBAND
 10
5.7750823970349643
 20
-58.259858473516601
 30
0.0
  0
VERTEX
  5
1109
  8
SAPA_FOGBAND
 10
5.7750823970349643
 20
-56.763173197406218
 30
0.0
 42
-0.2958644904018718
  0
SEQEND
  5
110A
  8
SAPA_FOGBAND
  0
POLYLINE
  5
9F1
  8
SAPA_FOGBAND
 66
     1
 10
0.0
 20
0.0
 30
0.0
 70
     1
  0
VERTEX
  5
110B
  8
SAPA_FOGBAND
 10
6.8648789335867937
 20
-12.572554979758589
 30
0.0
  0
VERTEX
  5
110C
  8
SAPA_FOGBAND
 10
8.0000000000001705
 20
-12.572554979758589
 30
0.0
  0
VERTEX
  5
110D
  8
SAPA_FOGBAND
 10
8.3684164864676518
 20
-11.900443822013919
 30
0.0
  0
VERTEX
  5
110E
  8
SAPA_FOGBAND
 10
8.8612980021470662
 20
-12.572554979758589
 30
0.0
  0
VERTEX
  5
110F
  8
SAPA_FOGBAND
 10
10.8378026660335
 20
-12.572554979758589
 30
0.0
  0
VERTEX
  5
1110
  8
SAPA_FOGBAND
 10
10.8378026660335
 20
-11.36275489581805
 30
0.0
  0
VERTEX
  5
1111
  8
SAPA_FOGBAND
 10
13.32461393016211
 20
-13.10392582953534
 30
0.0
 42
-0.520586437893792
  0
VERTEX
  5
1112
  8
SAPA_FOGBAND
 10
13.324613930162229
 20
-13.92309537166704
 30
0.0
  0
VERTEX
  5
1113
  8
SAPA_FOGBAND
 10
10.8378026660335
 20
-15.664266305384441
 30
0.0
  0
VERTEX
  5
1114
  8
SAPA_FOGBAND
 10
10.8378026660335
 20
-14.45446622144391
 30
0.0
  0
VERTEX
  5
1115
  8
SAPA_FOGBAND
 10
8.8612980021470662
 20
-14.45446622144391
 30
0.0
  0
VERTEX
  5
1116
  8
SAPA_FOGBAND
 10
8.3684164864676518
 20
-15.12657737918869
 30
0.0
  0
VERTEX
  5
1117
  8
SAPA_FOGBAND
 10
8.0000000000001705
 20
-14.45446622144391
 30
0.0
  0
VERTEX
  5
1118
  8
SAPA_FOGBAND
 10
6.8648789335867937
 20
-14.45446622144391
 30
0.0
 42
0.2915551853799308
  0
VERTEX
  5
1119
  8
SAPA_FOGBAND
 10
5.7756649883511377
 20
-16.061539135129799
 30
0.0
  0
VERTEX
  5
111A
  8
SAPA_FOGBAND
 10
5.7756649883519344
 20
-17.498281886608201
 30
0.0
 42
-0.692495361703289
  0
VERTEX
  5
111B
  8
SAPA_FOGBAND
 10
5.7750823970349643
 20
-9.4401415264824209
 30
0.0
  0
VERTEX
  5
111C
  8
SAPA_FOGBAND
 10
5.7750823970349643
 20
-10.936826802592799
 30
0.0
 42
0.2958644904018718
  0
SEQEND
  5
111D
  8
SAPA_FOGBAND
  0
POLYLINE
  5
9F2
  8
SAPA_FOGBAND
 66
     1
 10
0.0
 20
0.0
 30
0.0
 70
     1
  0
VERTEX
  5
111E
  8
SAPA_FOGBAND
 10
5.083037246636934
 20
-10.772582432202849
 30
0.0
  0
VERTEX
  5
111F
  8
SAPA_FOGBAND
 10
5.083037246636934
 20
-16.16562205541242
 30
0.0
 42
-0.4738611492357303
  0
SEQEND
  5
1120
  8
SAPA_FOGBAND
  0
POLYLINE
  5
9F3
  8
SAPA_FOGBAND
 66
     1
 10
0.0
 20
0.0
 30
0.0
 70
     1
  0
VERTEX
  5
1121
  8
SAPA_FOGBAND
 10
73.497490090368217
 20
-20.346247987221151
 30
0.0
  0
VERTEX
  5
1122
  8
SAPA_FOGBAND
 10
74.697490090368262
 20
-20.346247987221151
 30
0.0
 42
0.4142135623730951
  0
VERTEX
  5
1123
  8
SAPA_FOGBAND
 10
74.997490090368217
 20
-20.046247987221189
 30
0.0
  0
VERTEX
  5
1124
  8
SAPA_FOGBAND
 10
74.997490090368217
 20
-19.146247987221098
 30
0.0
  0
VERTEX
  5
1125
  8
SAPA_FOGBAND
 10
74.64749009036808
 20
-19.146247987221098
 30
0.0
 42
-0.6681786379192988
  0
VERTEX
  5
1126
  8
SAPA_FOGBAND
 10
74.435358056012134
 20
-18.634115952865329
 30
0.0
  0
VERTEX
  5
1127
  8
SAPA_FOGBAND
 10
75.288911446605368
 20
-17.780562562271989
 30
0.0
 42
-0.1989123673796552
  0
VERTEX
  5
1128
  8
SAPA_FOGBAND
 10
75.854596871554733
 20
-17.546247987221189
 30
0.0
  0
VERTEX
  5
1129
  8
SAPA_FOGBAND
 10
76.017291993974524
 20
-17.546247987221189
 30
0.0
 42
-0.3394542588633746
  0
VERTEX
  5
112A
  8
SAPA_FOGBAND
 10
76.307069741861312
 20
-17.768602273690419
 30
0.0
  0
VERTEX
  5
112B
  8
SAPA_FOGBAND
 10
76.670218985251211
 20
-19.123893700751921
 30
0.0
 42
0.3394542588633746
  0
VERTEX
  5
112C
  8
SAPA_FOGBAND
 10
76.959996733137984
 20
-19.346247987221151
 30
0.0
  0
VERTEX
  5
112D
  8
SAPA_FOGBAND
 10
79.534983447598449
 20
-19.346247987221151
 30
0.0
 42
0.3394542588633746
  0
VERTEX
  5
112E
  8
SAPA_FOGBAND
 10
79.824761195485223
 20
-19.123893700751921
 30
0.0
  0
VERTEX
  5
112F
  8
SAPA_FOGBAND
 10
80.187910438875122
 20
-17.768602273690419
 30
0.0
 42
-0.3394542588633744
  0
VERTEX
  5
1130
  8
SAPA_FOGBAND
 10
80.477688186761895
 20
-17.546247987221189
 30
0.0
  0
VERTEX
  5
1131
  8
SAPA_FOGBAND
 10
80.640383309181686
 20
-17.546247987221189
 30
0.0
 42
-0.1989123673796526
  0
VERTEX
  5
1132
  8
SAPA_FOGBAND
 10
81.206068734130838
 20
-17.780562562271989
 30
0.0
  0
VERTEX
  5
1133
  8
SAPA_FOGBAND
 10
82.059622124724171
 20
-18.634115952865329
 30
0.0
 42
-0.6681786379193474
  0
VERTEX
  5
1134
  8
SAPA_FOGBAND
 10
81.847490090368353
 20
-19.146247987221098
 30
0.0
  0
VERTEX
  5
1135
  8
SAPA_FOGBAND
 10
81.497490090368217
 20
-19.146247987221098
 30
0.0
  0
VERTEX
  5
1136
  8
SAPA_FOGBAND
 10
81.497490090368217
 20
-20.046247987221189
 30
0.0
 42
0.4142135623730951
  0
VERTEX
  5
1137
  8
SAPA_FOGBAND
 10
81.797490090368157
 20
-20.346247987221151
 30
0.0
  0
VERTEX
  5
1138
  8
SAPA_FOGBAND
 10
83.897490090368308
 20
-20.346247987221151
 30
0.0
 42
0.4142135623730951
  0
VERTEX
  5
1139
  8
SAPA_FOGBAND
 10
84.197490090368248
 20
-20.046247987221189
 30
0.0
  0
VERTEX
  5
113A
  8
SAPA_FOGBAND
 10
84.197490090368248
 20
-18.646247987221098
 30
0.0
 42
-0.7754026414786132
  0
VERTEX
  5
113B
  8
SAPA_FOGBAND
 10
84.760282085775927
 20
-18.501540118915209
 30
0.0
 42
0.1137347954614569
  0
VERTEX
  5
113C
  8
SAPA_FOGBAND
 10
88.910330244366548
 20
-25.978027877239981
 30
0.0
 42
-0.8680589103334746
  0
VERTEX
  5
113D
  8
SAPA_FOGBAND
 10
88.435406214603006
 20
-26.334867779901689
 30
0.0
  0
VERTEX
  5
113E
  8
SAPA_FOGBAND
 10
84.465370817451173
 20
-23.958662090569931
 30
0.0
 42
0.1989123673796536
  0
VERTEX
  5
113F
  8
SAPA_FOGBAND
 10
83.758264036264734
 20
-23.665768871756601
 30
0.0
  0
VERTEX
  5
1140
  8
SAPA_FOGBAND
 10
80.924945071845002
 20
-23.665768871756601
 30
0.0
 42
0.577350269189628
  0
VERTEX
  5
1141
  8
SAPA_FOGBAND
 10
80.665137450709537
 20
-24.115768871756419
 30
0.0
  0
VERTEX
  5
1142
  8
SAPA_FOGBAND
 10
82.803266147121278
 20
-25.968928343298732
 30
0.0
 42
-0.8769764629927301
  0
VERTEX
  5
1143
  8
SAPA_FOGBAND
 10
82.331326491630008
 20
-26.331060377654861
 30
0.0
  0
VERTEX
  5
1144
  8
SAPA_FOGBAND
 10
78.365098496725352
 20
-23.958662090569931
 30
0.0
 42
0.198912367379658
  0
VERTEX
  5
1145
  8
SAPA_FOGBAND
 10
77.657991715538785
 20
-23.665768871756601
 30
0.0
  0
VERTEX
  5
1146
  8
SAPA_FOGBAND
 10
75.425717353317111
 20
-23.665768871756601
 30
0.0
 42
0.5773502691896441
  0
VERTEX
  5
1147
  8
SAPA_FOGBAND
 10
75.165909732181888
 20
-24.115768871756419
 30
0.0
  0
VERTEX
  5
1148
  8
SAPA_FOGBAND
 10
77.303536853711137
 20
-25.968059590118351
 30
0.0
 42
-0.87697646299276
  0
VERTEX
  5
1149
  8
SAPA_FOGBAND
 10
76.831597198219853
 20
-26.33019162447448
 30
0.0
  0
VERTEX
  5
114A
  8
SAPA_FOGBAND
 10
72.790383309181664
 20
-23.88280744325624
 30
0.0
 42
-0.198912367379658
  0
VERTEX
  5
114B
  8
SAPA_FOGBAND
 10
72.497490090368217
 20
-23.175700662069801
 30
0.0
  0
VERTEX
  5
114C
  8
SAPA_FOGBAND
 10
72.497490090368217
 20
-21.346247987221151
 30
0.0
  0
VERTEX
  5
114D
  8
SAPA_FOGBAND
 10
72.497490090368217
 20
-21.356179777534351
 30
0.0
  0
SEQEND
  5
114E
  8
SAPA_FOGBAND
  0
POLYLINE
  5
9F4
  8
SAPA_FOGBAND
 66
     1
 10
0.0
 20
0.0
 30
0.0
 70
     1
  0
VERTEX
  5
114F
  8
SAPA_FOGBAND
 10
72.43717250947708
 20
-53.427386987235359
 30
0.0
 42
0.4142135623730951
  0
VERTEX
  5
1150
  8
SAPA_FOGBAND
 10
73.43717250947708
 20
-54.427386987235373
 30
0.0
  0
VERTEX
  5
1151
  8
SAPA_FOGBAND
 10
74.637172509477125
 20
-54.427386987235373
 30
0.0
 42
-0.4142135623730951
  0
VERTEX
  5
1152
  8
SAPA_FOGBAND
 10
74.93717250947708
 20
-54.72738698723532
 30
0.0
  0
VERTEX
  5
1153
  8
SAPA_FOGBAND
 10
74.93717250947708
 20
-55.627386987235411
 30
0.0
  0
VERTEX
  5
1154
  8
SAPA_FOGBAND
 10
74.587172509476943
 20
-55.627386987235411
 30
0.0
 42
0.6681786379193472
  0
VERTEX
  5
1155
  8
SAPA_FOGBAND
 10
74.375040475121125
 20
-56.139519021591411
 30
0.0
  0
VERTEX
  5
1156
  8
SAPA_FOGBAND
 10
75.228593865714345
 20
-56.993072412184738
 30
0.0
 42
0.1989123673796526
  0
VERTEX
  5
1157
  8
SAPA_FOGBAND
 10
75.79427929066361
 20
-57.22738698723532
 30
0.0
  0
VERTEX
  5
1158
  8
SAPA_FOGBAND
 10
75.956974413083401
 20
-57.22738698723532
 30
0.0
 42
0.3394542588633746
  0
VERTEX
  5
1159
  8
SAPA_FOGBAND
 10
76.246752160970175
 20
-57.005032700766087
 30
0.0
  0
VERTEX
  5
115A
  8
SAPA_FOGBAND
 10
76.609901404360073
 20
-55.649741273704592
 30
0.0
 42
-0.3394542588633744
  0
VERTEX
  5
115B
  8
SAPA_FOGBAND
 10
76.899679152246847
 20
-55.427386987235359
 30
0.0
  0
VERTEX
  5
115C
  8
SAPA_FOGBAND
 10
79.474665866707312
 20
-55.427386987235359
 30
0.0
 42
-0.3394542588633746
  0
VERTEX
  5
115D
  8
SAPA_FOGBAND
 10
79.764443614594086
 20
-55.649741273704592
 30
0.0
  0
VERTEX
  5
115E
  8
SAPA_FOGBAND
 10
80.127592857983984
 20
-57.005032700766087
 30
0.0
 42
0.3394542588633747
  0
VERTEX
  5
115F
  8
SAPA_FOGBAND
 10
80.417370605870758
 20
-57.22738698723532
 30
0.0
  0
VERTEX
  5
1160
  8
SAPA_FOGBAND
 10
80.580065728290549
 20
-57.22738698723532
 30
0.0
 42
0.1989123673796526
  0
VERTEX
  5
1161
  8
SAPA_FOGBAND
 10
81.145751153239914
 20
-56.993072412184738
 30
0.0
  0
VERTEX
  5
1162
  8
SAPA_FOGBAND
 10
81.999304543833034
 20
-56.139519021591411
 30
0.0
 42
0.6681786379193474
  0
VERTEX
  5
1163
  8
SAPA_FOGBAND
 10
81.787172509477216
 20
-55.627386987235411
 30
0.0
  0
VERTEX
  5
1164
  8
SAPA_FOGBAND
 10
81.437172509477065
 20
-55.627386987235411
 30
0.0
  0
VERTEX
  5
1165
  8
SAPA_FOGBAND
 10
81.437172509477065
 20
-54.72738698723532
 30
0.0
 42
-0.4142135623730951
  0
VERTEX
  5
1166
  8
SAPA_FOGBAND
 10
81.737172509477034
 20
-54.427386987235373
 30
0.0
  0
VERTEX
  5
1167
  8
SAPA_FOGBAND
 10
83.837172509477156
 20
-54.427386987235373
 30
0.0
 42
-0.4142135623730951
  0
VERTEX
  5
1168
  8
SAPA_FOGBAND
 10
84.137172509477125
 20
-54.72738698723532
 30
0.0
  0
VERTEX
  5
1169
  8
SAPA_FOGBAND
 10
84.137172509477125
 20
-56.127386987235411
 30
0.0
 42
0.7754026414785753
  0
VERTEX
  5
116A
  8
SAPA_FOGBAND
 10
84.699964504884804
 20
-56.27209485554129
 30
0.0
  0
VERTEX
  5
116B
  8
SAPA_FOGBAND
 10
88.219667015430176
 20
-50.88898908295544
 30
0.0
 42
0.8680589103334742
  0
VERTEX
  5
116C
  8
SAPA_FOGBAND
 10
87.744742985666619
 20
-50.532149180293743
 30
0.0
  0
VERTEX
  5
116D
  8
SAPA_FOGBAND
 10
84.405053236560263
 20
-52.634493768422033
 30
0.0
 42
-0.198912367379658
  0
VERTEX
  5
116E
  8
SAPA_FOGBAND
 10
83.697946455373597
 20
-52.927386987235359
 30
0.0
  0
VERTEX
  5
116F
  8
SAPA_FOGBAND
 10
80.864627490953865
 20
-52.927386987235359
 30
0.0
 42
-0.5773502691896282
  0
VERTEX
  5
1170
  8
SAPA_FOGBAND
 10
80.604819869818641
 20
-52.47738698723532
 30
0.0
  0
VERTEX
  5
1171
  8
SAPA_FOGBAND
 10
82.112602918184905
 20
-50.8980886168967
 30
0.0
 42
0.8769764629927299
  0
VERTEX
  5
1172
  8
SAPA_FOGBAND
 10
81.640663262693636
 20
-50.535956582540571
 30
0.0
  0
VERTEX
  5
1173
  8
SAPA_FOGBAND
 10
78.304780915834328
 20
-52.634493768422033
 30
0.0
 42
-0.198912367379658
  0
VERTEX
  5
1174
  8
SAPA_FOGBAND
 10
77.597674134647662
 20
-52.927386987235359
 30
0.0
  0
VERTEX
  5
1175
  8
SAPA_FOGBAND
 10
75.365399772426073
 20
-52.927386987235359
 30
0.0
 42
-0.5773502691896282
  0
VERTEX
  5
1176
  8
SAPA_FOGBAND
 10
75.10559215129075
 20
-52.47738698723532
 30
0.0
  0
VERTEX
  5
1177
  8
SAPA_FOGBAND
 10
76.612873624774522
 20
-50.898957370077078
 30
0.0
 42
0.8769764629927299
  0
VERTEX
  5
1178
  8
SAPA_FOGBAND
 10
76.140933969283253
 20
-50.536825335720948
 30
0.0
  0
VERTEX
  5
1179
  8
SAPA_FOGBAND
 10
72.73006572829064
 20
-52.710348415735723
 30
0.0
 42
0.198912367379658
  0
VERTEX
  5
117A
  8
SAPA_FOGBAND
 10
72.43717250947708
 20
-53.417455196922162
 30
0.0
  0
SEQEND
  5
117B
  8
SAPA_FOGBAND
  0
DIMENSION
  5
9FC
  8
SAPA_MATT
  2
*D28
 10
84.0
 20
-90.54580783252257
 30
0.0
 11
45.0
 21
-88.04580783252257
 31
0.0
 70
     0
 13
5.9999999999999991
 23
-58.550000000000288
 33
0.0
 14
84.0
 24
-58.10000000000025
 34
0.0
1001
ACAD
1000
DSTYLE
1002
{
1070
   287
1070
     4
1070
    40
1040
1.0
1070
   279
1070
     1
1002
}
  0
DIMENSION
  5
9FD
  8
SAPA_MATT
  2
*D27
 10
5.9999999999999973
 20
-90.545807832522485
 30
0.0
 11
3.00000000000004
 21
-88.045807832522485
 31
0.0
 70
     0
 13
0.0000000000000853
 23
-58.550000000000352
 33
0.0
 14
5.9999999999999991
 24
-58.550000000000288
 34
0.0
1001
ACAD
1000
DSTYLE
1002
{
1070
   287
1070
     4
1070
   271
1070
     0
1070
    40
1040
1.0
1070
   279
1070
     1
1002
}
  0
DIMENSION
  5
9FE
  8
SAPA_MATT
  2
*D26
 10
0.0000000000000833
 20
-90.545807832522485
 30
0.0
 11
-38.999999999999908
 21
-88.045807832522485
 31
0.0
 70
     0
 13
-77.999999999999915
 23
-58.10000000000025
 33
0.0
 14
0.0000000000000853
 24
-58.550000000000352
 34
0.0
1001
ACAD
1000
DSTYLE
1002
{
1070
    40
1040
1.0
1002
}
  0
VIEWPORT
  5
C4
 67
     1
  8
0
 10
143.06236603067589
 20
116.00969601843509
 30
0.0
 40
369.98580003443811
 41
256.8421457311839
 68
     1
 69
     1
1001
ACAD
1000
MVIEW
1002
{
1070
    16
1010
0.0
1020
0.0
1030
0.0
1010
0.0
1020
0.0
1030
1.0
1040
0.0
1040
256.8421457311839
1040
99.112914085388169
1040
143.07606935501099
1040
50.0
1040
0.0
1040
0.0
1070
     0
1070
     0
1070
     1
1070
     1
1070
     0
1070
     0
1070
     0
1070
     0
1040
0.0
1040
0.0
1040
0.0
1040
10.0
1040
10.0
1040
10.0
1040
10.0
1070
     0
1002
{
1002
}
1002
}
  0
ENDSEC
  0
EOF
