  0
SECTION
  2
HEADER
  9
$ACADVER
  1
AC1009
  9
$INSBASE
 10
0.0
 20
0.0
 30
0.0
  9
$EXTMIN
 10
-61.654799543902648
 20
-48.349226277952042
 30
0.0
  9
$EXTMAX
 10
209.338877188542
 20
299.25194451223098
 30
0.0
  9
$LIMMIN
 10
0.0
 20
0.0
  9
$LIMMAX
 10
790.0
 20
790.0
  9
$ORTHOMODE
 70
     1
  9
$REGENMODE
 70
     1
  9
$FILLMODE
 70
     1
  9
$QTEXTMODE
 70
     0
  9
$MIRRTEXT
 70
     1
  9
$DRAGMODE
 70
     2
  9
$LTSCALE
 40
4.0
  9
$OSMODE
 70
   167
  9
$ATTMODE
 70
     1
  9
$TEXTSIZE
 40
3.5
  9
$TRACEWID
 40
0.05
  9
$TEXTSTYLE
  7
ISO
  9
$CLAYER
  8
0
  9
$CELTYPE
  6
BYLAYER
  9
$CECOLOR
 62
   256
  9
$DIMSCALE
 40
0.0
  9
$DIMASZ
 40
3.0
  9
$DIMEXO
 40
1.5
  9
$DIMDLI
 40
10.0
  9
$DIMRND
 40
0.0
  9
$DIMDLE
 40
0.0
  9
$DIMEXE
 40
1.5
  9
$DIMTP
 40
0.0
  9
$DIMTM
 40
0.0
  9
$DIMTXT
 40
3.0
  9
$DIMCEN
 40
-5.0
  9
$DIMTSZ
 40
0.0
  9
$DIMTOL
 70
     0
  9
$DIMLIM
 70
     0
  9
$DIMTIH
 70
     0
  9
$DIMTOH
 70
     0
  9
$DIMSE1
 70
     0
  9
$DIMSE2
 70
     0
  9
$DIMTAD
 70
     1
  9
$DIMZIN
 70
     8
  9
$DIMBLK
  1

  9
$DIMASO
 70
     1
  9
$DIMSHO
 70
     1
  9
$DIMPOST
  1

  9
$DIMAPOST
  1

  9
$DIMALT
 70
     0
  9
$DIMALTD
 70
     0
  9
$DIMALTF
 40
25.399999999999999
  9
$DIMLFAC
 40
-1.0
  9
$DIMTOFL
 70
     1
  9
$DIMTVP
 40
0.0
  9
$DIMTIX
 70
     0
  9
$DIMSOXD
 70
     0
  9
$DIMSAH
 70
     0
  9
$DIMBLK1
  1

  9
$DIMBLK2
  1

  9
$DIMSTYLE
  2
MASKIN
  9
$DIMCLRD
 70
   256
  9
$DIMCLRE
 70
   256
  9
$DIMCLRT
 70
     2
  9
$DIMTFAC
 40
1.0
  9
$DIMGAP
 40
1.0
  9
$LUNITS
 70
     2
  9
$LUPREC
 70
     8
  9
$SKETCHINC
 40
0.1
  9
$FILLETRAD
 40
0.0
  9
$AUNITS
 70
     0
  9
$AUPREC
 70
     8
  9
$MENU
  1
ACAD
  9
$ELEVATION
 40
0.0
  9
$PELEVATION
 40
0.0
  9
$THICKNESS
 40
0.0
  9
$LIMCHECK
 70
     0
  9
$BLIPMODE
 70
     0
  9
$CHAMFERA
 40
0.0
  9
$CHAMFERB
 40
0.0
  9
$SKPOLY
 70
     0
  9
$TDCREATE
 40
2454995.4690802889
  9
$TDUPDATE
 40
2455008.4360587848
  9
$TDINDWG
 40
0.0877285301
  9
$TDUSRTIMER
 40
0.0877285301
  9
$USRTIMER
 70
     1
  9
$ANGBASE
 50
0.0
  9
$ANGDIR
 70
     0
  9
$PDMODE
 70
     0
  9
$PDSIZE
 40
0.0
  9
$PLINEWID
 40
0.0
  9
$COORDS
 70
     1
  9
$SPLFRAME
 70
     0
  9
$SPLINETYPE
 70
     6
  9
$SPLINESEGS
 70
     8
  9
$ATTDIA
 70
     0
  9
$ATTREQ
 70
     1
  9
$HANDLING
 70
     1
  9
$HANDSEED
  5
1FEA
  9
$SURFTAB1
 70
     6
  9
$SURFTAB2
 70
     6
  9
$SURFTYPE
 70
     6
  9
$SURFU
 70
     6
  9
$SURFV
 70
     6
  9
$UCSNAME
  2

  9
$UCSORG
 10
0.0
 20
0.0
 30
0.0
  9
$UCSXDIR
 10
1.0
 20
0.0
 30
0.0
  9
$UCSYDIR
 10
0.0
 20
1.0
 30
0.0
  9
$PUCSNAME
  2

  9
$PUCSORG
 10
0.0
 20
0.0
 30
0.0
  9
$PUCSXDIR
 10
1.0
 20
0.0
 30
0.0
  9
$PUCSYDIR
 10
0.0
 20
1.0
 30
0.0
  9
$USERI1
 70
     0
  9
$USERI2
 70
     0
  9
$USERI3
 70
     0
  9
$USERI4
 70
     0
  9
$USERI5
 70
     0
  9
$USERR1
 40
0.0
  9
$USERR2
 40
0.0
  9
$USERR3
 40
0.0
  9
$USERR4
 40
0.0
  9
$USERR5
 40
0.0
  9
$WORLDVIEW
 70
     1
  9
$SHADEDGE
 70
     3
  9
$SHADEDIF
 70
    70
  9
$TILEMODE
 70
     1
  9
$MAXACTVP
 70
    16
  9
$PLIMCHECK
 70
     0
  9
$PEXTMIN
 10
1.0000000000000000E+020
 20
1.0000000000000000E+020
 30
1.0000000000000000E+020
  9
$PEXTMAX
 10
-1.0000000000000000E+020
 20
-1.0000000000000000E+020
 30
-1.0000000000000000E+020
  9
$PLIMMIN
 10
-5.069427490234375
 20
-5.8737497329711914
  9
$PLIMMAX
 10
291.89889526367187
 20
204.0995779037475
  9
$UNITMODE
 70
     0
  9
$VISRETAIN
 70
     1
  9
$PLINEGEN
 70
     0
  9
$PSLTSCALE
 70
     1
  0
ENDSEC
  0
SECTION
  2
TABLES
  0
TABLE
  2
VPORT
 70
     1
  0
VPORT
  2
*ACTIVE
 70
     0
 10
0.0
 20
0.0
 11
1.0
 21
1.0
 12
210.13776163330601
 22
125.44467053129451
 13
0.0
 23
0.0
 14
1.0
 24
1.0
 15
0.0
 25
0.0
 16
0.0
 26
0.0
 36
1.0
 17
0.0
 27
0.0
 37
0.0
 40
350.38375712543041
 41
2.362776025236593
 42
50.0
 43
0.0
 44
0.0
 50
0.0
 51
0.0
 71
     0
 72
   100
 73
     1
 74
     1
 75
     0
 76
     0
 77
     0
 78
     0
  0
ENDTAB
  0
TABLE
  2
LTYPE
 70
     9
  0
LTYPE
  2
CONTINUOUS
 70
     0
  3
Solid line
 72
    65
 73
     0
 40
0.0
  0
LTYPE
  2
BYGG-01473602$0$NEWDOT
 70
     0
  3
____ . ____ . ____ . ____ . ____ . ____ . ____
 72
    65
 73
     4
 40
2.0
 49
1.0
 49
-0.5
 49
0.0
 49
-0.5
  0
LTYPE
  2
BYGG-014252$0$NEWDOT
 70
     0
  3
____ . ____ . ____ . ____ . ____ . ____ . ____
 72
    65
 73
     4
 40
2.0
 49
1.0
 49
-0.5
 49
0.0
 49
-0.5
  0
LTYPE
  2
BYGG-014680$0$NEWDOT
 70
     0
  3
____ . ____ . ____ . ____ . ____ . ____ . ____
 72
    65
 73
     4
 40
2.0
 49
1.0
 49
-0.5
 49
0.0
 49
-0.5
  0
LTYPE
  2
BYGG-01482201$0$NEWDOT
 70
     0
  3
____ . ____ . ____ . ____ . ____ . ____ . ____
 72
    65
 73
     4
 40
2.0
 49
1.0
 49
-0.5
 49
0.0
 49
-0.5
  0
LTYPE
  2
BYGG-014357$0$NEWDOT
 70
     0
  3
____ . ____ . ____ . ____ . ____ . ____ . ____
 72
    65
 73
     4
 40
2.0
 49
1.0
 49
-0.5
 49
0.0
 49
-0.5
  0
LTYPE
  2
BYGG-014357$0$DASHDOT
 70
     0
  3
__ . __ . __ . __ . __ . __ . __ . __ . __ . __
 72
    65
 73
     4
 40
1.0
 49
0.5
 49
-0.25
 49
0.0
 49
-0.25
  0
LTYPE
  2
BYGG-014357$0$DASHED
 70
     0
  3
__ __ __ __ __ __ __ __ __ __ __ __ __ __ __
 72
    65
 73
     2
 40
0.75
 49
0.5
 49
-0.25
  0
LTYPE
  2
BYGG-014257$0$NEWDOT
 70
     0
  3
____ . ____ . ____ . ____ . ____ . ____ . ____
 72
    65
 73
     4
 40
2.0
 49
1.0
 49
-0.5
 49
0.0
 49
-0.5
  0
ENDTAB
  0
TABLE
  2
LAYER
 70
    87
  0
LAYER
  2
0
 70
     0
 62
     7
  6
CONTINUOUS
  0
LAYER
  2
DEFPOINTS
 70
     0
 62
     7
  6
CONTINUOUS
  0
LAYER
  2
SAPA_ARTIKELNR
 70
     0
 62
     4
  6
CONTINUOUS
  0
LAYER
  2
SAPA_LIGHT
 70
     1
 62
     1
  6
CONTINUOUS
  0
LAYER
  2
SAPA_PROFIL
 70
     0
 62
     7
  6
CONTINUOUS
  0
LAYER
  2
SAPA_ANSLUTNING
 70
     0
 62
     6
  6
CONTINUOUS
  0
LAYER
  2
BYGG-014680$0$ARTIKELNUMME
 70
     0
 62
     4
  6
CONTINUOUS
  0
LAYER
  2
SAPA_FOGBAND
 70
     0
 62
     2
  6
CONTINUOUS
  0
LAYER
  2
SAPA_ISOLATOR
 70
     0
 62
     4
  6
CONTINUOUS
  0
LAYER
  2
SAPA_MATT
 70
     0
 62
     1
  6
CONTINUOUS
  0
LAYER
  2
SAPA_GLAS
 70
     0
 62
     4
  6
CONTINUOUS
  0
ENDTAB
  0
TABLE
  2
STYLE
 70
    37
  0
STYLE
  2
STANDARD
 70
     0
 40
0.0
 41
1.0
 50
0.0
 71
     0
 42
0.2
  3
txt
  4

  0
STYLE
  2
ISO
 70
     0
 40
0.0
 41
1.0
 50
0.0
 71
     0
 42
3.5
  3
txt
  4

  0
STYLE
  2
ANNOTATIVE
 70
     0
 40
0.0
 41
1.0
 50
0.0
 71
     0
 42
0.2
  3
txt
  4

  0
STYLE
  2
BYGG-024116$0$STANDARD
 70
     0
 40
0.0
 41
1.0
 50
0.0
 71
     0
 42
0.2
  3
txt
  4

  0
STYLE
  2
BYGG-024116$0$ISO
 70
     0
 40
0.0
 41
1.0
 50
0.0
 71
     0
 42
3.5
  3
txt
  4

  0
STYLE
  2
BYGG-01473602$0$STANDARD
 70
     0
 40
0.0
 41
1.0
 50
0.0
 71
     0
 42
0.2
  3
txt
  4

  0
STYLE
  2
BYGG-01473602$0$ISO
 70
     0
 40
0.0
 41
1.0
 50
0.0
 71
     0
 42
2.5
  3
isocp3.shx
  4

  0
STYLE
  2
BYGG-024082$0$STANDARD
 70
     0
 40
0.0
 41
1.0
 50
0.0
 71
     0
 42
0.2
  3
txt
  4

  0
STYLE
  2
BYGG-024082$0$ISO
 70
     0
 40
0.0
 41
1.0
 50
0.0
 71
     0
 42
3.5
  3
txt
  4

  0
STYLE
  2
BYGG-014252$0$STANDARD
 70
     0
 40
0.0
 41
1.0
 50
0.0
 71
     0
 42
0.2
  3
txt
  4

  0
STYLE
  2
BYGG-014252$0$ISO
 70
     0
 40
0.0
 41
1.0
 50
0.0
 71
     0
 42
2.5
  3
isocp3.shx
  4

  0
STYLE
  2
BYGG-014014$0$STANDARD
 70
     0
 40
0.0
 41
1.0
 50
0.0
 71
     0
 42
0.2
  3
txt
  4

  0
STYLE
  2
BYGG-024083$0$STANDARD
 70
     0
 40
0.0
 41
1.0
 50
0.0
 71
     0
 42
0.2
  3
txt
  4

  0
STYLE
  2
BYGG-024083$0$ISO
 70
     0
 40
0.0
 41
1.0
 50
0.0
 71
     0
 42
3.5
  3
txt
  4

  0
STYLE
  2
BYGG-024084$0$STANDARD
 70
     0
 40
0.0
 41
1.0
 50
0.0
 71
     0
 42
0.2
  3
txt
  4

  0
STYLE
  2
BYGG-024084$0$ISO
 70
     0
 40
0.0
 41
1.0
 50
0.0
 71
     0
 42
3.5
  3
txt
  4

  0
STYLE
  2
BYGG-013683$0$STANDARD
 70
     0
 40
0.0
 41
1.0
 50
0.0
 71
     0
 42
0.2
  3
txt
  4

  0
STYLE
  2
BYGG-024110$0$STANDARD
 70
     0
 40
0.0
 41
1.0
 50
0.0
 71
     0
 42
0.2
  3
txt
  4

  0
STYLE
  2
BYGG-024110$0$ISO
 70
     0
 40
0.0
 41
1.0
 50
0.0
 71
     0
 42
3.5
  3
txt
  4

  0
STYLE
  2
BYGG-014680$0$STANDARD
 70
     0
 40
0.0
 41
1.0
 50
0.0
 71
     0
 42
0.2
  3
txt
  4

  0
STYLE
  2
BYGG-014680$0$ISO
 70
     0
 40
0.0
 41
1.0
 50
0.0
 71
     0
 42
8.0
  3
iso
  4

  0
STYLE
  2
BYGG-021589$0$STANDARD
 70
     0
 40
0.0
 41
1.0
 50
0.0
 71
     0
 42
0.2
  3
txt
  4

  0
STYLE
  2
BYGG-021589$0$ISO
 70
     0
 40
0.0
 41
1.0
 50
0.0
 71
     0
 42
3.5
  3
isocp3.shx
  4

  0
STYLE
  2
BYGG-01482201$0$STANDARD
 70
     0
 40
0.0
 41
1.0
 50
0.0
 71
     0
 42
0.2
  3
txt
  4

  0
STYLE
  2
BYGG-01482201$0$ISO
 70
     0
 40
0.0
 41
1.0
 50
0.0
 71
     0
 42
3.5
  3
isocp3.shx
  4

  0
STYLE
  2
BYGG-021610$0$STANDARD
 70
     0
 40
0.0
 41
1.0
 50
0.0
 71
     0
 42
0.2
  3
txt
  4

  0
STYLE
  2
BYGG-021610$0$ISO
 70
     0
 40
0.0
 41
1.0
 50
0.0
 71
     0
 42
3.5
  3
isocp3.shx
  4

  0
STYLE
  2
BYGG-014357$0$STANDARD
 70
     0
 40
0.0
 41
1.0
 50
0.0
 71
     0
 42
0.2
  3
txt
  4

  0
STYLE
  2
BYGG-014357$0$ISO
 70
     0
 40
0.0
 41
1.0
 50
0.0
 71
     0
 42
3.5
  3
isocp3.shx
  4

  0
STYLE
  2
BYGG-014062$0$STANDARD
 70
     0
 40
0.0
 41
1.0
 50
0.0
 71
     0
 42
0.2
  3
txt
  4

  0
STYLE
  2
BYGG-014062$0$ISO
 70
     0
 40
0.0
 41
1.0
 50
0.0
 71
     0
 42
3.5
  3
isocp3.shx
  4

  0
STYLE
  2
BYGG-024103$0$STANDARD
 70
     0
 40
0.0
 41
1.0
 50
0.0
 71
     0
 42
0.2
  3
txt
  4

  0
STYLE
  2
BYGG-024103$0$ISO
 70
     0
 40
0.0
 41
1.0
 50
0.0
 71
     0
 42
3.5
  3
txt
  4

  0
STYLE
  2
BYGG-014257$0$STANDARD
 70
     0
 40
0.0
 41
1.0
 50
0.0
 71
     0
 42
0.2
  3
txt
  4

  0
STYLE
  2
BYGG-014257$0$ISO
 70
     0
 40
0.0
 41
1.0
 50
0.0
 71
     0
 42
2.5
  3
isocp3.shx
  4

  0
STYLE
  2
BYGG-021806$0$STANDARD
 70
     0
 40
0.0
 41
1.0
 50
0.0
 71
     0
 42
0.2
  3
txt
  4

  0
STYLE
  2
BYGG-021806$0$ISO
 70
     0
 40
0.0
 41
1.0
 50
0.0
 71
     0
 42
3.5
  3
txt
  4

  0
ENDTAB
  0
TABLE
  2
VIEW
 70
     0
  0
ENDTAB
  0
TABLE
  2
UCS
 70
     0
  0
ENDTAB
  0
TABLE
  2
APPID
 70
    17
  0
APPID
  2
ACAD
 70
     0
  0
APPID
  2
ACAD_DSTYLE_DIMTEXT_FILL
 70
     0
  0
APPID
  2
ACAD_DSTYLE_DIMEXT_LENGTH
 70
     0
  0
APPID
  2
ACAD_DSTYLE_DIMEXT_ENABLED
 70
     0
  0
APPID
  2
ACAD_DSTYLE_DIM_LINETYPE
 70
     0
  0
APPID
  2
ACAD_DSTYLE_DIM_EXT1_LINETYPE
 70
     0
  0
APPID
  2
ACAD_DSTYLE_DIM_EXT2_LINETYPE
 70
     0
  0
APPID
  2
ACAD_DSTYLE_DIMJOGGED_JOGA
 70
     0
  0
APPID
  2
ACAD_DSTYLE_DIMARC_LENGTH_
 70
     0
  0
APPID
  2
ACAD_PSEXT
 70
     0
  0
APPID
  2
ACAD_MLEADERVER
 70
     0
  0
APPID
  2
AME_SOL
 70
     0
  0
APPID
  2
AMG_ARCHIVE11
 70
     0
  0
APPID
  2
DCO15
 70
     0
  0
APPID
  2
ACAD_EXEMPT_FROM_CAD_STANDARDS
 70
     0
  0
APPID
  2
ACADANNOTATIVE
 70
     0
  0
APPID
  2
ACAECLAYERSTANDARD
 70
     0
  0
ENDTAB
  0
TABLE
  2
DIMSTYLE
 70
    38
  0
DIMSTYLE
  2
STANDARD
 70
     0
  3

  4

  5

  6

  7

 40
1.0
 41
0.18
 42
0.0625
 43
0.38
 44
0.18
 45
0.0
 46
0.0
 47
0.0
 48
0.0
140
0.18
141
0.09
142
0.0
143
25.399999999999999
144
1.0
145
0.0
146
1.0
147
0.09
 71
     0
 72
     0
 73
     1
 74
     1
 75
     0
 76
     0
 77
     0
 78
     0
170
     0
171
     2
172
     0
173
     0
174
     0
175
     0
176
     0
177
     0
178
     0
  0
DIMSTYLE
  2
MASKIN
 70
     0
  3

  4

  5

  6

  7

 40
0.0
 41
3.0
 42
1.5
 43
10.0
 44
1.5
 45
0.0
 46
0.0
 47
0.0
 48
0.0
140
3.0
141
-5.0
142
0.0
143
25.399999999999999
144
-1.0
145
0.0
146
1.0
147
1.0
 71
     0
 72
     0
 73
     0
 74
     0
 75
     0
 76
     0
 77
     1
 78
     8
170
     0
171
     0
172
     1
173
     0
174
     0
175
     0
176
   256
177
   256
178
     2
  0
DIMSTYLE
  2
ANNOTATIVE
 70
     0
  3

  4

  5

  6

  7

 40
1.0
 41
0.18
 42
0.0625
 43
0.38
 44
0.18
 45
0.0
 46
0.0
 47
0.0
 48
0.0
140
0.18
141
0.09
142
0.0
143
25.399999999999999
144
1.0
145
0.0
146
1.0
147
0.09
 71
     0
 72
     0
 73
     1
 74
     1
 75
     0
 76
     0
 77
     0
 78
     0
170
     0
171
     2
172
     0
173
     0
174
     0
175
     0
176
     0
177
     0
178
     0
  0
DIMSTYLE
  2
BYGG-024116$0$STANDARD
 70
     0
  3

  4

  5

  6

  7

 40
1.0
 41
0.18
 42
0.0625
 43
0.38
 44
0.18
 45
0.0
 46
0.0
 47
0.0
 48
0.0
140
0.18
141
0.09
142
0.0
143
25.399999999999999
144
1.0
145
0.0
146
1.0
147
0.09
 71
     0
 72
     0
 73
     1
 74
     1
 75
     0
 76
     0
 77
     0
 78
     0
170
     0
171
     2
172
     0
173
     0
174
     0
175
     0
176
     0
177
     0
178
     0
  0
DIMSTYLE
  2
BYGG-024116$0$MASKIN
 70
     0
  3

  4

  5

  6

  7

 40
0.0
 41
3.0
 42
1.5
 43
10.0
 44
1.5
 45
0.0
 46
0.0
 47
0.0
 48
0.0
140
3.0
141
-5.0
142
0.0
143
25.399999999999999
144
-1.0
145
0.0
146
1.0
147
1.0
 71
     0
 72
     0
 73
     0
 74
     0
 75
     0
 76
     0
 77
     1
 78
     8
170
     0
171
     0
172
     1
173
     0
174
     0
175
     0
176
   256
177
   256
178
     2
  0
DIMSTYLE
  2
BYGG-01473602$0$STANDARD
 70
     0
  3

  4

  5

  6

  7

 40
1.0
 41
0.18
 42
0.0625
 43
0.38
 44
0.18
 45
0.0
 46
0.0
 47
0.0
 48
0.0
140
0.18
141
0.09
142
0.0
143
25.399999999999999
144
1.0
145
0.0
146
1.0
147
0.09
 71
     0
 72
     0
 73
     1
 74
     1
 75
     0
 76
     0
 77
     0
 78
     0
170
     0
171
     2
172
     0
173
     0
174
     0
175
     0
176
     0
177
     0
178
     0
  0
DIMSTYLE
  2
BYGG-01473602$0$MASKIN
 70
     0
  3

  4

  5

  6

  7

 40
0.0
 41
3.0
 42
1.5
 43
10.0
 44
1.5
 45
0.0
 46
0.0
 47
0.0
 48
0.0
140
3.0
141
-5.0
142
0.0
143
25.399999999999999
144
-1.0
145
0.0
146
1.0
147
1.0
 71
     0
 72
     0
 73
     0
 74
     1
 75
     0
 76
     0
 77
     1
 78
     8
170
     0
171
     0
172
     1
173
     0
174
     0
175
     0
176
   256
177
   256
178
     2
  0
DIMSTYLE
  2
BYGG-024082$0$STANDARD
 70
     0
  3

  4

  5

  6

  7

 40
1.0
 41
0.18
 42
0.0625
 43
0.38
 44
0.18
 45
0.0
 46
0.0
 47
0.0
 48
0.0
140
0.18
141
0.09
142
0.0
143
25.399999999999999
144
1.0
145
0.0
146
1.0
147
0.09
 71
     0
 72
     0
 73
     1
 74
     1
 75
     0
 76
     0
 77
     0
 78
     0
170
     0
171
     2
172
     0
173
     0
174
     0
175
     0
176
     0
177
     0
178
     0
  0
DIMSTYLE
  2
BYGG-024082$0$MASKIN
 70
     0
  3

  4

  5

  6

  7

 40
0.0
 41
3.0
 42
1.5
 43
10.0
 44
1.5
 45
0.0
 46
0.0
 47
0.0
 48
0.0
140
3.0
141
-5.0
142
0.0
143
25.399999999999999
144
-1.0
145
0.0
146
1.0
147
1.0
 71
     0
 72
     0
 73
     0
 74
     0
 75
     0
 76
     0
 77
     1
 78
     8
170
     0
171
     0
172
     1
173
     0
174
     0
175
     0
176
   256
177
   256
178
     2
  0
DIMSTYLE
  2
BYGG-014252$0$STANDARD
 70
     0
  3

  4

  5

  6

  7

 40
1.0
 41
0.18
 42
0.0625
 43
0.38
 44
0.18
 45
0.0
 46
0.0
 47
0.0
 48
0.0
140
0.18
141
0.09
142
0.0
143
25.399999999999999
144
1.0
145
0.0
146
1.0
147
0.09
 71
     0
 72
     0
 73
     1
 74
     1
 75
     0
 76
     0
 77
     0
 78
     0
170
     0
171
     2
172
     0
173
     0
174
     0
175
     0
176
     0
177
     0
178
     0
  0
DIMSTYLE
  2
BYGG-014252$0$MASKIN
 70
     0
  3

  4

  5

  6

  7

 40
0.0
 41
3.0
 42
1.5
 43
10.0
 44
1.5
 45
0.0
 46
0.0
 47
0.0
 48
0.0
140
3.0
141
-5.0
142
0.0
143
25.399999999999999
144
-1.0
145
0.0
146
1.0
147
1.0
 71
     0
 72
     0
 73
     0
 74
     1
 75
     0
 76
     0
 77
     1
 78
     8
170
     0
171
     0
172
     1
173
     0
174
     0
175
     0
176
   256
177
   256
178
     2
  0
DIMSTYLE
  2
BYGG-014014$0$STANDARD
 70
     0
  3

  4

  5

  6

  7

 40
1.0
 41
0.18
 42
0.0625
 43
0.38
 44
0.18
 45
0.0
 46
0.0
 47
0.0
 48
0.0
140
0.18
141
0.09
142
0.0
143
25.399999999999999
144
1.0
145
0.0
146
1.0
147
0.09
 71
     0
 72
     0
 73
     1
 74
     1
 75
     0
 76
     0
 77
     0
 78
     0
170
     0
171
     2
172
     0
173
     0
174
     0
175
     0
176
     0
177
     0
178
     0
  0
DIMSTYLE
  2
BYGG-024083$0$STANDARD
 70
     0
  3

  4

  5

  6

  7

 40
1.0
 41
0.18
 42
0.0625
 43
0.38
 44
0.18
 45
0.0
 46
0.0
 47
0.0
 48
0.0
140
0.18
141
0.09
142
0.0
143
25.399999999999999
144
1.0
145
0.0
146
1.0
147
0.09
 71
     0
 72
     0
 73
     1
 74
     1
 75
     0
 76
     0
 77
     0
 78
     0
170
     0
171
     2
172
     0
173
     0
174
     0
175
     0
176
     0
177
     0
178
     0
  0
DIMSTYLE
  2
BYGG-024083$0$MASKIN
 70
     0
  3

  4

  5

  6

  7

 40
0.0
 41
3.0
 42
1.5
 43
10.0
 44
1.5
 45
0.0
 46
0.0
 47
0.0
 48
0.0
140
3.0
141
-5.0
142
0.0
143
25.399999999999999
144
-1.0
145
0.0
146
1.0
147
1.0
 71
     0
 72
     0
 73
     0
 74
     0
 75
     0
 76
     0
 77
     1
 78
     8
170
     0
171
     0
172
     1
173
     0
174
     0
175
     0
176
   256
177
   256
178
     2
  0
DIMSTYLE
  2
BYGG-024084$0$STANDARD
 70
     0
  3

  4

  5

  6

  7

 40
1.0
 41
0.18
 42
0.0625
 43
0.38
 44
0.18
 45
0.0
 46
0.0
 47
0.0
 48
0.0
140
0.18
141
0.09
142
0.0
143
25.399999999999999
144
1.0
145
0.0
146
1.0
147
0.09
 71
     0
 72
     0
 73
     1
 74
     1
 75
     0
 76
     0
 77
     0
 78
     0
170
     0
171
     2
172
     0
173
     0
174
     0
175
     0
176
     0
177
     0
178
     0
  0
DIMSTYLE
  2
BYGG-024084$0$MASKIN
 70
     0
  3

  4

  5

  6

  7

 40
0.0
 41
3.0
 42
1.5
 43
10.0
 44
1.5
 45
0.0
 46
0.0
 47
0.0
 48
0.0
140
3.0
141
-5.0
142
0.0
143
25.399999999999999
144
-1.0
145
0.0
146
1.0
147
1.0
 71
     0
 72
     0
 73
     0
 74
     0
 75
     0
 76
     0
 77
     1
 78
     8
170
     0
171
     0
172
     1
173
     0
174
     0
175
     0
176
   256
177
   256
178
     2
  0
DIMSTYLE
  2
BYGG-013683$0$STANDARD
 70
     0
  3

  4

  5

  6

  7

 40
1.0
 41
0.18
 42
0.0625
 43
0.38
 44
0.18
 45
0.0
 46
0.0
 47
0.0
 48
0.0
140
0.18
141
0.09
142
0.0
143
25.399999999999999
144
1.0
145
0.0
146
1.0
147
0.09
 71
     0
 72
     0
 73
     1
 74
     1
 75
     0
 76
     0
 77
     0
 78
     0
170
     0
171
     2
172
     0
173
     0
174
     0
175
     0
176
     0
177
     0
178
     0
  0
DIMSTYLE
  2
BYGG-024110$0$STANDARD
 70
     0
  3

  4

  5

  6

  7

 40
1.0
 41
0.18
 42
0.0625
 43
0.38
 44
0.18
 45
0.0
 46
0.0
 47
0.0
 48
0.0
140
0.18
141
0.09
142
0.0
143
25.399999999999999
144
1.0
145
0.0
146
1.0
147
0.09
 71
     0
 72
     0
 73
     1
 74
     1
 75
     0
 76
     0
 77
     0
 78
     0
170
     0
171
     2
172
     0
173
     0
174
     0
175
     0
176
     0
177
     0
178
     0
  0
DIMSTYLE
  2
BYGG-024110$0$MASKIN
 70
     0
  3

  4

  5

  6

  7

 40
0.0
 41
3.0
 42
1.5
 43
10.0
 44
1.5
 45
0.0
 46
0.0
 47
0.0
 48
0.0
140
3.0
141
-5.0
142
0.0
143
25.399999999999999
144
-1.0
145
0.0
146
1.0
147
1.0
 71
     0
 72
     0
 73
     0
 74
     0
 75
     0
 76
     0
 77
     1
 78
     8
170
     0
171
     0
172
     1
173
     0
174
     0
175
     0
176
   256
177
   256
178
     2
  0
DIMSTYLE
  2
BYGG-014680$0$STANDARD
 70
     0
  3

  4

  5

  6

  7

 40
1.0
 41
0.18
 42
0.0625
 43
0.38
 44
0.18
 45
0.0
 46
0.0
 47
0.0
 48
0.0
140
0.18
141
0.09
142
0.0
143
25.399999999999999
144
1.0
145
0.0
146
1.0
147
0.09
 71
     0
 72
     0
 73
     1
 74
     1
 75
     0
 76
     0
 77
     0
 78
     0
170
     0
171
     2
172
     0
173
     0
174
     0
175
     0
176
     0
177
     0
178
     0
  0
DIMSTYLE
  2
BYGG-014680$0$MASKIN
 70
     0
  3

  4

  5

  6

  7

 40
0.0
 41
3.0
 42
1.5
 43
10.0
 44
1.5
 45
0.0
 46
0.0
 47
0.0
 48
0.0
140
3.0
141
-5.0
142
0.0
143
25.399999999999999
144
-1.0
145
0.0
146
1.0
147
1.0
 71
     0
 72
     0
 73
     0
 74
     1
 75
     0
 76
     0
 77
     1
 78
     8
170
     0
171
     0
172
     1
173
     0
174
     0
175
     0
176
   256
177
   256
178
     2
  0
DIMSTYLE
  2
BYGG-021589$0$MASKIN
 70
     0
  3

  4

  5

  6

  7

 40
0.0
 41
3.0
 42
1.5
 43
10.0
 44
1.5
 45
0.0
 46
0.0
 47
0.0
 48
0.0
140
3.0
141
-5.0
142
0.0
143
25.399999999999999
144
-1.0
145
0.0
146
1.0
147
1.0
 71
     0
 72
     0
 73
     0
 74
     0
 75
     0
 76
     0
 77
     1
 78
     8
170
     0
171
     0
172
     1
173
     0
174
     0
175
     0
176
   256
177
   256
178
   256
  0
DIMSTYLE
  2
BYGG-01482201$0$STANDARD
 70
     0
  3

  4

  5

  6

  7

 40
1.0
 41
0.18
 42
0.0625
 43
0.38
 44
0.18
 45
0.0
 46
0.0
 47
0.0
 48
0.0
140
0.18
141
0.09
142
0.0
143
25.399999999999999
144
1.0
145
0.0
146
1.0
147
0.09
 71
     0
 72
     0
 73
     1
 74
     1
 75
     0
 76
     0
 77
     0
 78
     0
170
     0
171
     2
172
     0
173
     0
174
     0
175
     0
176
     0
177
     0
178
     0
  0
DIMSTYLE
  2
BYGG-01482201$0$MASKIN
 70
     0
  3

  4

  5

  6

  7

 40
0.0
 41
3.0
 42
1.5
 43
10.0
 44
1.5
 45
0.0
 46
0.0
 47
0.0
 48
0.0
140
3.0
141
-5.0
142
0.0
143
25.399999999999999
144
-1.0
145
0.0
146
1.0
147
1.0
 71
     0
 72
     0
 73
     0
 74
     1
 75
     0
 76
     0
 77
     1
 78
     8
170
     0
171
     0
172
     1
173
     0
174
     0
175
     0
176
   256
177
   256
178
     2
  0
DIMSTYLE
  2
BYGG-021610$0$MASKIN
 70
     0
  3

  4

  5

  6

  7

 40
0.0
 41
3.0
 42
1.5
 43
10.0
 44
1.5
 45
0.0
 46
0.0
 47
0.0
 48
0.0
140
3.0
141
-5.0
142
0.0
143
25.399999999999999
144
-1.0
145
0.0
146
1.0
147
1.0
 71
     0
 72
     0
 73
     0
 74
     0
 75
     0
 76
     0
 77
     1
 78
     8
170
     0
171
     0
172
     1
173
     0
174
     0
175
     0
176
   256
177
   256
178
   256
  0
DIMSTYLE
  2
BYGG-014357$0$MASKIN
 70
     0
  3

  4

  5

  6

  7

 40
0.0
 41
3.0
 42
1.5
 43
10.0
 44
1.5
 45
0.0
 46
0.0
 47
0.0
 48
0.0
140
3.0
141
-5.0
142
0.0
143
25.399999999999999
144
-1.0
145
0.0
146
1.0
147
1.0
 71
     0
 72
     0
 73
     0
 74
     0
 75
     0
 76
     0
 77
     1
 78
     8
170
     0
171
     0
172
     1
173
     0
174
     0
175
     0
176
   256
177
   256
178
   256
  0
DIMSTYLE
  2
BYGG-014357$0$MASKIN1
 70
     0
  3

  4

  5

  6

  7

 40
1.0
 41
3.0
 42
1.5
 43
10.0
 44
1.5
 45
0.0
 46
0.0
 47
0.0
 48
0.0
140
3.0
141
-5.0
142
0.0
143
25.399999999999999
144
1.0
145
0.0
146
1.0
147
0.9
 71
     0
 72
     0
 73
     0
 74
     0
 75
     0
 76
     0
 77
     1
 78
     8
170
     0
171
     0
172
     1
173
     0
174
     0
175
     0
176
   256
177
   256
178
   256
  0
DIMSTYLE
  2
BYGG-014357$0$MASKIN2
 70
     0
  3

  4

  5

  6

  7

 40
1.0
 41
3.0
 42
1.5
 43
10.0
 44
1.5
 45
0.0
 46
0.0
 47
0.0
 48
0.0
140
3.0
141
-5.0
142
0.0
143
25.399999999999999
144
1.0
145
0.0
146
1.0
147
0.9
 71
     0
 72
     0
 73
     0
 74
     0
 75
     0
 76
     0
 77
     1
 78
     8
170
     0
171
     0
172
     1
173
     0
174
     0
175
     0
176
   256
177
   256
178
   256
  0
DIMSTYLE
  2
BYGG-014357$0$MASKIN3
 70
     0
  3

  4

  5

  6

  7

 40
1.0
 41
3.0
 42
1.5
 43
10.0
 44
1.5
 45
0.0
 46
0.0
 47
0.0
 48
0.0
140
3.0
141
-5.0
142
0.0
143
25.399999999999999
144
1.0
145
0.0
146
1.0
147
0.9
 71
     0
 72
     0
 73
     0
 74
     0
 75
     0
 76
     0
 77
     1
 78
     8
170
     0
171
     0
172
     1
173
     0
174
     0
175
     0
176
   256
177
   256
178
   256
  0
DIMSTYLE
  2
BYGG-014357$0$DMST_1
 70
     0
  3

  4

  5

  6

  7

 40
1.0
 41
0.7000000000000002
 42
0.0
 43
7.0
 44
0.4
 45
0.0
 46
0.0
 47
0.15
 48
0.15
140
0.7000000000000002
141
0.0
142
0.0
143
25.399999999999999
144
1.0
145
0.0
146
0.7
147
0.09
 71
     1
 72
     0
 73
     0
 74
     0
 75
     0
 76
     0
 77
     1
 78
     9
170
     0
171
     2
172
     0
173
     0
174
     0
175
     0
176
     1
177
     1
178
     2
  0
DIMSTYLE
  2
BYGG-014062$0$MASKIN
 70
     0
  3

  4

  5

  6

  7

 40
0.0
 41
3.0
 42
1.5
 43
10.0
 44
1.5
 45
0.0
 46
0.0
 47
0.0
 48
0.0
140
3.0
141
-5.0
142
0.0
143
25.399999999999999
144
-1.0
145
0.0
146
1.0
147
1.0
 71
     0
 72
     0
 73
     0
 74
     0
 75
     0
 76
     0
 77
     1
 78
     8
170
     0
171
     0
172
     1
173
     0
174
     0
175
     0
176
   256
177
   256
178
   256
  0
DIMSTYLE
  2
BYGG-014062$0$STANDARD
 70
     0
  3

  4

  5

  6

  7

 40
1.0
 41
0.18
 42
0.0625
 43
0.38
 44
0.18
 45
0.0
 46
0.0
 47
0.0
 48
0.0
140
0.18
141
0.09
142
0.0
143
25.399999999999999
144
1.0
145
0.0
146
1.0
147
0.09
 71
     0
 72
     0
 73
     1
 74
     1
 75
     0
 76
     0
 77
     0
 78
     0
170
     0
171
     2
172
     0
173
     0
174
     0
175
     0
176
     0
177
     0
178
     0
  0
DIMSTYLE
  2
BYGG-024103$0$STANDARD
 70
     0
  3

  4

  5

  6

  7

 40
1.0
 41
0.18
 42
0.0625
 43
0.38
 44
0.18
 45
0.0
 46
0.0
 47
0.0
 48
0.0
140
0.18
141
0.09
142
0.0
143
25.399999999999999
144
1.0
145
0.0
146
1.0
147
0.09
 71
     0
 72
     0
 73
     1
 74
     1
 75
     0
 76
     0
 77
     0
 78
     0
170
     0
171
     2
172
     0
173
     0
174
     0
175
     0
176
     0
177
     0
178
     0
  0
DIMSTYLE
  2
BYGG-024103$0$MASKIN
 70
     0
  3

  4

  5

  6

  7

 40
0.0
 41
3.0
 42
1.5
 43
10.0
 44
1.5
 45
0.0
 46
0.0
 47
0.0
 48
0.0
140
3.0
141
-5.0
142
0.0
143
25.399999999999999
144
-1.0
145
0.0
146
1.0
147
1.0
 71
     0
 72
     0
 73
     0
 74
     0
 75
     0
 76
     0
 77
     1
 78
     8
170
     0
171
     0
172
     1
173
     0
174
     0
175
     0
176
   256
177
   256
178
     2
  0
DIMSTYLE
  2
BYGG-014257$0$STANDARD
 70
     0
  3

  4

  5

  6

  7

 40
1.0
 41
0.18
 42
0.0625
 43
0.38
 44
0.18
 45
0.0
 46
0.0
 47
0.0
 48
0.0
140
0.18
141
0.09
142
0.0
143
25.399999999999999
144
1.0
145
0.0
146
1.0
147
0.09
 71
     0
 72
     0
 73
     1
 74
     1
 75
     0
 76
     0
 77
     0
 78
     0
170
     0
171
     2
172
     0
173
     0
174
     0
175
     0
176
     0
177
     0
178
     0
  0
DIMSTYLE
  2
BYGG-014257$0$MASKIN
 70
     0
  3

  4

  5

  6

  7

 40
0.0
 41
3.0
 42
1.5
 43
10.0
 44
1.5
 45
0.0
 46
0.0
 47
0.0
 48
0.0
140
3.0
141
-5.0
142
0.0
143
25.399999999999999
144
-1.0
145
0.0
146
1.0
147
1.0
 71
     0
 72
     0
 73
     0
 74
     1
 75
     0
 76
     0
 77
     1
 78
     8
170
     0
171
     0
172
     1
173
     0
174
     0
175
     0
176
   256
177
   256
178
     2
  0
DIMSTYLE
  2
BYGG-021806$0$STANDARD
 70
     0
  3

  4

  5

  6

  7

 40
1.0
 41
0.18
 42
0.0625
 43
0.38
 44
0.18
 45
0.0
 46
0.0
 47
0.0
 48
0.0
140
0.18
141
0.09
142
0.0
143
25.399999999999999
144
1.0
145
0.0
146
1.0
147
0.09
 71
     0
 72
     0
 73
     1
 74
     1
 75
     0
 76
     0
 77
     0
 78
     0
170
     0
171
     2
172
     0
173
     0
174
     0
175
     0
176
     0
177
     0
178
     0
  0
DIMSTYLE
  2
BYGG-021806$0$MASKIN
 70
     0
  3

  4

  5

  6

  7

 40
0.0
 41
3.0
 42
1.5
 43
10.0
 44
1.5
 45
0.0
 46
0.0
 47
0.0
 48
0.0
140
3.0
141
-5.0
142
0.0
143
25.399999999999999
144
-1.0
145
0.0
146
1.0
147
1.0
 71
     0
 72
     0
 73
     0
 74
     0
 75
     0
 76
     0
 77
     1
 78
     8
170
     0
171
     0
172
     1
173
     0
174
     0
175
     0
176
   256
177
   256
178
     2
  0
ENDTAB
  0
ENDSEC
  0
SECTION
  2
BLOCKS
  0
BLOCK
  8
0
  2
$MODEL_SPACE
 70
     0
 10
0.0
 20
0.0
 30
0.0
  3
$MODEL_SPACE
  1

  0
ENDBLK
  5
37
  8
0
  0
BLOCK
 67
     1
  8
0
  2
$PAPER_SPACE
 70
     0
 10
0.0
 20
0.0
 30
0.0
  3
$PAPER_SPACE
  1

  0
ENDBLK
  5
35
 67
     1
  8
0
  0
BLOCK
  8
0
  2
BYGG-014680$0$68174-TXT
 70
     0
 10
0.0
 20
0.0
 30
0.0
  3
BYGG-014680$0$68174-TXT
  1

  0
TEXT
  5
AAC
  8
BYGG-014680$0$ARTIKELNUMME
 10
0.0
 20
0.0
 30
0.0
 40
3.5
  1
68174
  7
BYGG-014680$0$ISO
  0
ENDBLK
  5
AAE
  8
0
  0
BLOCK
  8
0
  2
*D52
 70
     1
 10
0.0
 20
0.0
 30
0.0
  3
*D52
  1

  0
LINE
  5
F87
  8
SAPA_MATT
 10
50.978260604946151
 20
132.13748779865409
 30
0.0
 11
-7.8650701740034759
 21
132.13748779865409
 31
0.0
  0
LINE
  5
F88
  8
SAPA_MATT
 10
27.476735677144461
 20
232.13748779865401
 30
0.0
 11
-7.8650701740034501
 21
232.13748779865401
 31
0.0
  0
LINE
  5
F89
  8
SAPA_MATT
 10
-6.3650701740034732
 20
135.13748779865409
 30
0.0
 11
-6.3650701740034519
 21
229.13748779865409
 31
0.0
  0
SOLID
  5
F8A
  8
SAPA_MATT
 10
-6.8650701740034732
 20
135.13748779865409
 30
0.0
 11
-5.8650701740034732
 21
135.13748779865409
 31
0.0
 12
-6.3650701740034741
 22
132.13748779865409
 32
0.0
 13
-6.3650701740034741
 23
132.13748779865409
 33
0.0
  0
SOLID
  5
F8B
  8
SAPA_MATT
 10
-6.8650701740034519
 20
229.13748779865409
 30
0.0
 11
-5.8650701740034519
 21
229.13748779865409
 31
0.0
 12
-6.365070174003451
 22
232.13748779865401
 32
0.0
 13
-6.365070174003451
 23
232.13748779865401
 33
0.0
  0
INSERT
  5
F8C
  8
0
  2
*U93
 10
0.0
 20
0.0
 30
0.0
  0
POINT
  5
F8D
  8
DEFPOINTS
 62
     0
 10
52.478260604946144
 20
132.13748779865409
 30
0.0
  0
POINT
  5
F8E
  8
DEFPOINTS
 62
     0
 10
28.976735677144461
 20
232.13748779865401
 30
0.0
  0
POINT
  5
F8F
  8
DEFPOINTS
 62
     0
 10
-6.365070174003451
 20
232.13748779865401
 30
0.0
  0
ENDBLK
  5
F5C
  8
0
  0
BLOCK
  8
0
  2
*D53
 70
     1
 10
0.0
 20
0.0
 30
0.0
  3
*D53
  1

  0
LINE
  5
F7E
  8
SAPA_MATT
 10
-15.45468145366884
 20
-30.63372168525688
 30
0.0
 11
-9.0067650969216331
 21
-48.349226277952042
 31
0.0
  0
LINE
  5
F7F
  8
SAPA_MATT
 10
31.529949585625641
 20
-13.53271451897386
 30
0.0
 11
37.977865942372851
 21
-31.24821911166903
 31
0.0
  0
LINE
  5
F80
  8
SAPA_MATT
 10
-6.700717449552406
 20
-45.913626916796161
 30
0.0
 11
34.645757865026617
 21
-30.864740610467159
 31
0.0
  0
SOLID
  5
F81
  8
SAPA_MATT
 10
-6.8717275212152389
 20
-45.443780606403223
 30
0.0
 11
-6.529707377889574
 21
-46.383473227189128
 31
0.0
 12
-9.5197953119101335
 22
-46.939687346773169
 32
0.0
 13
-9.5197953119101335
 23
-46.939687346773169
 33
0.0
  0
SOLID
  5
F82
  8
SAPA_MATT
 10
34.47474779336379
 20
-30.39489430007421
 30
0.0
 11
34.816767936689459
 21
-31.334586920860119
 31
0.0
 12
37.464835727384362
 22
-29.838680180490162
 32
0.0
 13
37.464835727384362
 23
-29.838680180490162
 33
0.0
  0
INSERT
  5
F83
  8
0
  2
*U92
 10
0.0
 20
0.0
 30
0.0
  0
POINT
  5
F84
  8
DEFPOINTS
 62
     0
 10
-15.967711668657341
 20
-29.224182754078019
 30
0.0
  0
POINT
  5
F85
  8
DEFPOINTS
 62
     0
 10
31.01691937063714
 20
-12.123175587795
 30
0.0
  0
POINT
  5
F86
  8
DEFPOINTS
 62
     0
 10
37.464835727384362
 20
-29.838680180490162
 30
0.0
  0
ENDBLK
  5
F68
  8
0
  0
BLOCK
  8
0
  2
*D54
 70
     1
 10
0.0
 20
0.0
 30
0.0
  3
*D54
  1

  0
LINE
  5
F75
  8
SAPA_MATT
 10
190.47826060395681
 20
232.13748779865421
 30
0.0
 11
209.338877188542
 21
232.13748779865421
 31
0.0
  0
LINE
  5
F76
  8
SAPA_MATT
 10
190.47826060395681
 20
282.13748779865421
 30
0.0
 11
209.338877188542
 21
282.13748779865421
 31
0.0
  0
LINE
  5
F77
  8
SAPA_MATT
 10
207.838877188542
 20
235.13748779865421
 30
0.0
 11
207.838877188542
 21
279.13748779865421
 31
0.0
  0
SOLID
  5
F78
  8
SAPA_MATT
 10
207.338877188542
 20
235.13748779865421
 30
0.0
 11
208.338877188542
 21
235.13748779865421
 31
0.0
 12
207.838877188542
 22
232.13748779865421
 32
0.0
 13
207.838877188542
 23
232.13748779865421
 33
0.0
  0
SOLID
  5
F79
  8
SAPA_MATT
 10
207.338877188542
 20
279.13748779865421
 30
0.0
 11
208.338877188542
 21
279.13748779865421
 31
0.0
 12
207.838877188542
 22
282.13748779865421
 32
0.0
 13
207.838877188542
 23
282.13748779865421
 33
0.0
  0
INSERT
  5
F7A
  8
0
  2
*U91
 10
0.0
 20
0.0
 30
0.0
  0
POINT
  5
F7B
  8
DEFPOINTS
 62
     0
 10
188.9782606039569
 20
232.13748779865421
 30
0.0
  0
POINT
  5
F7C
  8
DEFPOINTS
 62
     0
 10
188.9782606039569
 20
282.13748779865421
 30
0.0
  0
POINT
  5
F7D
  8
DEFPOINTS
 62
     0
 10
207.838877188542
 20
282.13748779865421
 30
0.0
  0
ENDBLK
  5
F74
  8
0
  0
BLOCK
  8
0
  2
*U55
 70
     1
 10
0.0
 20
0.0
 30
0.0
  3
*U55
  1

  0
TEXT
  5
FA8
  8
SAPA_ARTIKELNR
 10
3.7655526280741092
 20
-28.426928560015298
 30
0.0
 40
3.5
  1
68291
 50
20.0
  7
ISO
  0
ENDBLK
  5
FAA
  8
0
  0
BLOCK
  8
0
  2
*U56
 70
     1
 10
0.0
 20
0.0
 30
0.0
  3
*U56
  1

  0
TEXT
  5
FAC
  8
SAPA_ARTIKELNR
 10
-34.031875958978922
 20
75.420652996361525
 30
0.0
 40
3.5
  1
42144
 50
20.0
  7
ISO
  0
ENDBLK
  5
FAE
  8
0
  0
BLOCK
  8
0
  2
*U57
 70
     1
 10
0.0
 20
0.0
 30
0.0
  3
*U57
  1

  0
TEXT
  5
FC3
  8
SAPA_ARTIKELNR
 10
-12.46790559766311
 20
92.348904585856076
 30
0.0
 40
3.5
  1
0064
 50
20.0
  7
ISO
  0
ENDBLK
  5
FC5
  8
0
  0
BLOCK
  8
0
  2
*U58
 70
     1
 10
0.0
 20
0.0
 30
0.0
  3
*U58
  1

  0
TEXT
  5
FC7
  8
SAPA_ARTIKELNR
 10
68.306390892959058
 20
13.012866699958691
 30
0.0
 40
3.5
  1
68174
  7
ISO
  0
ENDBLK
  5
FC9
  8
0
  0
BLOCK
  8
0
  2
*U59
 70
     1
 10
0.0
 20
0.0
 30
0.0
  3
*U59
  1

  0
SOLID
  5
FCB
  8
SAPA_FOGBAND
  6
CONTINUOUS
 10
49.949793748597898
 20
238.76308197872081
 30
0.0
 11
49.769516184824703
 21
238.68840856681439
 31
0.0
 12
50.130071312371101
 22
238.68840856681439
 32
0.0
 13
50.130071312371101
 23
238.68840856681439
 33
0.0
210
0.0
220
0.0
230
1.0
  0
SOLID
  5
FCC
  8
SAPA_FOGBAND
  6
CONTINUOUS
 10
49.769516184824703
 20
238.68840856681439
 30
0.0
 11
49.694842772918257
 21
238.5081310030412
 31
0.0
 12
50.204744724277532
 22
238.5081310030412
 32
0.0
 13
50.204744724277532
 23
238.5081310030412
 33
0.0
210
0.0
220
0.0
230
1.0
  0
SOLID
  5
FCD
  8
SAPA_FOGBAND
  6
CONTINUOUS
 10
-49.769516184824703
 20
238.68840856681439
 30
0.0
 11
-50.130071312371101
 21
238.68840856681439
 31
0.0
 12
-50.204744724277532
 22
238.5081310030412
 32
0.0
 13
-50.204744724277532
 23
238.5081310030412
 33
0.0
210
0.0
220
0.0
230
-1.0
  0
SOLID
  5
FCE
  8
SAPA_FOGBAND
  6
CONTINUOUS
 10
49.694842772918257
 20
238.5081310030412
 30
0.0
 11
49.769516184824703
 21
238.32785343926801
 31
0.0
 12
50.130071312371101
 22
238.32785343926801
 32
0.0
 13
50.130071312371101
 23
238.32785343926801
 33
0.0
210
0.0
220
0.0
230
1.0
  0
SOLID
  5
FCF
  8
SAPA_FOGBAND
  6
CONTINUOUS
 10
-49.694842772918257
 20
238.5081310030412
 30
0.0
 11
-50.204744724277532
 21
238.5081310030412
 31
0.0
 12
-50.130071312371101
 22
238.32785343926801
 32
0.0
 13
-50.130071312371101
 23
238.32785343926801
 33
0.0
210
0.0
220
0.0
230
-1.0
  0
SOLID
  5
FD0
  8
SAPA_FOGBAND
  6
CONTINUOUS
 10
-49.769516184824703
 20
238.32785343926801
 30
0.0
 11
-50.130071312371101
 21
238.32785343926801
 31
0.0
 12
-49.949793748597898
 22
238.25318002736151
 32
0.0
 13
-49.949793748597898
 23
238.25318002736151
 33
0.0
210
0.0
220
0.0
230
-1.0
  0
LINE
  5
FD1
  8
SAPA_FOGBAND
  6
CONTINUOUS
 10
49.949793748597898
 20
238.76308197872081
 30
0.0
 11
49.769516184824703
 21
238.68840856681439
 31
0.0
  0
LINE
  5
FD2
  8
SAPA_FOGBAND
  6
CONTINUOUS
 10
50.130071312371101
 20
238.68840856681439
 30
0.0
 11
49.949793748597898
 21
238.76308197872081
 31
0.0
  0
LINE
  5
FD3
  8
SAPA_FOGBAND
  6
CONTINUOUS
 10
49.769516184824703
 20
238.68840856681439
 30
0.0
 11
49.694842772918257
 21
238.5081310030412
 31
0.0
  0
LINE
  5
FD4
  8
SAPA_FOGBAND
  6
CONTINUOUS
 10
50.130071312371101
 20
238.68840856681439
 30
0.0
 11
50.204744724277532
 21
238.5081310030412
 31
0.0
  0
LINE
  5
FD5
  8
SAPA_FOGBAND
  6
CONTINUOUS
 10
49.694842772918257
 20
238.5081310030412
 30
0.0
 11
49.769516184824703
 21
238.32785343926801
 31
0.0
  0
LINE
  5
FD6
  8
SAPA_FOGBAND
  6
CONTINUOUS
 10
50.204744724277532
 20
238.5081310030412
 30
0.0
 11
50.130071312371101
 21
238.32785343926801
 31
0.0
  0
LINE
  5
FD7
  8
SAPA_FOGBAND
  6
CONTINUOUS
 10
50.130071312371101
 20
238.32785343926801
 30
0.0
 11
49.949793748597898
 21
238.25318002736151
 31
0.0
  0
LINE
  5
FD8
  8
SAPA_FOGBAND
  6
CONTINUOUS
 10
49.949793748597898
 20
238.25318002736151
 30
0.0
 11
49.769516184824703
 21
238.32785343926801
 31
0.0
  0
ENDBLK
  5
FDA
  8
0
  0
BLOCK
  8
0
  2
*U60
 70
     1
 10
0.0
 20
0.0
 30
0.0
  3
*U60
  1

  0
TEXT
  5
FDC
  8
SAPA_ARTIKELNR
 10
196.17698364005889
 20
251.2634701148672
 30
0.0
 40
3.5
  1
68654
 50
90.0
  7
ISO
  0
ENDBLK
  5
FDE
  8
0
  0
BLOCK
  8
0
  2
*U61
 70
     1
 10
0.0
 20
0.0
 30
0.0
  3
*U61
  1

  0
TEXT
  5
FE0
  8
SAPA_ARTIKELNR
 10
37.370455838765508
 20
251.2634701148672
 30
0.0
 40
3.5
  1
42657
 50
90.0
  7
ISO
  0
ENDBLK
  5
FE2
  8
0
  0
BLOCK
  8
0
  2
*U62
 70
     1
 10
0.0
 20
0.0
 30
0.0
  3
*U62
  1

  0
TEXT
  5
FE4
  8
SAPA_ARTIKELNR
 10
24.177579820145809
 20
251.2634701148672
 30
0.0
 40
3.5
  1
42149
 50
90.0
  7
ISO
  0
ENDBLK
  5
FE6
  8
0
  0
BLOCK
  8
0
  2
*U63
 70
     1
 10
0.0
 20
0.0
 30
0.0
  3
*U63
  1

  0
TEXT
  5
FFE
  8
0
 62
     2
 10
-7.3673429012762197
 20
175.5374877986541
 30
0.0
 40
3.0
  1
min 100
 50
90.0
  7
ISO
  0
ENDBLK
  5
1000
  8
0
  0
BLOCK
  8
0
  2
*U64
 70
     1
 10
0.0
 20
0.0
 30
0.0
  3
*U64
  1

  0
TEXT
  5
10DF
  8
0
 62
     2
 10
538.15888178287003
 20
240.51041478304231
 30
0.0
 40
6.0
  1
50
  7
BYGG-01473602$0$ISO
  0
ENDBLK
  5
10E1
  8
0
  0
BLOCK
  8
0
  2
*U65
 70
     1
 10
0.0
 20
0.0
 30
0.0
  3
*U65
  1

  0
TEXT
  5
10E3
  8
0
 62
     2
 10
582.23843509911433
 20
195.6081336894147
 30
0.0
 40
6.0
  1
58
 50
90.0
  7
BYGG-01473602$0$ISO
  0
ENDBLK
  5
10E5
  8
0
  0
BLOCK
  8
0
  2
*U66
 70
     1
 10
0.0
 20
0.0
 30
0.0
  3
*U66
  1

  0
TEXT
  5
113D
  8
0
 62
     2
 10
2.924893507843874
 20
11.80837843001756
 30
0.0
 40
3.0
  1
7
 50
90.0
  7
BYGG-014252$0$ISO
  0
ENDBLK
  5
113F
  8
0
  0
BLOCK
  8
0
  2
*U67
 70
     1
 10
0.0
 20
0.0
 30
0.0
  3
*U67
  1

  0
TEXT
  5
1141
  8
0
 62
     2
 10
29.55729736359487
 20
1.4710805811525349
 30
0.0
 40
3.0
  1
47.6
  7
BYGG-014252$0$ISO
  0
ENDBLK
  5
1143
  8
0
  0
BLOCK
  8
0
  2
*U68
 70
     1
 10
0.0
 20
0.0
 30
0.0
  3
*U68
  1

  0
TEXT
  5
1272
  8
0
 62
     2
 10
284.82100775789411
 20
-326.41284250989833
 30
0.0
 40
3.0
  1
60
  7
BYGG-014680$0$ISO
  0
ENDBLK
  5
1274
  8
0
  0
BLOCK
  8
0
  2
*U69
 70
     1
 10
0.0
 20
0.0
 30
0.0
  3
*U69
  1

  0
TEXT
  5
1276
  8
0
 62
     2
 10
327.91011454206352
 20
-292.96547784569952
 30
0.0
 40
3.0
  1
39
 50
90.0
  7
BYGG-014680$0$ISO
  0
ENDBLK
  5
1278
  8
0
  0
BLOCK
  8
0
  2
*U70
 70
     1
 10
0.0
 20
0.0
 30
0.0
  3
*U70
  1

  0
TEXT
  5
1398
  8
0
 62
     2
 10
519.44555345861374
 20
444.85263631951398
 30
0.0
 40
6.0
  1
100
 50
90.0
  7
BYGG-01482201$0$ISO
  0
ENDBLK
  5
139A
  8
0
  0
BLOCK
  8
0
  2
*U71
 70
     1
 10
0.0
 20
0.0
 30
0.0
  3
*U71
  1

  0
TEXT
  5
139C
  8
0
 62
     2
 10
551.65528576274187
 20
514.06440195840526
 30
0.0
 40
6.0
  1
50
  7
BYGG-01482201$0$ISO
  0
ENDBLK
  5
139E
  8
0
  0
BLOCK
  8
0
  2
*U72
 70
     1
 10
0.0
 20
0.0
 30
0.0
  3
*U72
  1

  0
TEXT
  5
148E
  8
0
 10
641.15247639990275
 20
316.63306531357932
 30
0.0
 40
3.0
  1
47.6
  7
BYGG-014357$0$ISO
  0
ENDBLK
  5
1490
  8
0
  0
BLOCK
  8
0
  2
*U73
 70
     1
 10
0.0
 20
0.0
 30
0.0
  3
*U73
  1

  0
TEXT
  5
1520
  8
0
 62
     2
 10
0.7689336711621581
 20
16.651818506144728
 30
0.0
 40
3.0
  1
18.5
 50
90.0
  7
BYGG-014257$0$ISO
  0
ENDBLK
  5
1522
  8
0
  0
BLOCK
  8
0
  2
*U74
 70
     1
 10
0.0
 20
0.0
 30
0.0
  3
*U74
  1

  0
TEXT
  5
1524
  8
0
 62
     2
 10
33.599176484588639
 20
1.41803148711125
 30
0.0
 40
3.0
  1
50
  7
BYGG-014257$0$ISO
  0
ENDBLK
  5
1526
  8
0
  0
BLOCK
  8
0
  2
*U75
 70
     1
 10
0.0
 20
0.0
 30
0.0
  3
*U75
  1

  0
SOLID
  5
1593
  8
0
  6
CONTINUOUS
 10
9.4375787696808402
 20
24.826120052127731
 30
0.0
 11
9.2573012059076412
 21
24.751446640221289
 31
0.0
 12
9.6178563334540392
 22
24.751446640221289
 32
0.0
 13
9.6178563334540392
 23
24.751446640221289
 33
0.0
210
0.0
220
0.0
230
1.0
  0
SOLID
  5
1594
  8
0
  6
CONTINUOUS
 10
9.2573012059076412
 20
24.751446640221289
 30
0.0
 11
9.1826277940012009
 21
24.57116907644809
 31
0.0
 12
9.6925297453604795
 22
24.57116907644809
 32
0.0
 13
9.6925297453604795
 23
24.57116907644809
 33
0.0
210
0.0
220
0.0
230
1.0
  0
SOLID
  5
1595
  8
0
  6
CONTINUOUS
 10
-9.2573012059076412
 20
24.751446640221289
 30
0.0
 11
-9.6178563334540392
 21
24.751446640221289
 31
0.0
 12
-9.6925297453604795
 22
24.57116907644809
 32
0.0
 13
-9.6925297453604795
 23
24.57116907644809
 33
0.0
210
0.0
220
0.0
230
-1.0
  0
SOLID
  5
1596
  8
0
  6
CONTINUOUS
 10
9.1826277940012009
 20
24.57116907644809
 30
0.0
 11
9.2573012059076412
 21
24.390891512674891
 31
0.0
 12
9.6178563334540392
 22
24.390891512674891
 32
0.0
 13
9.6178563334540392
 23
24.390891512674891
 33
0.0
210
0.0
220
0.0
230
1.0
  0
SOLID
  5
1597
  8
0
  6
CONTINUOUS
 10
-9.1826277940012009
 20
24.57116907644809
 30
0.0
 11
-9.6925297453604795
 21
24.57116907644809
 31
0.0
 12
-9.6178563334540392
 22
24.390891512674891
 32
0.0
 13
-9.6178563334540392
 23
24.390891512674891
 33
0.0
210
0.0
220
0.0
230
-1.0
  0
SOLID
  5
1598
  8
0
  6
CONTINUOUS
 10
-9.2573012059076412
 20
24.390891512674891
 30
0.0
 11
-9.6178563334540392
 21
24.390891512674891
 31
0.0
 12
-9.4375787696808402
 22
24.316218100768442
 32
0.0
 13
-9.4375787696808402
 23
24.316218100768442
 33
0.0
210
0.0
220
0.0
230
-1.0
  0
LINE
  5
1599
  8
0
  6
CONTINUOUS
 10
9.4375787696808402
 20
24.826120052127731
 30
0.0
 11
9.2573012059076412
 21
24.751446640221289
 31
0.0
  0
LINE
  5
159A
  8
0
  6
CONTINUOUS
 10
9.6178563334540392
 20
24.751446640221289
 30
0.0
 11
9.4375787696808402
 21
24.826120052127731
 31
0.0
  0
LINE
  5
159B
  8
0
  6
CONTINUOUS
 10
9.2573012059076412
 20
24.751446640221289
 30
0.0
 11
9.1826277940012009
 21
24.57116907644809
 31
0.0
  0
LINE
  5
159C
  8
0
  6
CONTINUOUS
 10
9.6178563334540392
 20
24.751446640221289
 30
0.0
 11
9.6925297453604795
 21
24.57116907644809
 31
0.0
  0
LINE
  5
159D
  8
0
  6
CONTINUOUS
 10
9.1826277940012009
 20
24.57116907644809
 30
0.0
 11
9.2573012059076412
 21
24.390891512674891
 31
0.0
  0
LINE
  5
159E
  8
0
  6
CONTINUOUS
 10
9.6925297453604795
 20
24.57116907644809
 30
0.0
 11
9.6178563334540392
 21
24.390891512674891
 31
0.0
  0
LINE
  5
159F
  8
0
  6
CONTINUOUS
 10
9.6178563334540392
 20
24.390891512674891
 30
0.0
 11
9.4375787696808402
 21
24.316218100768442
 31
0.0
  0
LINE
  5
15A0
  8
0
  6
CONTINUOUS
 10
9.4375787696808402
 20
24.316218100768442
 30
0.0
 11
9.2573012059076412
 21
24.390891512674891
 31
0.0
  0
ENDBLK
  5
15A2
  8
0
  0
BLOCK
  8
0
  2
*U76
 70
     1
 10
0.0
 20
0.0
 30
0.0
  3
*U76
  1

  0
TEXT
  5
15B5
  8
0
 62
     2
 10
206.838877188542
 20
255.03748779865421
 30
0.0
 40
3.0
  1
50
 50
90.0
  7
ISO
  0
ENDBLK
  5
15B7
  8
0
  0
BLOCK
  8
0
  2
*U77
 70
     1
 10
0.0
 20
0.0
 30
0.0
  3
*U77
  1

  0
TEXT
  5
15B9
  8
0
 62
     2
 10
11.65714556076103
 20
-38.167733443829661
 30
0.0
 40
3.0
  1
50
 50
19.999999999999918
  7
ISO
  0
ENDBLK
  5
15BB
  8
0
  0
BLOCK
  8
0
  2
*U78
 70
     1
 10
0.0
 20
0.0
 30
0.0
  3
*U78
  1

  0
TEXT
  5
15BD
  8
0
 62
     2
 10
6.3810204525808309
 20
-29.818594711796639
 30
0.0
 40
6.0
  1
50
 50
19.999999999999531
  7
BYGG-01473602$0$ISO
  0
ENDBLK
  5
15BF
  8
0
  0
BLOCK
  8
0
  2
*U79
 70
     1
 10
0.0
 20
0.0
 30
0.0
  3
*U79
  1

  0
TEXT
  5
15C1
  8
0
 62
     2
 10
-41.131757060923647
 20
-3.58453309062459
 30
0.0
 40
6.0
  1
58
 50
289.99999999999949
  7
BYGG-01473602$0$ISO
  0
ENDBLK
  5
15C3
  8
0
  0
BLOCK
  8
0
  2
*U80
 70
     1
 10
0.0
 20
0.0
 30
0.0
  3
*U80
  1

  0
TEXT
  5
15C5
  8
0
 62
     2
 10
-34.165865061856657
 20
82.688117599102924
 30
0.0
 40
3.0
  1
47.6
 50
20.000000000000028
  7
BYGG-014252$0$ISO
  0
ENDBLK
  5
15C7
  8
0
  0
BLOCK
  8
0
  2
*U81
 70
     1
 10
0.0
 20
0.0
 30
0.0
  3
*U81
  1

  0
TEXT
  5
15C9
  8
0
 62
     2
 10
109.41892563243189
 20
50.34554386531304
 30
0.0
 40
3.0
  1
60
 50
270.0
  7
BYGG-014680$0$ISO
  0
ENDBLK
  5
15CB
  8
0
  0
BLOCK
  8
0
  2
*U82
 70
     1
 10
0.0
 20
0.0
 30
0.0
  3
*U82
  1

  0
TEXT
  5
15CD
  8
0
 62
     2
 10
70.13850354676714
 20
7.2564370811436234
 30
0.0
 40
3.0
  1
39
 50
0.0000000000000127
  7
BYGG-014680$0$ISO
  0
ENDBLK
  5
15CF
  8
0
  0
BLOCK
  8
0
  2
*U83
 70
     1
 10
0.0
 20
0.0
 30
0.0
  3
*U83
  1

  0
TEXT
  5
15D1
  8
0
 62
     2
 10
198.98766403812371
 20
252.93512559392991
 30
0.0
 40
6.0
  1
50
 50
90.0
  7
BYGG-01482201$0$ISO
  0
ENDBLK
  5
15D3
  8
0
  0
BLOCK
  8
0
  2
*U84
 70
     1
 10
0.0
 20
0.0
 30
0.0
  3
*U84
  1

  0
TEXT
  5
15D5
  8
0
 62
     2
 10
133.77589839923249
 20
293.54958230750663
 30
0.0
 40
6.0
  1
100
  7
BYGG-01482201$0$ISO
  0
ENDBLK
  5
15D7
  8
0
  0
BLOCK
  8
0
  2
*U85
 70
     1
 10
0.0
 20
0.0
 30
0.0
  3
*U85
  1

  0
TEXT
  5
15D9
  8
0
 10
27.081482186363662
 20
253.31307834983511
 30
0.0
 40
3.0
  1
47.6
 50
90.0
  7
BYGG-014357$0$ISO
  0
ENDBLK
  5
15DB
  8
0
  0
BLOCK
  8
0
  2
*U86
 70
     1
 10
0.0
 20
0.0
 30
0.0
  3
*U86
  1

  0
TEXT
  5
15DD
  8
0
 62
     2
 10
41.088867711500491
 20
222.40606388286531
 30
0.0
 40
3.0
  1
18.5
 50
180.0
  7
BYGG-014257$0$ISO
  0
ENDBLK
  5
15DF
  8
0
  0
BLOCK
  8
0
  2
*U87
 70
     1
 10
0.0
 20
0.0
 30
0.0
  3
*U87
  1

  0
TEXT
  5
15E1
  8
0
 62
     2
 10
17.13081662375512
 20
255.23630669629179
 30
0.0
 40
3.0
  1
50
 50
90.000000000000028
  7
BYGG-014257$0$ISO
  0
ENDBLK
  5
15E3
  8
0
  0
BLOCK
  8
0
  2
*U88
 70
     1
 10
0.0
 20
0.0
 30
0.0
  3
*U88
  1

  0
TEXT
  5
1BF5
  8
0
 62
     2
 10
2.2675513695410561
 20
82.819718569579834
 30
0.0
 40
3.0
  1
7
 50
290.00000000000011
  7
BYGG-014252$0$ISO
  0
ENDBLK
  5
1BF7
  8
0
  0
BLOCK
  8
0
  2
*U89
 70
     1
 10
0.0
 20
0.0
 30
0.0
  3
*U89
  1

  0
SOLID
  5
1D41
  8
SAPA_FOGBAND
  6
CONTINUOUS
 10
49.949793748598132
 20
276.02179556994781
 30
0.0
 11
49.769516184824923
 21
275.9471221580414
 31
0.0
 12
50.130071312371328
 22
275.9471221580414
 32
0.0
 13
50.130071312371328
 23
275.9471221580414
 33
0.0
210
0.0
220
0.0
230
1.0
  0
SOLID
  5
1D42
  8
SAPA_FOGBAND
  6
CONTINUOUS
 10
49.769516184824923
 20
275.9471221580414
 30
0.0
 11
49.694842772918477
 21
275.76684459426821
 31
0.0
 12
50.204744724277766
 22
275.76684459426821
 32
0.0
 13
50.204744724277766
 23
275.76684459426821
 33
0.0
210
0.0
220
0.0
230
1.0
  0
SOLID
  5
1D43
  8
SAPA_FOGBAND
  6
CONTINUOUS
 10
-49.769516184824923
 20
275.9471221580414
 30
0.0
 11
-50.130071312371328
 21
275.9471221580414
 31
0.0
 12
-50.204744724277766
 22
275.76684459426821
 32
0.0
 13
-50.204744724277766
 23
275.76684459426821
 33
0.0
210
0.0
220
0.0
230
-1.0
  0
SOLID
  5
1D44
  8
SAPA_FOGBAND
  6
CONTINUOUS
 10
49.694842772918477
 20
275.76684459426821
 30
0.0
 11
49.769516184824923
 21
275.58656703049502
 31
0.0
 12
50.130071312371328
 22
275.58656703049502
 32
0.0
 13
50.130071312371328
 23
275.58656703049502
 33
0.0
210
0.0
220
0.0
230
1.0
  0
SOLID
  5
1D45
  8
SAPA_FOGBAND
  6
CONTINUOUS
 10
-49.694842772918477
 20
275.76684459426821
 30
0.0
 11
-50.204744724277766
 21
275.76684459426821
 31
0.0
 12
-50.130071312371328
 22
275.58656703049502
 32
0.0
 13
-50.130071312371328
 23
275.58656703049502
 33
0.0
210
0.0
220
0.0
230
-1.0
  0
SOLID
  5
1D46
  8
SAPA_FOGBAND
  6
CONTINUOUS
 10
-49.769516184824923
 20
275.58656703049502
 30
0.0
 11
-50.130071312371328
 21
275.58656703049502
 31
0.0
 12
-49.949793748598132
 22
275.51189361858849
 32
0.0
 13
-49.949793748598132
 23
275.51189361858849
 33
0.0
210
0.0
220
0.0
230
-1.0
  0
LINE
  5
1D47
  8
SAPA_FOGBAND
  6
CONTINUOUS
 10
49.949793748598132
 20
276.02179556994781
 30
0.0
 11
49.769516184824923
 21
275.9471221580414
 31
0.0
  0
LINE
  5
1D48
  8
SAPA_FOGBAND
  6
CONTINUOUS
 10
50.130071312371328
 20
275.9471221580414
 30
0.0
 11
49.949793748598132
 21
276.02179556994781
 31
0.0
  0
LINE
  5
1D49
  8
SAPA_FOGBAND
  6
CONTINUOUS
 10
49.769516184824923
 20
275.9471221580414
 30
0.0
 11
49.694842772918477
 21
275.76684459426821
 31
0.0
  0
LINE
  5
1D4A
  8
SAPA_FOGBAND
  6
CONTINUOUS
 10
50.130071312371328
 20
275.9471221580414
 30
0.0
 11
50.204744724277766
 21
275.76684459426821
 31
0.0
  0
LINE
  5
1D4B
  8
SAPA_FOGBAND
  6
CONTINUOUS
 10
49.694842772918477
 20
275.76684459426821
 30
0.0
 11
49.769516184824923
 21
275.58656703049502
 31
0.0
  0
LINE
  5
1D4C
  8
SAPA_FOGBAND
  6
CONTINUOUS
 10
50.204744724277766
 20
275.76684459426821
 30
0.0
 11
50.130071312371328
 21
275.58656703049502
 31
0.0
  0
LINE
  5
1D4D
  8
SAPA_FOGBAND
  6
CONTINUOUS
 10
50.130071312371328
 20
275.58656703049502
 30
0.0
 11
49.949793748598132
 21
275.51189361858849
 31
0.0
  0
LINE
  5
1D4E
  8
SAPA_FOGBAND
  6
CONTINUOUS
 10
49.949793748598132
 20
275.51189361858849
 30
0.0
 11
49.769516184824923
 21
275.58656703049502
 31
0.0
  0
ENDBLK
  5
1D50
  8
0
  0
BLOCK
  8
0
  2
*U90
 70
     1
 10
0.0
 20
0.0
 30
0.0
  3
*U90
  1

  0
SOLID
  5
1E61
  8
SAPA_FOGBAND
  6
CONTINUOUS
 10
49.949793748598132
 20
276.02179556994781
 30
0.0
 11
49.769516184824923
 21
275.9471221580414
 31
0.0
 12
50.130071312371328
 22
275.9471221580414
 32
0.0
 13
50.130071312371328
 23
275.9471221580414
 33
0.0
210
0.0
220
0.0
230
1.0
  0
SOLID
  5
1E62
  8
SAPA_FOGBAND
  6
CONTINUOUS
 10
49.769516184824923
 20
275.9471221580414
 30
0.0
 11
49.694842772918477
 21
275.76684459426821
 31
0.0
 12
50.204744724277766
 22
275.76684459426821
 32
0.0
 13
50.204744724277766
 23
275.76684459426821
 33
0.0
210
0.0
220
0.0
230
1.0
  0
SOLID
  5
1E63
  8
SAPA_FOGBAND
  6
CONTINUOUS
 10
-49.769516184824923
 20
275.9471221580414
 30
0.0
 11
-50.130071312371328
 21
275.9471221580414
 31
0.0
 12
-50.204744724277766
 22
275.76684459426821
 32
0.0
 13
-50.204744724277766
 23
275.76684459426821
 33
0.0
210
0.0
220
0.0
230
-1.0
  0
SOLID
  5
1E64
  8
SAPA_FOGBAND
  6
CONTINUOUS
 10
49.694842772918477
 20
275.76684459426821
 30
0.0
 11
49.769516184824923
 21
275.58656703049502
 31
0.0
 12
50.130071312371328
 22
275.58656703049502
 32
0.0
 13
50.130071312371328
 23
275.58656703049502
 33
0.0
210
0.0
220
0.0
230
1.0
  0
SOLID
  5
1E65
  8
SAPA_FOGBAND
  6
CONTINUOUS
 10
-49.694842772918477
 20
275.76684459426821
 30
0.0
 11
-50.204744724277766
 21
275.76684459426821
 31
0.0
 12
-50.130071312371328
 22
275.58656703049502
 32
0.0
 13
-50.130071312371328
 23
275.58656703049502
 33
0.0
210
0.0
220
0.0
230
-1.0
  0
SOLID
  5
1E66
  8
SAPA_FOGBAND
  6
CONTINUOUS
 10
-49.769516184824923
 20
275.58656703049502
 30
0.0
 11
-50.130071312371328
 21
275.58656703049502
 31
0.0
 12
-49.949793748598132
 22
275.51189361858849
 32
0.0
 13
-49.949793748598132
 23
275.51189361858849
 33
0.0
210
0.0
220
0.0
230
-1.0
  0
LINE
  5
1E67
  8
SAPA_FOGBAND
  6
CONTINUOUS
 10
49.949793748598132
 20
276.02179556994781
 30
0.0
 11
49.769516184824923
 21
275.9471221580414
 31
0.0
  0
LINE
  5
1E68
  8
SAPA_FOGBAND
  6
CONTINUOUS
 10
50.130071312371328
 20
275.9471221580414
 30
0.0
 11
49.949793748598132
 21
276.02179556994781
 31
0.0
  0
LINE
  5
1E69
  8
SAPA_FOGBAND
  6
CONTINUOUS
 10
49.769516184824923
 20
275.9471221580414
 30
0.0
 11
49.694842772918477
 21
275.76684459426821
 31
0.0
  0
LINE
  5
1E6A
  8
SAPA_FOGBAND
  6
CONTINUOUS
 10
50.130071312371328
 20
275.9471221580414
 30
0.0
 11
50.204744724277766
 21
275.76684459426821
 31
0.0
  0
LINE
  5
1E6B
  8
SAPA_FOGBAND
  6
CONTINUOUS
 10
49.694842772918477
 20
275.76684459426821
 30
0.0
 11
49.769516184824923
 21
275.58656703049502
 31
0.0
  0
LINE
  5
1E6C
  8
SAPA_FOGBAND
  6
CONTINUOUS
 10
50.204744724277766
 20
275.76684459426821
 30
0.0
 11
50.130071312371328
 21
275.58656703049502
 31
0.0
  0
LINE
  5
1E6D
  8
SAPA_FOGBAND
  6
CONTINUOUS
 10
50.130071312371328
 20
275.58656703049502
 30
0.0
 11
49.949793748598132
 21
275.51189361858849
 31
0.0
  0
LINE
  5
1E6E
  8
SAPA_FOGBAND
  6
CONTINUOUS
 10
49.949793748598132
 20
275.51189361858849
 30
0.0
 11
49.769516184824923
 21
275.58656703049502
 31
0.0
  0
ENDBLK
  5
1E70
  8
0
  0
BLOCK
  8
0
  2
*U91
 70
     1
 10
0.0
 20
0.0
 30
0.0
  3
*U91
  1

  0
TEXT
  5
1EDB
  8
SAPA_MATT
 62
     2
 10
206.838877188542
 20
255.03748779865421
 30
0.0
 40
3.0
  1
50
 50
90.0
  7
ISO
  0
ENDBLK
  5
1EDD
  8
0
  0
BLOCK
  8
0
  2
*U92
 70
     1
 10
0.0
 20
0.0
 30
0.0
  3
*U92
  1

  0
TEXT
  5
1EDF
  8
SAPA_MATT
 62
     2
 10
11.65714556076103
 20
-38.167733443829661
 30
0.0
 40
3.0
  1
50
 50
19.999999999999918
  7
ISO
  0
ENDBLK
  5
1EE1
  8
0
  0
BLOCK
  8
0
  2
*U93
 70
     1
 10
0.0
 20
0.0
 30
0.0
  3
*U93
  1

  0
TEXT
  5
1EE3
  8
SAPA_MATT
 62
     2
 10
-7.3673429012762197
 20
175.5374877986541
 30
0.0
 40
3.0
  1
min 100
 50
90.0
  7
ISO
  0
ENDBLK
  5
1EE5
  8
0
  0
ENDSEC
  0
SECTION
  2
ENTITIES
  0
INSERT
  5
6D0
  8
0
  2
*U55
 10
0.0
 20
0.0
 30
0.0
  0
INSERT
  5
6D1
  8
0
  2
*U56
 10
0.0
 20
0.0
 30
0.0
  0
POLYLINE
  5
6D2
  8
SAPA_LIGHT
 66
     1
 10
0.0
 20
0.0
 30
0.0
  0
VERTEX
  5
FAF
  8
SAPA_LIGHT
 10
31.18792944229995
 20
-12.59302189818793
 30
0.0
  0
VERTEX
  5
FB0
  8
SAPA_LIGHT
 10
-15.796701596994501
 20
-29.694029064471032
 30
0.0
  0
VERTEX
  5
FB1
  8
SAPA_LIGHT
 10
-37.467258575932661
 20
29.845336902168459
 30
0.0
  0
VERTEX
  5
FB2
  8
SAPA_LIGHT
 10
-18.673406160216089
 20
36.685739768681152
 30
0.0
  0
VERTEX
  5
FB3
  8
SAPA_LIGHT
 10
-27.82586519561109
 20
61.831914300912331
 30
0.0
  0
VERTEX
  5
FB4
  8
SAPA_LIGHT
 10
-43.704487789237731
 20
56.052568315685392
 30
0.0
  0
VERTEX
  5
FB5
  8
SAPA_LIGHT
 10
-47.767526394122058
 20
67.215675136977524
 30
0.0
  0
VERTEX
  5
FB6
  8
SAPA_LIGHT
 10
-6.6133549990081981
 20
82.194568540688564
 30
0.0
  0
VERTEX
  5
FB7
  8
SAPA_LIGHT
 10
-1.5242559641467319
 20
68.212383857038674
 30
0.0
  0
VERTEX
  5
FB8
  8
SAPA_LIGHT
 10
-17.402878557774319
 20
62.43303787181145
 30
0.0
  0
VERTEX
  5
FB9
  8
SAPA_LIGHT
 10
-7.4430912863060898
 20
35.068747240880732
 30
0.0
  0
VERTEX
  5
FBA
  8
SAPA_LIGHT
 10
11.35076112941246
 20
41.909150107394161
 30
0.0
  0
VERTEX
  5
FBB
  8
SAPA_LIGHT
 10
31.18792944229995
 20
-12.59302189818793
 30
0.0
  0
SEQEND
  5
FBC
  8
SAPA_LIGHT
  0
POLYLINE
  5
6D4
  8
SAPA_LIGHT
 66
     1
 10
0.0
 20
0.0
 30
0.0
  0
VERTEX
  5
FBD
  8
SAPA_LIGHT
 10
-61.654799543902648
 20
49.519189141188768
 30
0.0
  0
VERTEX
  5
FBE
  8
SAPA_LIGHT
 10
-33.46402092032541
 20
59.779793440958827
 30
0.0
  0
VERTEX
  5
FBF
  8
SAPA_LIGHT
 10
-24.311561884930509
 20
34.633618908727541
 30
0.0
  0
VERTEX
  5
FC0
  8
SAPA_LIGHT
 10
-52.502340508507672
 20
24.373014608957789
 30
0.0
  0
SEQEND
  5
FC1
  8
SAPA_LIGHT
  0
LINE
  5
71B
  8
SAPA_ANSLUTNING
 10
53.978260604946144
 20
131.08717649133959
 30
0.0
 11
-27.380603476252261
 21
101.47497167207359
 31
0.0
  0
ARC
  5
71C
  8
SAPA_ANSLUTNING
 10
-26.8333712469312
 20
99.971463478816176
 30
0.0
 40
1.5999999999999941
 50
110.0
 51
290.0
  0
LINE
  5
71D
  8
SAPA_ANSLUTNING
 10
-26.286139017610139
 20
98.467955285558745
 30
0.0
 11
-15.45818622431041
 21
102.4090078003594
 31
0.0
  0
LINE
  5
71E
  8
SAPA_ANSLUTNING
 10
-14.94515600932189
 20
100.9994688691805
 30
0.0
 11
-25.773108802621639
 21
97.058416354379915
 31
0.0
  0
ARC
  5
71F
  8
SAPA_ANSLUTNING
 10
-26.8333712469312
 20
99.971463478816176
 30
0.0
 40
3.0999999999999801
 50
110.0
 51
290.0
  0
LINE
  5
720
  8
SAPA_ANSLUTNING
 10
-27.893633691240769
 20
102.88451060325249
 30
0.0
 11
52.478260604946144
 21
132.13748779865409
 31
0.0
  0
LINE
  5
722
  8
SAPA_ANSLUTNING
 10
-15.45818622431041
 20
102.4090078003594
 30
0.0
 11
-14.9451560093219
 21
100.9994688691805
 31
0.0
  0
LINE
  5
72B
  8
SAPA_ANSLUTNING
 10
-1.804935561591086
 20
37.120868100834521
 30
0.0
 11
-2.31796577657959
 21
38.530407032013379
 31
0.0
  0
LINE
  5
72C
  8
SAPA_ANSLUTNING
 10
79.478260604947707
 20
66.705532051475188
 30
0.0
 11
-1.8049355615910869
 21
37.120868100834521
 31
0.0
  0
LINE
  5
72D
  8
SAPA_ANSLUTNING
 10
77.978260604947693
 20
67.755843358789846
 30
0.0
 11
-2.3179657765795878
 21
38.530407032013372
 31
0.0
  0
LINE
  5
730
  8
SAPA_ANSLUTNING
 10
-2.3521677909121572
 20
38.624376294091967
 30
0.0
 11
-11.21749060373832
 21
62.981650538507807
 31
0.0
  0
LINE
  5
732
  8
SAPA_ANSLUTNING
 10
-11.73052081872661
 20
64.391189469686751
 30
0.0
 11
54.078260604946138
 21
88.343627061234216
 31
0.0
  0
LINE
  5
733
  8
SAPA_ANSLUTNING
 10
27.464410169489479
 20
77.858844354158435
 30
0.0
 11
36.861336377348572
 21
81.279045787415143
 31
0.0
  0
LINE
  5
734
  8
SAPA_ANSLUTNING
 10
-11.21749060373811
 20
62.981650538507893
 30
0.0
 11
55.578260604946138
 21
87.293315753919643
 31
0.0
  0
LINE
  5
736
  8
SAPA_ANSLUTNING
 10
-11.21749060373833
 20
62.981650538507829
 30
0.0
 11
-11.730520818726831
 21
64.39118946968668
 31
0.0
  0
LINE
  5
756
  8
SAPA_ANSLUTNING
 10
-2.352167790912147
 20
38.624376294091967
 30
0.0
 11
77.878260604947684
 21
67.825864112610844
 31
0.0
  0
LINE
  5
757
  8
SAPA_ANSLUTNING
 10
8.1389543587383972
 20
43.24096580997255
 30
0.0
 11
17.535880566597481
 21
46.661167243229237
 31
0.0
  0
LINE
  5
758
  8
SAPA_ANSLUTNING
 10
-2.8651980059006501
 20
40.033915225270817
 30
0.0
 11
76.378260604947698
 21
68.876175419925417
 31
0.0
  0
INSERT
  5
759
  8
0
  2
*U57
 10
0.0
 20
0.0
 30
0.0
  0
LINE
  5
771
  8
SAPA_ANSLUTNING
 10
91.478260603956926
 20
-24.361548915790991
 30
0.0
 11
91.478260603956926
 21
217.13748779865421
 31
0.0
  0
LINE
  5
785
  8
SAPA_ANSLUTNING
 10
73.660922706257736
 20
67.887145308358811
 30
0.0
 11
74.17395292124624
 21
66.477606377179953
 31
0.0
  0
LINE
  5
786
  8
SAPA_ANSLUTNING
 10
64.263996498398654
 20
64.466943875102103
 30
0.0
 11
64.777026713387158
 21
63.057404943923252
 31
0.0
  0
LINE
  5
787
  8
SAPA_ANSLUTNING
 10
45.470144082680498
 20
57.626541008588667
 30
0.0
 11
45.983174297669002
 21
56.217002077409823
 31
0.0
  0
LINE
  5
788
  8
SAPA_ANSLUTNING
 10
36.073217874821431
 20
54.206339575331953
 30
0.0
 11
36.586248089809942
 21
52.796800644153102
 31
0.0
  0
LINE
  5
789
  8
SAPA_ANSLUTNING
 10
17.279365459103278
 20
47.365936708818509
 30
0.0
 11
17.792395674091789
 21
45.956397777639658
 31
0.0
  0
LINE
  5
78A
  8
SAPA_ANSLUTNING
 10
7.8824392512442119
 20
43.945735275561802
 30
0.0
 11
8.3954694662327167
 21
42.536196344382951
 31
0.0
  0
LINE
  5
78B
  8
SAPA_ANSLUTNING
 10
36.329732982315647
 20
53.501570109742609
 30
0.0
 11
45.726659190174729
 21
56.921771542999309
 31
0.0
  0
LINE
  5
78C
  8
SAPA_ANSLUTNING
 10
64.520511605892906
 20
63.762174409512681
 30
0.0
 11
73.917437813752002
 21
67.182375842769375
 31
0.0
  0
LINE
  5
78D
  8
SAPA_ANSLUTNING
 10
-0.7263684540877673
 20
67.598240054388384
 30
0.0
 11
8.6705577537713161
 21
71.018441487645077
 31
0.0
  0
LINE
  5
78E
  8
SAPA_ANSLUTNING
 10
27.464410169489479
 20
77.858844354158464
 30
0.0
 11
36.861336377348572
 21
81.279045787415157
 31
0.0
  0
LINE
  5
78F
  8
SAPA_ANSLUTNING
 10
36.604821269854341
 20
81.983815253004508
 30
0.0
 11
37.117851484842852
 21
80.574276321825664
 31
0.0
  0
LINE
  5
790
  8
SAPA_ANSLUTNING
 10
27.20789506199527
 20
78.563613819747786
 30
0.0
 11
27.72092527698377
 21
77.154074888568942
 31
0.0
  0
LINE
  5
791
  8
SAPA_ANSLUTNING
 10
8.4140426462771192
 20
71.723210953234357
 30
0.0
 11
8.9270728612656232
 21
70.313672022055499
 31
0.0
  0
LINE
  5
792
  8
SAPA_ANSLUTNING
 10
-0.9828835615819517
 20
68.30300951997765
 30
0.0
 11
-0.4698533465934478
 21
66.893470588798792
 31
0.0
  0
LINE
  5
863
  8
SAPA_ANSLUTNING
 10
-2.8651980059006572
 20
40.033915225270817
 30
0.0
 11
2.0313905566513251
 21
67.803848918219913
 31
0.0
  0
LINE
  5
864
  8
SAPA_ANSLUTNING
 10
23.632564314878671
 20
49.678311984695043
 30
0.0
 11
2.0313905566513228
 21
67.803848918219913
 31
0.0
  0
LINE
  5
865
  8
SAPA_ANSLUTNING
 10
23.632564314878671
 20
49.678311984695043
 30
0.0
 11
28.529152877430661
 21
77.448245677644124
 31
0.0
  0
LINE
  5
866
  8
SAPA_ANSLUTNING
 10
50.130326635657987
 20
59.322708744119247
 30
0.0
 11
28.529152877430661
 21
77.448245677644124
 31
0.0
  0
LINE
  5
867
  8
SAPA_ANSLUTNING
 10
50.130326635658001
 20
59.322708744119247
 30
0.0
 11
55.578260604946138
 21
87.293315753919643
 31
0.0
  0
LINE
  5
868
  8
SAPA_ANSLUTNING
 10
76.378260604947698
 20
68.876175419925417
 30
0.0
 11
55.578260604946138
 21
87.293315753919643
 31
0.0
  0
INSERT
  5
86A
  8
0
  2
*U58
 10
0.0
 20
0.0
 30
0.0
  0
POLYLINE
  5
904
  8
SAPA_FOGBAND
 10
84.416428055207504
 20
234.87291348030175
 30
0.0
 66
     1
 70
     8
  0
VERTEX
  8
SAPA_FOGBAND
  5
1EE6
 10
84.4164
 20
234.873
 30
0.000000
  70
    32
  0
VERTEX
  8
SAPA_FOGBAND
  5
1EE7
 10
84.3337
 20
234.878
 30
0.000000
  70
    32
  0
VERTEX
  8
SAPA_FOGBAND
  5
1EE8
 10
84.2512
 20
234.890
 30
0.000000
  70
    32
  0
VERTEX
  8
SAPA_FOGBAND
  5
1EE9
 10
84.1692
 20
234.911
 30
0.000000
  70
    32
  0
VERTEX
  8
SAPA_FOGBAND
  5
1EEA
 10
84.0878
 20
234.940
 30
0.000000
  70
    32
  0
VERTEX
  8
SAPA_FOGBAND
  5
1EEB
 10
84.0074
 20
234.976
 30
0.000000
  70
    32
  0
VERTEX
  8
SAPA_FOGBAND
  5
1EEC
 10
83.9280
 20
235.020
 30
0.000000
  70
    32
  0
VERTEX
  8
SAPA_FOGBAND
  5
1EED
 10
83.8498
 20
235.071
 30
0.000000
  70
    32
  0
VERTEX
  8
SAPA_FOGBAND
  5
1EEE
 10
83.7731
 20
235.130
 30
0.000000
  70
    32
  0
VERTEX
  8
SAPA_FOGBAND
  5
1EEF
 10
83.6980
 20
235.197
 30
0.000000
  70
    32
  0
VERTEX
  8
SAPA_FOGBAND
  5
1EF0
 10
83.6248
 20
235.270
 30
0.000000
  70
    32
  0
VERTEX
  8
SAPA_FOGBAND
  5
1EF1
 10
83.5535
 20
235.351
 30
0.000000
  70
    32
  0
VERTEX
  8
SAPA_FOGBAND
  5
1EF2
 10
83.4844
 20
235.438
 30
0.000000
  70
    32
  0
VERTEX
  8
SAPA_FOGBAND
  5
1EF3
 10
83.4176
 20
235.532
 30
0.000000
  70
    32
  0
VERTEX
  8
SAPA_FOGBAND
  5
1EF4
 10
83.3533
 20
235.632
 30
0.000000
  70
    32
  0
VERTEX
  8
SAPA_FOGBAND
  5
1EF5
 10
83.2916
 20
235.739
 30
0.000000
  70
    32
  0
VERTEX
  8
SAPA_FOGBAND
  5
1EF6
 10
83.2327
 20
235.851
 30
0.000000
  70
    32
  0
VERTEX
  8
SAPA_FOGBAND
  5
1EF7
 10
83.1768
 20
235.969
 30
0.000000
  70
    32
  0
VERTEX
  8
SAPA_FOGBAND
  5
1EF8
 10
83.1239
 20
236.092
 30
0.000000
  70
    32
  0
VERTEX
  8
SAPA_FOGBAND
  5
1EF9
 10
83.0742
 20
236.220
 30
0.000000
  70
    32
  0
VERTEX
  8
SAPA_FOGBAND
  5
1EFA
 10
83.0278
 20
236.353
 30
0.000000
  70
    32
  0
VERTEX
  8
SAPA_FOGBAND
  5
1EFB
 10
82.9849
 20
236.490
 30
0.000000
  70
    32
  0
VERTEX
  8
SAPA_FOGBAND
  5
1EFC
 10
82.9454
 20
236.631
 30
0.000000
  70
    32
  0
VERTEX
  8
SAPA_FOGBAND
  5
1EFD
 10
82.9096
 20
236.776
 30
0.000000
  70
    32
  0
VERTEX
  8
SAPA_FOGBAND
  5
1EFE
 10
82.8775
 20
236.925
 30
0.000000
  70
    32
  0
VERTEX
  8
SAPA_FOGBAND
  5
1EFF
 10
82.8492
 20
237.076
 30
0.000000
  70
    32
  0
VERTEX
  8
SAPA_FOGBAND
  5
1F00
 10
82.8248
 20
237.230
 30
0.000000
  70
    32
  0
VERTEX
  8
SAPA_FOGBAND
  5
1F01
 10
82.8042
 20
237.386
 30
0.000000
  70
    32
  0
VERTEX
  8
SAPA_FOGBAND
  5
1F02
 10
82.7877
 20
237.544
 30
0.000000
  70
    32
  0
VERTEX
  8
SAPA_FOGBAND
  5
1F03
 10
82.7751
 20
237.704
 30
0.000000
  70
    32
  0
VERTEX
  8
SAPA_FOGBAND
  5
1F04
 10
82.7666
 20
237.865
 30
0.000000
  70
    32
  0
VERTEX
  8
SAPA_FOGBAND
  5
1F05
 10
82.7621
 20
238.026
 30
0.000000
  70
    32
  0
VERTEX
  8
SAPA_FOGBAND
  5
1F06
 10
82.7616
 20
238.188
 30
0.000000
  70
    32
  0
VERTEX
  8
SAPA_FOGBAND
  5
1F07
 10
82.7653
 20
238.350
 30
0.000000
  70
    32
  0
VERTEX
  8
SAPA_FOGBAND
  5
1F08
 10
82.7730
 20
238.511
 30
0.000000
  70
    32
  0
VERTEX
  8
SAPA_FOGBAND
  5
1F09
 10
82.7847
 20
238.672
 30
0.000000
  70
    32
  0
VERTEX
  8
SAPA_FOGBAND
  5
1F0A
 10
82.8005
 20
238.831
 30
0.000000
  70
    32
  0
VERTEX
  8
SAPA_FOGBAND
  5
1F0B
 10
82.8202
 20
238.989
 30
0.000000
  70
    32
  0
VERTEX
  8
SAPA_FOGBAND
  5
1F0C
 10
82.8438
 20
239.145
 30
0.000000
  70
    32
  0
VERTEX
  8
SAPA_FOGBAND
  5
1F0D
 10
82.8714
 20
239.298
 30
0.000000
  70
    32
  0
VERTEX
  8
SAPA_FOGBAND
  5
1F0E
 10
82.9027
 20
239.449
 30
0.000000
  70
    32
  0
VERTEX
  8
SAPA_FOGBAND
  5
1F0F
 10
82.9377
 20
239.597
 30
0.000000
  70
    32
  0
VERTEX
  8
SAPA_FOGBAND
  5
1F10
 10
82.9764
 20
239.741
 30
0.000000
  70
    32
  0
VERTEX
  8
SAPA_FOGBAND
  5
1F11
 10
83.0186
 20
239.881
 30
0.000000
  70
    32
  0
VERTEX
  8
SAPA_FOGBAND
  5
1F12
 10
83.0643
 20
240.018
 30
0.000000
  70
    32
  0
VERTEX
  8
SAPA_FOGBAND
  5
1F13
 10
83.1133
 20
240.149
 30
0.000000
  70
    32
  0
VERTEX
  8
SAPA_FOGBAND
  5
1F14
 10
83.1655
 20
240.277
 30
0.000000
  70
    32
  0
VERTEX
  8
SAPA_FOGBAND
  5
1F15
 10
83.2209
 20
240.399
 30
0.000000
  70
    32
  0
VERTEX
  8
SAPA_FOGBAND
  5
1F16
 10
83.2791
 20
240.515
 30
0.000000
  70
    32
  0
VERTEX
  8
SAPA_FOGBAND
  5
1F17
 10
83.3403
 20
240.626
 30
0.000000
  70
    32
  0
VERTEX
  8
SAPA_FOGBAND
  5
1F18
 10
83.4040
 20
240.731
 30
0.000000
  70
    32
  0
VERTEX
  8
SAPA_FOGBAND
  5
1F19
 10
83.4703
 20
240.830
 30
0.000000
  70
    32
  0
VERTEX
  8
SAPA_FOGBAND
  5
1F1A
 10
83.5390
 20
240.923
 30
0.000000
  70
    32
  0
VERTEX
  8
SAPA_FOGBAND
  5
1F1B
 10
83.6098
 20
241.009
 30
0.000000
  70
    32
  0
VERTEX
  8
SAPA_FOGBAND
  5
1F1C
 10
83.6827
 20
241.088
 30
0.000000
  70
    32
  0
VERTEX
  8
SAPA_FOGBAND
  5
1F1D
 10
83.7574
 20
241.160
 30
0.000000
  70
    32
  0
VERTEX
  8
SAPA_FOGBAND
  5
1F1E
 10
83.8338
 20
241.225
 30
0.000000
  70
    32
  0
VERTEX
  8
SAPA_FOGBAND
  5
1F1F
 10
83.9116
 20
241.282
 30
0.000000
  70
    32
  0
VERTEX
  8
SAPA_FOGBAND
  5
1F20
 10
83.9908
 20
241.332
 30
0.000000
  70
    32
  0
VERTEX
  8
SAPA_FOGBAND
  5
1F21
 10
84.0710
 20
241.375
 30
0.000000
  70
    32
  0
VERTEX
  8
SAPA_FOGBAND
  5
1F22
 10
84.1522
 20
241.409
 30
0.000000
  70
    32
  0
VERTEX
  8
SAPA_FOGBAND
  5
1F23
 10
84.2341
 20
241.436
 30
0.000000
  70
    32
  0
VERTEX
  8
SAPA_FOGBAND
  5
1F24
 10
84.3165
 20
241.455
 30
0.000000
  70
    32
  0
VERTEX
  8
SAPA_FOGBAND
  5
1F25
 10
84.3992
 20
241.466
 30
0.000000
  70
    32
  0
VERTEX
  8
SAPA_FOGBAND
  5
1F26
 10
84.4821
 20
241.469
 30
0.000000
  70
    32
  0
VERTEX
  8
SAPA_FOGBAND
  5
1F27
 10
84.5649
 20
241.465
 30
0.000000
  70
    32
  0
VERTEX
  8
SAPA_FOGBAND
  5
1F28
 10
84.6473
 20
241.452
 30
0.000000
  70
    32
  0
VERTEX
  8
SAPA_FOGBAND
  5
1F29
 10
84.7294
 20
241.431
 30
0.000000
  70
    32
  0
VERTEX
  8
SAPA_FOGBAND
  5
1F2A
 10
84.8107
 20
241.403
 30
0.000000
  70
    32
  0
VERTEX
  8
SAPA_FOGBAND
  5
1F2B
 10
84.8912
 20
241.367
 30
0.000000
  70
    32
  0
VERTEX
  8
SAPA_FOGBAND
  5
1F2C
 10
84.9706
 20
241.323
 30
0.000000
  70
    32
  0
VERTEX
  8
SAPA_FOGBAND
  5
1F2D
 10
85.0487
 20
241.271
 30
0.000000
  70
    32
  0
VERTEX
  8
SAPA_FOGBAND
  5
1F2E
 10
85.1254
 20
241.212
 30
0.000000
  70
    32
  0
VERTEX
  8
SAPA_FOGBAND
  5
1F2F
 10
85.2005
 20
241.146
 30
0.000000
  70
    32
  0
VERTEX
  8
SAPA_FOGBAND
  5
1F30
 10
85.2737
 20
241.072
 30
0.000000
  70
    32
  0
VERTEX
  8
SAPA_FOGBAND
  5
1F31
 10
85.3450
 20
240.992
 30
0.000000
  70
    32
  0
VERTEX
  8
SAPA_FOGBAND
  5
1F32
 10
85.4141
 20
240.904
 30
0.000000
  70
    32
  0
VERTEX
  8
SAPA_FOGBAND
  5
1F33
 10
85.4809
 20
240.810
 30
0.000000
  70
    32
  0
VERTEX
  8
SAPA_FOGBAND
  5
1F34
 10
85.5452
 20
240.710
 30
0.000000
  70
    32
  0
VERTEX
  8
SAPA_FOGBAND
  5
1F35
 10
85.6069
 20
240.604
 30
0.000000
  70
    32
  0
VERTEX
  8
SAPA_FOGBAND
  5
1F36
 10
85.6658
 20
240.492
 30
0.000000
  70
    32
  0
VERTEX
  8
SAPA_FOGBAND
  5
1F37
 10
85.7217
 20
240.374
 30
0.000000
  70
    32
  0
VERTEX
  8
SAPA_FOGBAND
  5
1F38
 10
85.7746
 20
240.251
 30
0.000000
  70
    32
  0
VERTEX
  8
SAPA_FOGBAND
  5
1F39
 10
85.8243
 20
240.122
 30
0.000000
  70
    32
  0
VERTEX
  8
SAPA_FOGBAND
  5
1F3A
 10
85.8707
 20
239.990
 30
0.000000
  70
    32
  0
VERTEX
  8
SAPA_FOGBAND
  5
1F3B
 10
85.9136
 20
239.852
 30
0.000000
  70
    32
  0
VERTEX
  8
SAPA_FOGBAND
  5
1F3C
 10
85.9531
 20
239.711
 30
0.000000
  70
    32
  0
VERTEX
  8
SAPA_FOGBAND
  5
1F3D
 10
85.9889
 20
239.566
 30
0.000000
  70
    32
  0
VERTEX
  8
SAPA_FOGBAND
  5
1F3E
 10
86.0210
 20
239.418
 30
0.000000
  70
    32
  0
VERTEX
  8
SAPA_FOGBAND
  5
1F3F
 10
86.0493
 20
239.267
 30
0.000000
  70
    32
  0
VERTEX
  8
SAPA_FOGBAND
  5
1F40
 10
86.0737
 20
239.113
 30
0.000000
  70
    32
  0
VERTEX
  8
SAPA_FOGBAND
  5
1F41
 10
86.0943
 20
238.956
 30
0.000000
  70
    32
  0
VERTEX
  8
SAPA_FOGBAND
  5
1F42
 10
86.1108
 20
238.798
 30
0.000000
  70
    32
  0
VERTEX
  8
SAPA_FOGBAND
  5
1F43
 10
86.1234
 20
238.639
 30
0.000000
  70
    32
  0
VERTEX
  8
SAPA_FOGBAND
  5
1F44
 10
86.1320
 20
238.478
 30
0.000000
  70
    32
  0
VERTEX
  8
SAPA_FOGBAND
  5
1F45
 10
86.1364
 20
238.316
 30
0.000000
  70
    32
  0
VERTEX
  8
SAPA_FOGBAND
  5
1F46
 10
86.1369
 20
238.154
 30
0.000000
  70
    32
  0
VERTEX
  8
SAPA_FOGBAND
  5
1F47
 10
86.1332
 20
237.993
 30
0.000000
  70
    32
  0
VERTEX
  8
SAPA_FOGBAND
  5
1F48
 10
86.1255
 20
237.831
 30
0.000000
  70
    32
  0
VERTEX
  8
SAPA_FOGBAND
  5
1F49
 10
86.1138
 20
237.671
 30
0.000000
  70
    32
  0
VERTEX
  8
SAPA_FOGBAND
  5
1F4A
 10
86.0980
 20
237.511
 30
0.000000
  70
    32
  0
VERTEX
  8
SAPA_FOGBAND
  5
1F4B
 10
86.0783
 20
237.353
 30
0.000000
  70
    32
  0
VERTEX
  8
SAPA_FOGBAND
  5
1F4C
 10
86.0547
 20
237.198
 30
0.000000
  70
    32
  0
VERTEX
  8
SAPA_FOGBAND
  5
1F4D
 10
86.0272
 20
237.044
 30
0.000000
  70
    32
  0
VERTEX
  8
SAPA_FOGBAND
  5
1F4E
 10
85.9958
 20
236.893
 30
0.000000
  70
    32
  0
VERTEX
  8
SAPA_FOGBAND
  5
1F4F
 10
85.9608
 20
236.746
 30
0.000000
  70
    32
  0
VERTEX
  8
SAPA_FOGBAND
  5
1F50
 10
85.9221
 20
236.602
 30
0.000000
  70
    32
  0
VERTEX
  8
SAPA_FOGBAND
  5
1F51
 10
85.8799
 20
236.461
 30
0.000000
  70
    32
  0
VERTEX
  8
SAPA_FOGBAND
  5
1F52
 10
85.8342
 20
236.325
 30
0.000000
  70
    32
  0
VERTEX
  8
SAPA_FOGBAND
  5
1F53
 10
85.7852
 20
236.193
 30
0.000000
  70
    32
  0
VERTEX
  8
SAPA_FOGBAND
  5
1F54
 10
85.7330
 20
236.066
 30
0.000000
  70
    32
  0
VERTEX
  8
SAPA_FOGBAND
  5
1F55
 10
85.6776
 20
235.944
 30
0.000000
  70
    32
  0
VERTEX
  8
SAPA_FOGBAND
  5
1F56
 10
85.6194
 20
235.827
 30
0.000000
  70
    32
  0
VERTEX
  8
SAPA_FOGBAND
  5
1F57
 10
85.5583
 20
235.716
 30
0.000000
  70
    32
  0
VERTEX
  8
SAPA_FOGBAND
  5
1F58
 10
85.4945
 20
235.611
 30
0.000000
  70
    32
  0
VERTEX
  8
SAPA_FOGBAND
  5
1F59
 10
85.4282
 20
235.512
 30
0.000000
  70
    32
  0
VERTEX
  8
SAPA_FOGBAND
  5
1F5A
 10
85.3595
 20
235.419
 30
0.000000
  70
    32
  0
VERTEX
  8
SAPA_FOGBAND
  5
1F5B
 10
85.2887
 20
235.334
 30
0.000000
  70
    32
  0
VERTEX
  8
SAPA_FOGBAND
  5
1F5C
 10
85.2158
 20
235.254
 30
0.000000
  70
    32
  0
VERTEX
  8
SAPA_FOGBAND
  5
1F5D
 10
85.1411
 20
235.182
 30
0.000000
  70
    32
  0
VERTEX
  8
SAPA_FOGBAND
  5
1F5E
 10
85.0647
 20
235.118
 30
0.000000
  70
    32
  0
VERTEX
  8
SAPA_FOGBAND
  5
1F5F
 10
84.9869
 20
235.060
 30
0.000000
  70
    32
  0
VERTEX
  8
SAPA_FOGBAND
  5
1F60
 10
84.9077
 20
235.010
 30
0.000000
  70
    32
  0
VERTEX
  8
SAPA_FOGBAND
  5
1F61
 10
84.8275
 20
234.968
 30
0.000000
  70
    32
  0
VERTEX
  8
SAPA_FOGBAND
  5
1F62
 10
84.7463
 20
234.933
 30
0.000000
  70
    32
  0
VERTEX
  8
SAPA_FOGBAND
  5
1F63
 10
84.6644
 20
234.906
 30
0.000000
  70
    32
  0
VERTEX
  8
SAPA_FOGBAND
  5
1F64
 10
84.5820
 20
234.887
 30
0.000000
  70
    32
  0
VERTEX
  8
SAPA_FOGBAND
  5
1F65
 10
84.4993
 20
234.876
 30
0.000000
  70
    32
  0
VERTEX
  8
SAPA_FOGBAND
  5
1F66
 10
84.4164
 20
234.873
 30
0.000000
  70
    32
  0
SEQEND
  8
SAPA_FOGBAND
  5
1F67
  0
LINE
  5
908
  8
SAPA_ANSLUTNING
 10
79.478260604947707
 20
246.1374877986589
 30
0.0
 11
79.478260604947707
 21
66.705532051475188
 31
0.0
  0
INSERT
  5
90C
  8
SAPA_FOGBAND
  6
CONTINUOUS
  2
*U59
 10
0.0
 20
0.0
 30
0.0
1001
ACAD
1002
{
1000
R14_HATCH_DATA
1000
90C
1011
1.0
1021
0.0
1031
0.0
1021
0.0
1031
0.0
1011
0.0
1021
0.0
1031
0.0
1021
1.0
1031
0.0
1011
0.0
1021
0.0
1031
0.0
1021
0.0
1031
1.0
1040
0.0
1010
0.0
1020
0.0
1030
1.0
1000
SOLID
1070
     1
1070
     1
1071
        1
1071
        1
1071
        1
1070
     2
1040
49.949793748597898
1040
238.5081310030412
1040
0.2549509756796394
1040
0.0
1040
6.2831853071795862
1070
     1
1071
        1
1005
90D
1070
     0
1070
     1
1071
        1
1040
50.031645245926804
1040
238.27139210147109
1040
0.0
1002
}
  0
CIRCLE
  5
90D
  8
SAPA_FOGBAND
 10
49.949793748597898
 20
238.5081310030412
 30
0.0
 40
0.2549509756796394
  0
LINE
  5
90E
  8
SAPA_ANSLUTNING
 10
52.478260604946144
 20
132.13748779865409
 30
0.0
 11
52.478260604946151
 21
246.1374877986589
 31
0.0
  0
LINE
  5
913
  8
SAPA_ANSLUTNING
 10
52.478260604946144
 20
246.1374877986589
 30
0.0
 11
53.978260604946151
 21
246.1374877986589
 31
0.0
  0
LINE
  5
914
  8
SAPA_ANSLUTNING
 10
77.978260604947707
 20
246.1374877986589
 30
0.0
 11
77.978260604947693
 21
67.755843358789846
 31
0.0
  0
LINE
  5
915
  8
SAPA_ANSLUTNING
 10
77.978260604947707
 20
246.1374877986589
 30
0.0
 11
79.478260604947707
 21
246.1374877986589
 31
0.0
  0
LINE
  5
916
  8
SAPA_ANSLUTNING
 10
77.878260604947684
 20
246.1374877986589
 30
0.0
 11
77.878260604947684
 21
67.825864112610844
 31
0.0
  0
LINE
  5
91D
  8
SAPA_ANSLUTNING
 10
91.478260603956926
 20
-24.361548915790991
 30
0.0
 11
168.45301318115199
 21
-24.361548915790991
 31
0.0
  0
LINE
  5
91E
  8
SAPA_ANSLUTNING
 10
99.478260603956926
 20
-16.361548915790991
 30
0.0
 11
99.478260603956912
 21
209.13748779865409
 31
0.0
  0
LINE
  5
91F
  8
SAPA_ANSLUTNING
 10
99.478260603956912
 20
-16.361548915790991
 30
0.0
 11
168.45301318115199
 21
-16.361548915790991
 31
0.0
  0
LINE
  5
934
  8
SAPA_ANSLUTNING
 10
53.978260604946144
 20
131.08717649133959
 30
0.0
 11
53.978260604946144
 21
246.13748779865901
 31
0.0
  0
LINE
  5
935
  8
SAPA_ANSLUTNING
 10
54.078260604946138
 20
88.343627061234216
 30
0.0
 11
54.078260604946131
 21
246.1374877986589
 31
0.0
  0
LINE
  5
936
  8
SAPA_ANSLUTNING
 10
54.078260604946152
 20
246.1374877986589
 30
0.0
 11
77.878260604947684
 21
246.1374877986589
 31
0.0
  0
LINE
  5
937
  8
SAPA_ANSLUTNING
 10
54.828260604946138
 20
94.574539992529807
 30
0.0
 11
54.828260604946152
 21
104.57453999252979
 31
0.0
  0
LINE
  5
938
  8
SAPA_ANSLUTNING
 10
55.578260604946138
 20
87.293315753919643
 30
0.0
 11
55.578260604946152
 21
246.1374877986589
 31
0.0
  0
LINE
  5
939
  8
SAPA_ANSLUTNING
 10
77.128260604947684
 20
241.5444056061597
 30
0.0
 11
77.128260604947684
 21
231.5444056061597
 31
0.0
  0
LINE
  5
93A
  8
SAPA_ANSLUTNING
 10
76.378260604947698
 20
246.1374877986589
 30
0.0
 11
76.378260604947698
 21
68.876175419925417
 31
0.0
  0
LINE
  5
93B
  8
SAPA_ANSLUTNING
 10
91.478260603956926
 20
217.13748779865421
 30
0.0
 11
168.45301318115199
 21
217.13748779865421
 31
0.0
  0
LINE
  5
93C
  8
SAPA_ANSLUTNING
 10
99.478260603956912
 20
209.13748779865409
 30
0.0
 11
168.45301318115199
 21
209.13748779865421
 31
0.0
  0
LINE
  5
93E
  8
SAPA_ANSLUTNING
 10
54.078260604946131
 20
94.574539992529807
 30
0.0
 11
55.578260604946138
 21
94.574539992529807
 31
0.0
  0
LINE
  5
93F
  8
SAPA_ANSLUTNING
 10
76.378260604947698
 20
94.574539992529807
 30
0.0
 11
77.878260604947684
 21
94.574539992529807
 31
0.0
  0
LINE
  5
940
  8
SAPA_ANSLUTNING
 10
54.078260604946038
 20
104.57453999252979
 30
0.0
 11
55.578260604946053
 21
104.57453999252979
 31
0.0
  0
LINE
  5
941
  8
SAPA_ANSLUTNING
 10
76.378260604947585
 20
104.57453999252979
 30
0.0
 11
77.878260604947599
 21
104.57453999252979
 31
0.0
  0
LINE
  5
942
  8
SAPA_ANSLUTNING
 10
54.078260604945847
 20
124.57453999252979
 30
0.0
 11
55.578260604945847
 21
124.57453999252979
 31
0.0
  0
LINE
  5
943
  8
SAPA_ANSLUTNING
 10
76.378260604947414
 20
124.57453999252979
 30
0.0
 11
77.878260604947414
 21
124.57453999252979
 31
0.0
  0
LINE
  5
944
  8
SAPA_ANSLUTNING
 10
54.078260604945761
 20
134.57453999252979
 30
0.0
 11
55.578260604945761
 21
134.57453999252979
 31
0.0
  0
LINE
  5
945
  8
SAPA_ANSLUTNING
 10
76.378260604947315
 20
134.57453999252979
 30
0.0
 11
77.878260604947315
 21
134.57453999252979
 31
0.0
  0
LINE
  5
946
  8
SAPA_ANSLUTNING
 10
54.078260604945562
 20
154.57453999252979
 30
0.0
 11
55.578260604945569
 21
154.57453999252979
 31
0.0
  0
LINE
  5
947
  8
SAPA_ANSLUTNING
 10
54.078260604945477
 20
164.57453999252979
 30
0.0
 11
55.578260604945477
 21
164.57453999252979
 31
0.0
  0
LINE
  5
948
  8
SAPA_ANSLUTNING
 10
76.37826060494713
 20
154.57453999252979
 30
0.0
 11
77.87826060494713
 21
154.57453999252979
 31
0.0
  0
LINE
  5
949
  8
SAPA_ANSLUTNING
 10
76.37826060494703
 20
164.57453999252979
 30
0.0
 11
77.87826060494703
 21
164.57453999252979
 31
0.0
  0
LINE
  5
94A
  8
SAPA_ANSLUTNING
 10
54.078260604945278
 20
171.5444056061597
 30
0.0
 11
55.578260604945278
 21
171.5444056061597
 31
0.0
  0
LINE
  5
94B
  8
SAPA_ANSLUTNING
 10
54.078260604945193
 20
181.5444056061597
 30
0.0
 11
55.578260604945193
 21
181.5444056061597
 31
0.0
  0
LINE
  5
94C
  8
SAPA_ANSLUTNING
 10
76.378260604946846
 20
171.5444056061597
 30
0.0
 11
77.878260604946846
 21
171.5444056061597
 31
0.0
  0
LINE
  5
94D
  8
SAPA_ANSLUTNING
 10
76.378260604946746
 20
181.5444056061597
 30
0.0
 11
77.878260604946746
 21
181.5444056061597
 31
0.0
  0
LINE
  5
94E
  8
SAPA_ANSLUTNING
 10
54.078260604945001
 20
201.54440560615981
 30
0.0
 11
55.578260604945001
 21
201.54440560615981
 31
0.0
  0
LINE
  5
94F
  8
SAPA_ANSLUTNING
 10
54.078260604944909
 20
211.54440560615981
 30
0.0
 11
55.578260604944909
 21
211.54440560615981
 31
0.0
  0
LINE
  5
950
  8
SAPA_ANSLUTNING
 10
76.378260604946561
 20
201.54440560615981
 30
0.0
 11
77.878260604946561
 21
201.54440560615981
 31
0.0
  0
LINE
  5
951
  8
SAPA_ANSLUTNING
 10
76.378260604946462
 20
211.54440560615981
 30
0.0
 11
77.878260604946462
 21
211.54440560615981
 31
0.0
  0
LINE
  5
952
  8
SAPA_ANSLUTNING
 10
54.07826060494471
 20
231.5444056061597
 30
0.0
 11
55.578260604944717
 21
231.5444056061597
 31
0.0
  0
LINE
  5
953
  8
SAPA_ANSLUTNING
 10
54.078260604944617
 20
241.5444056061597
 30
0.0
 11
55.578260604944631
 21
241.5444056061597
 31
0.0
  0
LINE
  5
954
  8
SAPA_ANSLUTNING
 10
76.378260604946277
 20
231.5444056061597
 30
0.0
 11
77.878260604946263
 21
231.5444056061597
 31
0.0
  0
LINE
  5
955
  8
SAPA_ANSLUTNING
 10
76.378260604946163
 20
241.5444056061597
 30
0.0
 11
77.878260604946178
 21
241.5444056061597
 31
0.0
  0
LINE
  5
956
  8
SAPA_ANSLUTNING
 10
77.128260604947684
 20
211.54440560615981
 30
0.0
 11
77.128260604947684
 21
201.54440560615981
 31
0.0
  0
LINE
  5
957
  8
SAPA_ANSLUTNING
 10
54.828260604946152
 20
231.5444056061597
 30
0.0
 11
54.828260604946138
 21
241.5444056061597
 31
0.0
  0
LINE
  5
958
  8
SAPA_ANSLUTNING
 10
77.128260604947684
 20
181.5444056061597
 30
0.0
 11
77.128260604947684
 21
171.5444056061597
 31
0.0
  0
LINE
  5
959
  8
SAPA_ANSLUTNING
 10
54.828260604946138
 20
201.54440560615981
 30
0.0
 11
54.828260604946152
 21
211.54440560615981
 31
0.0
  0
LINE
  5
95A
  8
SAPA_ANSLUTNING
 10
77.128260604947684
 20
164.57453999252979
 30
0.0
 11
77.128260604947684
 21
154.57453999252979
 31
0.0
  0
LINE
  5
95B
  8
SAPA_ANSLUTNING
 10
54.828260604946138
 20
171.5444056061597
 30
0.0
 11
54.828260604946138
 21
181.5444056061597
 31
0.0
  0
LINE
  5
95C
  8
SAPA_ANSLUTNING
 10
77.128260604947684
 20
134.57453999252979
 30
0.0
 11
77.128260604947684
 21
124.57453999252979
 31
0.0
  0
LINE
  5
95D
  8
SAPA_ANSLUTNING
 10
54.828260604946138
 20
154.57453999252979
 30
0.0
 11
54.828260604946138
 21
164.57453999252979
 31
0.0
  0
LINE
  5
95E
  8
SAPA_ANSLUTNING
 10
77.128260604947684
 20
104.57453999252979
 30
0.0
 11
77.128260604947684
 21
94.574539992529793
 31
0.0
  0
LINE
  5
95F
  8
SAPA_ANSLUTNING
 10
54.828260604946152
 20
124.57453999252979
 30
0.0
 11
54.828260604946138
 21
134.57453999252979
 31
0.0
  0
LINE
  5
960
  8
SAPA_ANSLUTNING
 10
55.578260604946138
 20
87.293315753919643
 30
0.0
 11
76.378260604947698
 21
99.302201353064774
 31
0.0
  0
LINE
  5
961
  8
SAPA_ANSLUTNING
 10
55.578260604946138
 20
111.31108695220981
 30
0.0
 11
76.378260604947698
 21
99.302201353064774
 31
0.0
  0
LINE
  5
962
  8
SAPA_ANSLUTNING
 10
55.578260604946138
 20
111.31108695220981
 30
0.0
 11
76.378260604947698
 21
123.31997255135489
 31
0.0
  0
LINE
  5
963
  8
SAPA_ANSLUTNING
 10
55.578260604946138
 20
135.32885815050011
 30
0.0
 11
76.378260604947698
 21
123.31997255135489
 31
0.0
  0
LINE
  5
964
  8
SAPA_ANSLUTNING
 10
55.578260604946138
 20
135.32885815050011
 30
0.0
 11
76.378260604947698
 21
147.3377437496452
 31
0.0
  0
LINE
  5
965
  8
SAPA_ANSLUTNING
 10
55.578260604946138
 20
159.34662934879029
 30
0.0
 11
76.378260604947698
 21
147.3377437496452
 31
0.0
  0
LINE
  5
966
  8
SAPA_ANSLUTNING
 10
55.578260604946138
 20
159.34662934879029
 30
0.0
 11
76.378260604947698
 21
171.35551494793529
 31
0.0
  0
LINE
  5
967
  8
SAPA_ANSLUTNING
 10
55.578260604946138
 20
170.3342661607104
 30
0.0
 11
76.378260604947698
 21
158.32538056156531
 31
0.0
  0
LINE
  5
968
  8
SAPA_ANSLUTNING
 10
55.578260604946152
 20
170.3342661607104
 30
0.0
 11
76.378260604947712
 21
182.34315175985549
 31
0.0
  0
LINE
  5
969
  8
SAPA_ANSLUTNING
 10
55.578260604946152
 20
194.3520373590006
 30
0.0
 11
76.378260604947712
 21
182.34315175985549
 31
0.0
  0
LINE
  5
96A
  8
SAPA_ANSLUTNING
 10
55.578260604946152
 20
194.3520373590006
 30
0.0
 11
76.378260604947712
 21
206.36092295814569
 31
0.0
  0
LINE
  5
96B
  8
SAPA_ANSLUTNING
 10
55.578260604946152
 20
218.36980855729081
 30
0.0
 11
76.378260604947712
 21
206.36092295814569
 31
0.0
  0
LINE
  5
96C
  8
SAPA_ANSLUTNING
 10
55.578260604946152
 20
218.36980855729081
 30
0.0
 11
76.378260604947712
 21
230.3786941564359
 31
0.0
  0
LINE
  5
96D
  8
SAPA_ANSLUTNING
 10
55.578260604946152
 20
242.38757975558099
 30
0.0
 11
76.378260604947712
 21
230.3786941564359
 31
0.0
  0
INSERT
  5
96F
  8
0
  2
*U60
 10
0.0
 20
0.0
 30
0.0
  0
INSERT
  5
971
  8
0
  2
*U61
 10
0.0
 20
0.0
 30
0.0
  0
INSERT
  5
972
  8
0
  2
*U62
 10
0.0
 20
0.0
 30
0.0
  0
POLYLINE
  5
974
  8
SAPA_LIGHT
 66
     1
 10
0.0
 20
0.0
 30
0.0
  0
VERTEX
  5
FE7
  8
SAPA_LIGHT
 10
189.4782606039569
 20
282.13748779865421
 30
0.0
  0
VERTEX
  5
FE8
  8
SAPA_LIGHT
 10
189.47826060395681
 20
232.13748779865409
 30
0.0
  0
VERTEX
  5
FE9
  8
SAPA_LIGHT
 10
79.478260604947707
 20
232.13748779865409
 30
0.0
  0
VERTEX
  5
FEA
  8
SAPA_LIGHT
 10
79.478260604947707
 20
252.13748779865409
 30
0.0
  0
VERTEX
  5
FEB
  8
SAPA_LIGHT
 10
52.478260604946144
 20
252.13748779865429
 30
0.0
  0
VERTEX
  5
FEC
  8
SAPA_LIGHT
 10
52.478260604946193
 20
232.13748779865401
 30
0.0
  0
VERTEX
  5
FED
  8
SAPA_LIGHT
 10
28.476735677144461
 20
232.13748779865389
 30
0.0
  0
VERTEX
  5
FEE
  8
SAPA_LIGHT
 10
28.476735677144731
 20
271.50611694875528
 30
0.0
  0
VERTEX
  5
FEF
  8
SAPA_LIGHT
 10
28.71105025219553
 20
272.07180237370471
 30
0.0
  0
VERTEX
  5
FF0
  8
SAPA_LIGHT
 10
38.883842458331003
 20
282.24459457984028
 30
0.0
  0
VERTEX
  5
FF1
  8
SAPA_LIGHT
 10
39.590949239517577
 20
282.53748779865367
 30
0.0
  0
VERTEX
  5
FF2
  8
SAPA_LIGHT
 10
52.478260604946342
 20
282.53748779865367
 30
0.0
  0
VERTEX
  5
FF3
  8
SAPA_LIGHT
 10
52.478260604946342
 20
262.13748779865438
 30
0.0
  0
VERTEX
  5
FF4
  8
SAPA_LIGHT
 10
89.478260603956926
 20
262.13748779865432
 30
0.0
  0
VERTEX
  5
FF5
  8
SAPA_LIGHT
 10
89.478260603956869
 20
282.13748779865409
 30
0.0
  0
VERTEX
  5
FF6
  8
SAPA_LIGHT
 10
189.4782606039569
 20
282.13748779865421
 30
0.0
  0
SEQEND
  5
FF7
  8
SAPA_LIGHT
  0
POLYLINE
  5
975
  8
SAPA_LIGHT
 66
     1
 10
0.0
 20
0.0
 30
0.0
  0
VERTEX
  5
FF8
  8
SAPA_LIGHT
 10
52.478260604946371
 20
298.13748779865051
 30
0.0
  0
VERTEX
  5
FF9
  8
SAPA_LIGHT
 10
52.478260604946357
 20
268.13748779865051
 30
0.0
  0
VERTEX
  5
FFA
  8
SAPA_LIGHT
 10
79.478260604947963
 20
268.13748779865051
 30
0.0
  0
VERTEX
  5
FFB
  8
SAPA_LIGHT
 10
79.478260604947963
 20
298.13748779865051
 30
0.0
  0
SEQEND
  5
FFC
  8
SAPA_LIGHT
  0
ARC
  5
BA2
  8
SAPA_FOGBAND
 10
47.37826060494703
 20
238.50813100304131
 30
0.0
 40
0.8999999999999772
 50
270.0
 51
90.0
  0
LINE
  5
BA3
  8
SAPA_FOGBAND
 10
47.37826060494703
 20
237.60813100304131
 30
0.0
 11
46.778260604947008
 21
237.60813100304131
 31
0.0
  0
ARC
  5
BA4
  8
SAPA_FOGBAND
 10
46.778260604947008
 20
238.50813100304131
 30
0.0
 40
0.8999999999999772
 50
90.0
 51
270.0
  0
LINE
  5
BA5
  8
SAPA_FOGBAND
 10
46.778260604947008
 20
239.40813100304129
 30
0.0
 11
47.37826060494703
 21
239.40813100304129
 31
0.0
  0
LINE
  5
BA6
  8
SAPA_FOGBAND
 10
50.814031900098222
 20
242.7581310030412
 30
0.0
 11
48.678260604947098
 21
242.7581310030414
 31
0.0
  0
ARC
  5
BA7
  8
SAPA_FOGBAND
 10
48.678260604947098
 20
242.55813100304141
 30
0.0
 40
0.2000000000000455
 50
90.0
 51
180.0
  0
LINE
  5
BA8
  8
SAPA_FOGBAND
 10
48.478260604947053
 20
242.55813100304141
 30
0.0
 11
48.478260604947053
 21
240.5081310030412
 31
0.0
  0
ARC
  5
BA9
  8
SAPA_FOGBAND
 10
47.978260604947053
 20
240.5081310030412
 30
0.0
 40
0.5
 50
270.0
 51
0.0
  0
LINE
  5
BAA
  8
SAPA_FOGBAND
 10
47.978260604947053
 20
240.0081310030412
 30
0.0
 11
47.251465685703891
 21
240.0081310030412
 31
0.0
  0
LINE
  5
BAB
  8
SAPA_FOGBAND
 10
47.251465685703891
 20
240.0081310030412
 30
0.0
 11
47.184005776393491
 21
240.2598948120617
 31
0.0
  0
ARC
  5
BAC
  8
SAPA_FOGBAND
 10
46.990820611135668
 20
240.20813100304119
 30
0.0
 40
0.2000000000000117
 50
15.000000000002
 51
116.454507615195
  0
LINE
  5
BAD
  8
SAPA_FOGBAND
 10
46.901723190754829
 20
240.38718867442529
 30
0.0
 11
45.455517053995059
 21
239.7670881716667
 31
0.0
  0
ARC
  5
BAE
  8
SAPA_FOGBAND
 10
45.678260604947141
 20
239.31944399320659
 30
0.0
 40
0.5000000000000419
 50
116.4545076151939
 51
180.00000000000321
  0
LINE
  5
BAF
  8
SAPA_FOGBAND
 10
45.178260604947098
 20
239.31944399320651
 30
0.0
 11
45.178260604947098
 21
237.69681801287609
 31
0.0
  0
ARC
  5
BB0
  8
SAPA_FOGBAND
 10
45.678260604947141
 20
237.69681801287601
 30
0.0
 40
0.5000000000000427
 50
179.9999999999967
 51
243.5454923848061
  0
LINE
  5
BB1
  8
SAPA_FOGBAND
 10
45.455517053995059
 20
237.2491738344159
 30
0.0
 11
46.901723190754829
 21
236.62907333165731
 31
0.0
  0
ARC
  5
BB2
  8
SAPA_FOGBAND
 10
46.990820611135668
 20
236.80813100304141
 30
0.0
 40
0.2000000000000123
 50
243.54549238480499
 51
344.99999999999801
  0
LINE
  5
BB3
  8
SAPA_FOGBAND
 10
47.184005776393491
 20
236.7563671940209
 30
0.0
 11
47.251465685703891
 21
237.0081310030412
 31
0.0
  0
LINE
  5
BB4
  8
SAPA_FOGBAND
 10
47.251465685703891
 20
237.0081310030412
 30
0.0
 11
47.978260604947053
 21
237.0081310030412
 31
0.0
  0
ARC
  5
BB5
  8
SAPA_FOGBAND
 10
47.978260604947053
 20
236.5081310030412
 30
0.0
 40
0.5
 50
0.0
 51
90.0
  0
LINE
  5
BB6
  8
SAPA_FOGBAND
 10
48.478260604947053
 20
236.5081310030412
 30
0.0
 11
48.478260604947053
 21
233.45813100304119
 31
0.0
  0
ARC
  5
BB7
  8
SAPA_FOGBAND
 10
48.278260604947
 20
233.45813100304119
 30
0.0
 40
0.2000000000000455
 50
270.0
 51
0.0
  0
LINE
  5
BB8
  8
SAPA_FOGBAND
 10
48.278260604947
 20
233.2581310030412
 30
0.0
 11
47.37826060494703
 21
233.2581310030414
 31
0.0
  0
ARC
  5
BB9
  8
SAPA_FOGBAND
 10
47.37826060494708
 20
233.05813100304141
 30
0.0
 40
0.1999999999999886
 50
90.000000000016286
 51
180.0000000000162
  0
LINE
  5
BBA
  8
SAPA_FOGBAND
 10
47.178260604947098
 20
233.05813100304141
 30
0.0
 11
47.178260604946978
 21
232.35813100304131
 31
0.0
  0
ARC
  5
BBB
  8
SAPA_FOGBAND
 10
47.478260604946989
 20
232.35813100304139
 30
0.0
 40
0.3000000000000114
 50
180.0000000000108
 51
270.0000000000108
  0
LINE
  5
BBC
  8
SAPA_FOGBAND
 10
47.478260604947053
 20
232.05813100304141
 30
0.0
 11
48.288772381598591
 21
232.05813100304141
 31
0.0
  0
ARC
  5
BBD
  8
SAPA_FOGBAND
 10
48.288772381598527
 20
230.05813100304141
 30
0.0
 40
1.9999999999999709
 50
59.999999999997463
 51
89.999999999998167
  0
LINE
  5
BBE
  8
SAPA_FOGBAND
 10
49.288772381598591
 20
231.79018181061019
 30
0.0
 11
51.924139299942773
 21
227.8194692735081
 31
0.0
  0
ARC
  5
BBF
  8
SAPA_FOGBAND
 10
52.176036079037317
 20
227.90497670796569
 30
0.0
 40
0.2660141136589028
 50
198.74999999999969
 51
3.7499999999984879
  0
LINE
  5
BC0
  8
SAPA_FOGBAND
 10
52.441480636059246
 20
227.9223748634183
 30
0.0
 11
51.887635839515021
 21
233.34703642529061
 31
0.0
  0
LINE
  5
BC1
  8
SAPA_FOGBAND
 10
51.887635839515021
 20
233.34703642529061
 30
0.0
 11
51.887635839515021
 21
233.34703642529061
 31
0.0
  0
LINE
  5
BC2
  8
SAPA_FOGBAND
 10
51.887635839515021
 20
233.34703642529061
 30
0.0
 11
52.299672531915213
 21
233.5849259181193
 31
0.0
  0
ARC
  5
BC3
  8
SAPA_FOGBAND
 10
52.199672531915184
 20
233.75813099887631
 30
0.0
 40
0.2000000000000475
 50
299.9999999999996
 51
60.00000000000032
  0
LINE
  5
BC4
  8
SAPA_FOGBAND
 10
52.299672531915213
 20
233.93133607963321
 30
0.0
 11
51.88736196935335
 21
234.16938369636409
 31
0.0
  0
LINE
  5
BC5
  8
SAPA_FOGBAND
 10
51.88736196935335
 20
234.16938369636409
 30
0.0
 11
51.88736196935335
 21
234.94687830628069
 31
0.0
  0
LINE
  5
BC6
  8
SAPA_FOGBAND
 10
51.88736196935335
 20
234.94687830628069
 30
0.0
 11
52.299672531915213
 21
235.18492591811949
 31
0.0
  0
ARC
  5
BC7
  8
SAPA_FOGBAND
 10
52.199672531915247
 20
235.35813099887631
 30
0.0
 40
0.199999999999917
 50
300.0
 51
59.999999999999922
  0
LINE
  5
BC8
  8
SAPA_FOGBAND
 10
52.299672531915213
 20
235.53133607963309
 30
0.0
 11
51.88736196935335
 21
235.769383696364
 31
0.0
  0
LINE
  5
BC9
  8
SAPA_FOGBAND
 10
51.88736196935335
 20
235.769383696364
 30
0.0
 11
51.88736196935335
 21
236.5468783062806
 31
0.0
  0
LINE
  5
BCA
  8
SAPA_FOGBAND
 10
51.88736196935335
 20
236.5468783062806
 30
0.0
 11
52.299672531915213
 21
236.7849259181194
 31
0.0
  0
ARC
  5
BCB
  8
SAPA_FOGBAND
 10
52.199672531915184
 20
236.9581309988763
 30
0.0
 40
0.2000000000000475
 50
299.9999999999996
 51
60.00000000000032
  0
LINE
  5
BCC
  8
SAPA_FOGBAND
 10
52.299672531915213
 20
237.13133607963329
 30
0.0
 11
51.88736196935335
 21
237.369383696364
 31
0.0
  0
LINE
  5
BCD
  8
SAPA_FOGBAND
 10
51.88736196935335
 20
237.369383696364
 30
0.0
 11
51.88736196935335
 21
238.1468783062808
 31
0.0
  0
LINE
  5
BCE
  8
SAPA_FOGBAND
 10
51.88736196935335
 20
238.1468783062808
 30
0.0
 11
52.299672531915213
 21
238.38492591811931
 31
0.0
  0
ARC
  5
BCF
  8
SAPA_FOGBAND
 10
52.199672531915184
 20
238.55813099887621
 30
0.0
 40
0.2000000000000475
 50
299.9999999999996
 51
60.00000000000032
  0
LINE
  5
BD0
  8
SAPA_FOGBAND
 10
52.299672531915213
 20
238.73133607963319
 30
0.0
 11
51.88736196935335
 21
238.9693836963641
 31
0.0
  0
LINE
  5
BD1
  8
SAPA_FOGBAND
 10
51.88736196935335
 20
238.9693836963641
 30
0.0
 11
51.88736196935335
 21
239.74687830628071
 31
0.0
  0
LINE
  5
BD2
  8
SAPA_FOGBAND
 10
51.88736196935335
 20
239.74687830628071
 30
0.0
 11
52.299672531915213
 21
239.98492591811939
 31
0.0
  0
ARC
  5
BD3
  8
SAPA_FOGBAND
 10
52.199672531915184
 20
240.1581309988764
 30
0.0
 40
0.2000000000000475
 50
299.9999999999996
 51
60.00000000000032
  0
LINE
  5
BD4
  8
SAPA_FOGBAND
 10
52.299672531915213
 20
240.3313360796333
 30
0.0
 11
51.88736196935335
 21
240.56938369636401
 31
0.0
  0
LINE
  5
BD5
  8
SAPA_FOGBAND
 10
51.88736196935335
 20
240.56938369636401
 30
0.0
 11
51.88736196935335
 21
241.34687831044559
 31
0.0
  0
LINE
  5
BD6
  8
SAPA_FOGBAND
 10
51.88736196935335
 20
241.34687831044559
 30
0.0
 11
52.299672531915213
 21
241.58492592228441
 31
0.0
  0
ARC
  5
BD7
  8
SAPA_FOGBAND
 10
52.199672531915184
 20
241.75813100304131
 30
0.0
 40
0.2000000000000475
 50
299.9999999999996
 51
60.00000000000032
  0
LINE
  5
BD8
  8
SAPA_FOGBAND
 10
52.299672531915213
 20
241.93133608379819
 30
0.0
 11
50.914031900868927
 21
242.7313360833532
 31
0.0
  0
ARC
  5
BD9
  8
SAPA_FOGBAND
 10
50.814031900098399
 20
242.55813100304121
 30
0.0
 40
0.2000000000000185
 50
59.999999745114387
 51
90.000000000050875
  0
ARC
  5
BDA
  8
SAPA_FOGBAND
 10
91.180331096398305
 20
235.2361606141391
 30
0.0
 40
0.200000000000023
 50
194.99999999995899
 51
296.45450761514218
  0
LINE
  5
BDB
  8
SAPA_FOGBAND
 10
91.269428516778987
 20
235.05710294275491
 30
0.0
 11
92.715634653539098
 21
235.6772034455137
 31
0.0
  0
ARC
  5
BDC
  8
SAPA_FOGBAND
 10
92.49289110258718
 20
236.12484762397369
 30
0.0
 40
0.4999999999997688
 50
296.45450761518953
 51
0.0000000000032569
  0
LINE
  5
BDD
  8
SAPA_FOGBAND
 10
92.992891102586967
 20
236.12484762397369
 30
0.0
 11
92.992891102586967
 21
237.74747360430439
 31
0.0
  0
ARC
  5
BDE
  8
SAPA_FOGBAND
 10
92.492891102587066
 20
237.74747360430419
 30
0.0
 40
0.4999999999999006
 50
0.0000000000195413
 51
63.545492384830901
  0
LINE
  5
BDF
  8
SAPA_FOGBAND
 10
92.715634653538871
 20
238.19511778276441
 30
0.0
 11
91.269428516778987
 21
238.81521828552309
 31
0.0
  0
ARC
  5
BE0
  8
SAPA_FOGBAND
 10
91.18033109639812
 20
238.63616061413919
 30
0.0
 40
0.1999999999998755
 50
63.545492384774128
 51
164.99999999997121
  0
LINE
  5
BE1
  8
SAPA_FOGBAND
 10
90.987145931140446
 20
238.68792442315981
 30
0.0
 11
90.919686021830046
 21
238.436160614139
 31
0.0
  0
LINE
  5
BE2
  8
SAPA_FOGBAND
 10
90.919686021830046
 20
238.436160614139
 30
0.0
 11
89.978260604947934
 21
238.436160614139
 31
0.0
  0
ARC
  5
BE3
  8
SAPA_FOGBAND
 10
89.978260604947934
 20
238.936160614139
 30
0.0
 40
0.5
 50
180.0
 51
270.0
  0
LINE
  5
BE4
  8
SAPA_FOGBAND
 10
89.478260604947934
 20
238.936160614139
 30
0.0
 11
89.478260604948176
 21
241.96426016487371
 31
0.0
  0
ARC
  5
BE5
  8
SAPA_FOGBAND
 10
88.478260604947863
 20
241.96426016487359
 30
0.0
 40
1.000000000000298
 50
0.0000000000032569
 51
37.638288731683183
  0
LINE
  5
BE6
  8
SAPA_FOGBAND
 10
89.270142333111551
 20
242.57493465148741
 30
0.0
 11
83.875557248255689
 21
251.9428250419644
 31
0.0
  0
ARC
  5
BE7
  8
SAPA_FOGBAND
 10
83.479616384173923
 20
251.6374877986573
 30
0.0
 40
0.5000000000001731
 50
37.638288731701543
 51
90.000000000017906
  0
LINE
  5
BE8
  8
SAPA_FOGBAND
 10
83.479616384173767
 20
252.1374877986575
 30
0.0
 11
81.248872827736179
 21
252.1374877986575
 31
0.0
  0
ARC
  5
BE9
  8
SAPA_FOGBAND
 10
81.248872827736264
 20
251.1374877986577
 30
0.0
 40
0.9999999999998578
 50
90.000000000003254
 51
173.76104442553279
  0
LINE
  5
BEA
  8
SAPA_FOGBAND
 10
80.254795522630445
 20
251.24616305560841
 30
0.0
 11
79.478260604947707
 21
245.64169429531171
 31
0.0
  0
LINE
  5
BEB
  8
SAPA_FOGBAND
 10
79.478260604947707
 20
245.64169429531171
 30
0.0
 11
79.478260604947707
 21
231.93616063608829
 31
0.0
  0
ARC
  5
BEC
  8
SAPA_FOGBAND
 10
79.778260604947803
 20
231.93616063608829
 30
0.0
 40
0.3000000000000966
 50
179.99999999999449
 51
272.25562273226871
  0
LINE
  5
BED
  8
SAPA_FOGBAND
 10
79.790067967478478
 20
231.63639308249029
 30
0.0
 11
89.190067967479024
 21
232.1242328971596
 31
0.0
  0
ARC
  5
BEE
  8
SAPA_FOGBAND
 10
89.178260604948164
 20
232.42400045075749
 30
0.0
 40
0.2999999999999963
 50
272.25562273230207
 51
0.0000000000271407
  0
LINE
  5
BEF
  8
SAPA_FOGBAND
 10
89.478260604948176
 20
232.4240004507576
 30
0.0
 11
89.478260604947934
 21
234.936160614139
 31
0.0
  0
ARC
  5
BF0
  8
SAPA_FOGBAND
 10
89.978260604948048
 20
234.93616061413911
 30
0.0
 40
0.5000000000001137
 50
90.000000000013031
 51
180.00000000001299
  0
LINE
  5
BF1
  8
SAPA_FOGBAND
 10
89.978260604947934
 20
235.43616061413931
 30
0.0
 11
90.919686021830046
 21
235.43616061413931
 31
0.0
  0
LINE
  5
BF2
  8
SAPA_FOGBAND
 10
90.919686021830046
 20
235.43616061413931
 30
0.0
 11
90.987145931140446
 21
235.18439680511869
 31
0.0
  0
LINE
  5
BF3
  8
SAPA_FOGBAND
 10
91.392891102586816
 20
237.83616061413909
 30
0.0
 11
90.792891102586907
 21
237.83616061413909
 31
0.0
  0
ARC
  5
BF4
  8
SAPA_FOGBAND
 10
90.792891102586907
 20
236.936160614139
 30
0.0
 40
0.900000000000091
 50
90.0
 51
270.0
  0
LINE
  5
BF5
  8
SAPA_FOGBAND
 10
90.792891102586907
 20
236.03616061413891
 30
0.0
 11
91.392891102586816
 21
236.03616061413891
 31
0.0
  0
ARC
  5
BF6
  8
SAPA_FOGBAND
 10
91.392891102586816
 20
236.936160614139
 30
0.0
 40
0.900000000000091
 50
270.0
 51
90.0
  0
LINE
  5
BF7
  8
SAPA_FOGBAND
 10
89.478260604948176
 20
233.33616061413909
 30
0.0
 11
89.178260604948207
 21
233.33616061413909
 31
0.0
  0
ARC
  5
BF8
  8
SAPA_FOGBAND
 10
89.178260604948207
 20
233.83616061413909
 30
0.0
 40
0.5
 50
180.0
 51
270.0
  0
LINE
  5
BF9
  8
SAPA_FOGBAND
 10
88.678260604948207
 20
233.83616061413909
 30
0.0
 11
88.678260604948207
 21
241.1361606141393
 31
0.0
  0
ARC
  5
BFA
  8
SAPA_FOGBAND
 10
89.178260604948207
 20
241.1361606141393
 30
0.0
 40
0.5
 50
90.0
 51
180.0
  0
LINE
  5
BFB
  8
SAPA_FOGBAND
 10
89.178260604948207
 20
241.6361606141393
 30
0.0
 11
89.478260604948176
 21
241.63616061413879
 31
0.0
  0
LINE
  5
BFC
  8
SAPA_FOGBAND
 10
81.024935738985221
 20
248.2461630336596
 30
0.0
 11
80.532983399095144
 21
245.24483587109009
 31
0.0
  0
ARC
  5
BFD
  8
SAPA_FOGBAND
 10
81.527060704201332
 20
245.1361606141391
 30
0.0
 40
1.0000000000002749
 50
173.76104442551741
 51
269.99999999998778
  0
LINE
  5
BFE
  8
SAPA_FOGBAND
 10
81.527060704201119
 20
244.13616061413879
 30
0.0
 11
85.128112858358179
 21
244.13616061413879
 31
0.0
  0
ARC
  5
BFF
  8
SAPA_FOGBAND
 10
85.128112858358023
 20
245.13616061413899
 30
0.0
 40
1.0000000000001701
 50
270.00000000000898
 51
37.638288731688149
  0
LINE
  5
C00
  8
SAPA_FOGBAND
 10
85.919994586521568
 20
245.74683510075289
 30
0.0
 11
83.444959264004581
 21
248.748162263322
 31
0.0
  0
ARC
  5
C01
  8
SAPA_FOGBAND
 10
82.653077535840978
 20
248.1374877767083
 30
0.0
 40
1.000000000000141
 50
37.638288731679722
 51
90.00000000000081
  0
LINE
  5
C02
  8
SAPA_FOGBAND
 10
82.653077535840964
 20
249.1374877767085
 30
0.0
 11
82.019013044090954
 21
249.13748777670821
 31
0.0
  0
ARC
  5
C03
  8
SAPA_FOGBAND
 10
82.019013044090784
 20
248.13748777670861
 30
0.0
 40
0.9999999999996305
 50
89.999999999989413
 51
173.76104442551829
  0
LINE
  5
C26
  8
SAPA_PROFIL
 10
27.45136736677355
 20
-2.3269019692880262
 30
0.0
 11
28.590589812288119
 21
-1.91225890891277
 31
0.0
  0
ARC
  5
C27
  8
SAPA_PROFIL
 10
28.41957974062543
 20
-1.4424125985198879
 30
0.0
 40
0.4999999999998833
 50
289.99999999998761
 51
19.999999999987569
  0
LINE
  5
C28
  8
SAPA_PROFIL
 10
28.889426051018312
 20
-1.271402526857196
 30
0.0
 11
26.426881019073729
 21
5.4943843428007471
 31
0.0
  0
ARC
  5
C29
  8
SAPA_PROFIL
 10
28.7761125710385
 20
6.3494347011149141
 30
0.0
 40
2.4999999999999969
 50
109.9999999999998
 51
199.99999999999989
  0
LINE
  5
C2A
  8
SAPA_PROFIL
 10
27.92106221272433
 20
8.6986662530796846
 30
0.0
 11
39.197373662155172
 21
12.802907972987811
 31
0.0
  0
ARC
  5
C2B
  8
SAPA_PROFIL
 10
40.052424020469431
 20
10.45367642102322
 30
0.0
 40
2.4999999999998672
 50
19.999999999999471
 51
110.0000000000034
  0
LINE
  5
C2C
  8
SAPA_PROFIL
 10
42.40165557243408
 20
11.30872677933732
 30
0.0
 11
44.864200604378588
 21
4.5429399096792951
 31
0.0
  0
ARC
  5
C2D
  8
SAPA_PROFIL
 10
45.33404691477169
 20
4.713949981342159
 30
0.0
 40
0.5000000000001553
 50
199.99999999999699
 51
289.9999999999971
  0
LINE
  5
C2E
  8
SAPA_PROFIL
 10
45.50505698643456
 20
4.2441036709490501
 30
0.0
 11
48.089211693596347
 21
5.1846590650950812
 31
0.0
  0
ARC
  5
C2F
  8
SAPA_PROFIL
 10
44.66901026033905
 20
14.581585272953919
 30
0.0
 40
9.9999999999999751
 50
290.00000000000381
 51
20.00000000000011
  0
LINE
  5
C30
  8
SAPA_PROFIL
 10
54.06593646819811
 20
18.001786706210609
 30
0.0
 11
51.671795464918453
 21
24.579635051711978
 31
0.0
  0
ARC
  5
C31
  8
SAPA_PROFIL
 10
62.478260603956379
 20
28.512866699957168
 30
0.0
 40
11.499999999999989
 50
19.999999999999702
 51
200.0
  0
ARC
  5
C32
  8
SAPA_PROFIL
 10
79.040343045307878
 20
34.540971726071973
 30
0.0
 40
6.1249999999998401
 50
200.0
 51
20.00000000000006
  0
ARC
  5
C33
  8
SAPA_PROFIL
 10
62.478260603956898
 20
28.51286669995871
 30
0.0
 40
23.74999999999865
 50
19.99999999999682
 51
59.166710716118921
  0
ARC
  5
C34
  8
SAPA_PROFIL
 10
58.39358413028387
 20
19.04487910791438
 30
0.0
 40
33.999999999959591
 50
61.434500649739071
 51
83.773949964552443
  0
LINE
  5
C35
  8
SAPA_PROFIL
 10
62.080929829697268
 20
52.844338891914909
 30
0.0
 11
45.733125854056098
 21
46.894224849162761
 31
0.0
  0
ARC
  5
C36
  8
SAPA_PROFIL
 10
73.842632244487433
 20
24.803050857019219
 30
0.0
 40
35.751423997721538
 50
141.8363046578998
 51
161.873480821843
  0
ARC
  5
C37
  8
SAPA_PROFIL
 10
62.298958860715672
 20
28.128352870726371
 30
0.0
 40
23.749999999996419
 50
160.8332892838834
 51
176.4218215218047
  0
ARC
  5
C38
  8
SAPA_PROFIL
 10
38.096232531457403
 20
29.641805291797869
 30
0.0
 40
0.499999999999841
 50
289.99999999998062
 51
356.42182152175951
  0
LINE
  5
C39
  8
SAPA_PROFIL
 10
38.267242603120017
 20
29.171958981405009
 30
0.0
 11
37.774366419242497
 21
28.99256672129486
 31
0.0
  0
ARC
  5
C3A
  8
SAPA_PROFIL
 10
37.945376490905403
 20
28.522720410901961
 30
0.0
 40
0.4999999999999706
 50
110.000000000009
 51
200.00000000000259
  0
LINE
  5
C3B
  8
SAPA_PROFIL
 10
37.475530180512493
 20
28.351710339239109
 30
0.0
 11
38.467388596156937
 21
25.626601738959948
 31
0.0
  0
ARC
  5
C3C
  8
SAPA_PROFIL
 10
38.185480809921209
 20
25.523995695962221
 30
0.0
 40
0.2999999999999762
 50
290.0000000000087
 51
20.00000000000863
  0
LINE
  5
C3D
  8
SAPA_PROFIL
 10
38.288086852918951
 20
25.242087909726489
 30
0.0
 11
19.858520184943941
 21
18.534274212158859
 31
0.0
  0
POLYLINE
  5
E7F
  8
SAPA_PROFIL
 66
     1
 10
0.0
 20
0.0
 30
0.0
 70
     1
  0
VERTEX
  5
18EC
  8
SAPA_PROFIL
 10
30.676735677144709
 20
233.33748779865391
 30
0.0
 42
-0.4142135623730941
  0
VERTEX
  5
18ED
  8
SAPA_PROFIL
 10
29.676735677144698
 20
234.33748779865391
 30
0.0
  0
VERTEX
  5
18EE
  8
SAPA_PROFIL
 10
29.676735677144549
 20
270.92621796143288
 30
0.0
 42
-0.198912367379658
  0
VERTEX
  5
18EF
  8
SAPA_PROFIL
 10
29.969628895958031
 20
271.63332474261949
 30
0.0
  0
VERTEX
  5
18F0
  8
SAPA_PROFIL
 10
39.585923986348362
 20
281.24961983301
 30
0.0
 42
-0.1989123673796596
  0
VERTEX
  5
18F1
  8
SAPA_PROFIL
 10
39.798056020704323
 20
281.33748779865402
 30
0.0
  0
VERTEX
  5
18F2
  8
SAPA_PROFIL
 10
40.775624977251439
 20
281.33748779865402
 30
0.0
  0
VERTEX
  5
18F3
  8
SAPA_PROFIL
 10
41.583915354116989
 20
279.93748779865388
 30
0.0
 42
0.4142135623730646
  0
VERTEX
  5
18F4
  8
SAPA_PROFIL
 10
42.676735677144457
 20
279.64466747562642
 30
0.0
  0
VERTEX
  5
18F5
  8
SAPA_PROFIL
 10
43.876735677144502
 20
280.33748779865402
 30
0.0
  0
VERTEX
  5
18F6
  8
SAPA_PROFIL
 10
43.876735677144502
 20
281.33748779865402
 30
0.0
  0
VERTEX
  5
18F7
  8
SAPA_PROFIL
 10
46.476735677144532
 20
281.33748779865402
 30
0.0
 42
0.4142135623730951
  0
VERTEX
  5
18F8
  8
SAPA_PROFIL
 10
46.976735677144532
 20
281.83748779865402
 30
0.0
  0
VERTEX
  5
18F9
  8
SAPA_PROFIL
 10
46.976735677144639
 20
282.23748779865389
 30
0.0
  0
VERTEX
  5
18FA
  8
SAPA_PROFIL
 10
46.676735677144578
 20
282.53748779865379
 30
0.0
  0
VERTEX
  5
18FB
  8
SAPA_PROFIL
 10
39.590949239517627
 20
282.53748779865379
 30
0.0
 42
0.1989123673796596
  0
VERTEX
  5
18FC
  8
SAPA_PROFIL
 10
38.883842458331067
 20
282.2445945798404
 30
0.0
  0
VERTEX
  5
18FD
  8
SAPA_PROFIL
 10
28.711050252195569
 20
272.07180237370471
 30
0.0
 42
0.1989123673796587
  0
VERTEX
  5
18FE
  8
SAPA_PROFIL
 10
28.47673567714477
 20
271.5061169487555
 30
0.0
  0
VERTEX
  5
18FF
  8
SAPA_PROFIL
 10
28.476735677144521
 20
232.63748779865409
 30
0.0
 42
0.4142135623730966
  0
VERTEX
  5
1900
  8
SAPA_PROFIL
 10
28.976735677144521
 20
232.13748779865409
 30
0.0
  0
VERTEX
  5
1901
  8
SAPA_PROFIL
 10
46.676735677144592
 20
232.13748779865409
 30
0.0
  0
VERTEX
  5
1902
  8
SAPA_PROFIL
 10
46.97673567714466
 20
232.43748779865399
 30
0.0
  0
VERTEX
  5
1903
  8
SAPA_PROFIL
 10
46.976735677144539
 20
232.83748779865391
 30
0.0
 42
0.4142135623730951
  0
VERTEX
  5
1904
  8
SAPA_PROFIL
 10
46.476735677144553
 20
233.33748779865391
 30
0.0
  0
VERTEX
  5
1905
  8
SAPA_PROFIL
 10
43.876735677144517
 20
233.33748779865391
 30
0.0
  0
VERTEX
  5
1906
  8
SAPA_PROFIL
 10
43.876735677144517
 20
234.33748779865391
 30
0.0
  0
VERTEX
  5
1907
  8
SAPA_PROFIL
 10
42.676735677144478
 20
235.03030812168149
 30
0.0
 42
0.4142135623730646
  0
VERTEX
  5
1908
  8
SAPA_PROFIL
 10
41.583915354117011
 20
234.737487798654
 30
0.0
  0
VERTEX
  5
1909
  8
SAPA_PROFIL
 10
40.775624977251447
 20
233.33748779865391
 30
0.0
  0
SEQEND
  5
190A
  8
SAPA_PROFIL
  0
LINE
  5
E80
  8
SAPA_PROFIL
 10
48.478260604947593
 20
280.4374877986541
 30
0.0
 11
48.478260604947593
 21
277.98748779865417
 31
0.0
  0
ARC
  5
E81
  8
SAPA_PROFIL
 10
47.978260604947593
 20
280.4374877986541
 30
0.0
 40
0.5
 50
0.0
 51
90.0
  0
LINE
  5
E82
  8
SAPA_PROFIL
 10
44.278260604947768
 20
280.9374877986545
 30
0.0
 11
47.978260604947593
 21
280.93748779865399
 31
0.0
  0
ARC
  5
E83
  8
SAPA_PROFIL
 10
44.278260604947768
 20
280.63748779865432
 30
0.0
 40
0.3000000000001819
 50
90.0
 51
180.0
  0
LINE
  5
E84
  8
SAPA_PROFIL
 10
43.978260604947593
 20
279.61069287941132
 30
0.0
 11
43.978260604947593
 21
280.63748779865432
 31
0.0
  0
ARC
  5
E85
  8
SAPA_PROFIL
 10
43.678260604947667
 20
279.61069287941137
 30
0.0
 40
0.2999999999999189
 50
299.99999999997101
 51
359.99999999997829
  0
LINE
  5
E86
  8
SAPA_PROFIL
 10
42.291177117407237
 20
278.46344969297769
 30
0.0
 11
43.828260604947502
 21
279.35088525827609
 31
0.0
  0
ARC
  5
E87
  8
SAPA_PROFIL
 10
42.141177117407139
 20
278.72325731411291
 30
0.0
 40
0.2999999999999112
 50
210.00000000001731
 51
300.00000000003308
  0
LINE
  5
E88
  8
SAPA_PROFIL
 10
41.574137401244627
 20
279.10539891241638
 30
0.0
 11
41.881369496271923
 21
278.57325731411288
 31
0.0
  0
ARC
  5
E89
  8
SAPA_PROFIL
 10
40.708111997460463
 20
278.60539891241638
 30
0.0
 40
0.9999999999997291
 50
30.000000000005059
 51
130.0000000000276
  0
LINE
  5
E8A
  8
SAPA_PROFIL
 10
35.156866800104638
 20
275.25275840407107
 30
0.0
 11
40.065324387773721
 21
279.37144335553489
 31
0.0
  0
ARC
  5
E8B
  8
SAPA_PROFIL
 10
35.4782606049476
 20
274.8697361825113
 30
0.0
 40
0.5000000000000071
 50
129.99999999995231
 51
179.99999999994131
  0
LINE
  5
E8C
  8
SAPA_PROFIL
 10
34.978260604947593
 20
266.83769533686359
 30
0.0
 11
34.978260604947593
 21
274.86973618251182
 31
0.0
  0
ARC
  5
E8D
  8
SAPA_PROFIL
 10
35.978260604947728
 20
266.83769533686359
 30
0.0
 40
1.0000000000001179
 50
180.00000000000321
 51
250.0000000000046
  0
LINE
  5
E8E
  8
SAPA_PROFIL
 10
39.320280748273547
 20
264.55712170989932
 30
0.0
 11
35.636240461622087
 21
265.8980027160776
 31
0.0
  0
ARC
  5
E8F
  8
SAPA_PROFIL
 10
38.978260604947899
 20
263.61742908911322
 30
0.0
 40
1.000000000000149
 50
0.0000000000065138
 51
70.00000000000496
  0
LINE
  5
E90
  8
SAPA_PROFIL
 10
39.978260604948048
 20
250.65754650819491
 30
0.0
 11
39.978260604948048
 21
263.61742908911327
 31
0.0
  0
ARC
  5
E91
  8
SAPA_PROFIL
 10
38.978260604947899
 20
250.657546508195
 30
0.0
 40
1.0000000000001501
 50
289.99999999999562
 51
359.99999999999511
  0
LINE
  5
E92
  8
SAPA_PROFIL
 10
35.636240461622087
 20
248.37697288123019
 30
0.0
 11
39.320280748273547
 21
249.71785388740889
 31
0.0
  0
ARC
  5
E93
  8
SAPA_PROFIL
 10
35.978260604947728
 20
247.43728026044411
 30
0.0
 40
1.000000000000135
 50
109.9999999999948
 51
179.99999999999511
  0
LINE
  5
E94
  8
SAPA_PROFIL
 10
34.978260604947593
 20
239.4052394147964
 30
0.0
 11
34.978260604947593
 21
247.4372802604442
 31
0.0
  0
ARC
  5
E95
  8
SAPA_PROFIL
 10
35.47826060494809
 20
239.40523941479671
 30
0.0
 40
0.5000000000005072
 50
180.00000000003249
 51
230.0000000000214
  0
LINE
  5
E96
  8
SAPA_PROFIL
 10
40.065324387773721
 20
234.90353224177281
 30
0.0
 11
35.156866800104638
 21
239.02221719323671
 31
0.0
  0
ARC
  5
E97
  8
SAPA_PROFIL
 10
40.708111997460271
 20
235.66957668489161
 30
0.0
 40
0.9999999999998003
 50
229.99999999999019
 51
330.00000000001029
  0
LINE
  5
E98
  8
SAPA_PROFIL
 10
41.881369496271923
 20
235.70171828319491
 30
0.0
 11
41.574137401244627
 21
235.16957668489181
 31
0.0
  0
ARC
  5
E99
  8
SAPA_PROFIL
 10
42.141177117407359
 20
235.55171828319499
 30
0.0
 40
0.2999999999999931
 50
60.000000000026191
 51
150.00000000004201
  0
LINE
  5
E9A
  8
SAPA_PROFIL
 10
43.828260604947502
 20
234.92409033903209
 30
0.0
 11
42.291177117407237
 21
235.81152590433041
 31
0.0
  0
ARC
  5
E9B
  8
SAPA_PROFIL
 10
43.67826060494766
 20
234.66428271789681
 30
0.0
 40
0.2999999999999332
 50
0.0000000000217126
 51
60.000000000026638
  0
LINE
  5
E9C
  8
SAPA_PROFIL
 10
43.978260604947593
 20
233.63748779865341
 30
0.0
 11
43.978260604947593
 21
234.66428271789681
 31
0.0
  0
ARC
  5
E9D
  8
SAPA_PROFIL
 10
44.27826060494754
 20
233.63748779865361
 30
0.0
 40
0.2999999999999545
 50
180.0000000000434
 51
270.00000000004343
  0
LINE
  5
E9E
  8
SAPA_PROFIL
 10
47.978260604947593
 20
233.33748779865371
 30
0.0
 11
44.278260604947768
 21
233.33748779865371
 31
0.0
  0
ARC
  5
E9F
  8
SAPA_PROFIL
 10
47.978260604947593
 20
233.83748779865371
 30
0.0
 40
0.5
 50
270.0
 51
0.0
  0
LINE
  5
EA0
  8
SAPA_PROFIL
 10
48.478260604947593
 20
236.28748779865401
 30
0.0
 11
48.478260604947593
 21
233.83748779865371
 31
0.0
  0
ARC
  5
EA1
  8
SAPA_PROFIL
 10
48.178260604947909
 20
236.2874877986541
 30
0.0
 40
0.2999999999996829
 50
359.99999999997829
 51
44.999999999990401
  0
LINE
  5
EA2
  8
SAPA_PROFIL
 10
47.990392639303593
 20
236.89961983300989
 30
0.0
 11
48.390392639303677
 21
236.4996198330098
 31
0.0
  0
ARC
  5
EA3
  8
SAPA_PROFIL
 10
47.778260604947697
 20
236.68748779865371
 30
0.0
 40
0.3000000000001037
 50
45.000000000039329
 51
180.0000000000162
  0
LINE
  5
EA4
  8
SAPA_PROFIL
 10
47.478260604947593
 20
235.83748779865371
 30
0.0
 11
47.478260604947593
 21
236.68748779865359
 31
0.0
  0
ARC
  5
EA5
  8
SAPA_PROFIL
 10
46.978260604947543
 20
235.8374877986538
 30
0.0
 40
0.500000000000057
 50
270.00000000000648
 51
359.99999999999352
  0
LINE
  5
EA6
  8
SAPA_PROFIL
 10
46.587451675227442
 20
235.33748779865411
 30
0.0
 11
46.978260604947593
 21
235.33748779865371
 31
0.0
  0
ARC
  5
EA7
  8
SAPA_PROFIL
 10
46.587451675227477
 20
235.63748779865389
 30
0.0
 40
0.2999999999997524
 50
229.9999999999967
 51
269.99999999999193
  0
LINE
  5
EA8
  8
SAPA_PROFIL
 10
44.585424322041987
 20
236.9257660255191
 30
0.0
 11
46.394615392321668
 21
235.4076744657184
 31
0.0
  0
ARC
  5
EA9
  8
SAPA_PROFIL
 10
44.778260604947761
 20
237.15557935845459
 30
0.0
 40
0.2999999999997129
 50
180.0000000000054
 51
230.000000000005
  0
LINE
  5
EAA
  8
SAPA_PROFIL
 10
44.478260604947593
 20
240.68748779865359
 30
0.0
 11
44.478260604948041
 21
237.15557935845459
 31
0.0
  0
ARC
  5
EAB
  8
SAPA_PROFIL
 10
44.778260604947768
 20
240.68748779865359
 30
0.0
 40
0.3000000000001819
 50
90.0
 51
180.0
  0
LINE
  5
EAC
  8
SAPA_PROFIL
 10
47.178260604947859
 20
240.9874877986538
 30
0.0
 11
44.778260604947768
 21
240.9874877986538
 31
0.0
  0
ARC
  5
EAD
  8
SAPA_PROFIL
 10
47.178260604947639
 20
240.68748779865379
 30
0.0
 40
0.2999999999999545
 50
359.99999999995657
 51
89.999999999956557
  0
LINE
  5
EAE
  8
SAPA_PROFIL
 10
47.478260604947593
 20
240.28748779865401
 30
0.0
 11
47.478260604947593
 21
240.68748779865359
 31
0.0
  0
ARC
  5
EAF
  8
SAPA_PROFIL
 10
47.778260604947661
 20
240.28748779865381
 30
0.0
 40
0.3000000000000898
 50
179.9999999999728
 51
314.99999999997209
  0
LINE
  5
EB0
  8
SAPA_PROFIL
 10
48.390392639303677
 20
240.4753557642978
 30
0.0
 11
47.990392639303593
 21
240.07535576429771
 31
0.0
  0
ARC
  5
EB1
  8
SAPA_PROFIL
 10
48.17826060494783
 20
240.68748779865351
 30
0.0
 40
0.2999999999997627
 50
315.00000000001631
 51
0.0000000000162844
  0
LINE
  5
EB2
  8
SAPA_PROFIL
 10
48.478260604948048
 20
242.4874877986538
 30
0.0
 11
48.478260604947593
 21
240.68748779865359
 31
0.0
  0
ARC
  5
EB3
  8
SAPA_PROFIL
 10
47.978260604948069
 20
242.4874877986538
 30
0.0
 40
0.4999999999999716
 50
359.99999999999682
 51
90.000000000003226
  0
LINE
  5
EB4
  8
SAPA_PROFIL
 10
43.478260604947131
 20
242.9874877986538
 30
0.0
 11
47.978260604948048
 21
242.9874877986538
 31
0.0
  0
ARC
  5
EB5
  8
SAPA_PROFIL
 10
43.478260604947131
 20
242.4874877986538
 30
0.0
 40
0.5
 50
90.0
 51
180.0
  0
LINE
  5
EB6
  8
SAPA_PROFIL
 10
42.978260604948048
 20
238.4874877986538
 30
0.0
 11
42.978260604947131
 21
242.4874877986538
 31
0.0
  0
ARC
  5
EB7
  8
SAPA_PROFIL
 10
42.478260604947927
 20
238.48748779865389
 30
0.0
 40
0.5000000000001137
 50
270.00000000001302
 51
359.99999999998698
  0
LINE
  5
EB8
  8
SAPA_PROFIL
 10
40.461303957744398
 20
237.9874877986538
 30
0.0
 11
42.478260604948041
 21
237.9874877986538
 31
0.0
  0
ARC
  5
EB9
  8
SAPA_PROFIL
 10
40.461303957744612
 20
238.487487798654
 30
0.0
 40
0.5000000000002249
 50
229.99999999996871
 51
269.9999999999755
  0
LINE
  5
EBA
  8
SAPA_PROFIL
 10
37.656866800104638
 20
240.18798633862411
 30
0.0
 11
40.139910152900988
 21
238.10446557709449
 31
0.0
  0
ARC
  5
EBB
  8
SAPA_PROFIL
 10
37.978260604947863
 20
240.5710085601834
 30
0.0
 40
0.4999999999998082
 50
180.00000000000321
 51
229.9999999999896
  0
LINE
  5
EBC
  8
SAPA_PROFIL
 10
37.478260604947593
 20
246.56895407026261
 30
0.0
 11
37.478260604948048
 21
240.5710085601834
 31
0.0
  0
ARC
  5
EBD
  8
SAPA_PROFIL
 10
37.97826060494782
 20
246.56895407026269
 30
0.0
 40
0.5000000000002208
 50
110.0000000000081
 51
180.00000000000969
  0
LINE
  5
EBE
  8
SAPA_PROFIL
 10
41.820280748273539
 20
248.4994239281225
 30
0.0
 11
37.807250533284851
 21
247.03880038065591
 31
0.0
  0
ARC
  5
EBF
  8
SAPA_PROFIL
 10
41.478260604947877
 20
249.4391165489086
 30
0.0
 40
1.0000000000001701
 50
289.9999999999967
 51
359.99999999999511
  0
LINE
  5
EC0
  8
SAPA_PROFIL
 10
42.478260604948041
 20
250.4874877986538
 30
0.0
 11
42.478260604948041
 21
249.43911654890849
 31
0.0
  0
ARC
  5
EC1
  8
SAPA_PROFIL
 10
42.77826060494791
 20
250.48748779865409
 30
0.0
 40
0.2999999999998692
 50
90.000000000027114
 51
180.00000000005971
  0
LINE
  5
EC2
  8
SAPA_PROFIL
 10
43.178260604947873
 20
250.78748779865401
 30
0.0
 11
42.778260604947768
 21
250.78748779865401
 31
0.0
  0
ARC
  5
EC3
  8
SAPA_PROFIL
 10
43.178260604947887
 20
251.08748779865411
 30
0.0
 40
0.3000000000001535
 50
269.9999999999946
 51
0.0000000000054281
  0
LINE
  5
EC4
  8
SAPA_PROFIL
 10
43.478260604948048
 20
251.4874877986538
 30
0.0
 11
43.478260604948048
 21
251.08748779865411
 31
0.0
  0
ARC
  5
EC5
  8
SAPA_PROFIL
 10
43.178260604947887
 20
251.4874877986538
 30
0.0
 40
0.3000000000001535
 50
359.99999999999449
 51
90.000000000005414
  0
LINE
  5
EC6
  8
SAPA_PROFIL
 10
42.778260604947768
 20
251.78748779865401
 30
0.0
 11
43.178260604947873
 21
251.78748779865401
 31
0.0
  0
ARC
  5
EC7
  8
SAPA_PROFIL
 10
42.778260604947953
 20
252.08748779865391
 30
0.0
 40
0.2999999999998977
 50
179.99999999994569
 51
269.99999999996737
  0
LINE
  5
EC8
  8
SAPA_PROFIL
 10
42.478260604948041
 20
256.5132237299419
 30
0.0
 11
42.478260604948041
 21
252.08748779865419
 31
0.0
  0
ARC
  5
EC9
  8
SAPA_PROFIL
 10
42.178260604947937
 20
256.51322372994139
 30
0.0
 40
0.3000000000000999
 50
0.0000000000977066
 51
45.000000000079638
  0
LINE
  5
ECA
  8
SAPA_PROFIL
 10
41.978260604948041
 20
257.13748779865392
 30
0.0
 11
42.390392639303677
 21
256.72535576429777
 31
0.0
  0
LINE
  5
ECB
  8
SAPA_PROFIL
 10
42.390392639303677
 20
257.54961983301001
 30
0.0
 11
41.978260604948041
 21
257.13748779865392
 31
0.0
  0
ARC
  5
ECC
  8
SAPA_PROFIL
 10
42.178260604947937
 20
257.76175186736629
 30
0.0
 40
0.3000000000001037
 50
314.99999999992042
 51
359.99999999990229
  0
LINE
  5
ECD
  8
SAPA_PROFIL
 10
42.478260604948041
 20
262.18748779865399
 30
0.0
 11
42.478260604948041
 21
257.76175186736577
 31
0.0
  0
ARC
  5
ECE
  8
SAPA_PROFIL
 10
42.778260604947711
 20
262.1874877986541
 30
0.0
 40
0.2999999999996703
 50
89.999999999989143
 51
180.0000000000108
  0
LINE
  5
ECF
  8
SAPA_PROFIL
 10
43.178260604947873
 20
262.48748779865377
 30
0.0
 11
42.778260604947768
 21
262.48748779865377
 31
0.0
  0
ARC
  5
ED0
  8
SAPA_PROFIL
 10
43.178260604947887
 20
262.78748779865401
 30
0.0
 40
0.3000000000001535
 50
269.9999999999946
 51
0.0
  0
LINE
  5
ED1
  8
SAPA_PROFIL
 10
43.478260604948048
 20
263.1874877986541
 30
0.0
 11
43.478260604948048
 21
262.78748779865401
 31
0.0
  0
ARC
  5
ED2
  8
SAPA_PROFIL
 10
43.178260604948107
 20
263.18748779865382
 30
0.0
 40
0.2999999999999545
 50
0.0000000000434252
 51
90.000000000048857
  0
LINE
  5
ED3
  8
SAPA_PROFIL
 10
42.778260604947768
 20
263.48748779865377
 30
0.0
 11
43.178260604947873
 21
263.48748779865377
 31
0.0
  0
ARC
  5
ED4
  8
SAPA_PROFIL
 10
42.77826060494791
 20
263.78748779865367
 30
0.0
 40
0.2999999999998692
 50
179.99999999994569
 51
269.99999999997289
  0
LINE
  5
ED5
  8
SAPA_PROFIL
 10
42.478260604948041
 20
264.8358590483997
 30
0.0
 11
42.478260604948041
 21
263.7874877986539
 31
0.0
  0
ARC
  5
ED6
  8
SAPA_PROFIL
 10
41.478260604947877
 20
264.83585904839958
 30
0.0
 40
1.0000000000001841
 50
0.0000000000065138
 51
70.000000000003809
  0
LINE
  5
ED7
  8
SAPA_PROFIL
 10
37.807250533284851
 20
267.23617521665233
 30
0.0
 11
41.820280748273539
 21
265.77555166918569
 31
0.0
  0
ARC
  5
ED8
  8
SAPA_PROFIL
 10
37.978260604947486
 20
267.70602152704532
 30
0.0
 40
0.4999999999999006
 50
180.0000000000195
 51
250.0000000000193
  0
LINE
  5
ED9
  8
SAPA_PROFIL
 10
37.478260604948048
 20
273.70396703712481
 30
0.0
 11
37.478260604947593
 21
267.7060215270451
 31
0.0
  0
ARC
  5
EDA
  8
SAPA_PROFIL
 10
37.978260604947863
 20
273.70396703712481
 30
0.0
 40
0.4999999999997904
 50
130.00000000001251
 51
180.0
  0
LINE
  5
EDB
  8
SAPA_PROFIL
 10
40.139910152900988
 20
276.17051002021321
 30
0.0
 11
37.656866800104638
 21
274.08698925868413
 31
0.0
  0
ARC
  5
EDC
  8
SAPA_PROFIL
 10
40.461303957744612
 20
275.78748779865367
 30
0.0
 40
0.5000000000002274
 50
90.000000000024414
 51
130.00000000003121
  0
LINE
  5
EDD
  8
SAPA_PROFIL
 10
42.478260604948041
 20
276.2874877986539
 30
0.0
 11
40.461303957744398
 21
276.2874877986539
 31
0.0
  0
ARC
  5
EDE
  8
SAPA_PROFIL
 10
42.478260604947927
 20
275.78748779865379
 30
0.0
 40
0.5000000000001137
 50
0.0000000000130276
 51
89.999999999986969
  0
LINE
  5
EDF
  8
SAPA_PROFIL
 10
42.978260604947131
 20
271.78748779865401
 30
0.0
 11
42.978260604948048
 21
275.78748779865401
 31
0.0
  0
ARC
  5
EE0
  8
SAPA_PROFIL
 10
43.478260604947131
 20
271.78748779865401
 30
0.0
 40
0.5
 50
180.0
 51
270.0
  0
LINE
  5
EE1
  8
SAPA_PROFIL
 10
47.978260604948048
 20
271.28748779865441
 30
0.0
 11
43.478260604947131
 21
271.28748779865401
 31
0.0
  0
ARC
  5
EE2
  8
SAPA_PROFIL
 10
47.978260604948069
 20
271.78748779865441
 30
0.0
 40
0.4999999999999716
 50
269.99999999999682
 51
0.0
  0
LINE
  5
EE3
  8
SAPA_PROFIL
 10
48.478260604947593
 20
273.58748779865419
 30
0.0
 11
48.478260604948048
 21
271.78748779865441
 31
0.0
  0
ARC
  5
EE4
  8
SAPA_PROFIL
 10
48.17826060494783
 20
273.58748779865419
 30
0.0
 40
0.2999999999997783
 50
359.99999999998909
 51
44.999999999987523
  0
LINE
  5
EE5
  8
SAPA_PROFIL
 10
47.990392639303593
 20
274.1996198330101
 30
0.0
 11
48.390392639303677
 21
273.79961983301001
 31
0.0
  0
ARC
  5
EE6
  8
SAPA_PROFIL
 10
47.778260604947569
 20
273.98748779865417
 30
0.0
 40
0.2999999999999829
 50
44.999999999980801
 51
179.99999999998909
  0
LINE
  5
EE7
  8
SAPA_PROFIL
 10
47.478260604947593
 20
273.58748779865419
 30
0.0
 11
47.478260604947593
 21
273.98748779865417
 31
0.0
  0
ARC
  5
EE8
  8
SAPA_PROFIL
 10
47.178260604947859
 20
273.58748779865419
 30
0.0
 40
0.2999999999997271
 50
270.0
 51
0.0
  0
LINE
  5
EE9
  8
SAPA_PROFIL
 10
44.778260604947768
 20
273.28748779865401
 30
0.0
 11
47.178260604947859
 21
273.28748779865441
 31
0.0
  0
ARC
  5
EEA
  8
SAPA_PROFIL
 10
44.778260604947768
 20
273.58748779865419
 30
0.0
 40
0.3000000000001819
 50
180.0
 51
270.0
  0
LINE
  5
EEB
  8
SAPA_PROFIL
 10
44.478260604948041
 20
277.11939623885308
 30
0.0
 11
44.478260604947593
 21
273.58748779865419
 31
0.0
  0
ARC
  5
EEC
  8
SAPA_PROFIL
 10
44.778260604948237
 20
277.11939623885331
 30
0.0
 40
0.3000000000001788
 50
130.00000000004121
 51
180.0000000000434
  0
LINE
  5
EED
  8
SAPA_PROFIL
 10
46.394615392321668
 20
278.86730113158978
 30
0.0
 11
44.585424322041987
 21
277.34920957178912
 31
0.0
  0
ARC
  5
EEE
  8
SAPA_PROFIL
 10
46.587451675227477
 20
278.63748779865432
 30
0.0
 40
0.2999999999997271
 50
90.000000000008114
 51
130.00000000000679
  0
LINE
  5
EEF
  8
SAPA_PROFIL
 10
46.978260604947593
 20
278.93748779865399
 30
0.0
 11
46.587451675227442
 21
278.93748779865399
 31
0.0
  0
ARC
  5
EF0
  8
SAPA_PROFIL
 10
46.978260604947543
 20
278.43748779865399
 30
0.0
 40
0.500000000000057
 50
0.0000000000065138
 51
89.999999999993491
  0
LINE
  5
EF1
  8
SAPA_PROFIL
 10
47.478260604947593
 20
277.58748779865419
 30
0.0
 11
47.478260604947593
 21
278.43748779865399
 31
0.0
  0
ARC
  5
EF2
  8
SAPA_PROFIL
 10
47.77826060494759
 20
277.58748779865419
 30
0.0
 40
0.2999999999999994
 50
180.00000000002171
 51
315.00000000000858
  0
LINE
  5
EF3
  8
SAPA_PROFIL
 10
48.390392639303677
 20
277.7753557642979
 30
0.0
 11
47.990392639303593
 21
277.37535576429832
 31
0.0
  0
ARC
  5
EF4
  8
SAPA_PROFIL
 10
48.178260604947361
 20
277.98748779865389
 30
0.0
 40
0.3000000000002316
 50
315.00000000005269
 51
0.0000000000651378
  0
POLYLINE
  5
EF5
  8
SAPA_PROFIL
 66
     1
 10
0.0
 20
0.0
 30
0.0
 70
     1
  0
VERTEX
  5
190B
  8
SAPA_PROFIL
 10
48.478260604947593
 20
277.98748779865417
 30
0.0
 42
-0.1989123673797145
  0
VERTEX
  5
190C
  8
SAPA_PROFIL
 10
48.390392639303677
 20
277.7753557642979
 30
0.0
  0
VERTEX
  5
190D
  8
SAPA_PROFIL
 10
47.990392639303593
 20
277.37535576429832
 30
0.0
 42
-0.668178637919182
  0
VERTEX
  5
190E
  8
SAPA_PROFIL
 10
47.478260604947593
 20
277.58748779865419
 30
0.0
  0
VERTEX
  5
190F
  8
SAPA_PROFIL
 10
47.478260604947593
 20
278.43748779865399
 30
0.0
 42
0.4142135623730284
  0
VERTEX
  5
1910
  8
SAPA_PROFIL
 10
46.978260604947593
 20
278.93748779865399
 30
0.0
  0
VERTEX
  5
1911
  8
SAPA_PROFIL
 10
46.587451675227442
 20
278.93748779865399
 30
0.0
 42
0.17632698070845
  0
VERTEX
  5
1912
  8
SAPA_PROFIL
 10
46.394615392321668
 20
278.86730113158978
 30
0.0
  0
VERTEX
  5
1913
  8
SAPA_PROFIL
 10
44.585424322041987
 20
277.34920957178912
 30
0.0
 42
0.2216946626429421
  0
VERTEX
  5
1914
  8
SAPA_PROFIL
 10
44.478260604948041
 20
277.11939623885308
 30
0.0
  0
VERTEX
  5
1915
  8
SAPA_PROFIL
 10
44.478260604947593
 20
273.58748779865419
 30
0.0
 42
0.4142135623730951
  0
VERTEX
  5
1916
  8
SAPA_PROFIL
 10
44.778260604947768
 20
273.28748779865401
 30
0.0
  0
VERTEX
  5
1917
  8
SAPA_PROFIL
 10
47.178260604947859
 20
273.28748779865441
 30
0.0
 42
0.4142135623730951
  0
VERTEX
  5
1918
  8
SAPA_PROFIL
 10
47.478260604947593
 20
273.58748779865419
 30
0.0
  0
VERTEX
  5
1919
  8
SAPA_PROFIL
 10
47.478260604947593
 20
273.98748779865417
 30
0.0
 42
-0.6681786379193188
  0
VERTEX
  5
191A
  8
SAPA_PROFIL
 10
47.990392639303593
 20
274.1996198330101
 30
0.0
  0
VERTEX
  5
191B
  8
SAPA_PROFIL
 10
48.390392639303677
 20
273.79961983301001
 30
0.0
 42
-0.198912367379658
  0
VERTEX
  5
191C
  8
SAPA_PROFIL
 10
48.478260604947593
 20
273.58748779865419
 30
0.0
  0
VERTEX
  5
191D
  8
SAPA_PROFIL
 10
48.478260604948048
 20
271.78748779865441
 30
0.0
 42
-0.4142135623731284
  0
VERTEX
  5
191E
  8
SAPA_PROFIL
 10
47.978260604948048
 20
271.28748779865441
 30
0.0
  0
VERTEX
  5
191F
  8
SAPA_PROFIL
 10
43.478260604947131
 20
271.28748779865401
 30
0.0
 42
-0.4142135623730951
  0
VERTEX
  5
1920
  8
SAPA_PROFIL
 10
42.978260604947131
 20
271.78748779865401
 30
0.0
  0
VERTEX
  5
1921
  8
SAPA_PROFIL
 10
42.978260604948048
 20
275.78748779865401
 30
0.0
 42
0.4142135623729619
  0
VERTEX
  5
1922
  8
SAPA_PROFIL
 10
42.478260604948041
 20
276.2874877986539
 30
0.0
  0
VERTEX
  5
1923
  8
SAPA_PROFIL
 10
40.461303957744398
 20
276.2874877986539
 30
0.0
 42
0.1763269807084973
  0
VERTEX
  5
1924
  8
SAPA_PROFIL
 10
40.139910152900988
 20
276.17051002021321
 30
0.0
  0
VERTEX
  5
1925
  8
SAPA_PROFIL
 10
37.656866800104638
 20
274.08698925868413
 30
0.0
 42
0.2216946626428772
  0
VERTEX
  5
1926
  8
SAPA_PROFIL
 10
37.478260604948048
 20
273.70396703712481
 30
0.0
  0
VERTEX
  5
1927
  8
SAPA_PROFIL
 10
37.478260604947593
 20
267.7060215270451
 30
0.0
 42
0.315298788878991
  0
VERTEX
  5
1928
  8
SAPA_PROFIL
 10
37.807250533284851
 20
267.23617521665233
 30
0.0
  0
VERTEX
  5
1929
  8
SAPA_PROFIL
 10
41.820280748273539
 20
265.77555166918569
 30
0.0
 42
-0.3152987888789731
  0
VERTEX
  5
192A
  8
SAPA_PROFIL
 10
42.478260604948041
 20
264.8358590483997
 30
0.0
  0
VERTEX
  5
192B
  8
SAPA_PROFIL
 10
42.478260604948041
 20
263.7874877986539
 30
0.0
 42
0.4142135623732616
  0
VERTEX
  5
192C
  8
SAPA_PROFIL
 10
42.778260604947768
 20
263.48748779865377
 30
0.0
  0
VERTEX
  5
192D
  8
SAPA_PROFIL
 10
43.178260604947873
 20
263.48748779865377
 30
0.0
 42
-0.4142135623731506
  0
VERTEX
  5
192E
  8
SAPA_PROFIL
 10
43.478260604948048
 20
263.1874877986541
 30
0.0
  0
VERTEX
  5
192F
  8
SAPA_PROFIL
 10
43.478260604948048
 20
262.78748779865401
 30
0.0
 42
-0.4142135623731505
  0
VERTEX
  5
1930
  8
SAPA_PROFIL
 10
43.178260604947873
 20
262.48748779865377
 30
0.0
  0
VERTEX
  5
1931
  8
SAPA_PROFIL
 10
42.778260604947768
 20
262.48748779865377
 30
0.0
 42
0.4142135623732061
  0
VERTEX
  5
1932
  8
SAPA_PROFIL
 10
42.478260604948041
 20
262.18748779865399
 30
0.0
  0
VERTEX
  5
1933
  8
SAPA_PROFIL
 10
42.478260604948041
 20
257.76175186736577
 30
0.0
 42
-0.198912367379577
  0
VERTEX
  5
1934
  8
SAPA_PROFIL
 10
42.390392639303677
 20
257.54961983301001
 30
0.0
  0
VERTEX
  5
1935
  8
SAPA_PROFIL
 10
41.978260604948041
 20
257.13748779865392
 30
0.0
  0
VERTEX
  5
1936
  8
SAPA_PROFIL
 10
42.390392639303677
 20
256.72535576429777
 30
0.0
 42
-0.1989123673795771
  0
VERTEX
  5
1937
  8
SAPA_PROFIL
 10
42.478260604948041
 20
256.5132237299419
 30
0.0
  0
VERTEX
  5
1938
  8
SAPA_PROFIL
 10
42.478260604948041
 20
252.08748779865411
 30
0.0
 42
0.4142135623732059
  0
VERTEX
  5
1939
  8
SAPA_PROFIL
 10
42.778260604947768
 20
251.7874877986539
 30
0.0
  0
VERTEX
  5
193A
  8
SAPA_PROFIL
 10
43.178260604947873
 20
251.7874877986539
 30
0.0
 42
-0.4142135623731506
  0
VERTEX
  5
193B
  8
SAPA_PROFIL
 10
43.478260604948048
 20
251.4874877986538
 30
0.0
  0
VERTEX
  5
193C
  8
SAPA_PROFIL
 10
43.478260604948048
 20
251.08748779865411
 30
0.0
 42
-0.4142135623731505
  0
VERTEX
  5
193D
  8
SAPA_PROFIL
 10
43.178260604947873
 20
250.78748779865401
 30
0.0
  0
VERTEX
  5
193E
  8
SAPA_PROFIL
 10
42.778260604947768
 20
250.78748779865401
 30
0.0
 42
0.4142135623732615
  0
VERTEX
  5
193F
  8
SAPA_PROFIL
 10
42.478260604948041
 20
250.4874877986538
 30
0.0
  0
VERTEX
  5
1940
  8
SAPA_PROFIL
 10
42.478260604948041
 20
249.43911654890849
 30
0.0
 42
-0.3152987888789731
  0
VERTEX
  5
1941
  8
SAPA_PROFIL
 10
41.820280748273539
 20
248.4994239281225
 30
0.0
  0
VERTEX
  5
1942
  8
SAPA_PROFIL
 10
37.807250533284851
 20
247.0388003806558
 30
0.0
 42
0.315298788878991
  0
VERTEX
  5
1943
  8
SAPA_PROFIL
 10
37.478260604947593
 20
246.56895407026261
 30
0.0
  0
VERTEX
  5
1944
  8
SAPA_PROFIL
 10
37.478260604948048
 20
240.5710085601834
 30
0.0
 42
0.2216946626428772
  0
VERTEX
  5
1945
  8
SAPA_PROFIL
 10
37.656866800104638
 20
240.18798633862411
 30
0.0
  0
VERTEX
  5
1946
  8
SAPA_PROFIL
 10
40.139910152900988
 20
238.10446557709449
 30
0.0
 42
0.1763269807084973
  0
VERTEX
  5
1947
  8
SAPA_PROFIL
 10
40.461303957744398
 20
237.9874877986538
 30
0.0
  0
VERTEX
  5
1948
  8
SAPA_PROFIL
 10
42.478260604948041
 20
237.9874877986538
 30
0.0
 42
0.4142135623729619
  0
VERTEX
  5
1949
  8
SAPA_PROFIL
 10
42.978260604948048
 20
238.4874877986538
 30
0.0
  0
VERTEX
  5
194A
  8
SAPA_PROFIL
 10
42.978260604947131
 20
242.4874877986538
 30
0.0
 42
-0.4142135623730951
  0
VERTEX
  5
194B
  8
SAPA_PROFIL
 10
43.478260604947131
 20
242.9874877986538
 30
0.0
  0
VERTEX
  5
194C
  8
SAPA_PROFIL
 10
47.978260604948048
 20
242.9874877986538
 30
0.0
 42
-0.4142135623731285
  0
VERTEX
  5
194D
  8
SAPA_PROFIL
 10
48.478260604948048
 20
242.4874877986538
 30
0.0
  0
VERTEX
  5
194E
  8
SAPA_PROFIL
 10
48.478260604947593
 20
240.68748779865359
 30
0.0
 42
-0.198912367379658
  0
VERTEX
  5
194F
  8
SAPA_PROFIL
 10
48.390392639303677
 20
240.4753557642978
 30
0.0
  0
VERTEX
  5
1950
  8
SAPA_PROFIL
 10
47.990392639303593
 20
240.07535576429771
 30
0.0
 42
-0.6681786379193188
  0
VERTEX
  5
1951
  8
SAPA_PROFIL
 10
47.478260604947593
 20
240.28748779865401
 30
0.0
  0
VERTEX
  5
1952
  8
SAPA_PROFIL
 10
47.478260604947593
 20
240.68748779865359
 30
0.0
 42
0.4142135623730951
  0
VERTEX
  5
1953
  8
SAPA_PROFIL
 10
47.178260604947859
 20
240.9874877986538
 30
0.0
  0
VERTEX
  5
1954
  8
SAPA_PROFIL
 10
44.778260604947768
 20
240.9874877986538
 30
0.0
 42
0.4142135623730951
  0
VERTEX
  5
1955
  8
SAPA_PROFIL
 10
44.478260604947593
 20
240.68748779865359
 30
0.0
  0
VERTEX
  5
1956
  8
SAPA_PROFIL
 10
44.478260604948041
 20
237.15557935845459
 30
0.0
 42
0.221694662642942
  0
VERTEX
  5
1957
  8
SAPA_PROFIL
 10
44.585424322041987
 20
236.9257660255191
 30
0.0
  0
VERTEX
  5
1958
  8
SAPA_PROFIL
 10
46.394615392321668
 20
235.4076744657184
 30
0.0
 42
0.1763269807084499
  0
VERTEX
  5
1959
  8
SAPA_PROFIL
 10
46.587451675227442
 20
235.33748779865411
 30
0.0
  0
VERTEX
  5
195A
  8
SAPA_PROFIL
 10
46.978260604947593
 20
235.33748779865371
 30
0.0
 42
0.4142135623730284
  0
VERTEX
  5
195B
  8
SAPA_PROFIL
 10
47.478260604947593
 20
235.83748779865371
 30
0.0
  0
VERTEX
  5
195C
  8
SAPA_PROFIL
 10
47.478260604947593
 20
236.68748779865359
 30
0.0
 42
-0.668178637919182
  0
VERTEX
  5
195D
  8
SAPA_PROFIL
 10
47.990392639303593
 20
236.89961983300989
 30
0.0
  0
VERTEX
  5
195E
  8
SAPA_PROFIL
 10
48.390392639303677
 20
236.4996198330098
 30
0.0
 42
-0.1989123673797144
  0
VERTEX
  5
195F
  8
SAPA_PROFIL
 10
48.478260604947593
 20
236.28748779865401
 30
0.0
  0
VERTEX
  5
1960
  8
SAPA_PROFIL
 10
48.478260604947593
 20
233.83748779865371
 30
0.0
 42
-0.4142135623730951
  0
VERTEX
  5
1961
  8
SAPA_PROFIL
 10
47.978260604947593
 20
233.33748779865371
 30
0.0
  0
VERTEX
  5
1962
  8
SAPA_PROFIL
 10
44.278260604947768
 20
233.33748779865371
 30
0.0
 42
-0.4142135623730951
  0
VERTEX
  5
1963
  8
SAPA_PROFIL
 10
43.978260604947593
 20
233.63748779865341
 30
0.0
  0
VERTEX
  5
1964
  8
SAPA_PROFIL
 10
43.978260604947593
 20
234.66428271789681
 30
0.0
 42
0.2679491924311428
  0
VERTEX
  5
1965
  8
SAPA_PROFIL
 10
43.828260604947502
 20
234.92409033903209
 30
0.0
  0
VERTEX
  5
1966
  8
SAPA_PROFIL
 10
42.291177117407237
 20
235.81152590433041
 30
0.0
 42
0.4142135623731709
  0
VERTEX
  5
1967
  8
SAPA_PROFIL
 10
41.881369496271923
 20
235.70171828319491
 30
0.0
  0
VERTEX
  5
1968
  8
SAPA_PROFIL
 10
41.574137401244627
 20
235.16957668489181
 30
0.0
 42
-0.4663076581551056
  0
VERTEX
  5
1969
  8
SAPA_PROFIL
 10
40.065324387773721
 20
234.90353224177281
 30
0.0
  0
VERTEX
  5
196A
  8
SAPA_PROFIL
 10
35.156866800104638
 20
239.02221719323671
 30
0.0
 42
-0.2216946626428921
  0
VERTEX
  5
196B
  8
SAPA_PROFIL
 10
34.978260604947593
 20
239.4052394147964
 30
0.0
  0
VERTEX
  5
196C
  8
SAPA_PROFIL
 10
34.978260604947593
 20
247.43728026044411
 30
0.0
 42
-0.3152987888789878
  0
VERTEX
  5
196D
  8
SAPA_PROFIL
 10
35.636240461622087
 20
248.3769728812301
 30
0.0
  0
VERTEX
  5
196E
  8
SAPA_PROFIL
 10
39.320280748273547
 20
249.71785388740889
 30
0.0
 42
0.3152987888789804
  0
VERTEX
  5
196F
  8
SAPA_PROFIL
 10
39.978260604948048
 20
250.65754650819491
 30
0.0
  0
VERTEX
  5
1970
  8
SAPA_PROFIL
 10
39.978260604948048
 20
263.61742908911327
 30
0.0
 42
0.3152987888789804
  0
VERTEX
  5
1971
  8
SAPA_PROFIL
 10
39.320280748273547
 20
264.55712170989932
 30
0.0
  0
VERTEX
  5
1972
  8
SAPA_PROFIL
 10
35.636240461622087
 20
265.8980027160776
 30
0.0
 42
-0.3152987888789877
  0
VERTEX
  5
1973
  8
SAPA_PROFIL
 10
34.978260604947593
 20
266.83769533686359
 30
0.0
  0
VERTEX
  5
1974
  8
SAPA_PROFIL
 10
34.978260604947593
 20
274.86973618251182
 30
0.0
 42
-0.2216946626428921
  0
VERTEX
  5
1975
  8
SAPA_PROFIL
 10
35.156866800104638
 20
275.25275840407107
 30
0.0
  0
VERTEX
  5
1976
  8
SAPA_PROFIL
 10
40.065324387773721
 20
279.37144335553489
 30
0.0
 42
-0.4663076581551056
  0
VERTEX
  5
1977
  8
SAPA_PROFIL
 10
41.574137401244627
 20
279.10539891241638
 30
0.0
  0
VERTEX
  5
1978
  8
SAPA_PROFIL
 10
41.881369496271923
 20
278.57325731411288
 30
0.0
 42
0.414213562373157
  0
VERTEX
  5
1979
  8
SAPA_PROFIL
 10
42.291177117407237
 20
278.46344969297769
 30
0.0
  0
VERTEX
  5
197A
  8
SAPA_PROFIL
 10
43.828260604947502
 20
279.35088525827609
 30
0.0
 42
0.2679491924311554
  0
VERTEX
  5
197B
  8
SAPA_PROFIL
 10
43.978260604947593
 20
279.61069287941132
 30
0.0
  0
VERTEX
  5
197C
  8
SAPA_PROFIL
 10
43.978260604947593
 20
280.63748779865432
 30
0.0
 42
-0.4142135623730951
  0
VERTEX
  5
197D
  8
SAPA_PROFIL
 10
44.278260604947768
 20
280.9374877986545
 30
0.0
  0
VERTEX
  5
197E
  8
SAPA_PROFIL
 10
47.978260604947593
 20
280.93748779865399
 30
0.0
 42
-0.4142135623730951
  0
VERTEX
  5
197F
  8
SAPA_PROFIL
 10
48.478260604947593
 20
280.4374877986541
 30
0.0
  0
SEQEND
  5
1980
  8
SAPA_PROFIL
  0
POLYLINE
  5
EF6
  8
SAPA_PROFIL
 66
     1
 10
0.0
 20
0.0
 30
0.0
 70
     1
  0
VERTEX
  5
1981
  8
SAPA_PROFIL
 10
91.928260603956971
 20
259.83748779865431
 30
0.0
  0
VERTEX
  5
1982
  8
SAPA_PROFIL
 10
93.304495197533285
 20
259.2142074953523
 30
0.0
 42
0.5450207798987328
  0
VERTEX
  5
1983
  8
SAPA_PROFIL
 10
93.728260603956926
 20
259.48748779865412
 30
0.0
  0
VERTEX
  5
1984
  8
SAPA_PROFIL
 10
93.728260603956926
 20
259.83748779865431
 30
0.0
  0
VERTEX
  5
1985
  8
SAPA_PROFIL
 10
93.978260603956926
 20
259.83748779865431
 30
0.0
 42
-0.4142135623730951
  0
VERTEX
  5
1986
  8
SAPA_PROFIL
 10
94.978260603956926
 20
258.83748779865419
 30
0.0
  0
VERTEX
  5
1987
  8
SAPA_PROFIL
 10
94.978260603956926
 20
255.43748779865419
 30
0.0
 42
-0.4142135623730951
  0
VERTEX
  5
1988
  8
SAPA_PROFIL
 10
93.978260603956926
 20
254.43748779865419
 30
0.0
  0
VERTEX
  5
1989
  8
SAPA_PROFIL
 10
92.828260603957062
 20
254.43748779865419
 30
0.0
  0
VERTEX
  5
198A
  8
SAPA_PROFIL
 10
92.828260603957062
 20
254.7874877986543
 30
0.0
 42
0.5450200690651551
  0
VERTEX
  5
198B
  8
SAPA_PROFIL
 10
92.404495603957059
 20
255.0607687986541
 30
0.0
  0
VERTEX
  5
198C
  8
SAPA_PROFIL
 10
91.028260603957108
 20
254.43748779865419
 30
0.0
  0
VERTEX
  5
198D
  8
SAPA_PROFIL
 10
91.028260603957108
 20
254.7874877986543
 30
0.0
 42
0.5450200690651692
  0
VERTEX
  5
198E
  8
SAPA_PROFIL
 10
90.604495603957105
 20
255.0607687986541
 30
0.0
  0
VERTEX
  5
198F
  8
SAPA_PROFIL
 10
89.228260603956926
 20
254.43748779865419
 30
0.0
  0
VERTEX
  5
1990
  8
SAPA_PROFIL
 10
89.228260603956926
 20
254.7874877986543
 30
0.0
 42
0.5450200690651619
  0
VERTEX
  5
1991
  8
SAPA_PROFIL
 10
88.804495603956923
 20
255.0607687986541
 30
0.0
  0
VERTEX
  5
1992
  8
SAPA_PROFIL
 10
87.428260603956986
 20
254.43748779865419
 30
0.0
  0
VERTEX
  5
1993
  8
SAPA_PROFIL
 10
87.428260603956986
 20
254.7874877986543
 30
0.0
 42
0.5450200690651619
  0
VERTEX
  5
1994
  8
SAPA_PROFIL
 10
87.004495603956954
 20
255.0607687986541
 30
0.0
  0
VERTEX
  5
1995
  8
SAPA_PROFIL
 10
85.628260603957017
 20
254.43748779865419
 30
0.0
  0
VERTEX
  5
1996
  8
SAPA_PROFIL
 10
85.628260603957017
 20
254.7874877986543
 30
0.0
 42
0.5450200690651692
  0
VERTEX
  5
1997
  8
SAPA_PROFIL
 10
85.204495603957014
 20
255.0607687986541
 30
0.0
  0
VERTEX
  5
1998
  8
SAPA_PROFIL
 10
83.828260603957048
 20
254.43748779865419
 30
0.0
  0
VERTEX
  5
1999
  8
SAPA_PROFIL
 10
83.528260603957108
 20
254.43748779865419
 30
0.0
  0
VERTEX
  5
199A
  8
SAPA_PROFIL
 10
83.528260603957108
 20
259.56575543216502
 30
0.0
  0
VERTEX
  5
199B
  8
SAPA_PROFIL
 10
84.304495197533285
 20
259.2142074953523
 30
0.0
 42
0.5450207798987328
  0
VERTEX
  5
199C
  8
SAPA_PROFIL
 10
84.728260603956926
 20
259.48748779865412
 30
0.0
  0
VERTEX
  5
199D
  8
SAPA_PROFIL
 10
84.728260603956926
 20
259.83748779865431
 30
0.0
  0
VERTEX
  5
199E
  8
SAPA_PROFIL
 10
86.104495603957105
 20
259.21420779865417
 30
0.0
 42
0.5450205149791638
  0
VERTEX
  5
199F
  8
SAPA_PROFIL
 10
86.528260603957094
 20
259.48748779865412
 30
0.0
  0
VERTEX
  5
19A0
  8
SAPA_PROFIL
 10
86.528260603957094
 20
259.83748779865431
 30
0.0
  0
VERTEX
  5
19A1
  8
SAPA_PROFIL
 10
87.904495197533436
 20
259.2142074953523
 30
0.0
 42
0.545020779898768
  0
VERTEX
  5
19A2
  8
SAPA_PROFIL
 10
88.328260603957062
 20
259.48748779865412
 30
0.0
  0
VERTEX
  5
19A3
  8
SAPA_PROFIL
 10
88.328260603957062
 20
259.83748779865431
 30
0.0
  0
VERTEX
  5
19A4
  8
SAPA_PROFIL
 10
89.70449519753339
 20
259.2142074953523
 30
0.0
 42
0.54502077989874
  0
VERTEX
  5
19A5
  8
SAPA_PROFIL
 10
90.128260603957017
 20
259.48748779865412
 30
0.0
  0
VERTEX
  5
19A6
  8
SAPA_PROFIL
 10
90.128260603957017
 20
259.83748779865431
 30
0.0
  0
VERTEX
  5
19A7
  8
SAPA_PROFIL
 10
91.504495197533345
 20
259.2142074953523
 30
0.0
 42
0.545020779898761
  0
VERTEX
  5
19A8
  8
SAPA_PROFIL
 10
91.928260603956971
 20
259.48748779865412
 30
0.0
  0
SEQEND
  5
19A9
  8
SAPA_PROFIL
  0
POLYLINE
  5
EF7
  8
SAPA_PROFIL
 66
     1
 10
0.0
 20
0.0
 30
0.0
 70
     1
  0
VERTEX
  5
19AA
  8
SAPA_PROFIL
 10
183.0025246726689
 20
280.13748779865421
 30
0.0
 42
0.1989123673796753
  0
VERTEX
  5
19AB
  8
SAPA_PROFIL
 10
182.79039263831311
 20
280.04961983301013
 30
0.0
  0
VERTEX
  5
19AC
  8
SAPA_PROFIL
 10
181.06612856960101
 20
278.32535576429831
 30
0.0
 42
-0.1989123673796753
  0
VERTEX
  5
19AD
  8
SAPA_PROFIL
 10
180.85399653524499
 20
278.23748779865412
 30
0.0
  0
VERTEX
  5
19AE
  8
SAPA_PROFIL
 10
180.27826060395711
 20
278.23748779865412
 30
0.0
 42
-0.4142135623730951
  0
VERTEX
  5
19AF
  8
SAPA_PROFIL
 10
179.9782606039569
 20
278.5374877986543
 30
0.0
  0
VERTEX
  5
19B0
  8
SAPA_PROFIL
 10
179.9782606039569
 20
279.83748779865419
 30
0.0
 42
0.4142135623730951
  0
VERTEX
  5
19B1
  8
SAPA_PROFIL
 10
179.67826060395689
 20
280.13748779865421
 30
0.0
  0
VERTEX
  5
19B2
  8
SAPA_PROFIL
 10
154.9782606039569
 20
280.13748779865421
 30
0.0
 42
0.4142135623730951
  0
VERTEX
  5
19B3
  8
SAPA_PROFIL
 10
153.9782606039569
 20
279.13748779865421
 30
0.0
  0
VERTEX
  5
19B4
  8
SAPA_PROFIL
 10
153.9782606039569
 20
274.73748779865412
 30
0.0
 42
-0.4142135623730951
  0
VERTEX
  5
19B5
  8
SAPA_PROFIL
 10
153.67826060395689
 20
274.43748779865422
 30
0.0
  0
VERTEX
  5
19B6
  8
SAPA_PROFIL
 10
151.37826060395699
 20
274.43748779865422
 30
0.0
 42
-0.4142135623730951
  0
VERTEX
  5
19B7
  8
SAPA_PROFIL
 10
151.07826060395701
 20
274.73748779865412
 30
0.0
  0
VERTEX
  5
19B8
  8
SAPA_PROFIL
 10
151.07826060395701
 20
275.23748779865412
 30
0.0
 42
-0.4142135623730951
  0
VERTEX
  5
19B9
  8
SAPA_PROFIL
 10
151.37826060395699
 20
275.5374877986543
 30
0.0
  0
VERTEX
  5
19BA
  8
SAPA_PROFIL
 10
151.71488752859139
 20
275.5374877986543
 30
0.0
 42
0.5535245743249297
  0
VERTEX
  5
19BB
  8
SAPA_PROFIL
 10
149.94236820608151
 20
279.84804201018562
 30
0.0
  0
VERTEX
  5
19BC
  8
SAPA_PROFIL
 10
149.65503729925359
 20
279.56071110335751
 30
0.0
 42
-0.4142135623729421
  0
VERTEX
  5
19BD
  8
SAPA_PROFIL
 10
149.30148390866049
 20
279.56071110335751
 30
0.0
  0
VERTEX
  5
19BE
  8
SAPA_PROFIL
 10
149.01415300183251
 20
279.84804201018562
 30
0.0
 42
0.5535245743249292
  0
VERTEX
  5
19BF
  8
SAPA_PROFIL
 10
147.2416336793224
 20
275.5374877986543
 30
0.0
  0
VERTEX
  5
19C0
  8
SAPA_PROFIL
 10
147.57826060395701
 20
275.5374877986543
 30
0.0
 42
-0.4142135623730951
  0
VERTEX
  5
19C1
  8
SAPA_PROFIL
 10
147.87826060395699
 20
275.23748779865412
 30
0.0
  0
VERTEX
  5
19C2
  8
SAPA_PROFIL
 10
147.87826060395699
 20
274.73748779865412
 30
0.0
 42
-0.4142135623730951
  0
VERTEX
  5
19C3
  8
SAPA_PROFIL
 10
147.57826060395701
 20
274.43748779865422
 30
0.0
  0
VERTEX
  5
19C4
  8
SAPA_PROFIL
 10
146.4782606039569
 20
274.43748779865422
 30
0.0
 42
-0.4142135623730951
  0
VERTEX
  5
19C5
  8
SAPA_PROFIL
 10
144.9782606039569
 20
275.9374877986541
 30
0.0
  0
VERTEX
  5
19C6
  8
SAPA_PROFIL
 10
144.9782606039569
 20
278.77146239486967
 30
0.0
 42
-0.267949192431143
  0
VERTEX
  5
19C7
  8
SAPA_PROFIL
 10
145.2282606039569
 20
279.20447509676188
 30
0.0
 42
0.767326987978956
  0
VERTEX
  5
19C8
  8
SAPA_PROFIL
 10
144.9782606039569
 20
280.13748779865421
 30
0.0
  0
VERTEX
  5
19C9
  8
SAPA_PROFIL
 10
109.9782606039569
 20
280.13748779865421
 30
0.0
 42
0.4142135623730951
  0
VERTEX
  5
19CA
  8
SAPA_PROFIL
 10
108.9782606039569
 20
279.13748779865421
 30
0.0
  0
VERTEX
  5
19CB
  8
SAPA_PROFIL
 10
108.9782606039569
 20
274.73748779865412
 30
0.0
 42
-0.4142135623730951
  0
VERTEX
  5
19CC
  8
SAPA_PROFIL
 10
108.6782606039569
 20
274.43748779865422
 30
0.0
  0
VERTEX
  5
19CD
  8
SAPA_PROFIL
 10
106.378260603957
 20
274.43748779865422
 30
0.0
 42
-0.4142135623730951
  0
VERTEX
  5
19CE
  8
SAPA_PROFIL
 10
106.07826060395701
 20
274.73748779865412
 30
0.0
  0
VERTEX
  5
19CF
  8
SAPA_PROFIL
 10
106.07826060395701
 20
275.23748779865412
 30
0.0
 42
-0.4142135623730951
  0
VERTEX
  5
19D0
  8
SAPA_PROFIL
 10
106.378260603957
 20
275.5374877986543
 30
0.0
  0
VERTEX
  5
19D1
  8
SAPA_PROFIL
 10
106.7148875285914
 20
275.5374877986543
 30
0.0
 42
0.5535245743249297
  0
VERTEX
  5
19D2
  8
SAPA_PROFIL
 10
104.9423682060815
 20
279.84804201018562
 30
0.0
  0
VERTEX
  5
19D3
  8
SAPA_PROFIL
 10
104.65503729925361
 20
279.56071110335751
 30
0.0
 42
-0.4142135623730243
  0
VERTEX
  5
19D4
  8
SAPA_PROFIL
 10
104.3014839086605
 20
279.56071110335768
 30
0.0
  0
VERTEX
  5
19D5
  8
SAPA_PROFIL
 10
104.0141530018325
 20
279.84804201018562
 30
0.0
 42
0.5535245743249292
  0
VERTEX
  5
19D6
  8
SAPA_PROFIL
 10
102.2416336793224
 20
275.5374877986543
 30
0.0
  0
VERTEX
  5
19D7
  8
SAPA_PROFIL
 10
102.57826060395701
 20
275.5374877986543
 30
0.0
 42
-0.4142135623730951
  0
VERTEX
  5
19D8
  8
SAPA_PROFIL
 10
102.878260603957
 20
275.23748779865412
 30
0.0
  0
VERTEX
  5
19D9
  8
SAPA_PROFIL
 10
102.878260603957
 20
274.73748779865412
 30
0.0
 42
-0.4142135623730951
  0
VERTEX
  5
19DA
  8
SAPA_PROFIL
 10
102.57826060395701
 20
274.43748779865422
 30
0.0
  0
VERTEX
  5
19DB
  8
SAPA_PROFIL
 10
101.4782606039569
 20
274.43748779865422
 30
0.0
 42
-0.4142135623730951
  0
VERTEX
  5
19DC
  8
SAPA_PROFIL
 10
99.978260603956926
 20
275.9374877986541
 30
0.0
  0
VERTEX
  5
19DD
  8
SAPA_PROFIL
 10
99.978260603956926
 20
278.91787255638349
 30
0.0
 42
-0.2679491924311188
  0
VERTEX
  5
19DE
  8
SAPA_PROFIL
 10
100.128260603957
 20
279.17768017751888
 30
0.0
 42
0.7673269879789557
  0
VERTEX
  5
19DF
  8
SAPA_PROFIL
 10
99.978260603956926
 20
279.73748779865412
 30
0.0
  0
VERTEX
  5
19E0
  8
SAPA_PROFIL
 10
97.978260603956926
 20
279.73748779865389
 30
0.0
 42
0.4142137811865366
  0
VERTEX
  5
19E1
  8
SAPA_PROFIL
 10
96.978260603956926
 20
278.73748854572938
 30
0.0
  0
VERTEX
  5
19E2
  8
SAPA_PROFIL
 10
96.978260603956926
 20
235.5374877986543
 30
0.0
 42
0.4142140000000124
  0
VERTEX
  5
19E3
  8
SAPA_PROFIL
 10
97.978260603956926
 20
234.5374877986543
 30
0.0
  0
VERTEX
  5
19E4
  8
SAPA_PROFIL
 10
99.978260603956926
 20
234.5374877986543
 30
0.0
 42
0.7673269879789457
  0
VERTEX
  5
19E5
  8
SAPA_PROFIL
 10
100.128260603957
 20
235.0972954197895
 30
0.0
 42
-0.2679491924311191
  0
VERTEX
  5
19E6
  8
SAPA_PROFIL
 10
99.978260603956926
 20
235.3571030409249
 30
0.0
  0
VERTEX
  5
19E7
  8
SAPA_PROFIL
 10
99.978260603956926
 20
238.33748779865419
 30
0.0
 42
-0.4142135623730951
  0
VERTEX
  5
19E8
  8
SAPA_PROFIL
 10
101.4782606039569
 20
239.83748779865431
 30
0.0
  0
VERTEX
  5
19E9
  8
SAPA_PROFIL
 10
102.57826060395701
 20
239.83748779865431
 30
0.0
 42
-0.4142135623730951
  0
VERTEX
  5
19EA
  8
SAPA_PROFIL
 10
102.878260603957
 20
239.5374877986543
 30
0.0
  0
VERTEX
  5
19EB
  8
SAPA_PROFIL
 10
102.878260603957
 20
239.0374877986543
 30
0.0
 42
-0.4142135623730951
  0
VERTEX
  5
19EC
  8
SAPA_PROFIL
 10
102.57826060395701
 20
238.73748779865409
 30
0.0
  0
VERTEX
  5
19ED
  8
SAPA_PROFIL
 10
102.2416336793224
 20
238.73748779865409
 30
0.0
 42
0.5535245743249307
  0
VERTEX
  5
19EE
  8
SAPA_PROFIL
 10
104.0141530018325
 20
234.42693358712279
 30
0.0
  0
VERTEX
  5
19EF
  8
SAPA_PROFIL
 10
104.3014839086605
 20
234.71426449395071
 30
0.0
 42
-0.4142135623730951
  0
VERTEX
  5
19F0
  8
SAPA_PROFIL
 10
104.65503729925361
 20
234.71426449395071
 30
0.0
  0
VERTEX
  5
19F1
  8
SAPA_PROFIL
 10
104.9423682060815
 20
234.42693358712279
 30
0.0
 42
0.553524574324932
  0
VERTEX
  5
19F2
  8
SAPA_PROFIL
 10
106.7148875285914
 20
238.73748779865409
 30
0.0
  0
VERTEX
  5
19F3
  8
SAPA_PROFIL
 10
106.378260603957
 20
238.73748779865409
 30
0.0
 42
-0.4142135623730951
  0
VERTEX
  5
19F4
  8
SAPA_PROFIL
 10
106.07826060395701
 20
239.0374877986543
 30
0.0
  0
VERTEX
  5
19F5
  8
SAPA_PROFIL
 10
106.07826060395701
 20
239.5374877986543
 30
0.0
 42
-0.4142135623730951
  0
VERTEX
  5
19F6
  8
SAPA_PROFIL
 10
106.378260603957
 20
239.83748779865431
 30
0.0
  0
VERTEX
  5
19F7
  8
SAPA_PROFIL
 10
108.6782606039569
 20
239.83748779865431
 30
0.0
 42
-0.4142135623730951
  0
VERTEX
  5
19F8
  8
SAPA_PROFIL
 10
108.9782606039569
 20
239.5374877986543
 30
0.0
  0
VERTEX
  5
19F9
  8
SAPA_PROFIL
 10
108.9782606039569
 20
235.13748779865421
 30
0.0
 42
0.4142135623730951
  0
VERTEX
  5
19FA
  8
SAPA_PROFIL
 10
109.9782606039569
 20
234.13748779865421
 30
0.0
  0
VERTEX
  5
19FB
  8
SAPA_PROFIL
 10
144.9782606039569
 20
234.13748779865421
 30
0.0
 42
0.7673269879789569
  0
VERTEX
  5
19FC
  8
SAPA_PROFIL
 10
145.2282606039569
 20
235.0705005005465
 30
0.0
 42
-0.2679491924311163
  0
VERTEX
  5
19FD
  8
SAPA_PROFIL
 10
144.9782606039569
 20
235.50351320243871
 30
0.0
  0
VERTEX
  5
19FE
  8
SAPA_PROFIL
 10
144.9782606039569
 20
238.33748779865419
 30
0.0
 42
-0.4142135623730951
  0
VERTEX
  5
19FF
  8
SAPA_PROFIL
 10
146.4782606039569
 20
239.83748779865431
 30
0.0
  0
VERTEX
  5
1A00
  8
SAPA_PROFIL
 10
147.57826060395701
 20
239.83748779865431
 30
0.0
 42
-0.4142135623730951
  0
VERTEX
  5
1A01
  8
SAPA_PROFIL
 10
147.87826060395699
 20
239.5374877986543
 30
0.0
  0
VERTEX
  5
1A02
  8
SAPA_PROFIL
 10
147.87826060395699
 20
239.0374877986543
 30
0.0
 42
-0.4142135623730951
  0
VERTEX
  5
1A03
  8
SAPA_PROFIL
 10
147.57826060395701
 20
238.73748779865409
 30
0.0
  0
VERTEX
  5
1A04
  8
SAPA_PROFIL
 10
147.2416336793224
 20
238.73748779865409
 30
0.0
 42
0.5535245743249307
  0
VERTEX
  5
1A05
  8
SAPA_PROFIL
 10
149.01415300183251
 20
234.42693358712279
 30
0.0
  0
VERTEX
  5
1A06
  8
SAPA_PROFIL
 10
149.30148390866049
 20
234.71426449395071
 30
0.0
 42
-0.4142135623731068
  0
VERTEX
  5
1A07
  8
SAPA_PROFIL
 10
149.65503729925359
 20
234.71426449395099
 30
0.0
  0
VERTEX
  5
1A08
  8
SAPA_PROFIL
 10
149.94236820608151
 20
234.42693358712279
 30
0.0
 42
0.553524574324932
  0
VERTEX
  5
1A09
  8
SAPA_PROFIL
 10
151.71488752859139
 20
238.73748779865409
 30
0.0
  0
VERTEX
  5
1A0A
  8
SAPA_PROFIL
 10
151.37826060395699
 20
238.73748779865409
 30
0.0
 42
-0.4142135623730951
  0
VERTEX
  5
1A0B
  8
SAPA_PROFIL
 10
151.07826060395701
 20
239.0374877986543
 30
0.0
  0
VERTEX
  5
1A0C
  8
SAPA_PROFIL
 10
151.07826060395701
 20
239.5374877986543
 30
0.0
 42
-0.4142135623730951
  0
VERTEX
  5
1A0D
  8
SAPA_PROFIL
 10
151.37826060395699
 20
239.83748779865431
 30
0.0
  0
VERTEX
  5
1A0E
  8
SAPA_PROFIL
 10
153.67826060395689
 20
239.83748779865431
 30
0.0
 42
-0.4142135623730951
  0
VERTEX
  5
1A0F
  8
SAPA_PROFIL
 10
153.9782606039569
 20
239.5374877986543
 30
0.0
  0
VERTEX
  5
1A10
  8
SAPA_PROFIL
 10
153.9782606039569
 20
235.13748779865421
 30
0.0
 42
0.4142135623730951
  0
VERTEX
  5
1A11
  8
SAPA_PROFIL
 10
154.9782606039569
 20
234.13748779865421
 30
0.0
  0
VERTEX
  5
1A12
  8
SAPA_PROFIL
 10
179.67826060395689
 20
234.13748779865421
 30
0.0
 42
0.4142135623730951
  0
VERTEX
  5
1A13
  8
SAPA_PROFIL
 10
179.9782606039569
 20
234.43748779865419
 30
0.0
  0
VERTEX
  5
1A14
  8
SAPA_PROFIL
 10
179.9782606039569
 20
235.73748779865409
 30
0.0
 42
-0.4142135623730951
  0
VERTEX
  5
1A15
  8
SAPA_PROFIL
 10
180.27826060395711
 20
236.0374877986543
 30
0.0
  0
VERTEX
  5
1A16
  8
SAPA_PROFIL
 10
180.85399653524499
 20
236.0374877986543
 30
0.0
 42
-0.1989123673796752
  0
VERTEX
  5
1A17
  8
SAPA_PROFIL
 10
181.06612856960101
 20
235.94961983301019
 30
0.0
  0
VERTEX
  5
1A18
  8
SAPA_PROFIL
 10
182.79039263831311
 20
234.22535576429809
 30
0.0
 42
0.1989123673796057
  0
VERTEX
  5
1A19
  8
SAPA_PROFIL
 10
183.0025246726689
 20
234.13748779865421
 30
0.0
  0
VERTEX
  5
1A1A
  8
SAPA_PROFIL
 10
186.4782606039569
 20
234.13748779865421
 30
0.0
 42
0.4142135623730951
  0
VERTEX
  5
1A1B
  8
SAPA_PROFIL
 10
187.4782606039569
 20
235.13748779865421
 30
0.0
  0
VERTEX
  5
1A1C
  8
SAPA_PROFIL
 10
187.4782606039569
 20
279.13748779865421
 30
0.0
 42
0.4142135623730951
  0
VERTEX
  5
1A1D
  8
SAPA_PROFIL
 10
186.4782606039569
 20
280.13748779865421
 30
0.0
  0
SEQEND
  5
1A1E
  8
SAPA_PROFIL
  0
POLYLINE
  5
EF8
  8
SAPA_PROFIL
 66
     1
 10
0.0
 20
0.0
 30
0.0
 70
     1
  0
VERTEX
  5
1A1F
  8
SAPA_PROFIL
 10
94.978260603956926
 20
263.13748779865421
 30
0.0
 42
-0.4142135623730951
  0
VERTEX
  5
1A20
  8
SAPA_PROFIL
 10
93.978260603956926
 20
262.13748779865421
 30
0.0
  0
VERTEX
  5
1A21
  8
SAPA_PROFIL
 10
72.778260603957094
 20
262.13748779865421
 30
0.0
 42
0.4142135623730951
  0
VERTEX
  5
1A22
  8
SAPA_PROFIL
 10
72.478260603956926
 20
261.83748779865431
 30
0.0
  0
VERTEX
  5
1A23
  8
SAPA_PROFIL
 10
72.478260603956926
 20
260.21322379865421
 30
0.0
  0
VERTEX
  5
1A24
  8
SAPA_PROFIL
 10
73.416128569601199
 20
259.37535576429821
 30
0.0
 42
0.668178637919305
  0
VERTEX
  5
1A25
  8
SAPA_PROFIL
 10
73.928260603956971
 20
259.58748779865419
 30
0.0
  0
VERTEX
  5
1A26
  8
SAPA_PROFIL
 10
73.928260603956971
 20
259.83748779865431
 30
0.0
  0
VERTEX
  5
1A27
  8
SAPA_PROFIL
 10
75.304495197533299
 20
259.31420749535221
 30
0.0
 42
0.5450207798987201
  0
VERTEX
  5
1A28
  8
SAPA_PROFIL
 10
75.728260603956926
 20
259.58748779865419
 30
0.0
  0
VERTEX
  5
1A29
  8
SAPA_PROFIL
 10
75.728260603956926
 20
259.83748779865431
 30
0.0
  0
VERTEX
  5
1A2A
  8
SAPA_PROFIL
 10
77.104495197533481
 20
259.31420749535221
 30
0.0
 42
0.5450207798987201
  0
VERTEX
  5
1A2B
  8
SAPA_PROFIL
 10
77.528260603957108
 20
259.58748779865419
 30
0.0
  0
VERTEX
  5
1A2C
  8
SAPA_PROFIL
 10
77.528260603957108
 20
259.83748779865431
 30
0.0
  0
VERTEX
  5
1A2D
  8
SAPA_PROFIL
 10
78.904495197533436
 20
259.31420749535221
 30
0.0
 42
0.5450207798987342
  0
VERTEX
  5
1A2E
  8
SAPA_PROFIL
 10
79.328260603957062
 20
259.58748779865419
 30
0.0
  0
VERTEX
  5
1A2F
  8
SAPA_PROFIL
 10
79.328260603957062
 20
259.83748779865431
 30
0.0
  0
VERTEX
  5
1A30
  8
SAPA_PROFIL
 10
80.70449519753339
 20
259.31420749535221
 30
0.0
 42
0.5450207798987201
  0
VERTEX
  5
1A31
  8
SAPA_PROFIL
 10
81.128260603957017
 20
259.58748779865419
 30
0.0
  0
VERTEX
  5
1A32
  8
SAPA_PROFIL
 10
81.128260603957017
 20
259.83748779865431
 30
0.0
  0
VERTEX
  5
1A33
  8
SAPA_PROFIL
 10
81.851977898763209
 20
259.60972508127008
 30
0.0
 42
-0.2945484962563026
  0
VERTEX
  5
1A34
  8
SAPA_PROFIL
 10
82.028212563711406
 20
259.33637026759192
 30
0.0
  0
VERTEX
  5
1A35
  8
SAPA_PROFIL
 10
82.02800538174489
 20
258.4017877364023
 30
0.0
 42
0.3475954753796591
  0
VERTEX
  5
1A36
  8
SAPA_PROFIL
 10
82.258759425913979
 20
258.10981430933242
 30
0.0
 42
-0.790522909611319
  0
VERTEX
  5
1A37
  8
SAPA_PROFIL
 10
82.258769630354493
 20
256.1638237087887
 30
0.0
 42
0.3476065658631364
  0
VERTEX
  5
1A38
  8
SAPA_PROFIL
 10
82.028018651622276
 20
255.87183598776721
 30
0.0
  0
VERTEX
  5
1A39
  8
SAPA_PROFIL
 10
82.028165372331216
 20
255.28749513656081
 30
0.0
 42
-0.4102317530969976
  0
VERTEX
  5
1A3A
  8
SAPA_PROFIL
 10
81.732313724177686
 20
254.98745950006841
 30
0.0
 42
0.0712587206050384
  0
VERTEX
  5
1A3B
  8
SAPA_PROFIL
 10
81.648269799249476
 20
254.974232186199
 30
0.0
  0
VERTEX
  5
1A3C
  8
SAPA_PROFIL
 10
80.228260603956926
 20
254.43748779865419
 30
0.0
  0
VERTEX
  5
1A3D
  8
SAPA_PROFIL
 10
80.228260603956926
 20
254.6874877986541
 30
0.0
 42
0.5450200690651619
  0
VERTEX
  5
1A3E
  8
SAPA_PROFIL
 10
79.804495603956923
 20
254.9607687986541
 30
0.0
  0
VERTEX
  5
1A3F
  8
SAPA_PROFIL
 10
78.428260603956971
 20
254.43748779865419
 30
0.0
  0
VERTEX
  5
1A40
  8
SAPA_PROFIL
 10
78.428260603957199
 20
254.6874877986541
 30
0.0
 42
0.545020069065176
  0
VERTEX
  5
1A41
  8
SAPA_PROFIL
 10
78.004495603956968
 20
254.9607687986541
 30
0.0
  0
VERTEX
  5
1A42
  8
SAPA_PROFIL
 10
76.628260603957017
 20
254.43748779865419
 30
0.0
  0
VERTEX
  5
1A43
  8
SAPA_PROFIL
 10
76.628260603957017
 20
254.6874877986541
 30
0.0
 42
0.5450200690651692
  0
VERTEX
  5
1A44
  8
SAPA_PROFIL
 10
76.204495603957014
 20
254.9607687986541
 30
0.0
  0
VERTEX
  5
1A45
  8
SAPA_PROFIL
 10
74.828260603957062
 20
254.43748779865419
 30
0.0
  0
VERTEX
  5
1A46
  8
SAPA_PROFIL
 10
74.828260603957062
 20
254.98748779865409
 30
0.0
  0
VERTEX
  5
1A47
  8
SAPA_PROFIL
 10
73.628260603957017
 20
254.98748779865409
 30
0.0
 42
0.1989123673797004
  0
VERTEX
  5
1A48
  8
SAPA_PROFIL
 10
73.416128603956906
 20
254.8996197986543
 30
0.0
  0
VERTEX
  5
1A49
  8
SAPA_PROFIL
 10
72.478260603956926
 20
254.0617517986542
 30
0.0
  0
VERTEX
  5
1A4A
  8
SAPA_PROFIL
 10
72.478260603956926
 20
252.43748779865419
 30
0.0
 42
0.4142135623730951
  0
VERTEX
  5
1A4B
  8
SAPA_PROFIL
 10
72.778260603957094
 20
252.13748779865421
 30
0.0
  0
VERTEX
  5
1A4C
  8
SAPA_PROFIL
 10
93.978260603956926
 20
252.13748779865421
 30
0.0
 42
-0.4142135623730951
  0
VERTEX
  5
1A4D
  8
SAPA_PROFIL
 10
94.978260603956926
 20
251.13748779865421
 30
0.0
  0
VERTEX
  5
1A4E
  8
SAPA_PROFIL
 10
94.978260603956926
 20
242.93748779865419
 30
0.0
 42
-0.4142135623730951
  0
VERTEX
  5
1A4F
  8
SAPA_PROFIL
 10
94.478260603956926
 20
242.4374877986541
 30
0.0
  0
VERTEX
  5
1A50
  8
SAPA_PROFIL
 10
91.278260603957094
 20
242.4374877986541
 30
0.0
 42
-0.4142135623730951
  0
VERTEX
  5
1A51
  8
SAPA_PROFIL
 10
90.778260603957108
 20
242.93748779865419
 30
0.0
  0
VERTEX
  5
1A52
  8
SAPA_PROFIL
 10
90.778260603957108
 20
245.83748779865431
 30
0.0
 42
0.4142135623730951
  0
VERTEX
  5
1A53
  8
SAPA_PROFIL
 10
90.478260603956926
 20
246.13748779865421
 30
0.0
  0
VERTEX
  5
1A54
  8
SAPA_PROFIL
 10
89.778260603957108
 20
246.13748779865421
 30
0.0
 42
0.4142135623730951
  0
VERTEX
  5
1A55
  8
SAPA_PROFIL
 10
89.478260603956926
 20
245.83748779865431
 30
0.0
  0
VERTEX
  5
1A56
  8
SAPA_PROFIL
 10
89.478260603956926
 20
239.13748779865421
 30
0.0
  0
VERTEX
  5
1A57
  8
SAPA_PROFIL
 10
89.943184023316064
 20
238.55110378315351
 30
0.0
 42
0.7105995019814511
  0
VERTEX
  5
1A58
  8
SAPA_PROFIL
 10
90.478260603956926
 20
238.73748779865409
 30
0.0
  0
VERTEX
  5
1A59
  8
SAPA_PROFIL
 10
90.478260603956926
 20
240.63748779865421
 30
0.0
 42
-0.4142135623730951
  0
VERTEX
  5
1A5A
  8
SAPA_PROFIL
 10
90.778260603957108
 20
240.93748779865419
 30
0.0
  0
VERTEX
  5
1A5B
  8
SAPA_PROFIL
 10
94.678260603956971
 20
240.93748779865419
 30
0.0
 42
-0.4142135623730951
  0
VERTEX
  5
1A5C
  8
SAPA_PROFIL
 10
94.978260603956926
 20
240.63748779865421
 30
0.0
  0
VERTEX
  5
1A5D
  8
SAPA_PROFIL
 10
94.978260603956926
 20
233.9374877986541
 30
0.0
 42
-0.4142135623730951
  0
VERTEX
  5
1A5E
  8
SAPA_PROFIL
 10
94.678260603956971
 20
233.63748779865421
 30
0.0
  0
VERTEX
  5
1A5F
  8
SAPA_PROFIL
 10
90.778260603957108
 20
233.63748779865421
 30
0.0
 42
-0.4142135623730951
  0
VERTEX
  5
1A60
  8
SAPA_PROFIL
 10
90.478260603956926
 20
233.9374877986541
 30
0.0
  0
VERTEX
  5
1A61
  8
SAPA_PROFIL
 10
90.478260603956926
 20
235.13748779865421
 30
0.0
 42
0.7105990647993611
  0
VERTEX
  5
1A62
  8
SAPA_PROFIL
 10
89.943184603957036
 20
235.3238717986543
 30
0.0
  0
VERTEX
  5
1A63
  8
SAPA_PROFIL
 10
89.478260603956926
 20
234.73748779865409
 30
0.0
  0
VERTEX
  5
1A64
  8
SAPA_PROFIL
 10
89.478260603956926
 20
232.43748779865419
 30
0.0
 42
0.4142135623730951
  0
VERTEX
  5
1A65
  8
SAPA_PROFIL
 10
89.778260603957108
 20
232.13748779865421
 30
0.0
  0
VERTEX
  5
1A66
  8
SAPA_PROFIL
 10
188.9782606039569
 20
232.13748779865421
 30
0.0
 42
0.4142135623730951
  0
VERTEX
  5
1A67
  8
SAPA_PROFIL
 10
189.4782606039569
 20
232.63748779865421
 30
0.0
  0
VERTEX
  5
1A68
  8
SAPA_PROFIL
 10
189.4782606039569
 20
281.63748779865421
 30
0.0
 42
0.4142135623730951
  0
VERTEX
  5
1A69
  8
SAPA_PROFIL
 10
188.9782606039569
 20
282.13748779865421
 30
0.0
  0
VERTEX
  5
1A6A
  8
SAPA_PROFIL
 10
89.778260603957108
 20
282.13748779865421
 30
0.0
 42
0.4142135623730951
  0
VERTEX
  5
1A6B
  8
SAPA_PROFIL
 10
89.478260603956926
 20
281.83748779865419
 30
0.0
  0
VERTEX
  5
1A6C
  8
SAPA_PROFIL
 10
89.478260603956926
 20
279.5374877986543
 30
0.0
  0
VERTEX
  5
1A6D
  8
SAPA_PROFIL
 10
89.943184023316064
 20
278.9511037831536
 30
0.0
 42
0.7105995019814511
  0
VERTEX
  5
1A6E
  8
SAPA_PROFIL
 10
90.478260603956926
 20
279.13748779865421
 30
0.0
  0
VERTEX
  5
1A6F
  8
SAPA_PROFIL
 10
90.478260603956926
 20
280.33748779865419
 30
0.0
 42
-0.4142135623730951
  0
VERTEX
  5
1A70
  8
SAPA_PROFIL
 10
90.778260603957108
 20
280.63748779865421
 30
0.0
  0
VERTEX
  5
1A71
  8
SAPA_PROFIL
 10
94.678260603956971
 20
280.63748779865421
 30
0.0
 42
-0.4142135623730951
  0
VERTEX
  5
1A72
  8
SAPA_PROFIL
 10
94.978260603956926
 20
280.33748779865419
 30
0.0
  0
VERTEX
  5
1A73
  8
SAPA_PROFIL
 10
94.978260603956926
 20
273.63748779865421
 30
0.0
 42
-0.4142135623730951
  0
VERTEX
  5
1A74
  8
SAPA_PROFIL
 10
94.678260603956971
 20
273.33748779865419
 30
0.0
  0
VERTEX
  5
1A75
  8
SAPA_PROFIL
 10
90.778260603957108
 20
273.33748779865419
 30
0.0
 42
-0.4142135623730951
  0
VERTEX
  5
1A76
  8
SAPA_PROFIL
 10
90.478260603956926
 20
273.63748779865421
 30
0.0
  0
VERTEX
  5
1A77
  8
SAPA_PROFIL
 10
90.478260603956926
 20
275.5374877986543
 30
0.0
 42
0.7105995019814511
  0
VERTEX
  5
1A78
  8
SAPA_PROFIL
 10
89.943184023316064
 20
275.7238718141549
 30
0.0
  0
VERTEX
  5
1A79
  8
SAPA_PROFIL
 10
89.478260603956926
 20
275.13748779865421
 30
0.0
  0
VERTEX
  5
1A7A
  8
SAPA_PROFIL
 10
89.478260603956926
 20
268.43748779865422
 30
0.0
 42
0.4142135623730951
  0
VERTEX
  5
1A7B
  8
SAPA_PROFIL
 10
89.778260603957108
 20
268.13748779865421
 30
0.0
  0
VERTEX
  5
1A7C
  8
SAPA_PROFIL
 10
90.478260603956926
 20
268.13748779865421
 30
0.0
 42
0.4142135623730951
  0
VERTEX
  5
1A7D
  8
SAPA_PROFIL
 10
90.778260603957108
 20
268.43748779865422
 30
0.0
  0
VERTEX
  5
1A7E
  8
SAPA_PROFIL
 10
90.778260603957108
 20
271.33748779865419
 30
0.0
 42
-0.4142135623730951
  0
VERTEX
  5
1A7F
  8
SAPA_PROFIL
 10
91.278260603957094
 20
271.83748779865419
 30
0.0
  0
VERTEX
  5
1A80
  8
SAPA_PROFIL
 10
94.478260603956926
 20
271.83748779865419
 30
0.0
 42
-0.4142135623730951
  0
VERTEX
  5
1A81
  8
SAPA_PROFIL
 10
94.978260603956926
 20
271.33748779865419
 30
0.0
  0
SEQEND
  5
1A82
  8
SAPA_PROFIL
  0
CIRCLE
  5
EF9
  8
SAPA_PROFIL
 10
62.478260603956919
 20
28.512866699958689
 30
0.0
 40
5.3499999999999988
  0
POLYLINE
  5
EFA
  8
SAPA_PROFIL
 66
     1
 10
0.0
 20
0.0
 30
0.0
 70
     1
  0
VERTEX
  5
1A83
  8
SAPA_PROFIL
 10
72.027183549746326
 20
31.482390327643149
 30
0.0
  0
VERTEX
  5
1A84
  8
SAPA_PROFIL
 10
72.340818344862782
 20
30.165124188154039
 30
0.0
 42
0.8419933402193075
  0
VERTEX
  5
1A85
  8
SAPA_PROFIL
 10
84.478260603956926
 20
32.26286769867005
 30
0.0
  0
VERTEX
  5
1A86
  8
SAPA_PROFIL
 10
84.478260603956869
 20
52.646841296174273
 30
0.0
  0
VERTEX
  5
1A87
  8
SAPA_PROFIL
 10
84.978260603956855
 20
53.512866699958693
 30
0.0
  0
VERTEX
  5
1A88
  8
SAPA_PROFIL
 10
84.478260603956869
 20
54.378892103743112
 30
0.0
  0
VERTEX
  5
1A89
  8
SAPA_PROFIL
 10
84.478260603956869
 20
71.584663469683093
 30
0.0
  0
VERTEX
  5
1A8A
  8
SAPA_PROFIL
 10
88.478260603956869
 20
78.512866699958693
 30
0.0
  0
VERTEX
  5
1A8B
  8
SAPA_PROFIL
 10
91.478260603956926
 20
78.512866699958693
 30
0.0
  0
VERTEX
  5
1A8C
  8
SAPA_PROFIL
 10
91.478260603956926
 20
68.512866699958693
 30
0.0
  0
VERTEX
  5
1A8D
  8
SAPA_PROFIL
 10
90.478260603956926
 20
68.512866699958693
 30
0.0
  0
VERTEX
  5
1A8E
  8
SAPA_PROFIL
 10
90.478260603956926
 20
28.512866699958689
 30
0.0
  0
VERTEX
  5
1A8F
  8
SAPA_PROFIL
 10
91.478260603956926
 20
28.512866699958689
 30
0.0
  0
VERTEX
  5
1A90
  8
SAPA_PROFIL
 10
91.478260603956926
 20
18.512866699958689
 30
0.0
  0
VERTEX
  5
1A91
  8
SAPA_PROFIL
 10
62.478260603956919
 20
18.512866699958689
 30
0.0
 42
-1.9780623748969339
  0
SEQEND
  5
1A92
  8
SAPA_PROFIL
  0
INSERT
  5
EFB
  8
SAPA_PROFIL
  2
BYGG-014680$0$68174-TXT
 10
-89.229971042498903
 20
60.073255184314348
 30
0.0
 43
-1.0
 50
270.0
210
0.0
220
0.0
230
-1.0
  0
POLYLINE
  5
EFC
  8
SAPA_PROFIL
 66
     1
 10
0.0
 20
0.0
 30
0.0
 70
     1
  0
VERTEX
  5
1A93
  8
SAPA_PROFIL
 10
-12.79078326303636
 20
67.304236594123068
 30
0.0
  0
VERTEX
  5
1A94
  8
SAPA_PROFIL
 10
5.0633765318959831
 20
73.802619317310814
 30
0.0
 42
0.4142135623730999
  0
VERTEX
  5
1A95
  8
SAPA_PROFIL
 10
6.8563939642766618
 20
77.647757609645566
 30
0.0
  0
VERTEX
  5
1A96
  8
SAPA_PROFIL
 10
-2.720170048842192
 20
103.9591509916512
 30
0.0
 42
0.4142135623730951
  0
VERTEX
  5
1A97
  8
SAPA_PROFIL
 10
-6.5653083411768867
 20
105.75216842403189
 30
0.0
  0
VERTEX
  5
1A98
  8
SAPA_PROFIL
 10
-24.419468136109231
 20
99.253785700844176
 30
0.0
  0
VERTEX
  5
1A99
  8
SAPA_PROFIL
 10
-25.445528566086178
 20
102.07286356320191
 30
0.0
  0
VERTEX
  5
1A9A
  8
SAPA_PROFIL
 10
-1.9532130464384629
 20
110.6233671463436
 30
0.0
  0
VERTEX
  5
1A9B
  8
SAPA_PROFIL
 10
11.727592686588419
 20
73.035662314907086
 30
0.0
  0
VERTEX
  5
1A9C
  8
SAPA_PROFIL
 10
-11.76472283305929
 20
64.485158731765324
 30
0.0
  0
SEQEND
  5
1A9D
  8
SAPA_PROFIL
  0
POLYLINE
  5
EFD
  8
SAPA_PROFIL
 66
     1
 10
0.0
 20
0.0
 30
0.0
 70
     1
  0
VERTEX
  5
1A9E
  8
SAPA_PROFIL
 10
-47.63453102483232
 20
66.463865638611566
 30
0.0
 42
0.5773502691895968
  0
VERTEX
  5
1A9F
  8
SAPA_PROFIL
 10
-47.077678535306987
 20
64.933925997674947
 30
0.0
  0
VERTEX
  5
1AA0
  8
SAPA_PROFIL
 10
-46.106688215213481
 20
64.762714192825115
 30
0.0
  0
VERTEX
  5
1AA1
  8
SAPA_PROFIL
 10
-46.497062552571393
 20
62.548791310521921
 30
0.0
  0
VERTEX
  5
1AA2
  8
SAPA_PROFIL
 10
-47.62469369751441
 20
62.138367138531137
 30
0.0
 42
0.4142135623729286
  0
VERTEX
  5
1AA3
  8
SAPA_PROFIL
 10
-47.803995440752601
 20
61.753853309297789
 30
0.0
  0
VERTEX
  5
1AA4
  8
SAPA_PROFIL
 10
-47.667187383422302
 20
61.377976260983353
 30
0.0
 42
0.4142135623732059
  0
VERTEX
  5
1AA5
  8
SAPA_PROFIL
 10
-47.28267355418874
 20
61.198674517745239
 30
0.0
  0
VERTEX
  5
1AA6
  8
SAPA_PROFIL
 10
-46.058890449512788
 20
61.644095141045518
 30
0.0
 42
-0.4142135623731506
  0
VERTEX
  5
1AA7
  8
SAPA_PROFIL
 10
-45.674376620279119
 20
61.464793397807462
 30
0.0
  0
VERTEX
  5
1AA8
  8
SAPA_PROFIL
 10
-45.475991433840207
 20
60.919734577712241
 30
0.0
 42
0.4142135623730951
  0
VERTEX
  5
1AA9
  8
SAPA_PROFIL
 10
-45.091477604606759
 20
60.740432834474099
 30
0.0
  0
VERTEX
  5
1AAA
  8
SAPA_PROFIL
 10
-42.828938057623589
 20
61.563929883426098
 30
0.0
  0
VERTEX
  5
1AAB
  8
SAPA_PROFIL
 10
-42.442107691035098
 20
62.192951547011639
 30
0.0
 42
0.7105995015649727
  0
VERTEX
  5
1AAC
  8
SAPA_PROFIL
 10
-42.800258344008512
 20
62.632011973417391
 30
0.0
  0
VERTEX
  5
1AAD
  8
SAPA_PROFIL
 10
-43.458043178558469
 20
62.392597873089493
 30
0.0
  0
VERTEX
  5
1AAE
  8
SAPA_PROFIL
 10
-44.38359763126121
 20
64.935537832365597
 30
0.0
 42
-0.4142135623731506
  0
VERTEX
  5
1AAF
  8
SAPA_PROFIL
 10
-44.20429588802309
 20
65.320051661599152
 30
0.0
  0
VERTEX
  5
1AB0
  8
SAPA_PROFIL
 10
-40.069648356565473
 20
66.824940292232071
 30
0.0
 42
-0.4142135623730951
  0
VERTEX
  5
1AB1
  8
SAPA_PROFIL
 10
-39.685134527331797
 20
66.645638548994015
 30
0.0
  0
VERTEX
  5
1AB2
  8
SAPA_PROFIL
 10
-38.759580074629142
 20
64.102698589717761
 30
0.0
  0
VERTEX
  5
1AB3
  8
SAPA_PROFIL
 10
-39.417364909179149
 20
63.863284489389947
 30
0.0
 42
0.7105995015650586
  0
VERTEX
  5
1AB4
  8
SAPA_PROFIL
 10
-39.409501624691693
 20
63.296729887415992
 30
0.0
  0
VERTEX
  5
1AB5
  8
SAPA_PROFIL
 10
-38.708845040359343
 20
63.063521104118081
 30
0.0
  0
VERTEX
  5
1AB6
  8
SAPA_PROFIL
 10
-30.763347835276161
 20
65.955445583213773
 30
0.0
  0
VERTEX
  5
1AB7
  8
SAPA_PROFIL
 10
-30.421327691950491
 20
65.015752962427882
 30
0.0
  0
VERTEX
  5
1AB8
  8
SAPA_PROFIL
 10
-29.481635071164579
 20
65.357773105753552
 30
0.0
  0
VERTEX
  5
1AB9
  8
SAPA_PROFIL
 10
-29.823655214490248
 20
66.297465726539457
 30
0.0
  0
VERTEX
  5
1ABA
  8
SAPA_PROFIL
 10
-27.051561983171879
 20
67.306425149350162
 30
0.0
  0
VERTEX
  5
1ABB
  8
SAPA_PROFIL
 10
-27.393582126497549
 20
68.246117770136067
 30
0.0
  0
VERTEX
  5
1ABC
  8
SAPA_PROFIL
 10
-25.608166147004411
 20
68.895956042454685
 30
0.0
  0
VERTEX
  5
1ABD
  8
SAPA_PROFIL
 10
-25.309329908274041
 20
69.53681242451043
 30
0.0
  0
VERTEX
  5
1ABE
  8
SAPA_PROFIL
 10
-24.668473526217969
 20
69.237976185780539
 30
0.0
  0
VERTEX
  5
1ABF
  8
SAPA_PROFIL
 10
-22.883057546724981
 20
69.887814458099228
 30
0.0
  0
VERTEX
  5
1AC0
  8
SAPA_PROFIL
 10
-22.541037403399351
 20
68.948121837313423
 30
0.0
  0
VERTEX
  5
1AC1
  8
SAPA_PROFIL
 10
-19.768944172080879
 20
69.957081260124156
 30
0.0
  0
VERTEX
  5
1AC2
  8
SAPA_PROFIL
 10
-19.426924028755209
 20
69.01738863933825
 30
0.0
  0
VERTEX
  5
1AC3
  8
SAPA_PROFIL
 10
-18.487231407969301
 20
69.35940878266392
 30
0.0
  0
VERTEX
  5
1AC4
  8
SAPA_PROFIL
 10
-18.829251551294959
 20
70.299101403449839
 30
0.0
  0
VERTEX
  5
1AC5
  8
SAPA_PROFIL
 10
-10.8837543462116
 20
73.191025882545361
 30
0.0
  0
VERTEX
  5
1AC6
  8
SAPA_PROFIL
 10
-10.496923979623149
 20
73.820047546131335
 30
0.0
 42
0.7105995015650586
  0
VERTEX
  5
1AC7
  8
SAPA_PROFIL
 10
-10.855074632596519
 20
74.259107972537009
 30
0.0
  0
VERTEX
  5
1AC8
  8
SAPA_PROFIL
 10
-11.51285946714645
 20
74.01969387220899
 30
0.0
  0
VERTEX
  5
1AC9
  8
SAPA_PROFIL
 10
-12.438413919849109
 20
76.562633831485243
 30
0.0
 42
-0.4142135623730951
  0
VERTEX
  5
1ACA
  8
SAPA_PROFIL
 10
-12.259112176611
 20
76.947147660718784
 30
0.0
  0
VERTEX
  5
1ACB
  8
SAPA_PROFIL
 10
-8.1244646451531963
 20
78.452036291351561
 30
0.0
 42
-0.4142135623731506
  0
VERTEX
  5
1ACC
  8
SAPA_PROFIL
 10
-7.7399508159197419
 20
78.272734548113405
 30
0.0
  0
VERTEX
  5
1ACD
  8
SAPA_PROFIL
 10
-6.8143963632172229
 20
75.729794588837223
 30
0.0
  0
VERTEX
  5
1ACE
  8
SAPA_PROFIL
 10
-7.4721811977672266
 20
75.490380488509416
 30
0.0
 42
0.7105995015649949
  0
VERTEX
  5
1ACF
  8
SAPA_PROFIL
 10
-7.46431791327959
 20
74.923825886535283
 30
0.0
  0
VERTEX
  5
1AD0
  8
SAPA_PROFIL
 10
-6.7636613289475997
 20
74.690617103237727
 30
0.0
  0
VERTEX
  5
1AD1
  8
SAPA_PROFIL
 10
-4.5011217819644411
 20
75.514114152189734
 30
0.0
 42
0.4142135623730951
  0
VERTEX
  5
1AD2
  8
SAPA_PROFIL
 10
-4.3218200387263259
 20
75.898627981423289
 30
0.0
  0
VERTEX
  5
1AD3
  8
SAPA_PROFIL
 10
-4.5202052251652374
 20
76.443686801518496
 30
0.0
 42
-0.4142135623731506
  0
VERTEX
  5
1AD4
  8
SAPA_PROFIL
 10
-4.3409034819271248
 20
76.82820063075205
 30
0.0
  0
VERTEX
  5
1AD5
  8
SAPA_PROFIL
 10
-3.1171203772508331
 20
77.273621254051733
 30
0.0
 42
0.414213562373206
  0
VERTEX
  5
1AD6
  8
SAPA_PROFIL
 10
-2.9378186340128272
 20
77.658135083285259
 30
0.0
  0
VERTEX
  5
1AD7
  8
SAPA_PROFIL
 10
-3.0746266913431262
 20
78.03401213159971
 30
0.0
 42
0.4142135623729286
  0
VERTEX
  5
1AD8
  8
SAPA_PROFIL
 10
-3.4591405205765011
 20
78.213313874837652
 30
0.0
  0
VERTEX
  5
1AD9
  8
SAPA_PROFIL
 10
-4.5867716655196347
 20
77.802889702846826
 30
0.0
  0
VERTEX
  5
1ADA
  8
SAPA_PROFIL
 10
-6.3088979549348121
 20
79.247925237135931
 30
0.0
  0
VERTEX
  5
1ADB
  8
SAPA_PROFIL
 10
-5.6751290426944987
 20
80.003221635719129
 30
0.0
 42
0.5773502691896019
  0
VERTEX
  5
1ADC
  8
SAPA_PROFIL
 10
-6.2319815322189838
 20
81.533161276656074
 30
0.0
  0
VERTEX
  5
1ADD
  8
SAPA_PROFIL
 10
-7.4491691607736259
 20
81.747784282744362
 30
0.0
 42
0.1316524948697527
  0
VERTEX
  5
1ADE
  8
SAPA_PROFIL
 10
-7.964837471243114
 20
81.702669148662594
 30
0.0
  0
VERTEX
  5
1ADF
  8
SAPA_PROFIL
 10
-46.41604392188718
 20
67.707574529003566
 30
0.0
 42
0.1316524948697533
  0
VERTEX
  5
1AE0
  8
SAPA_PROFIL
 10
-46.840068214812113
 20
67.410669526089663
 30
0.0
  0
SEQEND
  5
1AE1
  8
SAPA_PROFIL
  0
POLYLINE
  5
EFE
  8
SAPA_PROFIL
 62
     4
 66
     1
 10
0.0
 20
0.0
 30
0.0
 70
     1
  0
VERTEX
  5
1AE2
  8
SAPA_PROFIL
 62
     4
 10
-17.788169817537291
 20
45.510219846920577
 30
0.0
  0
VERTEX
  5
1AE3
  8
SAPA_PROFIL
 62
     4
 10
-17.03572550222081
 20
43.442896081191542
 30
0.0
 42
1.0
  0
VERTEX
  5
1AE4
  8
SAPA_PROFIL
 62
     4
 10
-14.874432474413259
 20
44.229542410840573
 30
0.0
  0
VERTEX
  5
1AE5
  8
SAPA_PROFIL
 62
     4
 10
-15.626876789729639
 20
46.296866176569651
 30
0.0
 42
1.0
  0
SEQEND
  5
1AE6
  8
SAPA_PROFIL
 62
     4
  0
POLYLINE
  5
EFF
  8
SAPA_PROFIL
 62
     4
 66
     1
 10
0.0
 20
0.0
 30
0.0
 70
     1
  0
VERTEX
  5
1AE7
  8
SAPA_PROFIL
 62
     4
 10
-25.647898958161029
 20
58.77180564334892
 30
0.0
  0
VERTEX
  5
1AE8
  8
SAPA_PROFIL
 62
     4
 10
-26.691345007036961
 20
61.638650101054687
 30
0.0
  0
VERTEX
  5
1AE9
  8
SAPA_PROFIL
 62
     4
 10
-27.829535888485282
 20
64.765803846863093
 30
0.0
 42
-0.6681786379192966
  0
VERTEX
  5
1AEA
  8
SAPA_PROFIL
 62
     4
 10
-27.14838044722201
 20
65.389967812044191
 30
0.0
  0
VERTEX
  5
1AEB
  8
SAPA_PROFIL
 62
     4
 10
-24.397252441944431
 20
64.107095746833579
 30
0.0
 42
0.1989123679837333
  0
VERTEX
  5
1AEC
  8
SAPA_PROFIL
 62
     4
 10
-23.632614034771478
 20
64.073710912102001
 30
0.0
  0
VERTEX
  5
1AED
  8
SAPA_PROFIL
 62
     4
 10
-23.08215484197698
 20
64.274061673457396
 30
0.0
 42
0.1989123667755704
  0
VERTEX
  5
1AEE
  8
SAPA_PROFIL
 62
     4
 10
-22.517867199248329
 20
64.791136030396018
 30
0.0
  0
VERTEX
  5
1AEF
  8
SAPA_PROFIL
 62
     4
 10
-21.234995126109229
 20
67.542264052675932
 30
0.0
 42
-0.6681786379192936
  0
VERTEX
  5
1AF0
  8
SAPA_PROFIL
 62
     4
 10
-20.311994922198028
 20
67.501964993468448
 30
0.0
  0
VERTEX
  5
1AF1
  8
SAPA_PROFIL
 62
     4
 10
-19.173804040749712
 20
64.374811247660034
 30
0.0
  0
VERTEX
  5
1AF2
  8
SAPA_PROFIL
 62
     4
 10
-18.130357991873758
 20
61.50796678995426
 30
0.0
 42
-0.4142135623730951
  0
VERTEX
  5
1AF3
  8
SAPA_PROFIL
 62
     4
 10
-18.42919423060388
 20
60.86711040789848
 30
0.0
  0
VERTEX
  5
1AF4
  8
SAPA_PROFIL
 62
     4
 10
-25.007042576105238
 20
58.472969404618802
 30
0.0
 42
-0.4142135623730951
  0
SEQEND
  5
1AF5
  8
SAPA_PROFIL
 62
     4
  0
POLYLINE
  5
F00
  8
SAPA_PROFIL
 62
     4
 66
     1
 10
0.0
 20
0.0
 30
0.0
 70
     1
  0
VERTEX
  5
1AF6
  8
SAPA_PROFIL
 62
     4
 10
-15.85439172999868
 20
51.119917041574809
 30
0.0
  0
VERTEX
  5
1AF7
  8
SAPA_PROFIL
 62
     4
 10
-16.728275861274241
 20
49.312792761734549
 30
0.0
 42
-0.9251773977986363
  0
VERTEX
  5
1AF8
  8
SAPA_PROFIL
 62
     4
 10
-18.883049419792389
 20
48.528519324850087
 30
0.0
  0
VERTEX
  5
1AF9
  8
SAPA_PROFIL
 62
     4
 10
-20.714080598731009
 20
49.351134945561441
 30
0.0
  0
VERTEX
  5
1AFA
  8
SAPA_PROFIL
 62
     4
 10
-21.573160337115532
 20
49.038455491928289
 30
0.0
 42
-0.4142135623730769
  0
VERTEX
  5
1AFB
  8
SAPA_PROFIL
 62
     4
 10
-22.214016719171319
 20
49.337291730658407
 30
0.0
  0
VERTEX
  5
1AFC
  8
SAPA_PROFIL
 62
     4
 10
-24.963858671509691
 20
56.892420401777102
 30
0.0
 42
-0.4142135623730951
  0
VERTEX
  5
1AFD
  8
SAPA_PROFIL
 62
     4
 10
-24.665022432779569
 20
57.533276783832889
 30
0.0
  0
VERTEX
  5
1AFE
  8
SAPA_PROFIL
 62
     4
 10
-18.087174087278211
 20
59.927417787112567
 30
0.0
 42
-0.4142135623730951
  0
VERTEX
  5
1AFF
  8
SAPA_PROFIL
 62
     4
 10
-17.44631770522242
 20
59.628581548382449
 30
0.0
  0
VERTEX
  5
1B00
  8
SAPA_PROFIL
 62
     4
 10
-14.69647575288405
 20
52.073452877263762
 30
0.0
 42
-0.4142135623730951
  0
VERTEX
  5
1B01
  8
SAPA_PROFIL
 62
     4
 10
-14.99531199161417
 20
51.43259649520796
 30
0.0
  0
SEQEND
  5
1B02
  8
SAPA_PROFIL
 62
     4
  0
POLYLINE
  5
F01
  8
SAPA_PROFIL
 62
     4
 66
     1
 10
0.0
 20
0.0
 30
0.0
 70
     1
  0
VERTEX
  5
1B03
  8
SAPA_PROFIL
 62
     4
 10
-23.205012361455971
 20
49.136225480450641
 30
0.0
 42
-1.0
  0
VERTEX
  5
1B04
  8
SAPA_PROFIL
 62
     4
 10
-24.42661276847771
 20
48.691599294127244
 30
0.0
  0
VERTEX
  5
1B05
  8
SAPA_PROFIL
 62
     4
 10
-24.71732989030453
 20
49.490338021795289
 30
0.0
  0
VERTEX
  5
1B06
  8
SAPA_PROFIL
 62
     4
 10
-24.670345259265179
 20
49.507439028961599
 30
0.0
 42
1.0
  0
VERTEX
  5
1B07
  8
SAPA_PROFIL
 62
     4
 10
-24.84135533092801
 20
49.977285339354552
 30
0.0
  0
VERTEX
  5
1B08
  8
SAPA_PROFIL
 62
     4
 10
-25.264217010281708
 20
49.823376274857978
 30
0.0
 42
0.4142135623730951
  0
VERTEX
  5
1B09
  8
SAPA_PROFIL
 62
     4
 10
-25.443518753519719
 20
49.438862445624459
 30
0.0
  0
VERTEX
  5
1B0A
  8
SAPA_PROFIL
 62
     4
 10
-24.862084509866101
 20
47.841384990288482
 30
0.0
 42
0.4225789089359373
  0
VERTEX
  5
1B0B
  8
SAPA_PROFIL
 62
     4
 10
-23.594052551487511
 20
47.281300217659563
 30
0.0
  0
VERTEX
  5
1B0C
  8
SAPA_PROFIL
 62
     4
 10
-20.774974689129781
 20
48.307360647636571
 30
0.0
  0
VERTEX
  5
1B0D
  8
SAPA_PROFIL
 62
     4
 10
-19.685518839635058
 20
47.79933904179542
 30
0.0
  0
VERTEX
  5
1B0E
  8
SAPA_PROFIL
 62
     4
 10
-17.582094958182211
 20
42.020229423962107
 30
0.0
 42
0.4142135623730951
  0
VERTEX
  5
1B0F
  8
SAPA_PROFIL
 62
     4
 10
-16.300382194070629
 20
41.422556946501871
 30
0.0
  0
VERTEX
  5
1B10
  8
SAPA_PROFIL
 62
     4
 10
-14.13908916626308
 20
42.209203276150888
 30
0.0
 42
0.4142135623730951
  0
VERTEX
  5
1B11
  8
SAPA_PROFIL
 62
     4
 10
-13.54141668880284
 20
43.490916040262469
 30
0.0
  0
VERTEX
  5
1B12
  8
SAPA_PROFIL
 62
     4
 10
-15.64484057025566
 20
49.270025658095669
 30
0.0
  0
VERTEX
  5
1B13
  8
SAPA_PROFIL
 62
     4
 10
-15.13681896441444
 20
50.359481507590537
 30
0.0
  0
VERTEX
  5
1B14
  8
SAPA_PROFIL
 62
     4
 10
-12.31774110205672
 20
51.385541937567552
 30
0.0
 42
0.4225789089359373
  0
VERTEX
  5
1B15
  8
SAPA_PROFIL
 62
     4
 10
-11.706387818863471
 20
52.62966699684781
 30
0.0
  0
VERTEX
  5
1B16
  8
SAPA_PROFIL
 62
     4
 10
-12.28782206251709
 20
54.227144452183794
 30
0.0
 42
0.4142135623730951
  0
VERTEX
  5
1B17
  8
SAPA_PROFIL
 62
     4
 10
-12.672335891750659
 20
54.4064461954219
 30
0.0
  0
VERTEX
  5
1B18
  8
SAPA_PROFIL
 62
     4
 10
-13.09519757110426
 20
54.252537130925369
 30
0.0
 42
1.0
  0
VERTEX
  5
1B19
  8
SAPA_PROFIL
 62
     4
 10
-12.92418749944143
 20
53.782690820532409
 30
0.0
  0
VERTEX
  5
1B1A
  8
SAPA_PROFIL
 62
     4
 10
-12.87720286840206
 20
53.799791827698719
 30
0.0
  0
VERTEX
  5
1B1B
  8
SAPA_PROFIL
 62
     4
 10
-12.58648574657524
 20
53.001053100030681
 30
0.0
 42
-1.0
  0
VERTEX
  5
1B1C
  8
SAPA_PROFIL
 62
     4
 10
-13.80808615359698
 20
52.556426913707277
 30
0.0
  0
VERTEX
  5
1B1D
  8
SAPA_PROFIL
 62
     4
 10
-18.234111419963799
 20
64.716831390985703
 30
0.0
  0
VERTEX
  5
1B1E
  8
SAPA_PROFIL
 62
     4
 10
-20.097836589356049
 20
69.83737420996016
 30
0.0
  0
VERTEX
  5
1B1F
  8
SAPA_PROFIL
 62
     4
 10
-21.5073755205349
 20
69.324343994971656
 30
0.0
  0
VERTEX
  5
1B20
  8
SAPA_PROFIL
 62
     4
 10
-23.387920060775421
 20
65.291503214099393
 30
0.0
 42
-0.4142135623730951
  0
VERTEX
  5
1B21
  8
SAPA_PROFIL
 62
     4
 10
-24.052383085163999
 20
65.04965845145145
 30
0.0
  0
VERTEX
  5
1B22
  8
SAPA_PROFIL
 62
     4
 10
-28.085223866036259
 20
66.930202991691971
 30
0.0
  0
VERTEX
  5
1B23
  8
SAPA_PROFIL
 62
     4
 10
-29.494762797215149
 20
66.417172776703467
 30
0.0
  0
VERTEX
  5
1B24
  8
SAPA_PROFIL
 62
     4
 10
-27.63103762782286
 20
61.296629957729017
 30
0.0
  0
VERTEX
  5
1B25
  8
SAPA_PROFIL
 62
     4
 10
-23.30761840445366
 20
49.418133266686397
 30
0.0
  0
SEQEND
  5
1B26
  8
SAPA_PROFIL
 62
     4
  0
POLYLINE
  5
F02
  8
SAPA_PROFIL
  6
CONTINUOUS
 62
     7
 66
     1
 10
0.0
 20
0.0
 30
0.0
 70
   129
  0
VERTEX
  5
1B27
  8
SAPA_PROFIL
  6
CONTINUOUS
 62
     7
 10
-30.311586216841761
 20
17.69978471765393
 30
0.0
 42
-0.4040262258351549
  0
VERTEX
  5
1B28
  8
SAPA_PROFIL
  6
CONTINUOUS
 62
     7
 10
-30.94618821578803
 20
17.982327731338948
 30
0.0
  0
VERTEX
  5
1B29
  8
SAPA_PROFIL
  6
CONTINUOUS
 62
     7
 10
-31.695858081246119
 20
19.837825759736859
 30
0.0
 42
-0.4244748162096148
  0
VERTEX
  5
1B2A
  8
SAPA_PROFIL
  6
CONTINUOUS
 62
     7
 10
-31.40327622562603
 20
20.49497536683737
 30
0.0
  0
VERTEX
  5
1B2B
  8
SAPA_PROFIL
  6
CONTINUOUS
 62
     7
 10
-25.765371844913322
 20
22.547004745055801
 30
0.0
 42
0.4142135623731088
  0
VERTEX
  5
1B2C
  8
SAPA_PROFIL
  6
CONTINUOUS
 62
     7
 10
-25.586070101675318
 20
22.931518574289331
 30
0.0
  0
VERTEX
  5
1B2D
  8
SAPA_PROFIL
  6
CONTINUOUS
 62
     7
 10
-26.91994866064443
 20
26.596319795354649
 30
0.0
 42
-0.21342176528335
  0
VERTEX
  5
1B2E
  8
SAPA_PROFIL
  6
CONTINUOUS
 62
     7
 10
-26.902457427581851
 20
26.840643467490231
 30
0.0
 42
0.213421765283341
  0
VERTEX
  5
1B2F
  8
SAPA_PROFIL
  6
CONTINUOUS
 62
     7
 10
-26.88496619451826
 20
27.08496713962592
 30
0.0
  0
VERTEX
  5
1B30
  8
SAPA_PROFIL
  6
CONTINUOUS
 62
     7
 10
-27.074030279813829
 20
27.604416444805398
 30
0.0
 42
0.4142135623730951
  0
VERTEX
  5
1B31
  8
SAPA_PROFIL
  6
CONTINUOUS
 62
     7
 10
-27.45854410904747
 20
27.783718188043451
 30
0.0
  0
VERTEX
  5
1B32
  8
SAPA_PROFIL
  6
CONTINUOUS
 62
     7
 10
-29.0560215643834
 20
27.202283944389819
 30
0.0
  0
VERTEX
  5
1B33
  8
SAPA_PROFIL
  6
CONTINUOUS
 62
     7
 10
-29.448029122344568
 20
26.564843692679631
 30
0.0
 42
0.7105995015649539
  0
VERTEX
  5
1B34
  8
SAPA_PROFIL
  6
CONTINUOUS
 62
     7
 10
-29.089878469371168
 20
26.12578326627391
 30
0.0
  0
VERTEX
  5
1B35
  8
SAPA_PROFIL
  6
CONTINUOUS
 62
     7
 10
-28.714001421057841
 20
26.262591323603878
 30
0.0
 42
-0.4142135623731206
  0
VERTEX
  5
1B36
  8
SAPA_PROFIL
  6
CONTINUOUS
 62
     7
 10
-28.329487591824321
 20
26.083289580365829
 30
0.0
  0
VERTEX
  5
1B37
  8
SAPA_PROFIL
  6
CONTINUOUS
 62
     7
 10
-27.508639247842719
 20
23.828027290479611
 30
0.0
 42
-0.4142135623730951
  0
VERTEX
  5
1B38
  8
SAPA_PROFIL
  6
CONTINUOUS
 62
     7
 10
-27.68794099108073
 20
23.443513461246202
 30
0.0
  0
VERTEX
  5
1B39
  8
SAPA_PROFIL
  6
CONTINUOUS
 62
     7
 10
-32.292434832930667
 20
21.767614758950739
 30
0.0
 42
-0.4142135623731258
  0
VERTEX
  5
1B3A
  8
SAPA_PROFIL
  6
CONTINUOUS
 62
     7
 10
-32.6769486621642
 20
21.946916502188799
 30
0.0
  0
VERTEX
  5
1B3B
  8
SAPA_PROFIL
  6
CONTINUOUS
 62
     7
 10
-33.497797006145788
 20
24.202178792075021
 30
0.0
 42
-0.4142135623731257
  0
VERTEX
  5
1B3C
  8
SAPA_PROFIL
  6
CONTINUOUS
 62
     7
 10
-33.318495262907788
 20
24.58669262130843
 30
0.0
  0
VERTEX
  5
1B3D
  8
SAPA_PROFIL
  6
CONTINUOUS
 62
     7
 10
-32.472771904201352
 20
24.894510750301212
 30
0.0
 42
0.710599501565072
  0
VERTEX
  5
1B3E
  8
SAPA_PROFIL
  6
CONTINUOUS
 62
     7
 10
-32.480635188688893
 20
25.461065352275511
 30
0.0
  0
VERTEX
  5
1B3F
  8
SAPA_PROFIL
  6
CONTINUOUS
 62
     7
 10
-33.190669095841493
 20
25.697395313756829
 30
0.0
  0
VERTEX
  5
1B40
  8
SAPA_PROFIL
  6
CONTINUOUS
 62
     7
 10
-35.351962123649059
 20
24.91074898410778
 30
0.0
 42
0.4244748162096024
  0
VERTEX
  5
1B41
  8
SAPA_PROFIL
  6
CONTINUOUS
 62
     7
 10
-35.527511237020583
 20
24.51645921984726
 30
0.0
  0
VERTEX
  5
1B42
  8
SAPA_PROFIL
  6
CONTINUOUS
 62
     7
 10
-32.431626152793513
 20
16.853874748189071
 30
0.0
 42
0.4040262258351507
  0
VERTEX
  5
1B43
  8
SAPA_PROFIL
  6
CONTINUOUS
 62
     7
 10
-29.893218157008508
 20
15.72370269344913
 30
0.0
  0
VERTEX
  5
1B44
  8
SAPA_PROFIL
  6
CONTINUOUS
 62
     7
 10
-29.881365377157071
 20
15.728016752508379
 30
0.0
 42
-0.8769764629927435
  0
VERTEX
  5
1B45
  8
SAPA_PROFIL
  6
CONTINUOUS
 62
     7
 10
-28.965768797480909
 20
13.96917208743338
 30
0.0
  0
VERTEX
  5
1B46
  8
SAPA_PROFIL
  6
CONTINUOUS
 62
     7
 10
-30.947204464022491
 20
12.58175589724231
 30
0.0
 42
0.3394542588633873
  0
VERTEX
  5
1B47
  8
SAPA_PROFIL
  6
CONTINUOUS
 62
     7
 10
-31.057039319353009
 20
12.23340424095789
 30
0.0
  0
VERTEX
  5
1B48
  8
SAPA_PROFIL
  6
CONTINUOUS
 62
     7
 10
-15.96771166865733
 20
-29.224182754078019
 30
0.0
 42
0.4142135623730951
  0
VERTEX
  5
1B49
  8
SAPA_PROFIL
  6
CONTINUOUS
 62
     7
 10
-15.32685528660153
 20
-29.52301899280809
 30
0.0
  0
VERTEX
  5
1B4A
  8
SAPA_PROFIL
  6
CONTINUOUS
 62
     7
 10
30.718083131907012
 20
-12.76403196985069
 30
0.0
 42
0.4142135623730951
  0
VERTEX
  5
1B4B
  8
SAPA_PROFIL
  6
CONTINUOUS
 62
     7
 10
31.01691937063714
 20
-12.12317558779494
 30
0.0
  0
VERTEX
  5
1B4C
  8
SAPA_PROFIL
  6
CONTINUOUS
 62
     7
 10
15.927591719943329
 20
29.334411407241699
 30
0.0
 42
0.3394542588633794
  0
VERTEX
  5
1B4D
  8
SAPA_PROFIL
  6
CONTINUOUS
 62
     7
 10
15.619537210883321
 20
29.530663773671851
 30
0.0
  0
VERTEX
  5
1B4E
  8
SAPA_PROFIL
  6
CONTINUOUS
 62
     7
 10
13.20985549259745
 20
29.319843940616408
 30
0.0
 42
-0.8769764629927569
  0
VERTEX
  5
1B4F
  8
SAPA_PROFIL
  6
CONTINUOUS
 62
     7
 10
12.78067960652413
 20
31.255731259494102
 30
0.0
  0
VERTEX
  5
1B50
  8
SAPA_PROFIL
  6
CONTINUOUS
 62
     7
 10
12.79253238637563
 20
31.260045318553349
 30
0.0
 42
0.4040262258351565
  0
VERTEX
  5
1B51
  8
SAPA_PROFIL
  6
CONTINUOUS
 62
     7
 10
14.010605132314369
 20
33.757464548875021
 30
0.0
  0
VERTEX
  5
1B52
  8
SAPA_PROFIL
  6
CONTINUOUS
 62
     7
 10
11.456776341063399
 20
41.617341376473121
 30
0.0
 42
0.4244748162095171
  0
VERTEX
  5
1B53
  8
SAPA_PROFIL
  6
CONTINUOUS
 62
     7
 10
11.06885334317769
 20
41.806544064396853
 30
0.0
  0
VERTEX
  5
1B54
  8
SAPA_PROFIL
  6
CONTINUOUS
 62
     7
 10
8.9075603153700627
 20
41.019897734747808
 30
0.0
  0
VERTEX
  5
1B55
  8
SAPA_PROFIL
  6
CONTINUOUS
 62
     7
 10
8.5155527574078178
 20
40.382457483037619
 30
0.0
 42
0.710599501565103
  0
VERTEX
  5
1B56
  8
SAPA_PROFIL
  6
CONTINUOUS
 62
     7
 10
8.8737034103813812
 20
39.943397056631682
 30
0.0
  0
VERTEX
  5
1B57
  8
SAPA_PROFIL
  6
CONTINUOUS
 62
     7
 10
9.7194267690877041
 20
40.251215185624403
 30
0.0
 42
-0.4142135623731159
  0
VERTEX
  5
1B58
  8
SAPA_PROFIL
  6
CONTINUOUS
 62
     7
 10
10.10394059832225
 20
40.071913442386688
 30
0.0
  0
VERTEX
  5
1B59
  8
SAPA_PROFIL
  6
CONTINUOUS
 62
     7
 10
10.924788942302881
 20
37.816651152500192
 30
0.0
 42
-0.4142135623731019
  0
VERTEX
  5
1B5A
  8
SAPA_PROFIL
  6
CONTINUOUS
 62
     7
 10
10.74548719906471
 20
37.432137323266659
 30
0.0
  0
VERTEX
  5
1B5B
  8
SAPA_PROFIL
  6
CONTINUOUS
 62
     7
 10
6.140993357214767
 20
35.75623862097126
 30
0.0
 42
-0.4142135623730951
  0
VERTEX
  5
1B5C
  8
SAPA_PROFIL
  6
CONTINUOUS
 62
     7
 10
5.7564795279812984
 20
35.935540364209317
 30
0.0
  0
VERTEX
  5
1B5D
  8
SAPA_PROFIL
  6
CONTINUOUS
 62
     7
 10
4.9356311839997034
 20
38.190802654095528
 30
0.0
 42
-0.4142135623731367
  0
VERTEX
  5
1B5E
  8
SAPA_PROFIL
  6
CONTINUOUS
 62
     7
 10
5.1149329272377591
 20
38.575316483328997
 30
0.0
  0
VERTEX
  5
1B5F
  8
SAPA_PROFIL
  6
CONTINUOUS
 62
     7
 10
5.4908099755511444
 20
38.712124540658863
 30
0.0
 42
0.7105995015649319
  0
VERTEX
  5
1B60
  8
SAPA_PROFIL
  6
CONTINUOUS
 62
     7
 10
5.482946691063546
 20
39.278679142632882
 30
0.0
  0
VERTEX
  5
1B61
  8
SAPA_PROFIL
  6
CONTINUOUS
 62
     7
 10
4.7729127839120897
 20
39.515009104114881
 30
0.0
  0
VERTEX
  5
1B62
  8
SAPA_PROFIL
  6
CONTINUOUS
 62
     7
 10
3.1754353285759862
 20
38.933574860461249
 30
0.0
 42
0.4142135623731159
  0
VERTEX
  5
1B63
  8
SAPA_PROFIL
  6
CONTINUOUS
 62
     7
 10
2.996133585337986
 20
38.549061031227779
 30
0.0
  0
VERTEX
  5
1B64
  8
SAPA_PROFIL
  6
CONTINUOUS
 62
     7
 10
3.1851976706335559
 20
38.029611726048358
 30
0.0
 42
0.2134217652833476
  0
VERTEX
  5
1B65
  8
SAPA_PROFIL
  6
CONTINUOUS
 62
     7
 10
3.3556449617271928
 20
37.853692082577709
 30
0.0
 42
-0.2134217652833586
  0
VERTEX
  5
1B66
  8
SAPA_PROFIL
  6
CONTINUOUS
 62
     7
 10
3.5260922528199208
 20
37.677772439106718
 30
0.0
  0
VERTEX
  5
1B67
  8
SAPA_PROFIL
  6
CONTINUOUS
 62
     7
 10
4.8599708117910154
 20
34.012971218041969
 30
0.0
 42
0.4142135623731019
  0
VERTEX
  5
1B68
  8
SAPA_PROFIL
  6
CONTINUOUS
 62
     7
 10
5.2444846410244281
 20
33.833669474803919
 30
0.0
  0
VERTEX
  5
1B69
  8
SAPA_PROFIL
  6
CONTINUOUS
 62
     7
 10
10.88238902173714
 20
35.885698853022348
 30
0.0
 42
-0.4244748162095981
  0
VERTEX
  5
1B6A
  8
SAPA_PROFIL
  6
CONTINUOUS
 62
     7
 10
11.528927351547511
 20
35.570361039816873
 30
0.0
  0
VERTEX
  5
1B6B
  8
SAPA_PROFIL
  6
CONTINUOUS
 62
     7
 10
12.14733805939159
 20
33.667088585072008
 30
0.0
 42
-0.4040262258351559
  0
VERTEX
  5
1B6C
  8
SAPA_PROFIL
  6
CONTINUOUS
 62
     7
 10
11.842819872906199
 20
33.042733777492167
 30
0.0
  0
VERTEX
  5
1B6D
  8
SAPA_PROFIL
  6
CONTINUOUS
 62
     7
 10
-7.3549979303955411
 20
26.055299534224499
 30
0.0
 42
-0.4142135623730951
  0
VERTEX
  5
1B6E
  8
SAPA_PROFIL
  6
CONTINUOUS
 62
     7
 10
-8.6367106945070873
 20
26.652972011684771
 30
0.0
  0
VERTEX
  5
1B6F
  8
SAPA_PROFIL
  6
CONTINUOUS
 62
     7
 10
-9.8337811961469583
 20
29.94189618443545
 30
0.0
 42
-0.4142135623730951
  0
VERTEX
  5
1B70
  8
SAPA_PROFIL
  6
CONTINUOUS
 62
     7
 10
-9.2361087186867508
 20
31.223608948547049
 30
0.0
  0
VERTEX
  5
1B71
  8
SAPA_PROFIL
  6
CONTINUOUS
 62
     7
 10
-7.3567234771159056
 20
31.907649235198051
 30
0.0
 42
0.4142135623730909
  0
VERTEX
  5
1B72
  8
SAPA_PROFIL
  6
CONTINUOUS
 62
     7
 10
-6.759050999655642
 20
33.189361999309597
 30
0.0
  0
VERTEX
  5
1B73
  8
SAPA_PROFIL
  6
CONTINUOUS
 62
     7
 10
-13.154827679845649
 20
50.76161400800612
 30
0.0
 42
0.4142135623730951
  0
VERTEX
  5
1B74
  8
SAPA_PROFIL
  6
CONTINUOUS
 62
     7
 10
-13.53934150907912
 20
50.940915751244177
 30
0.0
  0
VERTEX
  5
1B75
  8
SAPA_PROFIL
  6
CONTINUOUS
 62
     7
 10
-15.065650468654489
 20
50.385384721664927
 30
0.0
  0
VERTEX
  5
1B76
  8
SAPA_PROFIL
  6
CONTINUOUS
 62
     7
 10
-15.626188339211581
 20
49.183307379047669
 30
0.0
 42
0.1989123673804336
  0
VERTEX
  5
1B77
  8
SAPA_PROFIL
  6
CONTINUOUS
 62
     7
 10
-15.63620378933706
 20
48.953915857527022
 30
0.0
  0
VERTEX
  5
1B78
  8
SAPA_PROFIL
  6
CONTINUOUS
 62
     7
 10
-15.22577961734544
 20
47.826284712584588
 30
0.0
  0
VERTEX
  5
1B79
  8
SAPA_PROFIL
  6
CONTINUOUS
 62
     7
 10
-14.61497941383465
 20
48.048597805746283
 30
0.0
  0
VERTEX
  5
1B7A
  8
SAPA_PROFIL
  6
CONTINUOUS
 62
     7
 10
-14.729971362759899
 20
46.542185892727559
 30
0.0
 42
0.5450207774087864
  0
VERTEX
  5
1B7B
  8
SAPA_PROFIL
  6
CONTINUOUS
 62
     7
 10
-14.32823557312372
 20
46.237444038167659
 30
0.0
  0
VERTEX
  5
1B7C
  8
SAPA_PROFIL
  6
CONTINUOUS
 62
     7
 10
-13.999343155848409
 20
46.357151088331698
 30
0.0
  0
VERTEX
  5
1B7D
  8
SAPA_PROFIL
  6
CONTINUOUS
 62
     7
 10
-14.11433510477366
 20
44.850739175312867
 30
0.0
 42
0.54502077740915
  0
VERTEX
  5
1B7E
  8
SAPA_PROFIL
  6
CONTINUOUS
 62
     7
 10
-13.71259931513719
 20
44.545997320753081
 30
0.0
  0
VERTEX
  5
1B7F
  8
SAPA_PROFIL
  6
CONTINUOUS
 62
     7
 10
-13.38370689786222
 20
44.665704370917062
 30
0.0
  0
VERTEX
  5
1B80
  8
SAPA_PROFIL
  6
CONTINUOUS
 62
     7
 10
-13.49869884678748
 20
43.159292457898289
 30
0.0
 42
0.5450207774088274
  0
VERTEX
  5
1B81
  8
SAPA_PROFIL
  6
CONTINUOUS
 62
     7
 10
-13.096963057151299
 20
42.854550603338332
 30
0.0
  0
VERTEX
  5
1B82
  8
SAPA_PROFIL
  6
CONTINUOUS
 62
     7
 10
-12.76807063987604
 20
42.974257653502427
 30
0.0
  0
VERTEX
  5
1B83
  8
SAPA_PROFIL
  6
CONTINUOUS
 62
     7
 10
-12.883062588801289
 20
41.467845740483597
 30
0.0
 42
0.5450207774088203
  0
VERTEX
  5
1B84
  8
SAPA_PROFIL
  6
CONTINUOUS
 62
     7
 10
-12.481326799165119
 20
41.163103885923697
 30
0.0
  0
VERTEX
  5
1B85
  8
SAPA_PROFIL
  6
CONTINUOUS
 62
     7
 10
-12.152434381889799
 20
41.282810936087792
 30
0.0
  0
VERTEX
  5
1B86
  8
SAPA_PROFIL
  6
CONTINUOUS
 62
     7
 10
-12.26742633081505
 20
39.776399023069018
 30
0.0
 42
0.5450207774087519
  0
VERTEX
  5
1B87
  8
SAPA_PROFIL
  6
CONTINUOUS
 62
     7
 10
-11.86569054117893
 20
39.471657168509068
 30
0.0
  0
VERTEX
  5
1B88
  8
SAPA_PROFIL
  6
CONTINUOUS
 62
     7
 10
-11.536798123903621
 20
39.591364218673171
 30
0.0
  0
VERTEX
  5
1B89
  8
SAPA_PROFIL
  6
CONTINUOUS
 62
     7
 10
-11.65179007282887
 20
38.08495230565439
 30
0.0
 42
0.5450207774090911
  0
VERTEX
  5
1B8A
  8
SAPA_PROFIL
  6
CONTINUOUS
 62
     7
 10
-11.250054283192471
 20
37.780210451094547
 30
0.0
  0
VERTEX
  5
1B8B
  8
SAPA_PROFIL
  6
CONTINUOUS
 62
     7
 10
-10.921161865917441
 20
37.899917501258528
 30
0.0
  0
VERTEX
  5
1B8C
  8
SAPA_PROFIL
  6
CONTINUOUS
 62
     7
 10
-11.036153814842629
 20
36.393505588239748
 30
0.0
 42
0.5450207774088274
  0
VERTEX
  5
1B8D
  8
SAPA_PROFIL
  6
CONTINUOUS
 62
     7
 10
-10.634418025206511
 20
36.088763733679862
 30
0.0
  0
VERTEX
  5
1B8E
  8
SAPA_PROFIL
  6
CONTINUOUS
 62
     7
 10
-10.3055256079312
 20
36.2084707838439
 30
0.0
  0
VERTEX
  5
1B8F
  8
SAPA_PROFIL
  6
CONTINUOUS
 62
     7
 10
-10.420517556856449
 20
34.702058870825113
 30
0.0
 42
0.5450207774088348
  0
VERTEX
  5
1B90
  8
SAPA_PROFIL
  6
CONTINUOUS
 62
     7
 10
-10.018781767220331
 20
34.397317016265163
 30
0.0
  0
VERTEX
  5
1B91
  8
SAPA_PROFIL
  6
CONTINUOUS
 62
     7
 10
-9.6898893499449628
 20
34.517024066429201
 30
0.0
  0
VERTEX
  5
1B92
  8
SAPA_PROFIL
  6
CONTINUOUS
 62
     7
 10
-9.6043843141135881
 20
34.28210091123276
 30
0.0
 42
-0.4142135623730951
  0
VERTEX
  5
1B93
  8
SAPA_PROFIL
  6
CONTINUOUS
 62
     7
 10
-10.20205679157379
 20
33.000388147121221
 30
0.0
  0
VERTEX
  5
1B94
  8
SAPA_PROFIL
  6
CONTINUOUS
 62
     7
 10
-13.39701170224685
 20
31.837519659813609
 30
0.0
 42
-0.4142135623730951
  0
VERTEX
  5
1B95
  8
SAPA_PROFIL
  6
CONTINUOUS
 62
     7
 10
-14.6787244663584
 20
32.435192137273823
 30
0.0
  0
VERTEX
  5
1B96
  8
SAPA_PROFIL
  6
CONTINUOUS
 62
     7
 10
-15.072047631182899
 20
33.515838651177603
 30
0.0
  0
VERTEX
  5
1B97
  8
SAPA_PROFIL
  6
CONTINUOUS
 62
     7
 10
-14.74315521390781
 20
33.635545701341591
 30
0.0
 42
0.5450207774091157
  0
VERTEX
  5
1B98
  8
SAPA_PROFIL
  6
CONTINUOUS
 62
     7
 10
-14.631292032919809
 20
34.12722229355888
 30
0.0
  0
VERTEX
  5
1B99
  8
SAPA_PROFIL
  6
CONTINUOUS
 62
     7
 10
-15.687683889169129
 20
35.207285368592302
 30
0.0
  0
VERTEX
  5
1B9A
  8
SAPA_PROFIL
  6
CONTINUOUS
 62
     7
 10
-15.358791471894049
 20
35.32699241875622
 30
0.0
 42
0.5450207774091194
  0
VERTEX
  5
1B9B
  8
SAPA_PROFIL
  6
CONTINUOUS
 62
     7
 10
-15.24692829090605
 20
35.818669010973558
 30
0.0
  0
VERTEX
  5
1B9C
  8
SAPA_PROFIL
  6
CONTINUOUS
 62
     7
 10
-16.303320147155318
 20
36.898732086006873
 30
0.0
  0
VERTEX
  5
1B9D
  8
SAPA_PROFIL
  6
CONTINUOUS
 62
     7
 10
-15.97442772988023
 20
37.018439136170862
 30
0.0
 42
0.5450207774093996
  0
VERTEX
  5
1B9E
  8
SAPA_PROFIL
  6
CONTINUOUS
 62
     7
 10
-15.862564548892291
 20
37.510115728388257
 30
0.0
  0
VERTEX
  5
1B9F
  8
SAPA_PROFIL
  6
CONTINUOUS
 62
     7
 10
-16.9189564051415
 20
38.590178803421573
 30
0.0
  0
VERTEX
  5
1BA0
  8
SAPA_PROFIL
  6
CONTINUOUS
 62
     7
 10
-16.590063987866468
 20
38.70988585358549
 30
0.0
 42
0.5450207774091379
  0
VERTEX
  5
1BA1
  8
SAPA_PROFIL
  6
CONTINUOUS
 62
     7
 10
-16.478200806878419
 20
39.201562445802828
 30
0.0
  0
VERTEX
  5
1BA2
  8
SAPA_PROFIL
  6
CONTINUOUS
 62
     7
 10
-17.534592663127739
 20
40.281625520836137
 30
0.0
  0
VERTEX
  5
1BA3
  8
SAPA_PROFIL
  6
CONTINUOUS
 62
     7
 10
-17.20570024585265
 20
40.401332571000182
 30
0.0
 42
0.5450207774090506
  0
VERTEX
  5
1BA4
  8
SAPA_PROFIL
  6
CONTINUOUS
 62
     7
 10
-17.093837064864658
 20
40.893009163217407
 30
0.0
  0
VERTEX
  5
1BA5
  8
SAPA_PROFIL
  6
CONTINUOUS
 62
     7
 10
-18.150228921113921
 20
41.973072238250772
 30
0.0
  0
VERTEX
  5
1BA6
  8
SAPA_PROFIL
  6
CONTINUOUS
 62
     7
 10
-17.821336503838829
 20
42.092779288414746
 30
0.0
 42
0.5450207774091257
  0
VERTEX
  5
1BA7
  8
SAPA_PROFIL
  6
CONTINUOUS
 62
     7
 10
-17.70947332285084
 20
42.584455880632099
 30
0.0
  0
VERTEX
  5
1BA8
  8
SAPA_PROFIL
  6
CONTINUOUS
 62
     7
 10
-18.76586517910016
 20
43.664518955665407
 30
0.0
  0
VERTEX
  5
1BA9
  8
SAPA_PROFIL
  6
CONTINUOUS
 62
     7
 10
-18.436972761825071
 20
43.784226005829453
 30
0.0
 42
0.545020777409241
  0
VERTEX
  5
1BAA
  8
SAPA_PROFIL
  6
CONTINUOUS
 62
     7
 10
-18.325109580837079
 20
44.275902598046798
 30
0.0
  0
VERTEX
  5
1BAB
  8
SAPA_PROFIL
  6
CONTINUOUS
 62
     7
 10
-19.381501437086339
 20
45.355965673080043
 30
0.0
  0
VERTEX
  5
1BAC
  8
SAPA_PROFIL
  6
CONTINUOUS
 62
     7
 10
-19.052609019811261
 20
45.475672723244017
 30
0.0
 42
0.54502077740936
  0
VERTEX
  5
1BAD
  8
SAPA_PROFIL
  6
CONTINUOUS
 62
     7
 10
-18.940745838823261
 20
45.96734931546149
 30
0.0
  0
VERTEX
  5
1BAE
  8
SAPA_PROFIL
  6
CONTINUOUS
 62
     7
 10
-19.997137695072521
 20
47.047412390494678
 30
0.0
  0
VERTEX
  5
1BAF
  8
SAPA_PROFIL
  6
CONTINUOUS
 62
     7
 10
-19.668245277797439
 20
47.167119440658723
 30
0.0
 42
0.6681786379193133
  0
VERTEX
  5
1BB0
  8
SAPA_PROFIL
  6
CONTINUOUS
 62
     7
 10
-19.644065842272941
 20
47.720919563005452
 30
0.0
  0
VERTEX
  5
1BB1
  8
SAPA_PROFIL
  6
CONTINUOUS
 62
     7
 10
-20.846143184890199
 20
48.281457433562537
 30
0.0
  0
VERTEX
  5
1BB2
  8
SAPA_PROFIL
  6
CONTINUOUS
 62
     7
 10
-22.372452144466649
 20
47.725926403982889
 30
0.0
 42
0.4142135623730811
  0
VERTEX
  5
1BB3
  8
SAPA_PROFIL
  6
CONTINUOUS
 62
     7
 10
-22.551753887704649
 20
47.341412574749477
 30
0.0
  0
VERTEX
  5
1BB4
  8
SAPA_PROFIL
  6
CONTINUOUS
 62
     7
 10
-16.155977207514749
 20
29.7691605660529
 30
0.0
 42
0.4142135623730951
  0
VERTEX
  5
1BB5
  8
SAPA_PROFIL
  6
CONTINUOUS
 62
     7
 10
-14.874264443403201
 20
29.171488088592699
 30
0.0
  0
VERTEX
  5
1BB6
  8
SAPA_PROFIL
  6
CONTINUOUS
 62
     7
 10
-12.99487920183134
 20
29.855528375244042
 30
0.0
 42
-0.4142135623731013
  0
VERTEX
  5
1BB7
  8
SAPA_PROFIL
  6
CONTINUOUS
 62
     7
 10
-11.71316643771882
 20
29.257855897784111
 30
0.0
  0
VERTEX
  5
1BB8
  8
SAPA_PROFIL
  6
CONTINUOUS
 62
     7
 10
-10.516095936078949
 20
25.968931725033428
 30
0.0
 42
-0.4142135623730951
  0
VERTEX
  5
1BB9
  8
SAPA_PROFIL
  6
CONTINUOUS
 62
     7
 10
-11.113768413539161
 20
24.687218960921829
 30
0.0
  0
SEQEND
  5
1BBA
  8
SAPA_PROFIL
  6
CONTINUOUS
 62
     7
  0
POLYLINE
  5
F03
  8
SAPA_PROFIL
  6
CONTINUOUS
 62
     7
 66
     1
 10
0.0
 20
0.0
 30
0.0
 70
   129
  0
VERTEX
  5
1BBB
  8
SAPA_PROFIL
  6
CONTINUOUS
 62
     7
 10
28.47042229490836
 20
-10.389580293816319
 30
0.0
 42
-0.4142135623730888
  0
VERTEX
  5
1BBC
  8
SAPA_PROFIL
  6
CONTINUOUS
 62
     7
 10
27.872749817448099
 20
-11.671293057927921
 30
0.0
  0
VERTEX
  5
1BBD
  8
SAPA_PROFIL
  6
CONTINUOUS
 62
     7
 10
-13.84960254544529
 20
-26.856987421587242
 30
0.0
 42
-0.4142135623730951
  0
VERTEX
  5
1BBE
  8
SAPA_PROFIL
  6
CONTINUOUS
 62
     7
 10
-15.131315309556779
 20
-26.25931494412697
 30
0.0
  0
VERTEX
  5
1BBF
  8
SAPA_PROFIL
  6
CONTINUOUS
 62
     7
 10
-18.38050667115067
 20
-17.332235046660848
 30
0.0
 42
-0.4142135623730992
  0
VERTEX
  5
1BC0
  8
SAPA_PROFIL
  6
CONTINUOUS
 62
     7
 10
-17.782834193690459
 20
-16.050522282549249
 30
0.0
  0
VERTEX
  5
1BC1
  8
SAPA_PROFIL
  6
CONTINUOUS
 62
     7
 10
-13.64818666223249
 20
-14.54563365191637
 30
0.0
 42
0.4142135623730951
  0
VERTEX
  5
1BC2
  8
SAPA_PROFIL
  6
CONTINUOUS
 62
     7
 10
-13.349350423502299
 20
-13.90477726986057
 30
0.0
  0
VERTEX
  5
1BC3
  8
SAPA_PROFIL
  6
CONTINUOUS
 62
     7
 10
-14.067592724486239
 20
-11.931422766210121
 30
0.0
 42
0.4142135623730812
  0
VERTEX
  5
1BC4
  8
SAPA_PROFIL
  6
CONTINUOUS
 62
     7
 10
-14.452106553719711
 20
-11.752121022972119
 30
0.0
  0
VERTEX
  5
1BC5
  8
SAPA_PROFIL
  6
CONTINUOUS
 62
     7
 10
-14.921952864112709
 20
-11.92313109463492
 30
0.0
 42
0.4142135623730258
  0
VERTEX
  5
1BC6
  8
SAPA_PROFIL
  6
CONTINUOUS
 62
     7
 10
-15.10125460735077
 20
-12.30764492386839
 30
0.0
  0
VERTEX
  5
1BC7
  8
SAPA_PROFIL
  6
CONTINUOUS
 62
     7
 10
-14.98612141834025
 20
-12.623970760905589
 30
0.0
 42
-0.5643553431125478
  0
VERTEX
  5
1BC8
  8
SAPA_PROFIL
  6
CONTINUOUS
 62
     7
 10
-19.686644344814621
 20
-12.353075416244449
 30
0.0
  0
VERTEX
  5
1BC9
  8
SAPA_PROFIL
  6
CONTINUOUS
 62
     7
 10
-19.462878731776641
 20
-11.873208510512599
 30
0.0
  0
VERTEX
  5
1BCA
  8
SAPA_PROFIL
  6
CONTINUOUS
 62
     7
 10
-19.942745637508381
 20
-11.649442897469889
 30
0.0
 42
-0.5643553431119912
  0
VERTEX
  5
1BCB
  8
SAPA_PROFIL
  6
CONTINUOUS
 62
     7
 10
-16.51606434099887
 20
-8.4204871278455471
 30
0.0
  0
VERTEX
  5
1BCC
  8
SAPA_PROFIL
  6
CONTINUOUS
 62
     7
 10
-16.400931151988289
 20
-8.736812964881949
 30
0.0
 42
0.4142135623730531
  0
VERTEX
  5
1BCD
  8
SAPA_PROFIL
  6
CONTINUOUS
 62
     7
 10
-16.016417322754869
 20
-8.9161147081200056
 30
0.0
  0
VERTEX
  5
1BCE
  8
SAPA_PROFIL
  6
CONTINUOUS
 62
     7
 10
-15.546571012361881
 20
-8.7451046364571994
 30
0.0
 42
0.4142135623731091
  0
VERTEX
  5
1BCF
  8
SAPA_PROFIL
  6
CONTINUOUS
 62
     7
 10
-15.367269269123771
 20
-8.3605908072236712
 30
0.0
  0
VERTEX
  5
1BD0
  8
SAPA_PROFIL
  6
CONTINUOUS
 62
     7
 10
-16.085511570107649
 20
-6.3872363035732738
 30
0.0
 42
0.4142135623730951
  0
VERTEX
  5
1BD1
  8
SAPA_PROFIL
  6
CONTINUOUS
 62
     7
 10
-16.72636795216351
 20
-6.0884000648431416
 30
0.0
  0
VERTEX
  5
1BD2
  8
SAPA_PROFIL
  6
CONTINUOUS
 62
     7
 10
-20.86101548362149
 20
-7.5932886954761321
 30
0.0
 42
-0.4142135623730951
  0
VERTEX
  5
1BD3
  8
SAPA_PROFIL
  6
CONTINUOUS
 62
     7
 10
-22.142728247733029
 20
-6.9956162180158676
 30
0.0
  0
VERTEX
  5
1BD4
  8
SAPA_PROFIL
  6
CONTINUOUS
 62
     7
 10
-28.638672324401849
 20
10.85184345066881
 30
0.0
 42
-0.3394542588633977
  0
VERTEX
  5
1BD5
  8
SAPA_PROFIL
  6
CONTINUOUS
 62
     7
 10
-28.272556139967438
 20
12.013015638283321
 30
0.0
  0
VERTEX
  5
1BD6
  8
SAPA_PROFIL
  6
CONTINUOUS
 62
     7
 10
-27.818615924778332
 20
12.330867998855471
 30
0.0
 42
0.4002077966304456
  0
VERTEX
  5
1BD7
  8
SAPA_PROFIL
  6
CONTINUOUS
 62
     7
 10
-27.00206928396625
 20
16.389021090623089
 30
0.0
 42
-0.478297483036658
  0
VERTEX
  5
1BD8
  8
SAPA_PROFIL
  6
CONTINUOUS
 62
     7
 10
-26.850947731977389
 20
16.830998572748911
 30
0.0
  0
VERTEX
  5
1BD9
  8
SAPA_PROFIL
  6
CONTINUOUS
 62
     7
 10
9.7502619613444494
 20
30.152749439253569
 30
0.0
 42
-0.4782974830366494
  0
VERTEX
  5
1BDA
  8
SAPA_PROFIL
  6
CONTINUOUS
 62
     7
 10
10.15012543575193
 20
29.911314106262409
 30
0.0
 42
0.400207796630451
  0
VERTEX
  5
1BDB
  8
SAPA_PROFIL
  6
CONTINUOUS
 62
     7
 10
13.384166978092709
 20
27.3274545444329
 30
0.0
  0
VERTEX
  5
1BDC
  8
SAPA_PROFIL
  6
CONTINUOUS
 62
     7
 10
13.936216916532089
 20
27.375752655746449
 30
0.0
 42
-0.3394542588633866
  0
VERTEX
  5
1BDD
  8
SAPA_PROFIL
  6
CONTINUOUS
 62
     7
 10
14.963065280065219
 20
26.721578100980249
 30
0.0
  0
VERTEX
  5
1BDE
  8
SAPA_PROFIL
  6
CONTINUOUS
 62
     7
 10
21.459009356732171
 20
8.8741184322947788
 30
0.0
 42
-0.4142135623730992
  0
VERTEX
  5
1BDF
  8
SAPA_PROFIL
  6
CONTINUOUS
 62
     7
 10
20.86133687927191
 20
7.5924056681831749
 30
0.0
  0
VERTEX
  5
1BE0
  8
SAPA_PROFIL
  6
CONTINUOUS
 62
     7
 10
16.726689347813931
 20
6.087517037550298
 30
0.0
 42
0.4142135623730951
  0
VERTEX
  5
1BE1
  8
SAPA_PROFIL
  6
CONTINUOUS
 62
     7
 10
16.427853109083848
 20
5.4466606554944397
 30
0.0
  0
VERTEX
  5
1BE2
  8
SAPA_PROFIL
  6
CONTINUOUS
 62
     7
 10
17.146095410067741
 20
3.4733061518440418
 30
0.0
 42
0.4142135623730951
  0
VERTEX
  5
1BE3
  8
SAPA_PROFIL
  6
CONTINUOUS
 62
     7
 10
17.53060923930116
 20
3.2940044086059852
 30
0.0
  0
VERTEX
  5
1BE4
  8
SAPA_PROFIL
  6
CONTINUOUS
 62
     7
 10
18.000455549694149
 20
3.4650144802688478
 30
0.0
 42
0.4142135623730951
  0
VERTEX
  5
1BE5
  8
SAPA_PROFIL
  6
CONTINUOUS
 62
     7
 10
18.179757292932258
 20
3.8495283095023178
 30
0.0
  0
VERTEX
  5
1BE6
  8
SAPA_PROFIL
  6
CONTINUOUS
 62
     7
 10
18.0646241039214
 20
4.1658541465391741
 30
0.0
 42
-0.5643553431119912
  0
VERTEX
  5
1BE7
  8
SAPA_PROFIL
  6
CONTINUOUS
 62
     7
 10
22.765147030393731
 20
3.894958801881784
 30
0.0
  0
VERTEX
  5
1BE8
  8
SAPA_PROFIL
  6
CONTINUOUS
 62
     7
 10
22.541381417358199
 20
3.41509189614652
 30
0.0
  0
VERTEX
  5
1BE9
  8
SAPA_PROFIL
  6
CONTINUOUS
 62
     7
 10
23.021248323088741
 20
3.1913262831088209
 30
0.0
 42
-0.5643553431125639
  0
VERTEX
  5
1BEA
  8
SAPA_PROFIL
  6
CONTINUOUS
 62
     7
 10
19.594567026580759
 20
-0.0376294865215527
 30
0.0
  0
VERTEX
  5
1BEB
  8
SAPA_PROFIL
  6
CONTINUOUS
 62
     7
 10
19.479433837569779
 20
0.2786963505159292
 30
0.0
 42
0.4142135623730396
  0
VERTEX
  5
1BEC
  8
SAPA_PROFIL
  6
CONTINUOUS
 62
     7
 10
19.09492000833626
 20
0.457998093753929
 30
0.0
  0
VERTEX
  5
1BED
  8
SAPA_PROFIL
  6
CONTINUOUS
 62
     7
 10
18.625073697943261
 20
0.2869880220910659
 30
0.0
 42
0.4142135623731089
  0
VERTEX
  5
1BEE
  8
SAPA_PROFIL
  6
CONTINUOUS
 62
     7
 10
18.445771954705261
 20
-0.0975258071424037
 30
0.0
  0
VERTEX
  5
1BEF
  8
SAPA_PROFIL
  6
CONTINUOUS
 62
     7
 10
19.16401425568921
 20
-2.0708803107928011
 30
0.0
 42
0.4142135623730951
  0
VERTEX
  5
1BF0
  8
SAPA_PROFIL
  6
CONTINUOUS
 62
     7
 10
19.804870637744951
 20
-2.3697165495229342
 30
0.0
  0
VERTEX
  5
1BF1
  8
SAPA_PROFIL
  6
CONTINUOUS
 62
     7
 10
23.93951816920293
 20
-0.8648279188899437
 30
0.0
 42
-0.4142135623730951
  0
VERTEX
  5
1BF2
  8
SAPA_PROFIL
  6
CONTINUOUS
 62
     7
 10
25.22123093331453
 20
-1.4625003963502079
 30
0.0
  0
SEQEND
  5
1BF3
  8
SAPA_PROFIL
  6
CONTINUOUS
 62
     7
  0
POLYLINE
  5
F1A
  8
SAPA_GLAS
 66
     1
 10
0.0
 20
0.0
 30
0.0
  0
VERTEX
  5
1C18
  8
SAPA_GLAS
 10
-55.4984369640406
 20
32.604721967042423
 30
0.0
  0
VERTEX
  5
1C19
  8
SAPA_GLAS
 10
-27.307658340463281
 20
42.865326266812268
 30
0.0
  0
VERTEX
  5
1C1A
  8
SAPA_GLAS
 10
-24.311561884930779
 20
34.63361890872735
 30
0.0
  0
VERTEX
  5
1C1B
  8
SAPA_GLAS
 10
-52.502340508507658
 20
24.373014608957781
 30
0.0
  0
SEQEND
  5
1C1C
  8
SAPA_GLAS
  0
POLYLINE
  5
F1B
  8
SAPA_GLAS
 66
     1
 10
0.0
 20
0.0
 30
0.0
  0
VERTEX
  5
1C1D
  8
SAPA_GLAS
 10
-27.307658340463568
 20
42.865326266812161
 30
0.0
  0
VERTEX
  5
1C1E
  8
SAPA_GLAS
 10
-31.411900060371551
 20
54.141637716243203
 30
0.0
  0
VERTEX
  5
1C1F
  8
SAPA_GLAS
 10
-40.808826268230447
 20
50.721436282986659
 30
0.0
  0
VERTEX
  5
1C20
  8
SAPA_GLAS
 10
-36.704584548322821
 20
39.445124833555511
 30
0.0
  0
VERTEX
  5
1C21
  8
SAPA_GLAS
 10
-27.307658340463568
 20
42.865326266812161
 30
0.0
  0
SEQEND
  5
1C22
  8
SAPA_GLAS
  0
POLYLINE
  5
F1C
  8
SAPA_GLAS
 66
     1
 10
0.0
 20
0.0
 30
0.0
  0
VERTEX
  5
1C23
  8
SAPA_GLAS
 10
-61.654799543902641
 20
49.519189141188768
 30
0.0
  0
VERTEX
  5
1C24
  8
SAPA_GLAS
 10
-33.46402092032536
 20
59.779793440958727
 30
0.0
  0
VERTEX
  5
1C25
  8
SAPA_GLAS
 10
-31.411900060371352
 20
54.141637716243281
 30
0.0
  0
VERTEX
  5
1C26
  8
SAPA_GLAS
 10
-59.602678683948668
 20
43.881033416473429
 30
0.0
  0
SEQEND
  5
1C27
  8
SAPA_GLAS
  0
LINE
  5
F1D
  8
SAPA_GLAS
 10
-25.809610112697239
 20
38.749472587769731
 30
0.0
 11
-54.000388736274083
 21
28.488868288000059
 31
0.0
  0
POLYLINE
  5
F1E
  8
SAPA_GLAS
 66
     1
 10
0.0
 20
0.0
 30
0.0
  0
VERTEX
  5
1C28
  8
SAPA_GLAS
 10
73.478260604947963
 20
298.13748779865051
 30
0.0
  0
VERTEX
  5
1C29
  8
SAPA_GLAS
 10
73.478260604947963
 20
268.13748779865051
 30
0.0
  0
VERTEX
  5
1C2A
  8
SAPA_GLAS
 10
79.478260604947963
 20
268.13748779865051
 30
0.0
  0
VERTEX
  5
1C2B
  8
SAPA_GLAS
 10
79.478260604947963
 20
298.13748779865051
 30
0.0
  0
SEQEND
  5
1C2C
  8
SAPA_GLAS
  0
POLYLINE
  5
F1F
  8
SAPA_GLAS
 66
     1
 10
0.0
 20
0.0
 30
0.0
  0
VERTEX
  5
1C2D
  8
SAPA_GLAS
 10
58.478260604946371
 20
278.13748779865
 30
0.0
  0
VERTEX
  5
1C2E
  8
SAPA_GLAS
 10
73.478260604947963
 20
278.13748779865
 30
0.0
  0
VERTEX
  5
1C2F
  8
SAPA_GLAS
 10
73.478260604947963
 20
268.13748779865051
 30
0.0
  0
VERTEX
  5
1C30
  8
SAPA_GLAS
 10
58.478260604946371
 20
268.13748779865051
 30
0.0
  0
VERTEX
  5
1C31
  8
SAPA_GLAS
 10
58.478260604946371
 20
278.13748779865
 30
0.0
  0
SEQEND
  5
1C32
  8
SAPA_GLAS
  0
POLYLINE
  5
F20
  8
SAPA_GLAS
 66
     1
 10
0.0
 20
0.0
 30
0.0
  0
VERTEX
  5
1C33
  8
SAPA_GLAS
 10
52.478260604946371
 20
298.13748779865051
 30
0.0
  0
VERTEX
  5
1C34
  8
SAPA_GLAS
 10
52.478260604946307
 20
268.13748779865051
 30
0.0
  0
VERTEX
  5
1C35
  8
SAPA_GLAS
 10
58.478260604946371
 20
268.13748779865051
 30
0.0
  0
VERTEX
  5
1C36
  8
SAPA_GLAS
 10
58.478260604946371
 20
298.13748779865051
 30
0.0
  0
SEQEND
  5
1C37
  8
SAPA_GLAS
  0
POLYLINE
  5
F28
  8
SAPA_ISOLATOR
 66
     1
 10
0.0
 20
0.0
 30
0.0
 70
     1
  0
VERTEX
  5
1C69
  8
SAPA_ISOLATOR
 10
72.478260604947991
 20
254.0374877986545
 30
0.0
  0
VERTEX
  5
1C6A
  8
SAPA_ISOLATOR
 10
72.478260604947991
 20
252.6374877986544
 30
0.0
 42
-0.4142135623730951
  0
VERTEX
  5
1C6B
  8
SAPA_ISOLATOR
 10
71.978260604947991
 20
252.1374877986544
 30
0.0
  0
VERTEX
  5
1C6C
  8
SAPA_ISOLATOR
 10
42.478260604947991
 20
252.1374877986544
 30
0.0
  0
VERTEX
  5
1C6D
  8
SAPA_ISOLATOR
 10
42.478260604947991
 20
253.6374877986544
 30
0.0
  0
VERTEX
  5
1C6E
  8
SAPA_ISOLATOR
 10
45.624707214354707
 20
256.7839344146837
 30
0.0
 42
0.4142135623730951
  0
VERTEX
  5
1C6F
  8
SAPA_ISOLATOR
 10
45.624707214354707
 20
257.49104119587042
 30
0.0
  0
VERTEX
  5
1C70
  8
SAPA_ISOLATOR
 10
42.478260604948041
 20
260.63748779865438
 30
0.0
  0
VERTEX
  5
1C71
  8
SAPA_ISOLATOR
 10
42.478260604948041
 20
262.13748779865438
 30
0.0
  0
VERTEX
  5
1C72
  8
SAPA_ISOLATOR
 10
71.978260604948034
 20
262.13748779865438
 30
0.0
 42
-0.4142135623730951
  0
VERTEX
  5
1C73
  8
SAPA_ISOLATOR
 10
72.478260604948048
 20
261.63748779865438
 30
0.0
  0
VERTEX
  5
1C74
  8
SAPA_ISOLATOR
 10
72.478260604948048
 20
260.23748779865429
 30
0.0
  0
VERTEX
  5
1C75
  8
SAPA_ISOLATOR
 10
73.328260604947957
 20
259.38748779865438
 30
0.0
  0
VERTEX
  5
1C76
  8
SAPA_ISOLATOR
 10
77.883293563163136
 20
259.38748779865438
 30
0.0
 42
-0.0912836897734203
  0
VERTEX
  5
1C77
  8
SAPA_ISOLATOR
 10
80.002850596765313
 20
258.16884613084432
 30
0.0
 42
-0.4609552212306286
  0
VERTEX
  5
1C78
  8
SAPA_ISOLATOR
 10
80.002850596765313
 20
256.10612946646421
 30
0.0
 42
-0.0912836897734202
  0
VERTEX
  5
1C79
  8
SAPA_ISOLATOR
 10
77.883293563163079
 20
254.8874877986544
 30
0.0
  0
VERTEX
  5
1C7A
  8
SAPA_ISOLATOR
 10
73.3282606049479
 20
254.8874877986544
 30
0.0
  0
SEQEND
  5
1C7B
  8
SAPA_ISOLATOR
  0
POLYLINE
  5
F29
  8
SAPA_ISOLATOR
 66
     1
 10
0.0
 20
0.0
 30
0.0
 70
     1
  0
VERTEX
  5
1C7C
  8
SAPA_ISOLATOR
 10
46.478260605692007
 20
256.22327424395633
 30
0.0
 42
0.1989123671061432
  0
VERTEX
  5
1C7D
  8
SAPA_ISOLATOR
 10
46.771153823761381
 20
256.9303810243988
 30
0.0
  0
VERTEX
  5
1C7E
  8
SAPA_ISOLATOR
 10
46.771153823761381
 20
257.34459457290978
 30
0.0
 42
0.1989123671061405
  0
VERTEX
  5
1C7F
  8
SAPA_ISOLATOR
 10
46.478260605692007
 20
258.05170135335231
 30
0.0
  0
VERTEX
  5
1C80
  8
SAPA_ISOLATOR
 10
44.246027555309688
 20
260.28393440843303
 30
0.0
 42
-0.6681786375387241
  0
VERTEX
  5
1C81
  8
SAPA_ISOLATOR
 10
44.599580946275012
 20
261.13748779865438
 30
0.0
  0
VERTEX
  5
1C82
  8
SAPA_ISOLATOR
 10
56.978260604948041
 20
261.13748779865438
 30
0.0
 42
-0.4142135623730951
  0
VERTEX
  5
1C83
  8
SAPA_ISOLATOR
 10
57.478260604948048
 20
260.63748779865438
 30
0.0
  0
VERTEX
  5
1C84
  8
SAPA_ISOLATOR
 10
57.478260604947991
 20
253.6374877986544
 30
0.0
 42
-0.4142135623730951
  0
VERTEX
  5
1C85
  8
SAPA_ISOLATOR
 10
56.978260604947991
 20
253.1374877986544
 30
0.0
  0
VERTEX
  5
1C86
  8
SAPA_ISOLATOR
 10
44.599580946274948
 20
253.1374877986544
 30
0.0
 42
-0.6681786375387241
  0
VERTEX
  5
1C87
  8
SAPA_ISOLATOR
 10
44.246027555309638
 20
253.9910411888755
 30
0.0
  0
SEQEND
  5
1C88
  8
SAPA_ISOLATOR
  0
POLYLINE
  5
F2A
  8
SAPA_ISOLATOR
 66
     1
 10
0.0
 20
0.0
 30
0.0
 70
     1
  0
VERTEX
  5
1C89
  8
SAPA_ISOLATOR
 10
72.914047042574623
 20
255.8874877986544
 30
0.0
  0
VERTEX
  5
1C8A
  8
SAPA_ISOLATOR
 10
71.478260604947991
 20
254.4517013610274
 30
0.0
  0
VERTEX
  5
1C8B
  8
SAPA_ISOLATOR
 10
71.478260604947991
 20
253.6374877986544
 30
0.0
 42
-0.4142135623730951
  0
VERTEX
  5
1C8C
  8
SAPA_ISOLATOR
 10
70.978260604947991
 20
253.1374877986544
 30
0.0
  0
VERTEX
  5
1C8D
  8
SAPA_ISOLATOR
 10
58.978260604947991
 20
253.1374877986544
 30
0.0
 42
-0.4142135623730951
  0
VERTEX
  5
1C8E
  8
SAPA_ISOLATOR
 10
58.478260604947991
 20
253.6374877986544
 30
0.0
  0
VERTEX
  5
1C8F
  8
SAPA_ISOLATOR
 10
58.478260604948048
 20
260.63748779865438
 30
0.0
 42
-0.4142135623730951
  0
VERTEX
  5
1C90
  8
SAPA_ISOLATOR
 10
58.978260604948041
 20
261.13748779865438
 30
0.0
  0
VERTEX
  5
1C91
  8
SAPA_ISOLATOR
 10
70.978260604948048
 20
261.13748779865438
 30
0.0
 42
-0.4142135623730951
  0
VERTEX
  5
1C92
  8
SAPA_ISOLATOR
 10
71.478260604948034
 20
260.63748779865438
 30
0.0
  0
VERTEX
  5
1C93
  8
SAPA_ISOLATOR
 10
71.478260604948034
 20
259.82327423628118
 30
0.0
  0
VERTEX
  5
1C94
  8
SAPA_ISOLATOR
 10
72.914047042575078
 20
258.38748779865438
 30
0.0
  0
VERTEX
  5
1C95
  8
SAPA_ISOLATOR
 10
78.208448578660921
 20
258.38748779865438
 30
0.0
 42
-0.065831318015991
  0
VERTEX
  5
1C96
  8
SAPA_ISOLATOR
 10
79.514655014126731
 20
257.53372608825731
 30
0.0
 42
-0.3815575211595297
  0
VERTEX
  5
1C97
  8
SAPA_ISOLATOR
 10
79.597498543956192
 20
256.9138565571011
 30
0.0
 42
-0.0681340277693807
  0
VERTEX
  5
1C98
  8
SAPA_ISOLATOR
 10
78.208448578660921
 20
255.8874877986544
 30
0.0
  0
SEQEND
  5
1C99
  8
SAPA_ISOLATOR
  0
POLYLINE
  5
F3B
  8
SAPA_FOGBAND
 66
     1
 10
0.0
 20
0.0
 30
0.0
 70
     1
  0
VERTEX
  5
1DBA
  8
SAPA_FOGBAND
 10
-28.852852323019238
 20
32.800588391352328
 30
0.0
 42
-0.4679153941829814
  0
VERTEX
  5
1DBB
  8
SAPA_FOGBAND
 10
-28.563996506384068
 20
32.696329643465042
 30
0.0
  0
VERTEX
  5
1DBC
  8
SAPA_FOGBAND
 10
-27.007243040945529
 20
28.419736751616021
 30
0.0
 42
-0.6685323900181767
  0
VERTEX
  5
1DBD
  8
SAPA_FOGBAND
 10
-27.279882467936609
 20
28.170153924317908
 30
0.0
 42
0.1991665782226247
  0
VERTEX
  5
1DBE
  8
SAPA_FOGBAND
 10
-27.356434933678379
 20
28.173533787096861
 30
0.0
  0
VERTEX
  5
1DBF
  8
SAPA_FOGBAND
 10
-29.788040487634259
 20
27.288501743980781
 30
0.0
 42
0.4142135623731784
  0
VERTEX
  5
1DC0
  8
SAPA_FOGBAND
 10
-29.907574983126231
 20
27.032159191158438
 30
0.0
  0
VERTEX
  5
1DC1
  8
SAPA_FOGBAND
 10
-29.633958868465669
 20
26.280405094529652
 30
0.0
 42
-0.4142135623731368
  0
VERTEX
  5
1DC2
  8
SAPA_FOGBAND
 10
-29.753493363957642
 20
26.024062541707309
 30
0.0
  0
VERTEX
  5
1DC3
  8
SAPA_FOGBAND
 10
-30.129370412272131
 20
25.88725448437712
 30
0.0
 42
0.4142135623733448
  0
VERTEX
  5
1DC4
  8
SAPA_FOGBAND
 10
-30.24890490776399
 20
25.630911931554831
 30
0.0
  0
VERTEX
  5
1DC5
  8
SAPA_FOGBAND
 10
-29.88239652974741
 20
24.623938438913349
 30
0.0
 42
0.703825529076487
  0
VERTEX
  5
1DC6
  8
SAPA_FOGBAND
 10
-29.694130860591841
 20
24.62485100127742
 30
0.0
  0
VERTEX
  5
1DC7
  8
SAPA_FOGBAND
 10
-29.267682071720259
 20
25.832818877437781
 30
0.0
 42
-0.9999999999999856
  0
VERTEX
  5
1DC8
  8
SAPA_FOGBAND
 10
-28.513310815104091
 20
25.566503261689721
 30
0.0
  0
VERTEX
  5
1DC9
  8
SAPA_FOGBAND
 10
-29.112520950537061
 20
23.86916793430327
 30
0.0
 42
-0.2242387338110932
  0
VERTEX
  5
1DCA
  8
SAPA_FOGBAND
 10
-29.86370085984294
 20
23.11067030792703
 30
0.0
 42
-0.2242387338111004
  0
VERTEX
  5
1DCB
  8
SAPA_FOGBAND
 10
-30.926690931360412
 20
23.208864061384279
 30
0.0
  0
VERTEX
  5
1DCC
  8
SAPA_FOGBAND
 10
-32.476738643796757
 20
24.123933506383249
 30
0.0
 42
-1.0000000000000899
  0
VERTEX
  5
1DCD
  8
SAPA_FOGBAND
 10
-32.070041112686063
 20
24.81284360079945
 30
0.0
  0
VERTEX
  5
1DCE
  8
SAPA_FOGBAND
 10
-30.96689560400096
 20
24.161602519453162
 30
0.0
 42
0.7038255290763446
  0
VERTEX
  5
1DCF
  8
SAPA_FOGBAND
 10
-30.8220891505335
 20
24.281918295587499
 30
0.0
  0
VERTEX
  5
1DD0
  8
SAPA_FOGBAND
 10
-31.188597528550108
 20
25.28889178822908
 30
0.0
 42
0.4142135623729703
  0
VERTEX
  5
1DD1
  8
SAPA_FOGBAND
 10
-31.444940081372369
 20
25.408426283721191
 30
0.0
  0
VERTEX
  5
1DD2
  8
SAPA_FOGBAND
 10
-31.82081712968672
 20
25.271618226390931
 30
0.0
 42
-0.4142135623730117
  0
VERTEX
  5
1DD3
  8
SAPA_FOGBAND
 10
-32.077159682509048
 20
25.3911527218829
 30
0.0
  0
VERTEX
  5
1DD4
  8
SAPA_FOGBAND
 10
-32.350775797169497
 20
26.142906818511729
 30
0.0
 42
0.4142135623731784
  0
VERTEX
  5
1DD5
  8
SAPA_FOGBAND
 10
-32.607118349991879
 20
26.262441314003809
 30
0.0
  0
VERTEX
  5
1DD6
  8
SAPA_FOGBAND
 10
-35.038723903947563
 20
25.377409270887199
 30
0.0
 42
0.1991665782227297
  0
VERTEX
  5
1DD7
  8
SAPA_FOGBAND
 10
-35.095193961019291
 20
25.325613169317268
 30
0.0
 42
-0.6685323900181511
  0
VERTEX
  5
1DD8
  8
SAPA_FOGBAND
 10
-35.464476628018659
 20
25.34155546168488
 30
0.0
  0
VERTEX
  5
1DD9
  8
SAPA_FOGBAND
 10
-37.021219824917146
 20
29.61812014459343
 30
0.0
 42
-0.4679406819625479
  0
VERTEX
  5
1DDA
  8
SAPA_FOGBAND
 10
-36.866965339348461
 20
29.883675514439819
 30
0.0
  0
VERTEX
  5
1DDB
  8
SAPA_FOGBAND
 10
-36.165687652607339
 20
30.003486053511569
 30
0.0
 42
-0.3624646087620003
  0
VERTEX
  5
1DDC
  8
SAPA_FOGBAND
 10
-35.944067928165531
 20
29.874746538667559
 30
0.0
  0
VERTEX
  5
1DDD
  8
SAPA_FOGBAND
 10
-35.904558113682718
 20
29.766194215529211
 30
0.0
 42
0.3515239862759624
  0
VERTEX
  5
1DDE
  8
SAPA_FOGBAND
 10
-35.690614051965397
 20
29.636296171547158
 30
0.0
  0
VERTEX
  5
1DDF
  8
SAPA_FOGBAND
 10
-34.150129947848072
 20
29.856249000242158
 30
0.0
 42
0.751570456352482
  0
VERTEX
  5
1DE0
  8
SAPA_FOGBAND
 10
-34.123329181907081
 20
30.046482480915319
 30
0.0
  0
VERTEX
  5
1DE1
  8
SAPA_FOGBAND
 10
-35.543665740157913
 20
29.76686695070563
 30
0.0
 42
-0.7197481174277197
  0
VERTEX
  5
1DE2
  8
SAPA_FOGBAND
 10
-35.478279272991031
 20
30.427421611863181
 30
0.0
  0
VERTEX
  5
1DE3
  8
SAPA_FOGBAND
 10
-33.375154556544722
 20
30.907483194955692
 30
0.0
 42
0.5053637834253038
  0
VERTEX
  5
1DE4
  8
SAPA_FOGBAND
 10
-33.190452767480679
 20
31.063121436906709
 30
0.0
  0
VERTEX
  5
1DE5
  8
SAPA_FOGBAND
 10
-33.193714037669352
 20
31.113014964711471
 30
0.0
 42
-0.3333333333331249
  0
VERTEX
  5
1DE6
  8
SAPA_FOGBAND
 10
-33.062543955117377
 20
31.313998569622932
 30
0.0
  0
VERTEX
  5
1DE7
  8
SAPA_FOGBAND
 10
-32.686666906803069
 20
31.450806626953291
 30
0.0
 42
-0.3333333333331312
  0
VERTEX
  5
1DE8
  8
SAPA_FOGBAND
 10
-32.456995022973338
 20
31.381158757078861
 30
0.0
  0
VERTEX
  5
1DE9
  8
SAPA_FOGBAND
 10
-32.427422359402478
 20
31.34084179328741
 30
0.0
 42
0.505363783425254
  0
VERTEX
  5
1DEA
  8
SAPA_FOGBAND
 10
-32.185890246736321
 20
31.340340004400971
 30
0.0
  0
VERTEX
  5
1DEB
  8
SAPA_FOGBAND
 10
-30.266225607017951
 20
32.3244540056753
 30
0.0
 42
-0.7197481174279296
  0
VERTEX
  5
1DEC
  8
SAPA_FOGBAND
 10
-29.791540315477079
 20
31.860469389055289
 30
0.0
  0
VERTEX
  5
1DED
  8
SAPA_FOGBAND
 10
-31.059314641578521
 20
31.161692570953871
 30
0.0
 42
0.7515704563522813
  0
VERTEX
  5
1DEE
  8
SAPA_FOGBAND
 10
-30.916504339433661
 20
31.033192470465831
 30
0.0
  0
VERTEX
  5
1DEF
  8
SAPA_FOGBAND
 10
-29.59504209876091
 20
31.854902923341371
 30
0.0
 42
0.3515239862759173
  0
VERTEX
  5
1DF0
  8
SAPA_FOGBAND
 10
-29.514648292338201
 20
32.09193119014401
 30
0.0
  0
VERTEX
  5
1DF1
  8
SAPA_FOGBAND
 10
-29.554158106820928
 20
32.200483513282151
 30
0.0
 42
-0.3624646087620678
  0
VERTEX
  5
1DF2
  8
SAPA_FOGBAND
 10
-29.467139713445562
 20
32.441558116171677
 30
0.0
  0
SEQEND
  5
1DF3
  8
SAPA_FOGBAND
  0
POLYLINE
  5
F3C
  8
SAPA_FOGBAND
 66
     1
 10
0.0
 20
0.0
 30
0.0
 70
     1
  0
VERTEX
  5
1DF4
  8
SAPA_FOGBAND
 10
-39.539106849829309
 20
62.735865522245682
 30
0.0
 42
0.4142135623731784
  0
VERTEX
  5
1DF5
  8
SAPA_FOGBAND
 10
-39.282764297007148
 20
62.616331026753521
 30
0.0
  0
VERTEX
  5
1DF6
  8
SAPA_FOGBAND
 10
-34.65052232474666
 20
64.30232922257467
 30
0.0
 42
-0.2663342079579515
  0
VERTEX
  5
1DF7
  8
SAPA_FOGBAND
 10
-33.670345196067203
 20
64.13254287013882
 30
0.0
  0
VERTEX
  5
1DF8
  8
SAPA_FOGBAND
 10
-29.593817826281271
 20
61.266163421054799
 30
0.0
 42
-0.052861208559515
  0
VERTEX
  5
1DF9
  8
SAPA_FOGBAND
 10
-29.446569732585932
 20
61.11523927021998
 30
0.0
 42
-0.2389362379610746
  0
VERTEX
  5
1DFA
  8
SAPA_FOGBAND
 10
-29.254000617552379
 20
59.861661228057521
 30
0.0
 42
-0.4294697894411934
  0
VERTEX
  5
1DFB
  8
SAPA_FOGBAND
 10
-29.522378702883781
 20
59.75158941788969
 30
0.0
  0
VERTEX
  5
1DFC
  8
SAPA_FOGBAND
 10
-33.627008549731599
 20
60.640555848261918
 30
0.0
 42
0.1982170680849751
  0
VERTEX
  5
1DFD
  8
SAPA_FOGBAND
 10
-34.389220437342793
 20
60.672813128081799
 30
0.0
  0
VERTEX
  5
1DFE
  8
SAPA_FOGBAND
 10
-34.500722471575401
 20
60.63222970656124
 30
0.0
 42
0.2084822249037384
  0
VERTEX
  5
1DFF
  8
SAPA_FOGBAND
 10
-35.079927518638399
 20
60.081566838613668
 30
0.0
  0
VERTEX
  5
1E00
  8
SAPA_FOGBAND
 10
-38.577105074161238
 20
58.14823415468026
 30
0.0
  0
VERTEX
  5
1E01
  8
SAPA_FOGBAND
 10
-39.220941803491499
 20
58.300759072553689
 30
0.0
  0
VERTEX
  5
1E02
  8
SAPA_FOGBAND
 10
-36.451184676489838
 20
60.370360770833699
 30
0.0
 42
0.6313983151680102
  0
VERTEX
  5
1E03
  8
SAPA_FOGBAND
 10
-36.880475288542158
 20
60.700762543688008
 30
0.0
  0
VERTEX
  5
1E04
  8
SAPA_FOGBAND
 10
-39.429459369828841
 20
59.404625352122629
 30
0.0
 42
0.379100851898285
  0
VERTEX
  5
1E05
  8
SAPA_FOGBAND
 10
-39.575389519513152
 20
59.034605617707001
 30
0.0
  0
VERTEX
  5
1E06
  8
SAPA_FOGBAND
 10
-39.49523272654617
 20
58.814376639014341
 30
0.0
 42
-0.4142135623730951
  0
VERTEX
  5
1E07
  8
SAPA_FOGBAND
 10
-39.674534469784511
 20
58.429862809781064
 30
0.0
  0
VERTEX
  5
1E08
  8
SAPA_FOGBAND
 10
-43.951753181391133
 20
56.873082513309811
 30
0.0
  0
VERTEX
  5
1E09
  8
SAPA_FOGBAND
 10
-49.719028827039487
 20
54.218789262662611
 30
0.0
  0
VERTEX
  5
1E0A
  8
SAPA_FOGBAND
 10
-49.719028827039487
 20
54.218789262662611
 30
0.0
  0
VERTEX
  5
1E0B
  8
SAPA_FOGBAND
 10
-50.41385466945944
 20
54.408934725912502
 30
0.0
 42
0.0144193411868444
  0
VERTEX
  5
1E0C
  8
SAPA_FOGBAND
 10
-50.710739118881058
 20
55.625194271373211
 30
0.0
  0
VERTEX
  5
1E0D
  8
SAPA_FOGBAND
 10
-46.458285119968821
 20
58.940477259362481
 30
0.0
  0
VERTEX
  5
1E0E
  8
SAPA_FOGBAND
 10
-47.091022385121271
 20
60.678908607816318
 30
0.0
 42
-0.4142135623731212
  0
VERTEX
  5
1E0F
  8
SAPA_FOGBAND
 10
-47.001371513502193
 20
60.871165522433166
 30
0.0
  0
VERTEX
  5
1E10
  8
SAPA_FOGBAND
 10
-45.952495138830713
 20
61.252925302238388
 30
0.0
 42
-0.3812119866949899
  0
VERTEX
  5
1E11
  8
SAPA_FOGBAND
 10
-45.766987277577748
 20
61.17897186424198
 30
0.0
  0
VERTEX
  5
1E12
  8
SAPA_FOGBAND
 10
-45.436937587281619
 20
60.517867910292637
 30
0.0
 42
0.3812119866949819
  0
VERTEX
  5
1E13
  8
SAPA_FOGBAND
 10
-45.251429726028228
 20
60.443914472296392
 30
0.0
  0
VERTEX
  5
1E14
  8
SAPA_FOGBAND
 10
-42.101842159364949
 20
61.590270596776733
 30
0.0
 42
0.4142135623730951
  0
VERTEX
  5
1E15
  8
SAPA_FOGBAND
 10
-41.982307663872589
 20
61.846613149598959
 30
0.0
  0
VERTEX
  5
1E16
  8
SAPA_FOGBAND
 10
-42.255923778533521
 20
62.598367246227497
 30
0.0
 42
-0.4142135623730951
  0
VERTEX
  5
1E17
  8
SAPA_FOGBAND
 10
-42.136389283041233
 20
62.854709799049949
 30
0.0
  0
VERTEX
  5
1E18
  8
SAPA_FOGBAND
 10
-41.760512234726789
 20
62.991517856380248
 30
0.0
 42
0.4142135623731784
  0
VERTEX
  5
1E19
  8
SAPA_FOGBAND
 10
-41.640977739234927
 20
63.247860409202552
 30
0.0
  0
VERTEX
  5
1E1A
  8
SAPA_FOGBAND
 10
-42.00748611725146
 20
64.254833901843909
 30
0.0
 42
0.7038255290761633
  0
VERTEX
  5
1E1B
  8
SAPA_FOGBAND
 10
-42.195751786407087
 20
64.253921339479959
 30
0.0
  0
VERTEX
  5
1E1C
  8
SAPA_FOGBAND
 10
-42.622200575278718
 20
63.045953463319449
 30
0.0
 42
-0.9999999999999552
  0
VERTEX
  5
1E1D
  8
SAPA_FOGBAND
 10
-43.376571831894928
 20
63.312269079067619
 30
0.0
  0
VERTEX
  5
1E1E
  8
SAPA_FOGBAND
 10
-42.777361696461931
 20
65.009604406454315
 30
0.0
 42
-0.2242387338111004
  0
VERTEX
  5
1E1F
  8
SAPA_FOGBAND
 10
-42.026181787156141
 20
65.768102032830143
 30
0.0
 42
-0.2242387338111007
  0
VERTEX
  5
1E20
  8
SAPA_FOGBAND
 10
-40.963191715638793
 20
65.669908279373203
 30
0.0
  0
VERTEX
  5
1E21
  8
SAPA_FOGBAND
 10
-39.413144003202369
 20
64.754838834374041
 30
0.0
 42
-0.9999999999999548
  0
VERTEX
  5
1E22
  8
SAPA_FOGBAND
 10
-39.819841534312928
 20
64.065928739957755
 30
0.0
  0
VERTEX
  5
1E23
  8
SAPA_FOGBAND
 10
-40.922987042998201
 20
64.717169821304253
 30
0.0
 42
0.7038255290761636
  0
VERTEX
  5
1E24
  8
SAPA_FOGBAND
 10
-41.067793496465548
 20
64.596854045169579
 30
0.0
  0
VERTEX
  5
1E25
  8
SAPA_FOGBAND
 10
-40.7012851184491
 20
63.589880552528427
 30
0.0
 42
0.4142135623730117
  0
VERTEX
  5
1E26
  8
SAPA_FOGBAND
 10
-40.444942565626938
 20
63.470346057036267
 30
0.0
  0
VERTEX
  5
1E27
  8
SAPA_FOGBAND
 10
-40.06906551731241
 20
63.607154114366359
 30
0.0
 42
-0.4142135623730951
  0
VERTEX
  5
1E28
  8
SAPA_FOGBAND
 10
-39.812722964489907
 20
63.487619618874582
 30
0.0
  0
SEQEND
  5
1E29
  8
SAPA_FOGBAND
  0
POLYLINE
  5
F3D
  8
SAPA_FOGBAND
 66
     1
 10
0.0
 20
0.0
 30
0.0
 70
     1
  0
VERTEX
  5
1E2A
  8
SAPA_FOGBAND
 10
-10.03712395246106
 20
73.473709148718285
 30
0.0
 42
-0.4142135623731784
  0
VERTEX
  5
1E2B
  8
SAPA_FOGBAND
 10
-10.156658447952919
 20
73.217366595895982
 30
0.0
  0
VERTEX
  5
1E2C
  8
SAPA_FOGBAND
 10
-14.788900420213251
 20
71.531368400074399
 30
0.0
 42
0.2663342079579515
  0
VERTEX
  5
1E2D
  8
SAPA_FOGBAND
 10
-15.430623099270839
 20
70.771258794660199
 30
0.0
  0
VERTEX
  5
1E2E
  8
SAPA_FOGBAND
 10
-16.710951043586419
 20
65.955143461972483
 30
0.0
 42
0.052861208559515
  0
VERTEX
  5
1E2F
  8
SAPA_FOGBAND
 10
-16.726737453362521
 20
65.744879604715692
 30
0.0
 42
0.2389362379610746
  0
VERTEX
  5
1E30
  8
SAPA_FOGBAND
 10
-16.068469520573171
 20
64.66080207034932
 30
0.0
 42
0.4294697894411934
  0
VERTEX
  5
1E31
  8
SAPA_FOGBAND
 10
-15.792127183898479
 20
64.748992279788609
 30
0.0
  0
VERTEX
  5
1E32
  8
SAPA_FOGBAND
 10
-13.21921490553096
 20
68.068385281797916
 30
0.0
 42
-0.1982170680849751
  0
VERTEX
  5
1E33
  8
SAPA_FOGBAND
 10
-12.6560613043376
 20
68.583036149066345
 30
0.0
  0
VERTEX
  5
1E34
  8
SAPA_FOGBAND
 10
-12.54455927010514
 20
68.623619570587323
 30
0.0
 42
-0.2084822249037384
  0
VERTEX
  5
1E35
  8
SAPA_FOGBAND
 10
-11.74690319374491
 20
68.574093168284122
 30
0.0
  0
VERTEX
  5
1E36
  8
SAPA_FOGBAND
 10
-7.825187466101811
 20
69.341016810620602
 30
0.0
  0
VERTEX
  5
1E37
  8
SAPA_FOGBAND
 10
-7.4300210446999593
 20
69.871707948669297
 30
0.0
  0
VERTEX
  5
1E38
  8
SAPA_FOGBAND
 10
-10.88209242926937
 20
69.676749266028651
 30
0.0
 42
-0.6313983151680102
  0
VERTEX
  5
1E39
  8
SAPA_FOGBAND
 10
-10.76561490723277
 20
70.205794394502334
 30
0.0
  0
VERTEX
  5
1E3A
  8
SAPA_FOGBAND
 10
-7.9798388889722416
 20
70.851351086123145
 30
0.0
 42
-0.379100851898285
  0
VERTEX
  5
1E3B
  8
SAPA_FOGBAND
 10
-7.6302058081011914
 20
70.661701616826477
 30
0.0
  0
VERTEX
  5
1E3C
  8
SAPA_FOGBAND
 10
-7.5500490151342152
 20
70.441472638133803
 30
0.0
 42
0.4142135623730951
  0
VERTEX
  5
1E3D
  8
SAPA_FOGBAND
 10
-7.1655351859006631
 20
70.262170894896045
 30
0.0
  0
VERTEX
  5
1E3E
  8
SAPA_FOGBAND
 10
-2.888316474294041
 20
71.818951191367304
 30
0.0
  0
VERTEX
  5
1E3F
  8
SAPA_FOGBAND
 10
3.2358197999809279
 20
73.492777922970532
 30
0.0
  0
VERTEX
  5
1E40
  8
SAPA_FOGBAND
 10
3.2358197999809279
 20
73.492777922970532
 30
0.0
  0
VERTEX
  5
1E41
  8
SAPA_FOGBAND
 10
3.6458641276870551
 20
74.085063240874945
 30
0.0
 42
-0.0144193411868444
  0
VERTEX
  5
1E42
  8
SAPA_FOGBAND
 10
3.0914942444298048
 20
75.207605752662346
 30
0.0
  0
VERTEX
  5
1E43
  8
SAPA_FOGBAND
 10
-2.297097338340067
 20
75.013835121715644
 30
0.0
  0
VERTEX
  5
1E44
  8
SAPA_FOGBAND
 10
-2.9298346034925249
 20
76.752266470169474
 30
0.0
 42
0.4142135623731212
  0
VERTEX
  5
1E45
  8
SAPA_FOGBAND
 10
-3.1220915181093778
 20
76.841917341788587
 30
0.0
  0
VERTEX
  5
1E46
  8
SAPA_FOGBAND
 10
-4.170967892780701
 20
76.460157561982925
 30
0.0
 42
0.3812119866949899
  0
VERTEX
  5
1E47
  8
SAPA_FOGBAND
 10
-4.2655388054105989
 20
76.284263787043386
 30
0.0
  0
VERTEX
  5
1E48
  8
SAPA_FOGBAND
 10
-4.0934221063016727
 20
75.565676925293275
 30
0.0
 42
-0.3812119866949819
  0
VERTEX
  5
1E49
  8
SAPA_FOGBAND
 10
-4.1879930189319987
 20
75.389783150353566
 30
0.0
  0
VERTEX
  5
1E4A
  8
SAPA_FOGBAND
 10
-7.3375805855952763
 20
74.243427025873203
 30
0.0
 42
-0.4142135623730951
  0
VERTEX
  5
1E4B
  8
SAPA_FOGBAND
 10
-7.5939231384177859
 20
74.36296152136498
 30
0.0
  0
VERTEX
  5
1E4C
  8
SAPA_FOGBAND
 10
-7.8675392530778803
 20
75.114715617993824
 30
0.0
 42
0.4142135623730951
  0
VERTEX
  5
1E4D
  8
SAPA_FOGBAND
 10
-8.1238818059004672
 20
75.234250113485814
 30
0.0
  0
VERTEX
  5
1E4E
  8
SAPA_FOGBAND
 10
-8.4997588542149156
 20
75.097442056155529
 30
0.0
 42
-0.4142135623731784
  0
VERTEX
  5
1E4F
  8
SAPA_FOGBAND
 10
-8.7561014070370771
 20
75.216976551647676
 30
0.0
  0
VERTEX
  5
1E50
  8
SAPA_FOGBAND
 10
-9.1226097850536121
 20
76.22395004428904
 30
0.0
 42
-0.7038255290761633
  0
VERTEX
  5
1E51
  8
SAPA_FOGBAND
 10
-8.9778033315862622
 20
76.344265820423715
 30
0.0
  0
VERTEX
  5
1E52
  8
SAPA_FOGBAND
 10
-7.8746578229009794
 20
75.693024739077245
 30
0.0
 42
0.9999999999999552
  0
VERTEX
  5
1E53
  8
SAPA_FOGBAND
 10
-7.4679602917904191
 20
76.381934833493503
 30
0.0
  0
VERTEX
  5
1E54
  8
SAPA_FOGBAND
 10
-9.0180080042268553
 20
77.297004278492693
 30
0.0
 42
0.2242387338111004
  0
VERTEX
  5
1E55
  8
SAPA_FOGBAND
 10
-10.080998075744199
 20
77.395198031949604
 30
0.0
 42
0.2242387338111007
  0
VERTEX
  5
1E56
  8
SAPA_FOGBAND
 10
-10.83217798504999
 20
76.636700405573777
 30
0.0
  0
VERTEX
  5
1E57
  8
SAPA_FOGBAND
 10
-11.431388120482991
 20
74.93936507818708
 30
0.0
 42
0.9999999999999548
  0
VERTEX
  5
1E58
  8
SAPA_FOGBAND
 10
-10.67701686386677
 20
74.673049462438911
 30
0.0
  0
VERTEX
  5
1E59
  8
SAPA_FOGBAND
 10
-10.25056807499513
 20
75.88101733859942
 30
0.0
 42
-0.7038255290761636
  0
VERTEX
  5
1E5A
  8
SAPA_FOGBAND
 10
-10.062302405839519
 20
75.881929900963371
 30
0.0
  0
VERTEX
  5
1E5B
  8
SAPA_FOGBAND
 10
-9.6957940278230623
 20
74.874956408322205
 30
0.0
 42
-0.4142135623730117
  0
VERTEX
  5
1E5C
  8
SAPA_FOGBAND
 10
-9.8153285233149212
 20
74.61861385549993
 30
0.0
  0
VERTEX
  5
1E5D
  8
SAPA_FOGBAND
 10
-10.19120557162929
 20
74.481805798169404
 30
0.0
 42
0.4142135623730951
  0
VERTEX
  5
1E5E
  8
SAPA_FOGBAND
 10
-10.31074006712166
 20
74.225463245347171
 30
0.0
  0
SEQEND
  5
1E5F
  8
SAPA_FOGBAND
  0
CIRCLE
  5
F3E
  8
SAPA_FOGBAND
 10
49.949793748598132
 20
275.76684459426821
 30
0.0
 40
0.2549509756796394
  0
INSERT
  5
F3F
  8
SAPA_FOGBAND
  6
CONTINUOUS
  2
*U90
 10
0.0
 20
0.0
 30
0.0
1001
ACAD
1002
{
1000
R14_HATCH_DATA
1000
F3F
1011
1.0
1021
0.0
1031
0.0
1021
0.0
1031
0.0
1011
0.0
1021
0.0
1031
0.0
1021
1.0
1031
0.0
1011
0.0
1021
0.0
1031
0.0
1021
0.0
1031
1.0
1040
0.0
1010
0.0
1020
0.0
1030
1.0
1000
SOLID
1070
     1
1070
     1
1071
        1
1071
        1
1071
        1
1070
     2
1040
49.949793748598132
1040
275.76684459426821
1040
0.2549509756796394
1040
-1.5707963267948959
1040
4.7123889803846888
1070
     1
1071
        1
1005
F3E
1070
     0
1070
     1
1071
        1
1040
50.031645245927017
1040
276.00358349583831
1040
0.0
1002
}
  0
POLYLINE
  5
F40
  8
SAPA_FOGBAND
 66
     1
 10
0.0
 20
0.0
 30
0.0
 70
     1
  0
VERTEX
  5
1E71
  8
SAPA_FOGBAND
 10
47.378260604947251
 20
274.866844594268
 30
0.0
 42
0.9999999999999998
  0
VERTEX
  5
1E72
  8
SAPA_FOGBAND
 10
47.378260604947251
 20
276.66684459426801
 30
0.0
  0
VERTEX
  5
1E73
  8
SAPA_FOGBAND
 10
46.778260604947228
 20
276.66684459426801
 30
0.0
 42
0.9999999999999998
  0
VERTEX
  5
1E74
  8
SAPA_FOGBAND
 10
46.778260604947228
 20
274.866844594268
 30
0.0
  0
SEQEND
  5
1E75
  8
SAPA_FOGBAND
  0
POLYLINE
  5
F41
  8
SAPA_FOGBAND
 66
     1
 10
0.0
 20
0.0
 30
0.0
 70
     1
  0
VERTEX
  5
1E76
  8
SAPA_FOGBAND
 10
50.814031900098449
 20
271.51684459426821
 30
0.0
  0
VERTEX
  5
1E77
  8
SAPA_FOGBAND
 10
48.678260604947319
 20
271.51684459426792
 30
0.0
 42
-0.4142135623730951
  0
VERTEX
  5
1E78
  8
SAPA_FOGBAND
 10
48.47826060494728
 20
271.71684459426803
 30
0.0
  0
VERTEX
  5
1E79
  8
SAPA_FOGBAND
 10
48.47826060494728
 20
273.76684459426821
 30
0.0
 42
0.4142135623730951
  0
VERTEX
  5
1E7A
  8
SAPA_FOGBAND
 10
47.97826060494728
 20
274.26684459426809
 30
0.0
  0
VERTEX
  5
1E7B
  8
SAPA_FOGBAND
 10
47.251465685704112
 20
274.26684459426809
 30
0.0
  0
VERTEX
  5
1E7C
  8
SAPA_FOGBAND
 10
47.184005776393711
 20
274.01508078524762
 30
0.0
 42
-0.4740571810232154
  0
VERTEX
  5
1E7D
  8
SAPA_FOGBAND
 10
46.901723190755057
 20
273.887786922884
 30
0.0
  0
VERTEX
  5
1E7E
  8
SAPA_FOGBAND
 10
45.455517053995287
 20
274.50788742564259
 30
0.0
 42
-0.2846003776496056
  0
VERTEX
  5
1E7F
  8
SAPA_FOGBAND
 10
45.178260604947333
 20
274.95553160410282
 30
0.0
  0
VERTEX
  5
1E80
  8
SAPA_FOGBAND
 10
45.178260604947333
 20
276.57815758443331
 30
0.0
 42
-0.2846003776496054
  0
VERTEX
  5
1E81
  8
SAPA_FOGBAND
 10
45.455517053995287
 20
277.02580176289348
 30
0.0
  0
VERTEX
  5
1E82
  8
SAPA_FOGBAND
 10
46.901723190755057
 20
277.64590226565201
 30
0.0
 42
-0.4740571810232154
  0
VERTEX
  5
1E83
  8
SAPA_FOGBAND
 10
47.184005776393711
 20
277.51860840328851
 30
0.0
  0
VERTEX
  5
1E84
  8
SAPA_FOGBAND
 10
47.251465685704112
 20
277.26684459426809
 30
0.0
  0
VERTEX
  5
1E85
  8
SAPA_FOGBAND
 10
47.97826060494728
 20
277.26684459426809
 30
0.0
 42
0.4142135623730951
  0
VERTEX
  5
1E86
  8
SAPA_FOGBAND
 10
48.47826060494728
 20
277.76684459426821
 30
0.0
  0
VERTEX
  5
1E87
  8
SAPA_FOGBAND
 10
48.47826060494728
 20
280.8168445942681
 30
0.0
 42
0.4142135623730951
  0
VERTEX
  5
1E88
  8
SAPA_FOGBAND
 10
48.278260604947228
 20
281.01684459426809
 30
0.0
  0
VERTEX
  5
1E89
  8
SAPA_FOGBAND
 10
47.378260604947251
 20
281.01684459426792
 30
0.0
 42
-0.4142135623730951
  0
VERTEX
  5
1E8A
  8
SAPA_FOGBAND
 10
47.178260604947319
 20
281.21684459426803
 30
0.0
  0
VERTEX
  5
1E8B
  8
SAPA_FOGBAND
 10
47.178260604947212
 20
281.91684459426801
 30
0.0
 42
-0.4142135623730951
  0
VERTEX
  5
1E8C
  8
SAPA_FOGBAND
 10
47.47826060494728
 20
282.21684459426803
 30
0.0
  0
VERTEX
  5
1E8D
  8
SAPA_FOGBAND
 10
48.288772381598818
 20
282.21684459426803
 30
0.0
 42
0.1316524975873982
  0
VERTEX
  5
1E8E
  8
SAPA_FOGBAND
 10
49.288772381598811
 20
282.48479378669907
 30
0.0
  0
VERTEX
  5
1E8F
  8
SAPA_FOGBAND
 10
51.924139299942993
 20
286.45550632380127
 30
0.0
 42
-0.876976462992761
  0
VERTEX
  5
1E90
  8
SAPA_FOGBAND
 10
52.441480636059481
 20
286.35260073389099
 30
0.0
  0
VERTEX
  5
1E91
  8
SAPA_FOGBAND
 10
51.887635839515241
 20
280.9279391720188
 30
0.0
 42
0.1353185728426623
  0
VERTEX
  5
1E92
  8
SAPA_FOGBAND
 10
51.887635839515241
 20
280.9279391720188
 30
0.0
  0
VERTEX
  5
1E93
  8
SAPA_FOGBAND
 10
52.299672531915427
 20
280.69004967919
 30
0.0
 42
-0.5773502691896196
  0
VERTEX
  5
1E94
  8
SAPA_FOGBAND
 10
52.299672531915427
 20
280.34363951767619
 30
0.0
  0
VERTEX
  5
1E95
  8
SAPA_FOGBAND
 10
51.887361969353577
 20
280.10559190094523
 30
0.0
  0
VERTEX
  5
1E96
  8
SAPA_FOGBAND
 10
51.887361969353577
 20
279.3280972910286
 30
0.0
  0
VERTEX
  5
1E97
  8
SAPA_FOGBAND
 10
52.299672531915427
 20
279.0900496791898
 30
0.0
 42
-0.5773502691896196
  0
VERTEX
  5
1E98
  8
SAPA_FOGBAND
 10
52.299672531915427
 20
278.74363951767617
 30
0.0
  0
VERTEX
  5
1E99
  8
SAPA_FOGBAND
 10
51.887361969353577
 20
278.50559190094532
 30
0.0
  0
VERTEX
  5
1E9A
  8
SAPA_FOGBAND
 10
51.887361969353577
 20
277.72809729102869
 30
0.0
  0
VERTEX
  5
1E9B
  8
SAPA_FOGBAND
 10
52.299672531915427
 20
277.49004967919001
 30
0.0
 42
-0.5773502691896196
  0
VERTEX
  5
1E9C
  8
SAPA_FOGBAND
 10
52.299672531915427
 20
277.14363951767609
 30
0.0
  0
VERTEX
  5
1E9D
  8
SAPA_FOGBAND
 10
51.887361969353577
 20
276.90559190094541
 30
0.0
  0
VERTEX
  5
1E9E
  8
SAPA_FOGBAND
 10
51.887361969353577
 20
276.1280972910285
 30
0.0
  0
VERTEX
  5
1E9F
  8
SAPA_FOGBAND
 10
52.299672531915427
 20
275.8900496791901
 30
0.0
 42
-0.5773502691896196
  0
VERTEX
  5
1EA0
  8
SAPA_FOGBAND
 10
52.299672531915427
 20
275.54363951767618
 30
0.0
  0
VERTEX
  5
1EA1
  8
SAPA_FOGBAND
 10
51.887361969353577
 20
275.30559190094527
 30
0.0
  0
VERTEX
  5
1EA2
  8
SAPA_FOGBAND
 10
51.887361969353577
 20
274.52809729102859
 30
0.0
  0
VERTEX
  5
1EA3
  8
SAPA_FOGBAND
 10
52.299672531915427
 20
274.29004967918991
 30
0.0
 42
-0.5773502691896196
  0
VERTEX
  5
1EA4
  8
SAPA_FOGBAND
 10
52.299672531915427
 20
273.9436395176761
 30
0.0
  0
VERTEX
  5
1EA5
  8
SAPA_FOGBAND
 10
51.887361969353577
 20
273.70559190094542
 30
0.0
  0
VERTEX
  5
1EA6
  8
SAPA_FOGBAND
 10
51.887361969353577
 20
272.9280972868637
 30
0.0
  0
VERTEX
  5
1EA7
  8
SAPA_FOGBAND
 10
52.299672531915427
 20
272.69004967502502
 30
0.0
 42
-0.5773502691896196
  0
VERTEX
  5
1EA8
  8
SAPA_FOGBAND
 10
52.299672531915427
 20
272.34363951351111
 30
0.0
  0
VERTEX
  5
1EA9
  8
SAPA_FOGBAND
 10
50.914031900869162
 20
271.54363951395612
 30
0.0
 42
-0.1316524987190407
  0
SEQEND
  5
1EAA
  8
SAPA_FOGBAND
  0
POLYLINE
  5
F42
  8
SAPA_FOGBAND
 66
     1
 10
0.0
 20
0.0
 30
0.0
 70
     1
  0
VERTEX
  5
1EAB
  8
SAPA_FOGBAND
 10
91.392891102587058
 20
276.43881498317018
 30
0.0
  0
VERTEX
  5
1EAC
  8
SAPA_FOGBAND
 10
90.792891102587163
 20
276.43881498317018
 30
0.0
 42
-0.9999999999999998
  0
VERTEX
  5
1EAD
  8
SAPA_FOGBAND
 10
90.792891102587163
 20
278.23881498317041
 30
0.0
  0
VERTEX
  5
1EAE
  8
SAPA_FOGBAND
 10
91.392891102587058
 20
278.23881498317041
 30
0.0
 42
-0.9999999999999998
  0
SEQEND
  5
1EAF
  8
SAPA_FOGBAND
  0
POLYLINE
  5
F43
  8
SAPA_FOGBAND
 66
     1
 10
0.0
 20
0.0
 30
0.0
  0
VERTEX
  5
1EB0
  8
SAPA_FOGBAND
 10
89.478260604948417
 20
280.93881498317018
 30
0.0
  0
VERTEX
  5
1EB1
  8
SAPA_FOGBAND
 10
89.178260604948463
 20
280.93881498317018
 30
0.0
 42
0.4142135623730951
  0
VERTEX
  5
1EB2
  8
SAPA_FOGBAND
 10
88.678260604948477
 20
280.43881498317018
 30
0.0
  0
VERTEX
  5
1EB3
  8
SAPA_FOGBAND
 10
88.678260604948477
 20
273.13881498317011
 30
0.0
 42
0.4142135623730951
  0
VERTEX
  5
1EB4
  8
SAPA_FOGBAND
 10
89.178260604948463
 20
272.63881498316999
 30
0.0
  0
VERTEX
  5
1EB5
  8
SAPA_FOGBAND
 10
89.478260604948417
 20
272.63881498317051
 30
0.0
  0
SEQEND
  5
1EB6
  8
SAPA_FOGBAND
  0
POLYLINE
  5
F44
  8
SAPA_FOGBAND
 10
84.416428055207774
 20
279.40206211700752
 30
0.0
 66
     1
 70
     8
  0
VERTEX
  8
SAPA_FOGBAND
  5
1F68
 10
84.4164
 20
279.402
 30
0.000000
  70
    32
  0
VERTEX
  8
SAPA_FOGBAND
  5
1F69
 10
84.3337
 20
279.397
 30
0.000000
  70
    32
  0
VERTEX
  8
SAPA_FOGBAND
  5
1F6A
 10
84.2512
 20
279.385
 30
0.000000
  70
    32
  0
VERTEX
  8
SAPA_FOGBAND
  5
1F6B
 10
84.1692
 20
279.364
 30
0.000000
  70
    32
  0
VERTEX
  8
SAPA_FOGBAND
  5
1F6C
 10
84.0878
 20
279.335
 30
0.000000
  70
    32
  0
VERTEX
  8
SAPA_FOGBAND
  5
1F6D
 10
84.0074
 20
279.299
 30
0.000000
  70
    32
  0
VERTEX
  8
SAPA_FOGBAND
  5
1F6E
 10
83.9280
 20
279.255
 30
0.000000
  70
    32
  0
VERTEX
  8
SAPA_FOGBAND
  5
1F6F
 10
83.8498
 20
279.204
 30
0.000000
  70
    32
  0
VERTEX
  8
SAPA_FOGBAND
  5
1F70
 10
83.7731
 20
279.145
 30
0.000000
  70
    32
  0
VERTEX
  8
SAPA_FOGBAND
  5
1F71
 10
83.6980
 20
279.078
 30
0.000000
  70
    32
  0
VERTEX
  8
SAPA_FOGBAND
  5
1F72
 10
83.6248
 20
279.005
 30
0.000000
  70
    32
  0
VERTEX
  8
SAPA_FOGBAND
  5
1F73
 10
83.5535
 20
278.924
 30
0.000000
  70
    32
  0
VERTEX
  8
SAPA_FOGBAND
  5
1F74
 10
83.4844
 20
278.837
 30
0.000000
  70
    32
  0
VERTEX
  8
SAPA_FOGBAND
  5
1F75
 10
83.4176
 20
278.743
 30
0.000000
  70
    32
  0
VERTEX
  8
SAPA_FOGBAND
  5
1F76
 10
83.3533
 20
278.643
 30
0.000000
  70
    32
  0
VERTEX
  8
SAPA_FOGBAND
  5
1F77
 10
83.2916
 20
278.536
 30
0.000000
  70
    32
  0
VERTEX
  8
SAPA_FOGBAND
  5
1F78
 10
83.2327
 20
278.424
 30
0.000000
  70
    32
  0
VERTEX
  8
SAPA_FOGBAND
  5
1F79
 10
83.1768
 20
278.306
 30
0.000000
  70
    32
  0
VERTEX
  8
SAPA_FOGBAND
  5
1F7A
 10
83.1239
 20
278.183
 30
0.000000
  70
    32
  0
VERTEX
  8
SAPA_FOGBAND
  5
1F7B
 10
83.0742
 20
278.055
 30
0.000000
  70
    32
  0
VERTEX
  8
SAPA_FOGBAND
  5
1F7C
 10
83.0278
 20
277.922
 30
0.000000
  70
    32
  0
VERTEX
  8
SAPA_FOGBAND
  5
1F7D
 10
82.9849
 20
277.785
 30
0.000000
  70
    32
  0
VERTEX
  8
SAPA_FOGBAND
  5
1F7E
 10
82.9454
 20
277.644
 30
0.000000
  70
    32
  0
VERTEX
  8
SAPA_FOGBAND
  5
1F7F
 10
82.9096
 20
277.499
 30
0.000000
  70
    32
  0
VERTEX
  8
SAPA_FOGBAND
  5
1F80
 10
82.8775
 20
277.350
 30
0.000000
  70
    32
  0
VERTEX
  8
SAPA_FOGBAND
  5
1F81
 10
82.8492
 20
277.199
 30
0.000000
  70
    32
  0
VERTEX
  8
SAPA_FOGBAND
  5
1F82
 10
82.8248
 20
277.045
 30
0.000000
  70
    32
  0
VERTEX
  8
SAPA_FOGBAND
  5
1F83
 10
82.8042
 20
276.889
 30
0.000000
  70
    32
  0
VERTEX
  8
SAPA_FOGBAND
  5
1F84
 10
82.7877
 20
276.731
 30
0.000000
  70
    32
  0
VERTEX
  8
SAPA_FOGBAND
  5
1F85
 10
82.7751
 20
276.571
 30
0.000000
  70
    32
  0
VERTEX
  8
SAPA_FOGBAND
  5
1F86
 10
82.7666
 20
276.410
 30
0.000000
  70
    32
  0
VERTEX
  8
SAPA_FOGBAND
  5
1F87
 10
82.7621
 20
276.249
 30
0.000000
  70
    32
  0
VERTEX
  8
SAPA_FOGBAND
  5
1F88
 10
82.7616
 20
276.087
 30
0.000000
  70
    32
  0
VERTEX
  8
SAPA_FOGBAND
  5
1F89
 10
82.7653
 20
275.925
 30
0.000000
  70
    32
  0
VERTEX
  8
SAPA_FOGBAND
  5
1F8A
 10
82.7730
 20
275.764
 30
0.000000
  70
    32
  0
VERTEX
  8
SAPA_FOGBAND
  5
1F8B
 10
82.7847
 20
275.603
 30
0.000000
  70
    32
  0
VERTEX
  8
SAPA_FOGBAND
  5
1F8C
 10
82.8005
 20
275.444
 30
0.000000
  70
    32
  0
VERTEX
  8
SAPA_FOGBAND
  5
1F8D
 10
82.8202
 20
275.286
 30
0.000000
  70
    32
  0
VERTEX
  8
SAPA_FOGBAND
  5
1F8E
 10
82.8438
 20
275.130
 30
0.000000
  70
    32
  0
VERTEX
  8
SAPA_FOGBAND
  5
1F8F
 10
82.8714
 20
274.977
 30
0.000000
  70
    32
  0
VERTEX
  8
SAPA_FOGBAND
  5
1F90
 10
82.9027
 20
274.826
 30
0.000000
  70
    32
  0
VERTEX
  8
SAPA_FOGBAND
  5
1F91
 10
82.9377
 20
274.678
 30
0.000000
  70
    32
  0
VERTEX
  8
SAPA_FOGBAND
  5
1F92
 10
82.9764
 20
274.534
 30
0.000000
  70
    32
  0
VERTEX
  8
SAPA_FOGBAND
  5
1F93
 10
83.0186
 20
274.394
 30
0.000000
  70
    32
  0
VERTEX
  8
SAPA_FOGBAND
  5
1F94
 10
83.0643
 20
274.257
 30
0.000000
  70
    32
  0
VERTEX
  8
SAPA_FOGBAND
  5
1F95
 10
83.1133
 20
274.126
 30
0.000000
  70
    32
  0
VERTEX
  8
SAPA_FOGBAND
  5
1F96
 10
83.1655
 20
273.998
 30
0.000000
  70
    32
  0
VERTEX
  8
SAPA_FOGBAND
  5
1F97
 10
83.2209
 20
273.876
 30
0.000000
  70
    32
  0
VERTEX
  8
SAPA_FOGBAND
  5
1F98
 10
83.2791
 20
273.760
 30
0.000000
  70
    32
  0
VERTEX
  8
SAPA_FOGBAND
  5
1F99
 10
83.3403
 20
273.649
 30
0.000000
  70
    32
  0
VERTEX
  8
SAPA_FOGBAND
  5
1F9A
 10
83.4040
 20
273.544
 30
0.000000
  70
    32
  0
VERTEX
  8
SAPA_FOGBAND
  5
1F9B
 10
83.4703
 20
273.445
 30
0.000000
  70
    32
  0
VERTEX
  8
SAPA_FOGBAND
  5
1F9C
 10
83.5390
 20
273.352
 30
0.000000
  70
    32
  0
VERTEX
  8
SAPA_FOGBAND
  5
1F9D
 10
83.6098
 20
273.266
 30
0.000000
  70
    32
  0
VERTEX
  8
SAPA_FOGBAND
  5
1F9E
 10
83.6827
 20
273.187
 30
0.000000
  70
    32
  0
VERTEX
  8
SAPA_FOGBAND
  5
1F9F
 10
83.7574
 20
273.115
 30
0.000000
  70
    32
  0
VERTEX
  8
SAPA_FOGBAND
  5
1FA0
 10
83.8338
 20
273.050
 30
0.000000
  70
    32
  0
VERTEX
  8
SAPA_FOGBAND
  5
1FA1
 10
83.9116
 20
272.993
 30
0.000000
  70
    32
  0
VERTEX
  8
SAPA_FOGBAND
  5
1FA2
 10
83.9908
 20
272.943
 30
0.000000
  70
    32
  0
VERTEX
  8
SAPA_FOGBAND
  5
1FA3
 10
84.0710
 20
272.900
 30
0.000000
  70
    32
  0
VERTEX
  8
SAPA_FOGBAND
  5
1FA4
 10
84.1522
 20
272.866
 30
0.000000
  70
    32
  0
VERTEX
  8
SAPA_FOGBAND
  5
1FA5
 10
84.2341
 20
272.839
 30
0.000000
  70
    32
  0
VERTEX
  8
SAPA_FOGBAND
  5
1FA6
 10
84.3165
 20
272.820
 30
0.000000
  70
    32
  0
VERTEX
  8
SAPA_FOGBAND
  5
1FA7
 10
84.3992
 20
272.809
 30
0.000000
  70
    32
  0
VERTEX
  8
SAPA_FOGBAND
  5
1FA8
 10
84.4821
 20
272.806
 30
0.000000
  70
    32
  0
VERTEX
  8
SAPA_FOGBAND
  5
1FA9
 10
84.5649
 20
272.810
 30
0.000000
  70
    32
  0
VERTEX
  8
SAPA_FOGBAND
  5
1FAA
 10
84.6473
 20
272.823
 30
0.000000
  70
    32
  0
VERTEX
  8
SAPA_FOGBAND
  5
1FAB
 10
84.7294
 20
272.844
 30
0.000000
  70
    32
  0
VERTEX
  8
SAPA_FOGBAND
  5
1FAC
 10
84.8107
 20
272.872
 30
0.000000
  70
    32
  0
VERTEX
  8
SAPA_FOGBAND
  5
1FAD
 10
84.8912
 20
272.908
 30
0.000000
  70
    32
  0
VERTEX
  8
SAPA_FOGBAND
  5
1FAE
 10
84.9706
 20
272.952
 30
0.000000
  70
    32
  0
VERTEX
  8
SAPA_FOGBAND
  5
1FAF
 10
85.0487
 20
273.004
 30
0.000000
  70
    32
  0
VERTEX
  8
SAPA_FOGBAND
  5
1FB0
 10
85.1254
 20
273.063
 30
0.000000
  70
    32
  0
VERTEX
  8
SAPA_FOGBAND
  5
1FB1
 10
85.2005
 20
273.129
 30
0.000000
  70
    32
  0
VERTEX
  8
SAPA_FOGBAND
  5
1FB2
 10
85.2737
 20
273.203
 30
0.000000
  70
    32
  0
VERTEX
  8
SAPA_FOGBAND
  5
1FB3
 10
85.3450
 20
273.283
 30
0.000000
  70
    32
  0
VERTEX
  8
SAPA_FOGBAND
  5
1FB4
 10
85.4141
 20
273.371
 30
0.000000
  70
    32
  0
VERTEX
  8
SAPA_FOGBAND
  5
1FB5
 10
85.4809
 20
273.465
 30
0.000000
  70
    32
  0
VERTEX
  8
SAPA_FOGBAND
  5
1FB6
 10
85.5452
 20
273.565
 30
0.000000
  70
    32
  0
VERTEX
  8
SAPA_FOGBAND
  5
1FB7
 10
85.6069
 20
273.671
 30
0.000000
  70
    32
  0
VERTEX
  8
SAPA_FOGBAND
  5
1FB8
 10
85.6658
 20
273.783
 30
0.000000
  70
    32
  0
VERTEX
  8
SAPA_FOGBAND
  5
1FB9
 10
85.7217
 20
273.901
 30
0.000000
  70
    32
  0
VERTEX
  8
SAPA_FOGBAND
  5
1FBA
 10
85.7746
 20
274.024
 30
0.000000
  70
    32
  0
VERTEX
  8
SAPA_FOGBAND
  5
1FBB
 10
85.8243
 20
274.153
 30
0.000000
  70
    32
  0
VERTEX
  8
SAPA_FOGBAND
  5
1FBC
 10
85.8707
 20
274.285
 30
0.000000
  70
    32
  0
VERTEX
  8
SAPA_FOGBAND
  5
1FBD
 10
85.9136
 20
274.423
 30
0.000000
  70
    32
  0
VERTEX
  8
SAPA_FOGBAND
  5
1FBE
 10
85.9531
 20
274.564
 30
0.000000
  70
    32
  0
VERTEX
  8
SAPA_FOGBAND
  5
1FBF
 10
85.9889
 20
274.709
 30
0.000000
  70
    32
  0
VERTEX
  8
SAPA_FOGBAND
  5
1FC0
 10
86.0210
 20
274.857
 30
0.000000
  70
    32
  0
VERTEX
  8
SAPA_FOGBAND
  5
1FC1
 10
86.0493
 20
275.008
 30
0.000000
  70
    32
  0
VERTEX
  8
SAPA_FOGBAND
  5
1FC2
 10
86.0737
 20
275.162
 30
0.000000
  70
    32
  0
VERTEX
  8
SAPA_FOGBAND
  5
1FC3
 10
86.0943
 20
275.319
 30
0.000000
  70
    32
  0
VERTEX
  8
SAPA_FOGBAND
  5
1FC4
 10
86.1108
 20
275.477
 30
0.000000
  70
    32
  0
VERTEX
  8
SAPA_FOGBAND
  5
1FC5
 10
86.1234
 20
275.636
 30
0.000000
  70
    32
  0
VERTEX
  8
SAPA_FOGBAND
  5
1FC6
 10
86.1320
 20
275.797
 30
0.000000
  70
    32
  0
VERTEX
  8
SAPA_FOGBAND
  5
1FC7
 10
86.1364
 20
275.959
 30
0.000000
  70
    32
  0
VERTEX
  8
SAPA_FOGBAND
  5
1FC8
 10
86.1369
 20
276.121
 30
0.000000
  70
    32
  0
VERTEX
  8
SAPA_FOGBAND
  5
1FC9
 10
86.1332
 20
276.282
 30
0.000000
  70
    32
  0
VERTEX
  8
SAPA_FOGBAND
  5
1FCA
 10
86.1255
 20
276.444
 30
0.000000
  70
    32
  0
VERTEX
  8
SAPA_FOGBAND
  5
1FCB
 10
86.1138
 20
276.604
 30
0.000000
  70
    32
  0
VERTEX
  8
SAPA_FOGBAND
  5
1FCC
 10
86.0980
 20
276.764
 30
0.000000
  70
    32
  0
VERTEX
  8
SAPA_FOGBAND
  5
1FCD
 10
86.0783
 20
276.922
 30
0.000000
  70
    32
  0
VERTEX
  8
SAPA_FOGBAND
  5
1FCE
 10
86.0547
 20
277.077
 30
0.000000
  70
    32
  0
VERTEX
  8
SAPA_FOGBAND
  5
1FCF
 10
86.0272
 20
277.231
 30
0.000000
  70
    32
  0
VERTEX
  8
SAPA_FOGBAND
  5
1FD0
 10
85.9958
 20
277.382
 30
0.000000
  70
    32
  0
VERTEX
  8
SAPA_FOGBAND
  5
1FD1
 10
85.9608
 20
277.529
 30
0.000000
  70
    32
  0
VERTEX
  8
SAPA_FOGBAND
  5
1FD2
 10
85.9221
 20
277.673
 30
0.000000
  70
    32
  0
VERTEX
  8
SAPA_FOGBAND
  5
1FD3
 10
85.8799
 20
277.814
 30
0.000000
  70
    32
  0
VERTEX
  8
SAPA_FOGBAND
  5
1FD4
 10
85.8342
 20
277.950
 30
0.000000
  70
    32
  0
VERTEX
  8
SAPA_FOGBAND
  5
1FD5
 10
85.7852
 20
278.082
 30
0.000000
  70
    32
  0
VERTEX
  8
SAPA_FOGBAND
  5
1FD6
 10
85.7330
 20
278.209
 30
0.000000
  70
    32
  0
VERTEX
  8
SAPA_FOGBAND
  5
1FD7
 10
85.6776
 20
278.331
 30
0.000000
  70
    32
  0
VERTEX
  8
SAPA_FOGBAND
  5
1FD8
 10
85.6194
 20
278.448
 30
0.000000
  70
    32
  0
VERTEX
  8
SAPA_FOGBAND
  5
1FD9
 10
85.5583
 20
278.559
 30
0.000000
  70
    32
  0
VERTEX
  8
SAPA_FOGBAND
  5
1FDA
 10
85.4945
 20
278.664
 30
0.000000
  70
    32
  0
VERTEX
  8
SAPA_FOGBAND
  5
1FDB
 10
85.4282
 20
278.763
 30
0.000000
  70
    32
  0
VERTEX
  8
SAPA_FOGBAND
  5
1FDC
 10
85.3595
 20
278.856
 30
0.000000
  70
    32
  0
VERTEX
  8
SAPA_FOGBAND
  5
1FDD
 10
85.2887
 20
278.941
 30
0.000000
  70
    32
  0
VERTEX
  8
SAPA_FOGBAND
  5
1FDE
 10
85.2158
 20
279.021
 30
0.000000
  70
    32
  0
VERTEX
  8
SAPA_FOGBAND
  5
1FDF
 10
85.1411
 20
279.093
 30
0.000000
  70
    32
  0
VERTEX
  8
SAPA_FOGBAND
  5
1FE0
 10
85.0647
 20
279.157
 30
0.000000
  70
    32
  0
VERTEX
  8
SAPA_FOGBAND
  5
1FE1
 10
84.9869
 20
279.215
 30
0.000000
  70
    32
  0
VERTEX
  8
SAPA_FOGBAND
  5
1FE2
 10
84.9077
 20
279.265
 30
0.000000
  70
    32
  0
VERTEX
  8
SAPA_FOGBAND
  5
1FE3
 10
84.8275
 20
279.307
 30
0.000000
  70
    32
  0
VERTEX
  8
SAPA_FOGBAND
  5
1FE4
 10
84.7463
 20
279.342
 30
0.000000
  70
    32
  0
VERTEX
  8
SAPA_FOGBAND
  5
1FE5
 10
84.6644
 20
279.369
 30
0.000000
  70
    32
  0
VERTEX
  8
SAPA_FOGBAND
  5
1FE6
 10
84.5820
 20
279.388
 30
0.000000
  70
    32
  0
VERTEX
  8
SAPA_FOGBAND
  5
1FE7
 10
84.4993
 20
279.399
 30
0.000000
  70
    32
  0
VERTEX
  8
SAPA_FOGBAND
  5
1FE8
 10
84.4164
 20
279.402
 30
0.000000
  70
    32
  0
SEQEND
  8
SAPA_FOGBAND
  5
1FE9
  0
POLYLINE
  5
F45
  8
SAPA_FOGBAND
 66
     1
 10
0.0
 20
0.0
 30
0.0
 70
     1
  0
VERTEX
  5
1EB7
  8
SAPA_FOGBAND
 10
81.024935738985477
 20
266.02881256364981
 30
0.0
  0
VERTEX
  5
1EB8
  8
SAPA_FOGBAND
 10
80.5329833990954
 20
269.0301397262192
 30
0.0
 42
-0.4464785874932524
  0
VERTEX
  5
1EB9
  8
SAPA_FOGBAND
 10
81.527060704201375
 20
270.13881498317051
 30
0.0
  0
VERTEX
  5
1EBA
  8
SAPA_FOGBAND
 10
85.128112858358435
 20
270.13881498317051
 30
0.0
 42
-0.622676997742357
  0
VERTEX
  5
1EBB
  8
SAPA_FOGBAND
 10
85.919994586521824
 20
268.52814049655649
 30
0.0
  0
VERTEX
  5
1EBC
  8
SAPA_FOGBAND
 10
83.444959264004837
 20
265.52681333398732
 30
0.0
 42
-0.232531183213058
  0
VERTEX
  5
1EBD
  8
SAPA_FOGBAND
 10
82.653077535841234
 20
265.13748782060088
 30
0.0
  0
VERTEX
  5
1EBE
  8
SAPA_FOGBAND
 10
82.019013044091224
 20
265.13748782060111
 30
0.0
 42
-0.3826682380870913
  0
SEQEND
  5
1EBF
  8
SAPA_FOGBAND
  0
POLYLINE
  5
F46
  8
SAPA_FOGBAND
 66
     1
 10
0.0
 20
0.0
 30
0.0
 70
     1
  0
VERTEX
  5
1EC0
  8
SAPA_FOGBAND
 10
90.987145931140702
 20
279.09057879219063
 30
0.0
 42
-0.4740571810231764
  0
VERTEX
  5
1EC1
  8
SAPA_FOGBAND
 10
91.269428516779243
 20
279.21787265455441
 30
0.0
  0
VERTEX
  5
1EC2
  8
SAPA_FOGBAND
 10
92.715634653539354
 20
278.5977721517956
 30
0.0
 42
-0.2846003776496257
  0
VERTEX
  5
1EC3
  8
SAPA_FOGBAND
 10
92.992891102587208
 20
278.1501279733356
 30
0.0
  0
VERTEX
  5
1EC4
  8
SAPA_FOGBAND
 10
92.992891102587208
 20
276.52750199300499
 30
0.0
 42
-0.2846003776496159
  0
VERTEX
  5
1EC5
  8
SAPA_FOGBAND
 10
92.715634653539126
 20
276.07985781454499
 30
0.0
  0
VERTEX
  5
1EC6
  8
SAPA_FOGBAND
 10
91.269428516779243
 20
275.45975731178618
 30
0.0
 42
-0.4740571810232354
  0
VERTEX
  5
1EC7
  8
SAPA_FOGBAND
 10
90.987145931140702
 20
275.58705117414962
 30
0.0
  0
VERTEX
  5
1EC8
  8
SAPA_FOGBAND
 10
90.919686021830302
 20
275.83881498317032
 30
0.0
  0
VERTEX
  5
1EC9
  8
SAPA_FOGBAND
 10
89.97826060494819
 20
275.83881498317032
 30
0.0
 42
0.4142135623730951
  0
VERTEX
  5
1ECA
  8
SAPA_FOGBAND
 10
89.478260604948176
 20
275.33881498317032
 30
0.0
  0
VERTEX
  5
1ECB
  8
SAPA_FOGBAND
 10
89.478260604948417
 20
272.3107154324357
 30
0.0
 42
-0.1657205760184635
  0
VERTEX
  5
1ECC
  8
SAPA_FOGBAND
 10
89.270142333111806
 20
271.70004094582191
 30
0.0
  0
VERTEX
  5
1ECD
  8
SAPA_FOGBAND
 10
83.875557248255944
 20
262.33215055534492
 30
0.0
 42
-0.2325311832130358
  0
VERTEX
  5
1ECE
  8
SAPA_FOGBAND
 10
83.479616384174022
 20
262.13748779865182
 30
0.0
  0
VERTEX
  5
1ECF
  8
SAPA_FOGBAND
 10
81.248872827736449
 20
262.13748779865182
 30
0.0
 42
-0.3826682380870913
  0
VERTEX
  5
1ED0
  8
SAPA_FOGBAND
 10
80.254795522630687
 20
263.02881254170097
 30
0.0
  0
VERTEX
  5
1ED1
  8
SAPA_FOGBAND
 10
79.478260604947963
 20
268.63328130199761
 30
0.0
  0
VERTEX
  5
1ED2
  8
SAPA_FOGBAND
 10
79.478260604947963
 20
282.33881496122098
 30
0.0
 42
-0.4257917699693507
  0
VERTEX
  5
1ED3
  8
SAPA_FOGBAND
 10
79.790067967478734
 20
282.63858251481912
 30
0.0
  0
VERTEX
  5
1ED4
  8
SAPA_FOGBAND
 10
89.190067967479266
 20
282.15074270014981
 30
0.0
 42
-0.4027293761437475
  0
VERTEX
  5
1ED5
  8
SAPA_FOGBAND
 10
89.478260604948417
 20
281.85097514655172
 30
0.0
  0
VERTEX
  5
1ED6
  8
SAPA_FOGBAND
 10
89.478260604948176
 20
279.33881498317032
 30
0.0
 42
0.4142135623730951
  0
VERTEX
  5
1ED7
  8
SAPA_FOGBAND
 10
89.97826060494819
 20
278.8388149831701
 30
0.0
  0
VERTEX
  5
1ED8
  8
SAPA_FOGBAND
 10
90.919686021830302
 20
278.8388149831701
 30
0.0
  0
SEQEND
  5
1ED9
  8
SAPA_FOGBAND
  0
DIMENSION
  5
F4E
  8
SAPA_MATT
  2
*D54
 10
207.838877188542
 20
282.13748779865421
 30
0.0
 11
205.338877188542
 21
257.13748779865432
 31
0.0
 70
     0
 13
188.9782606039569
 23
232.13748779865421
 33
0.0
 14
188.9782606039569
 24
282.13748779865421
 34
0.0
 50
90.0
1001
ACAD
1000
DSTYLE
1002
{
1070
    40
1040
1.0
1002
}
  0
DIMENSION
  5
F4F
  8
SAPA_MATT
  2
*D53
 10
37.464835727384362
 20
-29.838680180490162
 30
0.0
 11
13.117469849422941
 21
-36.0399522116669
 31
0.0
 70
     1
 13
-15.967711668657341
 23
-29.224182754078019
 33
0.0
 14
31.01691937063714
 24
-12.123175587795
 34
0.0
1001
ACAD
1000
DSTYLE
1002
{
1070
    40
1040
1.0
1002
}
  0
DIMENSION
  5
F50
  8
SAPA_MATT
  2
*D52
 10
-6.365070174003451
 20
232.13748779865401
 30
0.0
 11
-8.8662065376398562
 21
182.13748779865409
 31
0.0
 70
     0
  1
min 100
 13
52.478260604946144
 23
132.13748779865409
 33
0.0
 14
28.976735677144461
 24
232.13748779865401
 34
0.0
 50
90.0
1001
ACAD
1000
DSTYLE
1002
{
1070
    40
1040
1.0
1002
}
  0
VIEWPORT
  5
C4
 67
     1
  8
0
 10
143.06236603067589
 20
116.00969601843509
 30
0.0
 40
369.98580003443811
 41
256.8421457311839
 68
     1
 69
     1
1001
ACAD
1000
MVIEW
1002
{
1070
    16
1010
0.0
1020
0.0
1030
0.0
1010
0.0
1020
0.0
1030
1.0
1040
0.0
1040
256.8421457311839
1040
99.112914085388169
1040
143.07606935501099
1040
50.0
1040
0.0
1040
0.0
1070
     0
1070
     0
1070
     1
1070
     1
1070
     0
1070
     0
1070
     0
1070
     0
1040
0.0
1040
0.0
1040
0.0
1040
10.0
1040
10.0
1040
10.0
1040
10.0
1070
     0
1002
{
1002
}
1002
}
  0
ENDSEC
  0
EOF
