  0
SECTION
  2
HEADER
  9
$ACADVER
  1
AC1009
  9
$INSBASE
 10
0.0
 20
0.0
 30
0.0
  9
$EXTMIN
 10
-226.3201877565734
 20
-460.81199447774401
 30
0.0
  9
$EXTMAX
 10
40.999999999999432
 20
97.993859818594856
 30
0.0
  9
$LIMMIN
 10
0.0
 20
0.0
  9
$LIMMAX
 10
790.0
 20
790.0
  9
$ORTHOMODE
 70
     1
  9
$REGENMODE
 70
     1
  9
$FILLMODE
 70
     1
  9
$QTEXTMODE
 70
     0
  9
$MIRRTEXT
 70
     1
  9
$DRAGMODE
 70
     2
  9
$LTSCALE
 40
4.0
  9
$OSMODE
 70
   167
  9
$ATTMODE
 70
     1
  9
$TEXTSIZE
 40
3.5
  9
$TRACEWID
 40
0.05
  9
$TEXTSTYLE
  7
ISO
  9
$CLAYER
  8
0
  9
$CELTYPE
  6
BYLAYER
  9
$CECOLOR
 62
   256
  9
$DIMSCALE
 40
0.0
  9
$DIMASZ
 40
3.0
  9
$DIMEXO
 40
1.5
  9
$DIMDLI
 40
10.0
  9
$DIMRND
 40
0.0
  9
$DIMDLE
 40
0.0
  9
$DIMEXE
 40
1.5
  9
$DIMTP
 40
0.0
  9
$DIMTM
 40
0.0
  9
$DIMTXT
 40
3.0
  9
$DIMCEN
 40
-5.0
  9
$DIMTSZ
 40
0.0
  9
$DIMTOL
 70
     0
  9
$DIMLIM
 70
     0
  9
$DIMTIH
 70
     0
  9
$DIMTOH
 70
     0
  9
$DIMSE1
 70
     0
  9
$DIMSE2
 70
     0
  9
$DIMTAD
 70
     1
  9
$DIMZIN
 70
     8
  9
$DIMBLK
  1

  9
$DIMASO
 70
     1
  9
$DIMSHO
 70
     1
  9
$DIMPOST
  1

  9
$DIMAPOST
  1

  9
$DIMALT
 70
     0
  9
$DIMALTD
 70
     0
  9
$DIMALTF
 40
25.399999999999999
  9
$DIMLFAC
 40
-1.0
  9
$DIMTOFL
 70
     1
  9
$DIMTVP
 40
0.0
  9
$DIMTIX
 70
     0
  9
$DIMSOXD
 70
     0
  9
$DIMSAH
 70
     0
  9
$DIMBLK1
  1

  9
$DIMBLK2
  1

  9
$DIMSTYLE
  2
MASKIN
  9
$DIMCLRD
 70
   256
  9
$DIMCLRE
 70
   256
  9
$DIMCLRT
 70
     2
  9
$DIMTFAC
 40
1.0
  9
$DIMGAP
 40
1.0
  9
$LUNITS
 70
     2
  9
$LUPREC
 70
     8
  9
$SKETCHINC
 40
0.1
  9
$FILLETRAD
 40
0.0
  9
$AUNITS
 70
     0
  9
$AUPREC
 70
     8
  9
$MENU
  1
ACAD
  9
$ELEVATION
 40
0.0
  9
$PELEVATION
 40
0.0
  9
$THICKNESS
 40
0.0
  9
$LIMCHECK
 70
     0
  9
$BLIPMODE
 70
     0
  9
$CHAMFERA
 40
0.0
  9
$CHAMFERB
 40
0.0
  9
$SKPOLY
 70
     0
  9
$TDCREATE
 40
2454993.3685295261
  9
$TDUPDATE
 40
2455058.3688273611
  9
$TDINDWG
 40
0.0859412731
  9
$TDUSRTIMER
 40
0.0859412731
  9
$USRTIMER
 70
     1
  9
$ANGBASE
 50
0.0
  9
$ANGDIR
 70
     0
  9
$PDMODE
 70
     0
  9
$PDSIZE
 40
0.0
  9
$PLINEWID
 40
0.0
  9
$COORDS
 70
     1
  9
$SPLFRAME
 70
     0
  9
$SPLINETYPE
 70
     6
  9
$SPLINESEGS
 70
     8
  9
$ATTDIA
 70
     0
  9
$ATTREQ
 70
     1
  9
$HANDLING
 70
     1
  9
$HANDSEED
  5
246A
  9
$SURFTAB1
 70
     6
  9
$SURFTAB2
 70
     6
  9
$SURFTYPE
 70
     6
  9
$SURFU
 70
     6
  9
$SURFV
 70
     6
  9
$UCSNAME
  2

  9
$UCSORG
 10
0.0
 20
0.0
 30
0.0
  9
$UCSXDIR
 10
1.0
 20
0.0
 30
0.0
  9
$UCSYDIR
 10
0.0
 20
1.0
 30
0.0
  9
$PUCSNAME
  2

  9
$PUCSORG
 10
0.0
 20
0.0
 30
0.0
  9
$PUCSXDIR
 10
1.0
 20
0.0
 30
0.0
  9
$PUCSYDIR
 10
0.0
 20
1.0
 30
0.0
  9
$USERI1
 70
     0
  9
$USERI2
 70
     0
  9
$USERI3
 70
     0
  9
$USERI4
 70
     0
  9
$USERI5
 70
     0
  9
$USERR1
 40
0.0
  9
$USERR2
 40
0.0
  9
$USERR3
 40
0.0
  9
$USERR4
 40
0.0
  9
$USERR5
 40
0.0
  9
$WORLDVIEW
 70
     1
  9
$SHADEDGE
 70
     3
  9
$SHADEDIF
 70
    70
  9
$TILEMODE
 70
     1
  9
$MAXACTVP
 70
    16
  9
$PLIMCHECK
 70
     0
  9
$PEXTMIN
 10
1.0000000000000000E+020
 20
1.0000000000000000E+020
 30
1.0000000000000000E+020
  9
$PEXTMAX
 10
-1.0000000000000000E+020
 20
-1.0000000000000000E+020
 30
-1.0000000000000000E+020
  9
$PLIMMIN
 10
-5.069427490234375
 20
-5.8737497329711914
  9
$PLIMMAX
 10
291.89889526367187
 20
204.0995779037475
  9
$UNITMODE
 70
     0
  9
$VISRETAIN
 70
     1
  9
$PLINEGEN
 70
     0
  9
$PSLTSCALE
 70
     1
  0
ENDSEC
  0
SECTION
  2
TABLES
  0
TABLE
  2
VPORT
 70
     1
  0
VPORT
  2
*ACTIVE
 70
     0
 10
0.0
 20
0.0
 11
1.0
 21
1.0
 12
101.14424593445671
 22
-181.38521881834981
 13
0.0
 23
0.0
 14
1.0
 24
1.0
 15
0.0
 25
0.0
 16
0.0
 26
0.0
 36
1.0
 17
0.0
 27
0.0
 37
0.0
 40
563.52383329300164
 41
2.362776025236593
 42
50.0
 43
0.0
 44
0.0
 50
0.0
 51
0.0
 71
     0
 72
   100
 73
     1
 74
     1
 75
     0
 76
     0
 77
     0
 78
     0
  0
ENDTAB
  0
TABLE
  2
LTYPE
 70
     4
  0
LTYPE
  2
CONTINUOUS
 70
     0
  3
Solid line
 72
    65
 73
     0
 40
0.0
  0
LTYPE
  2
BYGG-01472402$0$NEWDOT
 70
     0
  3
____ . ____ . ____ . ____ . ____ . ____ . ____
 72
    65
 73
     4
 40
2.0
 49
1.0
 49
-0.5
 49
0.0
 49
-0.5
  0
LTYPE
  2
BYGG-014252$0$NEWDOT
 70
     0
  3
____ . ____ . ____ . ____ . ____ . ____ . ____
 72
    65
 73
     4
 40
2.0
 49
1.0
 49
-0.5
 49
0.0
 49
-0.5
  0
LTYPE
  2
DASHDOT
 70
     0
  3
__ . __ . __ . __ . __ . __ . __ . __ . __ . __
 72
    65
 73
     4
 40
1.0
 49
0.5
 49
-0.25
 49
0.0
 49
-0.25
  0
ENDTAB
  0
TABLE
  2
LAYER
 70
    37
  0
LAYER
  2
0
 70
     0
 62
     7
  6
CONTINUOUS
  0
LAYER
  2
DEFPOINTS
 70
     0
 62
     7
  6
CONTINUOUS
  0
LAYER
  2
SAPA_ANSLUTNING
 70
     0
 62
     6
  6
CONTINUOUS
  0
LAYER
  2
SAPA_ARTIKELNR
 70
     0
 62
     4
  6
CONTINUOUS
  0
LAYER
  2
SAPA_LIGHT
 70
     1
 62
     1
  6
CONTINUOUS
  0
LAYER
  2
SAPA_FOGBAND
 70
     0
 62
     2
  6
CONTINUOUS
  0
LAYER
  2
SAPA_MATT
 70
     0
 62
     1
  6
CONTINUOUS
  0
LAYER
  2
SAPA_GLAS
 70
     0
 62
     4
  6
CONTINUOUS
  0
LAYER
  2
SAPA_PROFIL
 70
     0
 62
     7
  6
CONTINUOUS
  0
ENDTAB
  0
TABLE
  2
STYLE
 70
    13
  0
STYLE
  2
STANDARD
 70
     0
 40
0.0
 41
1.0
 50
0.0
 71
     0
 42
0.2
  3
txt
  4

  0
STYLE
  2
ISO
 70
     0
 40
0.0
 41
1.0
 50
0.0
 71
     0
 42
3.5
  3
txt
  4

  0
STYLE
  2
BYGG-024081$0$STANDARD
 70
     0
 40
0.0
 41
1.0
 50
0.0
 71
     0
 42
0.2
  3
txt
  4

  0
STYLE
  2
BYGG-024081$0$ISO
 70
     0
 40
0.0
 41
1.0
 50
0.0
 71
     0
 42
3.5
  3
txt
  4

  0
STYLE
  2
BYGG-01472402$0$STANDARD
 70
     0
 40
0.0
 41
1.0
 50
0.0
 71
     0
 42
0.2
  3
txt
  4

  0
STYLE
  2
BYGG-01472402$0$ISO
 70
     0
 40
0.0
 41
1.0
 50
0.0
 71
     0
 42
2.5
  3
isocp3.shx
  4

  0
STYLE
  2
BYGG-024082$0$STANDARD
 70
     0
 40
0.0
 41
1.0
 50
0.0
 71
     0
 42
0.2
  3
txt
  4

  0
STYLE
  2
BYGG-024082$0$ISO
 70
     0
 40
0.0
 41
1.0
 50
0.0
 71
     0
 42
3.5
  3
txt
  4

  0
STYLE
  2
BYGG-014252$0$STANDARD
 70
     0
 40
0.0
 41
1.0
 50
0.0
 71
     0
 42
0.2
  3
txt
  4

  0
STYLE
  2
BYGG-014252$0$ISO
 70
     0
 40
0.0
 41
1.0
 50
0.0
 71
     0
 42
2.5
  3
isocp3.shx
  4

  0
STYLE
  2
BYGG-014014$0$STANDARD
 70
     0
 40
0.0
 41
1.0
 50
0.0
 71
     0
 42
0.2
  3
txt
  4

  0
STYLE
  2
BYGG-024083$0$STANDARD
 70
     0
 40
0.0
 41
1.0
 50
0.0
 71
     0
 42
0.2
  3
txt
  4

  0
STYLE
  2
BYGG-024083$0$ISO
 70
     0
 40
0.0
 41
1.0
 50
0.0
 71
     0
 42
3.5
  3
txt
  4

  0
ENDTAB
  0
TABLE
  2
VIEW
 70
     0
  0
ENDTAB
  0
TABLE
  2
UCS
 70
     0
  0
ENDTAB
  0
TABLE
  2
APPID
 70
    17
  0
APPID
  2
ACAD
 70
     0
  0
APPID
  2
ACAD_DSTYLE_DIMTEXT_FILL
 70
     0
  0
APPID
  2
ACAD_DSTYLE_DIMEXT_LENGTH
 70
     0
  0
APPID
  2
ACAD_DSTYLE_DIMEXT_ENABLED
 70
     0
  0
APPID
  2
ACAD_DSTYLE_DIM_LINETYPE
 70
     0
  0
APPID
  2
ACAD_DSTYLE_DIM_EXT1_LINETYPE
 70
     0
  0
APPID
  2
ACAD_DSTYLE_DIM_EXT2_LINETYPE
 70
     0
  0
APPID
  2
ACAD_DSTYLE_DIMJOGGED_JOGA
 70
     0
  0
APPID
  2
ACAD_DSTYLE_DIMARC_LENGTH_
 70
     0
  0
APPID
  2
ACAD_PSEXT
 70
     0
  0
APPID
  2
ACAD_MLEADERVER
 70
     0
  0
APPID
  2
AME_SOL
 70
     0
  0
APPID
  2
AMG_ARCHIVE11
 70
     0
  0
APPID
  2
DCO15
 70
     0
  0
APPID
  2
ACAD_EXEMPT_FROM_CAD_STANDARDS
 70
     0
  0
APPID
  2
ACADANNOTATIVE
 70
     0
  0
APPID
  2
ACAECLAYERSTANDARD
 70
     0
  0
ENDTAB
  0
TABLE
  2
DIMSTYLE
 70
    12
  0
DIMSTYLE
  2
MASKIN
 70
     0
  3

  4

  5

  6

  7

 40
0.0
 41
3.0
 42
1.5
 43
10.0
 44
1.5
 45
0.0
 46
0.0
 47
0.0
 48
0.0
140
3.0
141
-5.0
142
0.0
143
25.399999999999999
144
-1.0
145
0.0
146
1.0
147
1.0
 71
     0
 72
     0
 73
     0
 74
     0
 75
     0
 76
     0
 77
     1
 78
     8
170
     0
171
     0
172
     1
173
     0
174
     0
175
     0
176
   256
177
   256
178
     2
  0
DIMSTYLE
  2
BYGG-024081$0$STANDARD
 70
     0
  3

  4

  5

  6

  7

 40
1.0
 41
0.18
 42
0.0625
 43
0.38
 44
0.18
 45
0.0
 46
0.0
 47
0.0
 48
0.0
140
0.18
141
0.09
142
0.0
143
25.399999999999999
144
1.0
145
0.0
146
1.0
147
0.09
 71
     0
 72
     0
 73
     1
 74
     1
 75
     0
 76
     0
 77
     0
 78
     0
170
     0
171
     2
172
     0
173
     0
174
     0
175
     0
176
     0
177
     0
178
     0
  0
DIMSTYLE
  2
BYGG-024081$0$MASKIN
 70
     0
  3

  4

  5

  6

  7

 40
0.0
 41
3.0
 42
1.5
 43
10.0
 44
1.5
 45
0.0
 46
0.0
 47
0.0
 48
0.0
140
3.0
141
-5.0
142
0.0
143
25.399999999999999
144
-1.0
145
0.0
146
1.0
147
1.0
 71
     0
 72
     0
 73
     0
 74
     0
 75
     0
 76
     0
 77
     1
 78
     8
170
     0
171
     0
172
     1
173
     0
174
     0
175
     0
176
   256
177
   256
178
     2
  0
DIMSTYLE
  2
BYGG-01472402$0$STANDARD
 70
     0
  3

  4

  5

  6

  7

 40
1.0
 41
0.18
 42
0.0625
 43
0.38
 44
0.18
 45
0.0
 46
0.0
 47
0.0
 48
0.0
140
0.18
141
0.09
142
0.0
143
25.399999999999999
144
1.0
145
0.0
146
1.0
147
0.09
 71
     0
 72
     0
 73
     1
 74
     1
 75
     0
 76
     0
 77
     0
 78
     0
170
     0
171
     2
172
     0
173
     0
174
     0
175
     0
176
     0
177
     0
178
     0
  0
DIMSTYLE
  2
BYGG-01472402$0$MASKIN
 70
     0
  3

  4

  5

  6

  7

 40
0.0
 41
3.0
 42
1.5
 43
10.0
 44
1.5
 45
0.0
 46
0.0
 47
0.0
 48
0.0
140
3.0
141
-5.0
142
0.0
143
25.399999999999999
144
-1.0
145
0.0
146
1.0
147
1.0
 71
     0
 72
     0
 73
     0
 74
     1
 75
     0
 76
     0
 77
     1
 78
     8
170
     0
171
     0
172
     1
173
     0
174
     0
175
     0
176
   256
177
   256
178
     2
  0
DIMSTYLE
  2
BYGG-024082$0$STANDARD
 70
     0
  3

  4

  5

  6

  7

 40
1.0
 41
0.18
 42
0.0625
 43
0.38
 44
0.18
 45
0.0
 46
0.0
 47
0.0
 48
0.0
140
0.18
141
0.09
142
0.0
143
25.399999999999999
144
1.0
145
0.0
146
1.0
147
0.09
 71
     0
 72
     0
 73
     1
 74
     1
 75
     0
 76
     0
 77
     0
 78
     0
170
     0
171
     2
172
     0
173
     0
174
     0
175
     0
176
     0
177
     0
178
     0
  0
DIMSTYLE
  2
BYGG-024082$0$MASKIN
 70
     0
  3

  4

  5

  6

  7

 40
0.0
 41
3.0
 42
1.5
 43
10.0
 44
1.5
 45
0.0
 46
0.0
 47
0.0
 48
0.0
140
3.0
141
-5.0
142
0.0
143
25.399999999999999
144
-1.0
145
0.0
146
1.0
147
1.0
 71
     0
 72
     0
 73
     0
 74
     0
 75
     0
 76
     0
 77
     1
 78
     8
170
     0
171
     0
172
     1
173
     0
174
     0
175
     0
176
   256
177
   256
178
     2
  0
DIMSTYLE
  2
BYGG-014252$0$STANDARD
 70
     0
  3

  4

  5

  6

  7

 40
1.0
 41
0.18
 42
0.0625
 43
0.38
 44
0.18
 45
0.0
 46
0.0
 47
0.0
 48
0.0
140
0.18
141
0.09
142
0.0
143
25.399999999999999
144
1.0
145
0.0
146
1.0
147
0.09
 71
     0
 72
     0
 73
     1
 74
     1
 75
     0
 76
     0
 77
     0
 78
     0
170
     0
171
     2
172
     0
173
     0
174
     0
175
     0
176
     0
177
     0
178
     0
  0
DIMSTYLE
  2
BYGG-014252$0$MASKIN
 70
     0
  3

  4

  5

  6

  7

 40
0.0
 41
3.0
 42
1.5
 43
10.0
 44
1.5
 45
0.0
 46
0.0
 47
0.0
 48
0.0
140
3.0
141
-5.0
142
0.0
143
25.399999999999999
144
-1.0
145
0.0
146
1.0
147
1.0
 71
     0
 72
     0
 73
     0
 74
     1
 75
     0
 76
     0
 77
     1
 78
     8
170
     0
171
     0
172
     1
173
     0
174
     0
175
     0
176
   256
177
   256
178
     2
  0
DIMSTYLE
  2
BYGG-014014$0$STANDARD
 70
     0
  3

  4

  5

  6

  7

 40
1.0
 41
0.18
 42
0.0625
 43
0.38
 44
0.18
 45
0.0
 46
0.0
 47
0.0
 48
0.0
140
0.18
141
0.09
142
0.0
143
25.399999999999999
144
1.0
145
0.0
146
1.0
147
0.09
 71
     0
 72
     0
 73
     1
 74
     1
 75
     0
 76
     0
 77
     0
 78
     0
170
     0
171
     2
172
     0
173
     0
174
     0
175
     0
176
     0
177
     0
178
     0
  0
DIMSTYLE
  2
BYGG-024083$0$STANDARD
 70
     0
  3

  4

  5

  6

  7

 40
1.0
 41
0.18
 42
0.0625
 43
0.38
 44
0.18
 45
0.0
 46
0.0
 47
0.0
 48
0.0
140
0.18
141
0.09
142
0.0
143
25.399999999999999
144
1.0
145
0.0
146
1.0
147
0.09
 71
     0
 72
     0
 73
     1
 74
     1
 75
     0
 76
     0
 77
     0
 78
     0
170
     0
171
     2
172
     0
173
     0
174
     0
175
     0
176
     0
177
     0
178
     0
  0
DIMSTYLE
  2
BYGG-024083$0$MASKIN
 70
     0
  3

  4

  5

  6

  7

 40
0.0
 41
3.0
 42
1.5
 43
10.0
 44
1.5
 45
0.0
 46
0.0
 47
0.0
 48
0.0
140
3.0
141
-5.0
142
0.0
143
25.399999999999999
144
-1.0
145
0.0
146
1.0
147
1.0
 71
     0
 72
     0
 73
     0
 74
     0
 75
     0
 76
     0
 77
     1
 78
     8
170
     0
171
     0
172
     1
173
     0
174
     0
175
     0
176
   256
177
   256
178
     2
  0
ENDTAB
  0
ENDSEC
  0
SECTION
  2
BLOCKS
  0
BLOCK
  8
0
  2
$MODEL_SPACE
 70
     0
 10
0.0
 20
0.0
 30
0.0
  3
$MODEL_SPACE
  1

  0
ENDBLK
  5
37
  8
0
  0
BLOCK
 67
     1
  8
0
  2
$PAPER_SPACE
 70
     0
 10
0.0
 20
0.0
 30
0.0
  3
$PAPER_SPACE
  1

  0
ENDBLK
  5
35
 67
     1
  8
0
  0
BLOCK
  8
0
  2
*D20
 70
     1
 10
0.0
 20
0.0
 30
0.0
  3
*D20
  1

  0
LINE
  5
1D53
  8
SAPA_MATT
 10
-138.0566073940868
 20
-109.0578974075087
 30
0.0
 11
-209.0340209066344
 21
-109.0578974075087
 31
0.0
  0
LINE
  5
1D54
  8
SAPA_MATT
 10
-196.37083328264279
 20
-259.392753947448
 30
0.0
 11
-209.0340209066344
 21
-259.392753947448
 31
0.0
  0
LINE
  5
1D55
  8
SAPA_MATT
 10
-207.5340209066344
 20
-112.0578974075087
 30
0.0
 11
-207.5340209066344
 21
-256.392753947448
 31
0.0
  0
SOLID
  5
1D56
  8
SAPA_MATT
 10
-208.0340209066344
 20
-112.0578974075087
 30
0.0
 11
-207.0340209066344
 21
-112.0578974075087
 31
0.0
 12
-207.5340209066344
 22
-109.0578974075087
 32
0.0
 13
-207.5340209066344
 23
-109.0578974075087
 33
0.0
  0
SOLID
  5
1D57
  8
SAPA_MATT
 10
-208.0340209066344
 20
-256.392753947448
 30
0.0
 11
-207.0340209066344
 21
-256.392753947448
 31
0.0
 12
-207.5340209066344
 22
-259.392753947448
 32
0.0
 13
-207.5340209066344
 23
-259.392753947448
 33
0.0
  0
INSERT
  5
1D58
  8
0
  2
*U37
 10
0.0
 20
0.0
 30
0.0
  0
POINT
  5
1D59
  8
DEFPOINTS
 62
     0
 10
-136.5566073940868
 20
-109.0578974075087
 30
0.0
  0
POINT
  5
1D5A
  8
DEFPOINTS
 62
     0
 10
-194.87083328264279
 20
-259.392753947448
 30
0.0
  0
POINT
  5
1D5B
  8
DEFPOINTS
 62
     0
 10
-207.5340209066344
 20
-259.392753947448
 30
0.0
  0
ENDBLK
  5
1D3D
  8
0
  0
BLOCK
  8
0
  2
*D21
 70
     1
 10
0.0
 20
0.0
 30
0.0
  3
*D21
  1

  0
LINE
  5
1D4A
  8
SAPA_MATT
 10
-138.0566073940868
 20
-109.0578974075087
 30
0.0
 11
-222.3201877565734
 21
-109.0578974075087
 31
0.0
  0
LINE
  5
1D4B
  8
SAPA_MATT
 10
-205.11488620811269
 20
-409.39275394744789
 30
0.0
 11
-222.32018775657349
 21
-409.39275394744789
 31
0.0
  0
LINE
  5
1D4C
  8
SAPA_MATT
 10
-220.8201877565734
 20
-112.0578974075087
 30
0.0
 11
-220.82018775657349
 21
-406.39275394744789
 31
0.0
  0
SOLID
  5
1D4D
  8
SAPA_MATT
 10
-221.3201877565734
 20
-112.0578974075087
 30
0.0
 11
-220.3201877565734
 21
-112.0578974075087
 31
0.0
 12
-220.8201877565734
 22
-109.0578974075087
 32
0.0
 13
-220.8201877565734
 23
-109.0578974075087
 33
0.0
  0
SOLID
  5
1D4E
  8
SAPA_MATT
 10
-221.32018775657349
 20
-406.39275394744789
 30
0.0
 11
-220.32018775657349
 21
-406.39275394744789
 31
0.0
 12
-220.82018775657349
 22
-409.39275394744789
 32
0.0
 13
-220.82018775657349
 23
-409.39275394744789
 33
0.0
  0
INSERT
  5
1D4F
  8
0
  2
*U36
 10
0.0
 20
0.0
 30
0.0
  0
POINT
  5
1D50
  8
DEFPOINTS
 62
     0
 10
-136.5566073940868
 20
-109.0578974075087
 30
0.0
  0
POINT
  5
1D51
  8
DEFPOINTS
 62
     0
 10
-203.61488620811269
 20
-409.39275394744789
 30
0.0
  0
POINT
  5
1D52
  8
DEFPOINTS
 62
     0
 10
-220.82018775657349
 20
-409.39275394744789
 30
0.0
  0
ENDBLK
  5
1D49
  8
0
  0
BLOCK
  8
0
  2
*X22
 70
     1
 10
0.0
 20
0.0
 30
0.0
  3
*X22
  1

  0
LINE
  5
1D79
  8
0
 62
     0
 10
13.063668141535841
 20
-24.50046984900883
 30
0.0
 11
12.914102921960991
 21
-24.650035068583691
 31
0.0
  0
LINE
  5
1D7A
  8
0
 62
     0
 10
14.186200156669489
 20
-24.50046984900883
 30
0.0
 11
13.4773312906645
 21
-25.209338715013821
 31
0.0
  0
LINE
  5
1D7B
  8
0
 62
     0
 10
15.308732171803131
 20
-24.50046984900883
 30
0.0
 11
13.9946482665919
 21
-25.814553754220071
 31
0.0
  0
LINE
  5
1D7C
  8
0
 62
     0
 10
16.431264186936779
 20
-24.50046984900883
 30
0.0
 11
14.46515683929449
 21
-26.46657719665113
 31
0.0
  0
LINE
  5
1D7D
  8
0
 62
     0
 10
17.553796202070419
 20
-24.50046984900883
 30
0.0
 11
14.886928723506379
 21
-27.167337327572881
 31
0.0
  0
LINE
  5
1D7E
  8
0
 62
     0
 10
18.67632821720407
 20
-24.50046984900883
 30
0.0
 11
15.25678632837521
 21
-27.92001173783769
 31
0.0
  0
LINE
  5
1D7F
  8
0
 62
     0
 10
19.79886023233772
 20
-24.50046984900883
 30
0.0
 11
15.569899070131219
 21
-28.729431011215318
 31
0.0
  0
LINE
  5
1D80
  8
0
 62
     0
 10
20.92139224747136
 20
-24.50046984900883
 30
0.0
 11
15.81905837362987
 21
-29.602803722850311
 31
0.0
  0
LINE
  5
1D81
  8
0
 62
     0
 10
22.04392426260501
 20
-24.50046984900883
 30
0.0
 11
15.99332738400869
 21
-30.551066727605139
 31
0.0
  0
LINE
  5
1D82
  8
0
 62
     0
 10
23.16645627773865
 20
-24.50046984900883
 30
0.0
 11
16.075313562891989
 21
-31.591612563855492
 31
0.0
  0
LINE
  5
1D83
  8
0
 62
     0
 10
23.86221105046117
 20
-24.927247091419961
 30
0.0
 11
16.034886393120932
 21
-32.754571748760192
 31
0.0
  0
LINE
  5
1D84
  8
0
 62
     0
 10
23.538677419674698
 20
-26.373312737340068
 30
0.0
 11
15.811244066847481
 21
-34.100746090167277
 31
0.0
  0
LINE
  5
1D85
  8
0
 62
     0
 10
23.30572475334116
 20
-27.72879741880725
 30
0.0
 11
15.23527594264643
 21
-35.799246229501982
 31
0.0
  0
LINE
  5
1D86
  8
0
 62
     0
 10
23.146475142197499
 20
-29.010579045084551
 30
0.0
 11
12.8193404595486
 21
-39.337713727733451
 31
0.0
  0
LINE
  5
1D87
  8
0
 62
     0
 10
23.04908245963394
 20
-30.23050374278176
 30
0.0
 11
13.941872474682251
 21
-39.337713727733451
 31
0.0
  0
LINE
  5
1D88
  8
0
 62
     0
 10
23.004850665193992
 20
-31.397267552355348
 30
0.0
 11
15.064404489815891
 21
-39.337713727733451
 31
0.0
  0
LINE
  5
1D89
  8
0
 62
     0
 10
23.007172662828388
 20
-32.517477569854599
 30
0.0
 11
16.186936504949539
 21
-39.337713727733451
 31
0.0
  0
LINE
  5
1D8A
  8
0
 62
     0
 10
23.05089028176112
 20
-33.596291966055517
 30
0.0
 11
17.309468520083179
 21
-39.337713727733451
 31
0.0
  0
LINE
  5
1D8B
  8
0
 62
     0
 10
23.131887334501219
 20
-34.637826928449051
 30
0.0
 11
18.432000535216829
 21
-39.337713727733451
 31
0.0
  0
LINE
  5
1D8C
  8
0
 62
     0
 10
23.24681961323326
 20
-35.64542666485066
 30
0.0
 11
19.554532550350469
 21
-39.337713727733451
 31
0.0
  0
LINE
  5
1D8D
  8
0
 62
     0
 10
23.3929293414228
 20
-36.62184895179476
 30
0.0
 11
20.67706456548412
 21
-39.337713727733451
 31
0.0
  0
LINE
  5
1D8E
  8
0
 62
     0
 10
23.56791385343524
 20
-37.569396454915967
 30
0.0
 11
21.79959658061777
 21
-39.337713727733437
 31
0.0
  0
LINE
  5
1D8F
  8
0
 62
     0
 10
23.769830298718912
 20
-38.490012024765953
 30
0.0
 11
22.92212859575142
 21
-39.33771372773343
 31
0.0
  0
LINE
  5
1D90
  8
0
 62
     0
 10
23.749496614145912
 20
-25.392610120413991
 30
0.0
 11
22.857356342740751
 21
-24.50046984900883
 31
0.0
  0
LINE
  5
1D91
  8
0
 62
     0
 10
23.550068574805859
 20
-26.315714096207579
 30
0.0
 11
21.734824327607111
 21
-24.50046984900882
 31
0.0
  0
LINE
  5
1D92
  8
0
 62
     0
 10
23.37774399830187
 20
-27.265921534837229
 30
0.0
 11
20.612292312473471
 21
-24.50046984900883
 31
0.0
  0
LINE
  5
1D93
  8
0
 62
     0
 10
23.234496621502519
 20
-28.245206173171528
 30
0.0
 11
19.489760297339821
 21
-24.50046984900883
 31
0.0
  0
LINE
  5
1D94
  8
0
 62
     0
 10
23.12266786424177
 20
-29.255909431044419
 30
0.0
 11
18.367228282206181
 21
-24.50046984900883
 31
0.0
  0
LINE
  5
1D95
  8
0
 62
     0
 10
23.045064982990109
 20
-30.300838564926408
 30
0.0
 11
17.244696267072531
 21
-24.50046984900883
 31
0.0
  0
LINE
  5
1D96
  8
0
 62
     0
 10
23.005096629762999
 20
-31.383402226832931
 30
0.0
 11
16.122164251938891
 21
-24.50046984900883
 31
0.0
  0
LINE
  5
1D97
  8
0
 62
     0
 10
23.006964887175481
 20
-32.507802499379061
 30
0.0
 11
14.999632236805249
 21
-24.50046984900883
 31
0.0
  0
LINE
  5
1D98
  8
0
 62
     0
 10
23.055945571845669
 20
-33.679315199182902
 30
0.0
 11
13.877100221671601
 21
-24.50046984900883
 31
0.0
  0
LINE
  5
1D99
  8
0
 62
     0
 10
12.81205391508329
 20
-24.557955557554159
 30
0.0
 11
12.754568206537961
 21
-24.50046984900883
 31
0.0
  0
LINE
  5
1D9A
  8
0
 62
     0
 10
23.1588122651704
 20
-34.904713907641273
 30
0.0
 11
13.61556862859177
 21
-25.36147027106264
 31
0.0
  0
LINE
  5
1D9B
  8
0
 62
     0
 10
23.324506238584259
 20
-36.192939896188783
 30
0.0
 11
15.402903044439491
 21
-28.271336702044
 31
0.0
  0
LINE
  5
1D9C
  8
0
 62
     0
 10
23.565253519423699
 20
-37.556219192161848
 30
0.0
 11
15.877766784963249
 21
-29.868732457701409
 31
0.0
  0
LINE
  5
1D9D
  8
0
 62
     0
 10
23.898560427247759
 20
-39.012058115119572
 30
0.0
 11
16.055548424328219
 21
-31.169046112200022
 31
0.0
  0
LINE
  5
1D9E
  8
0
 62
     0
 10
23.10168402472798
 20
-39.337713727733423
 30
0.0
 11
16.067120548775321
 21
-32.303150251780771
 31
0.0
  0
LINE
  5
1D9F
  8
0
 62
     0
 10
21.97915200959434
 20
-39.33771372773343
 30
0.0
 11
15.96412708153141
 21
-33.322688799670487
 31
0.0
  0
LINE
  5
1DA0
  8
0
 62
     0
 10
20.856619994460701
 20
-39.33771372773343
 30
0.0
 11
15.77320237907821
 21
-34.254296112350943
 31
0.0
  0
LINE
  5
1DA1
  8
0
 62
     0
 10
19.73408797932705
 20
-39.33771372773343
 30
0.0
 11
15.510059762290471
 21
-35.113685510696847
 31
0.0
  0
LINE
  5
1DA2
  8
0
 62
     0
 10
18.611555964193411
 20
-39.337713727733437
 30
0.0
 11
15.184703779722181
 21
-35.9108615432622
 31
0.0
  0
LINE
  5
1DA3
  8
0
 62
     0
 10
17.489023949059771
 20
-39.33771372773343
 30
0.0
 11
14.80376746033042
 21
-36.652457239004093
 31
0.0
  0
LINE
  5
1DA4
  8
0
 62
     0
 10
16.366491933926131
 20
-39.337713727733437
 30
0.0
 11
14.37169331726226
 21
-37.342915111069573
 31
0.0
  0
LINE
  5
1DA5
  8
0
 62
     0
 10
15.243959918792489
 20
-39.337713727733451
 30
0.0
 11
13.891374729842591
 21
-37.985128538783549
 31
0.0
  0
LINE
  5
1DA6
  8
0
 62
     0
 10
14.121427903658841
 20
-39.337713727733437
 30
0.0
 11
13.364513327147071
 21
-38.580799151221669
 31
0.0
  0
LINE
  5
1DA7
  8
0
 62
     0
 10
12.998895888525199
 20
-39.337713727733451
 30
0.0
 11
12.791807943607351
 21
-39.130625782815599
 31
0.0
  0
ENDBLK
  5
1DA9
  8
0
  0
BLOCK
  8
0
  2
*X23
 70
     1
 10
0.0
 20
0.0
 30
0.0
  3
*X23
  1

  0
LINE
  5
1DAB
  8
0
 62
     0
 10
12.37333992761693
 20
-24.798046062047622
 30
0.0
 11
12.06567007216816
 21
-24.62041278818274
 31
0.0
  0
LINE
  5
1DAC
  8
0
 62
     0
 10
11.68593242761693
 20
-25.988670777551519
 30
0.0
 11
10.99852476336304
 21
-25.591795777551521
 31
0.0
  0
LINE
  5
1DAD
  8
0
 62
     0
 10
13.74815542037863
 20
-27.17929577755152
 30
0.0
 11
13.06074775612473
 21
-26.782420777551518
 31
0.0
  0
LINE
  5
1DAE
  8
0
 62
     0
 10
8.9363019348552477
 20
-25.98867049305543
 30
0.0
 11
8.5203323000914146
 21
-25.74851031244981
 31
0.0
  0
LINE
  5
1DAF
  8
0
 62
     0
 10
10.998524927616939
 20
-27.179295493055431
 30
0.0
 11
10.311117263363039
 21
-26.782420493055419
 31
0.0
  0
LINE
  5
1DB0
  8
0
 62
     0
 10
13.060747920378629
 20
-28.369920493055432
 30
0.0
 11
12.373340256124729
 21
-27.97304549305542
 31
0.0
  0
LINE
  5
1DB1
  8
0
 62
     0
 10
15.12297091314033
 20
-29.560545493055429
 30
0.0
 11
14.43556324888643
 21
-29.16367049305542
 31
0.0
  0
LINE
  5
1DB2
  8
0
 62
     0
 10
8.2488944348552415
 20
-27.179295208559331
 30
0.0
 11
7.7372288484775851
 21
-26.883884944529122
 31
0.0
  0
LINE
  5
1DB3
  8
0
 62
     0
 10
10.31111742761693
 20
-28.369920208559329
 30
0.0
 11
9.6237097633630366
 21
-27.973045208559331
 31
0.0
  0
LINE
  5
1DB4
  8
0
 62
     0
 10
12.37334042037863
 20
-29.560545208559329
 30
0.0
 11
11.68593275612473
 21
-29.163670208559331
 31
0.0
  0
LINE
  5
1DB5
  8
0
 62
     0
 10
14.43556341314032
 20
-30.75117020855933
 30
0.0
 11
13.74815574888642
 21
-30.354295208559329
 31
0.0
  0
LINE
  5
1DB6
  8
0
 62
     0
 10
7.5614869348552407
 20
-28.369919924063229
 30
0.0
 11
7.1798677343753052
 21
-28.149591975938211
 31
0.0
  0
LINE
  5
1DB7
  8
0
 62
     0
 10
9.6237099276169342
 20
-29.56054492406324
 30
0.0
 11
8.9363022633630376
 21
-29.163669924063232
 31
0.0
  0
LINE
  5
1DB8
  8
0
 62
     0
 10
11.68593292037863
 20
-30.751169924063241
 30
0.0
 11
10.998525256124729
 21
-30.354294924063229
 31
0.0
  0
LINE
  5
1DB9
  8
0
 62
     0
 10
13.748155913140319
 20
-31.941794924063242
 30
0.0
 11
13.060748248886419
 21
-31.54491992406323
 31
0.0
  0
LINE
  5
1DBA
  8
0
 62
     0
 10
15.51519006125808
 20
-32.961992565146282
 30
0.0
 11
15.12297124164812
 21
-32.735544924063241
 31
0.0
  0
LINE
  5
1DBB
  8
0
 62
     0
 10
6.8740794348552381
 20
-29.56054463956713
 30
0.0
 11
6.8066960158199752
 21
-29.5216408044482
 31
0.0
  0
LINE
  5
1DBC
  8
0
 62
     0
 10
8.9363024276169334
 20
-30.751169639567131
 30
0.0
 11
8.2488947633630332
 21
-30.354294639567129
 31
0.0
  0
LINE
  5
1DBD
  8
0
 62
     0
 10
10.99852542037862
 20
-31.941794639567131
 30
0.0
 11
10.31111775612473
 21
-31.54491963956713
 31
0.0
  0
LINE
  5
1DBE
  8
0
 62
     0
 10
13.06074841314032
 20
-33.132419639567132
 30
0.0
 11
12.37334074888642
 21
-32.735544639567131
 31
0.0
  0
LINE
  5
1DBF
  8
0
 62
     0
 10
15.12297140590201
 20
-34.323044639567136
 30
0.0
 11
14.435563741648121
 21
-33.926169639567142
 31
0.0
  0
LINE
  5
1DC0
  8
0
 62
     0
 10
8.2488949276169308
 20
-31.941794355071028
 30
0.0
 11
7.5614872633630323
 21
-31.544919355071031
 31
0.0
  0
LINE
  5
1DC1
  8
0
 62
     0
 10
10.311117920378621
 20
-33.132419355071029
 30
0.0
 11
9.6237102561247259
 21
-32.735544355071028
 31
0.0
  0
LINE
  5
1DC2
  8
0
 62
     0
 10
12.37334091314032
 20
-34.323044355071033
 30
0.0
 11
11.685933248886419
 21
-33.926169355071032
 31
0.0
  0
LINE
  5
1DC3
  8
0
 62
     0
 10
14.43556390590201
 20
-35.513669355071038
 30
0.0
 11
13.748156241648109
 21
-35.116794355071043
 31
0.0
  0
LINE
  5
1DC4
  8
0
 62
     0
 10
7.5614874276169344
 20
-33.132419070574933
 30
0.0
 11
6.8740797633630359
 21
-32.735544070574917
 31
0.0
  0
LINE
  5
1DC5
  8
0
 62
     0
 10
9.6237104203786288
 20
-34.32304407057493
 30
0.0
 11
8.9363027561247304
 21
-33.926169070574929
 31
0.0
  0
LINE
  5
1DC6
  8
0
 62
     0
 10
11.685933413140321
 20
-35.513669070574942
 30
0.0
 11
10.99852574888642
 21
-35.116794070574933
 31
0.0
  0
LINE
  5
1DC7
  8
0
 62
     0
 10
13.74815640590201
 20
-36.704294070574939
 30
0.0
 11
13.060748741648119
 21
-36.307419070574937
 31
0.0
  0
LINE
  5
1DC8
  8
0
 62
     0
 10
6.8740799276169238
 20
-34.323043786078827
 30
0.0
 11
6.8207891585478722
 21
-34.292276346211487
 31
0.0
  0
LINE
  5
1DC9
  8
0
 62
     0
 10
8.9363029203786191
 20
-35.513668786078831
 30
0.0
 11
8.2488952561247206
 21
-35.11679378607883
 31
0.0
  0
LINE
  5
1DCA
  8
0
 62
     0
 10
10.998525913140311
 20
-36.704293786078843
 30
0.0
 11
10.311118248886411
 21
-36.307418786078841
 31
0.0
  0
LINE
  5
1DCB
  8
0
 62
     0
 10
13.06074890590201
 20
-37.89491878607884
 30
0.0
 11
12.373341241648109
 21
-37.498043786078838
 31
0.0
  0
LINE
  5
1DCC
  8
0
 62
     0
 10
8.2488954203786236
 20
-36.70429350158274
 30
0.0
 11
7.5614877561247251
 21
-36.307418501582738
 31
0.0
  0
LINE
  5
1DCD
  8
0
 62
     0
 10
10.31111841314031
 20
-37.894918501582737
 30
0.0
 11
9.6237107488864186
 21
-37.498043501582742
 31
0.0
  0
LINE
  5
1DCE
  8
0
 62
     0
 10
12.28302190420988
 20
-39.033397512967731
 30
0.0
 11
11.68593374164811
 21
-38.688668501582747
 31
0.0
  0
LINE
  5
1DCF
  8
0
 62
     0
 10
9.6237040144766031
 20
-25.591793786078838
 30
0.0
 11
8.9362963502227046
 21
-25.988668786078829
 31
0.0
  0
LINE
  5
1DD0
  8
0
 62
     0
 10
11.55203927134707
 20
-24.47846890643682
 30
0.0
 11
10.9985193429844
 21
-24.798043786078839
 31
0.0
  0
LINE
  5
1DD1
  8
0
 62
     0
 10
8.2488885217149051
 20
-27.97304350158274
 30
0.0
 11
7.5614808574610057
 21
-28.369918501582742
 31
0.0
  0
LINE
  5
1DD2
  8
0
 62
     0
 10
10.3111115144766
 20
-26.78241850158274
 30
0.0
 11
9.6237038502227001
 21
-27.179293501582741
 31
0.0
  0
LINE
  5
1DD3
  8
0
 62
     0
 10
12.37333450723829
 20
-25.591793501582739
 30
0.0
 11
11.68592684298439
 21
-25.98866850158274
 31
0.0
  0
LINE
  5
1DD4
  8
0
 62
     0
 10
6.8740730289532124
 20
-30.354293217086639
 30
0.0
 11
6.6557099363328716
 21
-30.480365207392069
 31
0.0
  0
LINE
  5
1DD5
  8
0
 62
     0
 10
8.9362960217149077
 20
-29.163668217086641
 30
0.0
 11
8.2488883574610092
 21
-29.560543217086639
 31
0.0
  0
LINE
  5
1DD6
  8
0
 62
     0
 10
10.998519014476599
 20
-27.973043217086641
 30
0.0
 11
10.311111350222699
 21
-28.369918217086639
 31
0.0
  0
LINE
  5
1DD7
  8
0
 62
     0
 10
13.0607420072383
 20
-26.78241821708664
 30
0.0
 11
12.3733343429844
 21
-27.179293217086641
 31
0.0
  0
LINE
  5
1DD8
  8
0
 62
     0
 10
7.561480528953207
 20
-31.54491793259054
 30
0.0
 11
6.8740728646993086
 21
-31.941792932590541
 31
0.0
  0
LINE
  5
1DD9
  8
0
 62
     0
 10
9.6237035217149032
 20
-30.354292932590539
 30
0.0
 11
8.9362958574610047
 21
-30.75116793259054
 31
0.0
  0
LINE
  5
1DDA
  8
0
 62
     0
 10
11.6859265144766
 20
-29.163667932590538
 30
0.0
 11
10.9985188502227
 21
-29.56054293259054
 31
0.0
  0
LINE
  5
1DDB
  8
0
 62
     0
 10
13.74814950723829
 20
-27.973042932590548
 30
0.0
 11
13.06074184298439
 21
-28.369917932590539
 31
0.0
  0
LINE
  5
1DDC
  8
0
 62
     0
 10
8.2488880289532105
 20
-32.735542648094437
 30
0.0
 11
7.5614803646993121
 21
-33.132417648094439
 31
0.0
  0
LINE
  5
1DDD
  8
0
 62
     0
 10
10.3111110217149
 20
-31.54491764809444
 30
0.0
 11
9.6237033574610074
 21
-31.941792648094442
 31
0.0
  0
LINE
  5
1DDE
  8
0
 62
     0
 10
12.373334014476599
 20
-30.35429264809445
 30
0.0
 11
11.685926350222701
 21
-30.751167648094452
 31
0.0
  0
LINE
  5
1DDF
  8
0
 62
     0
 10
14.435557007238289
 20
-29.163667648094449
 30
0.0
 11
13.7481493429844
 21
-29.560542648094451
 31
0.0
  0
LINE
  5
1DE0
  8
0
 62
     0
 10
8.9362955289532096
 20
-33.926167363598339
 30
0.0
 11
8.2488878646993111
 21
-34.32304236359834
 31
0.0
  0
LINE
  5
1DE1
  8
0
 62
     0
 10
10.9985185217149
 20
-32.735542363598341
 30
0.0
 11
10.311110857460999
 21
-33.132417363598343
 31
0.0
  0
LINE
  5
1DE2
  8
0
 62
     0
 10
13.0607415144766
 20
-31.544917363598351
 30
0.0
 11
12.3733338502227
 21
-31.941792363598349
 31
0.0
  0
LINE
  5
1DE3
  8
0
 62
     0
 10
15.12296450723829
 20
-30.354292363598351
 30
0.0
 11
14.435556842984401
 21
-30.751167363598348
 31
0.0
  0
LINE
  5
1DE4
  8
0
 62
     0
 10
7.5614800361915107
 20
-36.307417079102251
 30
0.0
 11
7.4831656358259568
 21
-36.352631919234717
 31
0.0
  0
LINE
  5
1DE5
  8
0
 62
     0
 10
9.6237030289532068
 20
-35.116792079102247
 30
0.0
 11
8.9362953646993084
 21
-35.513667079102248
 31
0.0
  0
LINE
  5
1DE6
  8
0
 62
     0
 10
11.6859260217149
 20
-33.92616707910225
 30
0.0
 11
10.998518357461
 21
-34.323042079102251
 31
0.0
  0
LINE
  5
1DE7
  8
0
 62
     0
 10
13.748149014476599
 20
-32.735542079102252
 30
0.0
 11
13.060741350222701
 21
-33.132417079102261
 31
0.0
  0
LINE
  5
1DE8
  8
0
 62
     0
 10
15.56228899339691
 20
-31.688147873924951
 30
0.0
 11
15.122964342984391
 21
-31.94179207910226
 31
0.0
  0
LINE
  5
1DE9
  8
0
 62
     0
 10
8.2488875361915106
 20
-37.498041794606138
 30
0.0
 11
8.1649505036851249
 21
-37.546502862918693
 31
0.0
  0
LINE
  5
1DEA
  8
0
 62
     0
 10
10.311110528953201
 20
-36.307416794606148
 30
0.0
 11
9.6237028646993075
 21
-36.704291794606149
 31
0.0
  0
LINE
  5
1DEB
  8
0
 62
     0
 10
12.373333521714899
 20
-35.116791794606151
 30
0.0
 11
11.685925857460999
 21
-35.513666794606159
 31
0.0
  0
LINE
  5
1DEC
  8
0
 62
     0
 10
14.4355565144766
 20
-33.926166794606161
 30
0.0
 11
13.7481488502227
 21
-34.323041794606148
 31
0.0
  0
LINE
  5
1DED
  8
0
 62
     0
 10
10.99851802895321
 20
-37.498041510110049
 30
0.0
 11
10.31111036469931
 21
-37.89491651011005
 31
0.0
  0
LINE
  5
1DEE
  8
0
 62
     0
 10
13.060741021714909
 20
-36.307416510110052
 30
0.0
 11
12.373333357461011
 21
-36.704291510110053
 31
0.0
  0
LINE
  5
1DEF
  8
0
 62
     0
 10
15.111627728876179
 20
-35.123336517653073
 30
0.0
 11
14.435556350222701
 21
-35.513666510110063
 31
0.0
  0
LINE
  5
1DF0
  8
0
 62
     0
 10
11.685925528953209
 20
-38.68866622561395
 30
0.0
 11
10.998517864699309
 21
-39.085541225613952
 31
0.0
  0
LINE
  5
1DF1
  8
0
 62
     0
 10
13.748148521714899
 20
-37.498041225613953
 30
0.0
 11
13.06074085746101
 21
-37.894916225613962
 31
0.0
  0
LINE
  5
1DF2
  8
0
 62
     0
 10
15.12296499999999
 20
-30.354299476000769
 30
0.0
 11
15.12296499999999
 21
-29.56054947600078
 31
0.0
  0
LINE
  5
1DF3
  8
0
 62
     0
 10
15.12296499999999
 20
-32.73554947600077
 30
0.0
 11
15.12296499999999
 21
-31.941799476000771
 31
0.0
  0
LINE
  5
1DF4
  8
0
 62
     0
 10
15.12296499999999
 20
-35.084443287084987
 30
0.0
 11
15.12296499999999
 21
-34.323049476000769
 31
0.0
  0
LINE
  5
1DF5
  8
0
 62
     0
 10
13.748150000000001
 20
-27.973049476000771
 30
0.0
 11
13.748150000000001
 21
-27.179299476000779
 31
0.0
  0
LINE
  5
1DF6
  8
0
 62
     0
 10
13.748150000000001
 20
-30.354299476000769
 30
0.0
 11
13.748150000000001
 21
-29.56054947600078
 31
0.0
  0
LINE
  5
1DF7
  8
0
 62
     0
 10
13.748150000000001
 20
-32.73554947600077
 30
0.0
 11
13.748150000000001
 21
-31.941799476000771
 31
0.0
  0
LINE
  5
1DF8
  8
0
 62
     0
 10
13.748150000000001
 20
-35.116799476000772
 30
0.0
 11
13.748150000000001
 21
-34.323049476000769
 31
0.0
  0
LINE
  5
1DF9
  8
0
 62
     0
 10
13.748150000000001
 20
-37.49804947600078
 30
0.0
 11
13.748150000000001
 21
-36.70429947600077
 31
0.0
  0
LINE
  5
1DFA
  8
0
 62
     0
 10
12.373335000000001
 20
-25.59179947600078
 30
0.0
 11
12.373335000000001
 21
-24.798049476000781
 31
0.0
  0
LINE
  5
1DFB
  8
0
 62
     0
 10
12.373335000000001
 20
-27.973049476000771
 30
0.0
 11
12.373335000000001
 21
-27.179299476000779
 31
0.0
  0
LINE
  5
1DFC
  8
0
 62
     0
 10
12.373335000000001
 20
-30.354299476000769
 30
0.0
 11
12.373335000000001
 21
-29.56054947600078
 31
0.0
  0
LINE
  5
1DFD
  8
0
 62
     0
 10
12.373335000000001
 20
-32.73554947600077
 30
0.0
 11
12.373335000000001
 21
-31.941799476000771
 31
0.0
  0
LINE
  5
1DFE
  8
0
 62
     0
 10
12.373335000000001
 20
-35.116799476000772
 30
0.0
 11
12.373335000000001
 21
-34.323049476000769
 31
0.0
  0
LINE
  5
1DFF
  8
0
 62
     0
 10
12.373335000000001
 20
-37.49804947600078
 30
0.0
 11
12.373335000000001
 21
-36.70429947600077
 31
0.0
  0
LINE
  5
1E00
  8
0
 62
     0
 10
10.998519999999999
 20
-25.59179947600078
 30
0.0
 11
10.998519999999999
 21
-24.798049476000781
 31
0.0
  0
LINE
  5
1E01
  8
0
 62
     0
 10
10.998519999999999
 20
-27.973049476000771
 30
0.0
 11
10.998519999999999
 21
-27.179299476000779
 31
0.0
  0
LINE
  5
1E02
  8
0
 62
     0
 10
10.998519999999999
 20
-30.354299476000769
 30
0.0
 11
10.998519999999999
 21
-29.56054947600078
 31
0.0
  0
LINE
  5
1E03
  8
0
 62
     0
 10
10.998519999999999
 20
-32.73554947600077
 30
0.0
 11
10.998519999999999
 21
-31.941799476000771
 31
0.0
  0
LINE
  5
1E04
  8
0
 62
     0
 10
10.998519999999999
 20
-35.116799476000772
 30
0.0
 11
10.998519999999999
 21
-34.323049476000769
 31
0.0
  0
LINE
  5
1E05
  8
0
 62
     0
 10
10.998519999999999
 20
-37.49804947600078
 30
0.0
 11
10.998519999999999
 21
-36.70429947600077
 31
0.0
  0
LINE
  5
1E06
  8
0
 62
     0
 10
10.998519999999999
 20
-39.30854841058769
 30
0.0
 11
10.998519999999999
 21
-39.085549476000772
 31
0.0
  0
LINE
  5
1E07
  8
0
 62
     0
 10
9.6237049999999975
 20
-25.59179947600078
 30
0.0
 11
9.6237049999999975
 21
-24.831251760000569
 31
0.0
  0
LINE
  5
1E08
  8
0
 62
     0
 10
9.6237049999999975
 20
-27.973049476000771
 30
0.0
 11
9.6237049999999975
 21
-27.179299476000779
 31
0.0
  0
LINE
  5
1E09
  8
0
 62
     0
 10
9.6237049999999975
 20
-30.354299476000769
 30
0.0
 11
9.6237049999999975
 21
-29.56054947600078
 31
0.0
  0
LINE
  5
1E0A
  8
0
 62
     0
 10
9.6237049999999975
 20
-32.73554947600077
 30
0.0
 11
9.6237049999999975
 21
-31.941799476000771
 31
0.0
  0
LINE
  5
1E0B
  8
0
 62
     0
 10
9.6237049999999975
 20
-35.116799476000772
 30
0.0
 11
9.6237049999999975
 21
-34.323049476000769
 31
0.0
  0
LINE
  5
1E0C
  8
0
 62
     0
 10
9.6237049999999975
 20
-37.49804947600078
 30
0.0
 11
9.6237049999999975
 21
-36.70429947600077
 31
0.0
  0
LINE
  5
1E0D
  8
0
 62
     0
 10
8.2488899999999976
 20
-27.973049476000771
 30
0.0
 11
8.2488899999999976
 21
-27.179299476000779
 31
0.0
  0
LINE
  5
1E0E
  8
0
 62
     0
 10
8.2488899999999976
 20
-30.354299476000769
 30
0.0
 11
8.2488899999999976
 21
-29.56054947600078
 31
0.0
  0
LINE
  5
1E0F
  8
0
 62
     0
 10
8.2488899999999976
 20
-32.73554947600077
 30
0.0
 11
8.2488899999999976
 21
-31.941799476000771
 31
0.0
  0
LINE
  5
1E10
  8
0
 62
     0
 10
8.2488899999999976
 20
-35.116799476000772
 30
0.0
 11
8.2488899999999976
 21
-34.323049476000769
 31
0.0
  0
LINE
  5
1E11
  8
0
 62
     0
 10
8.2488899999999976
 20
-37.49804947600078
 30
0.0
 11
8.2488899999999976
 21
-36.70429947600077
 31
0.0
  0
LINE
  5
1E12
  8
0
 62
     0
 10
6.8740749999999968
 20
-30.354299476000769
 30
0.0
 11
6.8740749999999968
 21
-29.56054947600078
 31
0.0
  0
LINE
  5
1E13
  8
0
 62
     0
 10
6.8740749999999968
 20
-32.73554947600077
 30
0.0
 11
6.8740749999999968
 21
-31.941799476000771
 31
0.0
  0
LINE
  5
1E14
  8
0
 62
     0
 10
6.8740749999999968
 20
-34.534804251359198
 30
0.0
 11
6.8740749999999968
 21
-34.323049476000769
 31
0.0
  0
ENDBLK
  5
1E16
  8
0
  0
BLOCK
  8
0
  2
*U24
 70
     1
 10
0.0
 20
0.0
 30
0.0
  3
*U24
  1

  0
TEXT
  5
1E18
  8
SAPA_ARTIKELNR
 10
-7.1891639414921871
 20
-20.94041834078303
 30
0.0
 40
3.5
  1
68280
  7
ISO
  0
ENDBLK
  5
1E1A
  8
0
  0
BLOCK
  8
0
  2
*U25
 70
     1
 10
0.0
 20
0.0
 30
0.0
  3
*U25
  1

  0
TEXT
  5
1E1C
  8
SAPA_ARTIKELNR
 10
-7.1891639414921871
 20
82.644091895668467
 30
0.0
 40
3.5
  1
42144
  7
ISO
  0
ENDBLK
  5
1E1E
  8
0
  0
BLOCK
  8
0
  2
*U26
 70
     1
 10
0.0
 20
0.0
 30
0.0
  3
*U26
  1

  0
TEXT
  5
1E38
  8
0
 62
     2
 10
-208.5340209066344
 20
-187.07532567747839
 30
0.0
 40
3.0
  1
150
 50
90.0
  7
ISO
  0
ENDBLK
  5
1E3A
  8
0
  0
BLOCK
  8
0
  2
*U27
 70
     1
 10
0.0
 20
0.0
 30
0.0
  3
*U27
  1

  0
TEXT
  5
1E3C
  8
0
 62
     2
 10
-221.8201877565734
 20
-262.37532567747837
 30
0.0
 40
3.0
  1
300
 50
90.0
  7
ISO
  0
ENDBLK
  5
1E3E
  8
0
  0
BLOCK
  8
0
  2
*U28
 70
     1
 10
0.0
 20
0.0
 30
0.0
  3
*U28
  1

  0
TEXT
  5
1F0C
  8
0
 62
     2
 10
67.775353807349802
 20
32.493759665304488
 30
0.0
 40
6.0
  1
60
 50
90.0
  7
BYGG-01472402$0$ISO
  0
ENDBLK
  5
1F0E
  8
0
  0
BLOCK
  8
0
  2
*U29
 70
     1
 10
0.0
 20
0.0
 30
0.0
  3
*U29
  1

  0
TEXT
  5
1F10
  8
0
 62
     2
 10
23.616713455909959
 20
78.489807319913098
 30
0.0
 40
6.0
  1
50
  7
BYGG-01472402$0$ISO
  0
ENDBLK
  5
1F12
  8
0
  0
BLOCK
  8
0
  2
*U30
 70
     1
 10
0.0
 20
0.0
 30
0.0
  3
*U30
  1

  0
TEXT
  5
1F6A
  8
0
 62
     2
 10
2.924893507843874
 20
11.80837843001756
 30
0.0
 40
3.0
  1
7
 50
90.0
  7
BYGG-014252$0$ISO
  0
ENDBLK
  5
1F6C
  8
0
  0
BLOCK
  8
0
  2
*U31
 70
     1
 10
0.0
 20
0.0
 30
0.0
  3
*U31
  1

  0
TEXT
  5
1F6E
  8
0
 62
     2
 10
29.55729736359487
 20
1.4710805811525349
 30
0.0
 40
3.0
  1
47.6
  7
BYGG-014252$0$ISO
  0
ENDBLK
  5
1F70
  8
0
  0
BLOCK
  8
0
  2
*U32
 70
     1
 10
0.0
 20
0.0
 30
0.0
  3
*U32
  1

  0
TEXT
  5
203B
  8
0
 62
     2
 10
-43.956278146715057
 20
1.4766955053213751
 30
0.0
 40
6.0
  1
60
 50
90.0
  7
BYGG-01472402$0$ISO
  0
ENDBLK
  5
203D
  8
0
  0
BLOCK
  8
0
  2
*U33
 70
     1
 10
0.0
 20
0.0
 30
0.0
  3
*U33
  1

  0
TEXT
  5
203F
  8
0
 62
     2
 10
-4.2023622047240243
 20
-32.47368285794866
 30
0.0
 40
6.0
  1
50
  7
BYGG-01472402$0$ISO
  0
ENDBLK
  5
2041
  8
0
  0
BLOCK
  8
0
  2
*U34
 70
     1
 10
0.0
 20
0.0
 30
0.0
  3
*U34
  1

  0
TEXT
  5
2043
  8
0
 62
     2
 10
-3.8244094488188409
 20
89.386827999856038
 30
0.0
 40
3.0
  1
47.6
  7
BYGG-014252$0$ISO
  0
ENDBLK
  5
2045
  8
0
  0
BLOCK
  8
0
  2
*U35
 70
     1
 10
0.0
 20
0.0
 30
0.0
  3
*U35
  1

  0
TEXT
  5
22DD
  8
0
 62
     2
 10
28.456813304569941
 20
74.949530150991009
 30
0.0
 40
3.0
  1
7
 50
90.0
  7
BYGG-014252$0$ISO
  0
ENDBLK
  5
22DF
  8
0
  0
BLOCK
  8
0
  2
*U36
 70
     1
 10
0.0
 20
0.0
 30
0.0
  3
*U36
  1

  0
TEXT
  5
23E1
  8
SAPA_MATT
 62
     2
 10
-221.8201877565734
 20
-262.37532567747837
 30
0.0
 40
3.0
  1
300
 50
90.0
  7
ISO
  0
ENDBLK
  5
23E3
  8
0
  0
BLOCK
  8
0
  2
*U37
 70
     1
 10
0.0
 20
0.0
 30
0.0
  3
*U37
  1

  0
TEXT
  5
23E5
  8
SAPA_MATT
 62
     2
 10
-208.5340209066344
 20
-187.07532567747839
 30
0.0
 40
3.0
  1
150
 50
90.0
  7
ISO
  0
ENDBLK
  5
23E7
  8
0
  0
ENDSEC
  0
SECTION
  2
ENTITIES
  0
POLYLINE
  5
6F2
  8
SAPA_ANSLUTNING
 10
11.069972453239179
 20
-39.309488609988414
 30
0.0
 66
     1
 70
     8
  0
VERTEX
  8
SAPA_ANSLUTNING
  5
23E8
 10
11.0700
 20
-39.3095
 30
0.000000
  70
    32
  0
VERTEX
  8
SAPA_ANSLUTNING
  5
23E9
 10
10.8495
 20
-39.3005
 30
0.000000
  70
    32
  0
VERTEX
  8
SAPA_ANSLUTNING
  5
23EA
 10
10.6295
 20
-39.2737
 30
0.000000
  70
    32
  0
VERTEX
  8
SAPA_ANSLUTNING
  5
23EB
 10
10.4106
 20
-39.2290
 30
0.000000
  70
    32
  0
VERTEX
  8
SAPA_ANSLUTNING
  5
23EC
 10
10.1933
 20
-39.1666
 30
0.000000
  70
    32
  0
VERTEX
  8
SAPA_ANSLUTNING
  5
23ED
 10
9.97809
 20
-39.0866
 30
0.000000
  70
    32
  0
VERTEX
  8
SAPA_ANSLUTNING
  5
23EE
 10
9.76552
 20
-38.9893
 30
0.000000
  70
    32
  0
VERTEX
  8
SAPA_ANSLUTNING
  5
23EF
 10
9.55609
 20
-38.8748
 30
0.000000
  70
    32
  0
VERTEX
  8
SAPA_ANSLUTNING
  5
23F0
 10
9.35031
 20
-38.7434
 30
0.000000
  70
    32
  0
VERTEX
  8
SAPA_ANSLUTNING
  5
23F1
 10
9.14867
 20
-38.5955
 30
0.000000
  70
    32
  0
VERTEX
  8
SAPA_ANSLUTNING
  5
23F2
 10
8.95166
 20
-38.4313
 30
0.000000
  70
    32
  0
VERTEX
  8
SAPA_ANSLUTNING
  5
23F3
 10
8.75975
 20
-38.2514
 30
0.000000
  70
    32
  0
VERTEX
  8
SAPA_ANSLUTNING
  5
23F4
 10
8.57341
 20
-38.0561
 30
0.000000
  70
    32
  0
VERTEX
  8
SAPA_ANSLUTNING
  5
23F5
 10
8.39308
 20
-37.8459
 30
0.000000
  70
    32
  0
VERTEX
  8
SAPA_ANSLUTNING
  5
23F6
 10
8.21920
 20
-37.6214
 30
0.000000
  70
    32
  0
VERTEX
  8
SAPA_ANSLUTNING
  5
23F7
 10
8.05219
 20
-37.3830
 30
0.000000
  70
    32
  0
VERTEX
  8
SAPA_ANSLUTNING
  5
23F8
 10
7.89245
 20
-37.1313
 30
0.000000
  70
    32
  0
VERTEX
  8
SAPA_ANSLUTNING
  5
23F9
 10
7.74036
 20
-36.8669
 30
0.000000
  70
    32
  0
VERTEX
  8
SAPA_ANSLUTNING
  5
23FA
 10
7.59630
 20
-36.5905
 30
0.000000
  70
    32
  0
VERTEX
  8
SAPA_ANSLUTNING
  5
23FB
 10
7.46060
 20
-36.3027
 30
0.000000
  70
    32
  0
VERTEX
  8
SAPA_ANSLUTNING
  5
23FC
 10
7.33360
 20
-36.0043
 30
0.000000
  70
    32
  0
VERTEX
  8
SAPA_ANSLUTNING
  5
23FD
 10
7.21560
 20
-35.6959
 30
0.000000
  70
    32
  0
VERTEX
  8
SAPA_ANSLUTNING
  5
23FE
 10
7.10688
 20
-35.3783
 30
0.000000
  70
    32
  0
VERTEX
  8
SAPA_ANSLUTNING
  5
23FF
 10
7.00772
 20
-35.0522
 30
0.000000
  70
    32
  0
VERTEX
  8
SAPA_ANSLUTNING
  5
2400
 10
6.91834
 20
-34.7185
 30
0.000000
  70
    32
  0
VERTEX
  8
SAPA_ANSLUTNING
  5
2401
 10
6.83896
 20
-34.3780
 30
0.000000
  70
    32
  0
VERTEX
  8
SAPA_ANSLUTNING
  5
2402
 10
6.76977
 20
-34.0314
 30
0.000000
  70
    32
  0
VERTEX
  8
SAPA_ANSLUTNING
  5
2403
 10
6.71095
 20
-33.6796
 30
0.000000
  70
    32
  0
VERTEX
  8
SAPA_ANSLUTNING
  5
2404
 10
6.66262
 20
-33.3234
 30
0.000000
  70
    32
  0
VERTEX
  8
SAPA_ANSLUTNING
  5
2405
 10
6.62491
 20
-32.9638
 30
0.000000
  70
    32
  0
VERTEX
  8
SAPA_ANSLUTNING
  5
2406
 10
6.59791
 20
-32.6015
 30
0.000000
  70
    32
  0
VERTEX
  8
SAPA_ANSLUTNING
  5
2407
 10
6.58169
 20
-32.2374
 30
0.000000
  70
    32
  0
VERTEX
  8
SAPA_ANSLUTNING
  5
2408
 10
6.57627
 20
-31.8725
 30
0.000000
  70
    32
  0
VERTEX
  8
SAPA_ANSLUTNING
  5
2409
 10
6.58169
 20
-31.5076
 30
0.000000
  70
    32
  0
VERTEX
  8
SAPA_ANSLUTNING
  5
240A
 10
6.59791
 20
-31.1436
 30
0.000000
  70
    32
  0
VERTEX
  8
SAPA_ANSLUTNING
  5
240B
 10
6.62491
 20
-30.7813
 30
0.000000
  70
    32
  0
VERTEX
  8
SAPA_ANSLUTNING
  5
240C
 10
6.66262
 20
-30.4216
 30
0.000000
  70
    32
  0
VERTEX
  8
SAPA_ANSLUTNING
  5
240D
 10
6.71095
 20
-30.0655
 30
0.000000
  70
    32
  0
VERTEX
  8
SAPA_ANSLUTNING
  5
240E
 10
6.76977
 20
-29.7137
 30
0.000000
  70
    32
  0
VERTEX
  8
SAPA_ANSLUTNING
  5
240F
 10
6.83896
 20
-29.3671
 30
0.000000
  70
    32
  0
VERTEX
  8
SAPA_ANSLUTNING
  5
2410
 10
6.91834
 20
-29.0265
 30
0.000000
  70
    32
  0
VERTEX
  8
SAPA_ANSLUTNING
  5
2411
 10
7.00772
 20
-28.6928
 30
0.000000
  70
    32
  0
VERTEX
  8
SAPA_ANSLUTNING
  5
2412
 10
7.10688
 20
-28.3668
 30
0.000000
  70
    32
  0
VERTEX
  8
SAPA_ANSLUTNING
  5
2413
 10
7.21560
 20
-28.0492
 30
0.000000
  70
    32
  0
VERTEX
  8
SAPA_ANSLUTNING
  5
2414
 10
7.33360
 20
-27.7408
 30
0.000000
  70
    32
  0
VERTEX
  8
SAPA_ANSLUTNING
  5
2415
 10
7.46060
 20
-27.4423
 30
0.000000
  70
    32
  0
VERTEX
  8
SAPA_ANSLUTNING
  5
2416
 10
7.59630
 20
-27.1546
 30
0.000000
  70
    32
  0
VERTEX
  8
SAPA_ANSLUTNING
  5
2417
 10
7.74036
 20
-26.8782
 30
0.000000
  70
    32
  0
VERTEX
  8
SAPA_ANSLUTNING
  5
2418
 10
7.89245
 20
-26.6138
 30
0.000000
  70
    32
  0
VERTEX
  8
SAPA_ANSLUTNING
  5
2419
 10
8.05219
 20
-26.3621
 30
0.000000
  70
    32
  0
VERTEX
  8
SAPA_ANSLUTNING
  5
241A
 10
8.21920
 20
-26.1237
 30
0.000000
  70
    32
  0
VERTEX
  8
SAPA_ANSLUTNING
  5
241B
 10
8.39308
 20
-25.8991
 30
0.000000
  70
    32
  0
VERTEX
  8
SAPA_ANSLUTNING
  5
241C
 10
8.57341
 20
-25.6889
 30
0.000000
  70
    32
  0
VERTEX
  8
SAPA_ANSLUTNING
  5
241D
 10
8.75975
 20
-25.4936
 30
0.000000
  70
    32
  0
VERTEX
  8
SAPA_ANSLUTNING
  5
241E
 10
8.95166
 20
-25.3137
 30
0.000000
  70
    32
  0
VERTEX
  8
SAPA_ANSLUTNING
  5
241F
 10
9.14867
 20
-25.1496
 30
0.000000
  70
    32
  0
VERTEX
  8
SAPA_ANSLUTNING
  5
2420
 10
9.35031
 20
-25.0017
 30
0.000000
  70
    32
  0
VERTEX
  8
SAPA_ANSLUTNING
  5
2421
 10
9.55609
 20
-24.8703
 30
0.000000
  70
    32
  0
VERTEX
  8
SAPA_ANSLUTNING
  5
2422
 10
9.76552
 20
-24.7558
 30
0.000000
  70
    32
  0
VERTEX
  8
SAPA_ANSLUTNING
  5
2423
 10
9.97809
 20
-24.6584
 30
0.000000
  70
    32
  0
VERTEX
  8
SAPA_ANSLUTNING
  5
2424
 10
10.1933
 20
-24.5785
 30
0.000000
  70
    32
  0
VERTEX
  8
SAPA_ANSLUTNING
  5
2425
 10
10.4106
 20
-24.5160
 30
0.000000
  70
    32
  0
VERTEX
  8
SAPA_ANSLUTNING
  5
2426
 10
10.6295
 20
-24.4714
 30
0.000000
  70
    32
  0
VERTEX
  8
SAPA_ANSLUTNING
  5
2427
 10
10.8495
 20
-24.4445
 30
0.000000
  70
    32
  0
VERTEX
  8
SAPA_ANSLUTNING
  5
2428
 10
11.0700
 20
-24.4356
 30
0.000000
  70
    32
  0
VERTEX
  8
SAPA_ANSLUTNING
  5
2429
 10
11.2905
 20
-24.4445
 30
0.000000
  70
    32
  0
VERTEX
  8
SAPA_ANSLUTNING
  5
242A
 10
11.5104
 20
-24.4714
 30
0.000000
  70
    32
  0
VERTEX
  8
SAPA_ANSLUTNING
  5
242B
 10
11.7293
 20
-24.5160
 30
0.000000
  70
    32
  0
VERTEX
  8
SAPA_ANSLUTNING
  5
242C
 10
11.9466
 20
-24.5785
 30
0.000000
  70
    32
  0
VERTEX
  8
SAPA_ANSLUTNING
  5
242D
 10
12.1619
 20
-24.6584
 30
0.000000
  70
    32
  0
VERTEX
  8
SAPA_ANSLUTNING
  5
242E
 10
12.3744
 20
-24.7558
 30
0.000000
  70
    32
  0
VERTEX
  8
SAPA_ANSLUTNING
  5
242F
 10
12.5839
 20
-24.8703
 30
0.000000
  70
    32
  0
VERTEX
  8
SAPA_ANSLUTNING
  5
2430
 10
12.7896
 20
-25.0017
 30
0.000000
  70
    32
  0
VERTEX
  8
SAPA_ANSLUTNING
  5
2431
 10
12.9913
 20
-25.1496
 30
0.000000
  70
    32
  0
VERTEX
  8
SAPA_ANSLUTNING
  5
2432
 10
13.1883
 20
-25.3137
 30
0.000000
  70
    32
  0
VERTEX
  8
SAPA_ANSLUTNING
  5
2433
 10
13.3802
 20
-25.4936
 30
0.000000
  70
    32
  0
VERTEX
  8
SAPA_ANSLUTNING
  5
2434
 10
13.5665
 20
-25.6889
 30
0.000000
  70
    32
  0
VERTEX
  8
SAPA_ANSLUTNING
  5
2435
 10
13.7469
 20
-25.8991
 30
0.000000
  70
    32
  0
VERTEX
  8
SAPA_ANSLUTNING
  5
2436
 10
13.9207
 20
-26.1237
 30
0.000000
  70
    32
  0
VERTEX
  8
SAPA_ANSLUTNING
  5
2437
 10
14.0878
 20
-26.3621
 30
0.000000
  70
    32
  0
VERTEX
  8
SAPA_ANSLUTNING
  5
2438
 10
14.2475
 20
-26.6138
 30
0.000000
  70
    32
  0
VERTEX
  8
SAPA_ANSLUTNING
  5
2439
 10
14.3996
 20
-26.8782
 30
0.000000
  70
    32
  0
VERTEX
  8
SAPA_ANSLUTNING
  5
243A
 10
14.5436
 20
-27.1546
 30
0.000000
  70
    32
  0
VERTEX
  8
SAPA_ANSLUTNING
  5
243B
 10
14.6793
 20
-27.4423
 30
0.000000
  70
    32
  0
VERTEX
  8
SAPA_ANSLUTNING
  5
243C
 10
14.8063
 20
-27.7408
 30
0.000000
  70
    32
  0
VERTEX
  8
SAPA_ANSLUTNING
  5
243D
 10
14.9243
 20
-28.0492
 30
0.000000
  70
    32
  0
VERTEX
  8
SAPA_ANSLUTNING
  5
243E
 10
15.0331
 20
-28.3668
 30
0.000000
  70
    32
  0
VERTEX
  8
SAPA_ANSLUTNING
  5
243F
 10
15.1322
 20
-28.6928
 30
0.000000
  70
    32
  0
VERTEX
  8
SAPA_ANSLUTNING
  5
2440
 10
15.2216
 20
-29.0265
 30
0.000000
  70
    32
  0
VERTEX
  8
SAPA_ANSLUTNING
  5
2441
 10
15.3010
 20
-29.3671
 30
0.000000
  70
    32
  0
VERTEX
  8
SAPA_ANSLUTNING
  5
2442
 10
15.3702
 20
-29.7137
 30
0.000000
  70
    32
  0
VERTEX
  8
SAPA_ANSLUTNING
  5
2443
 10
15.4290
 20
-30.0655
 30
0.000000
  70
    32
  0
VERTEX
  8
SAPA_ANSLUTNING
  5
2444
 10
15.4773
 20
-30.4216
 30
0.000000
  70
    32
  0
VERTEX
  8
SAPA_ANSLUTNING
  5
2445
 10
15.5150
 20
-30.7813
 30
0.000000
  70
    32
  0
VERTEX
  8
SAPA_ANSLUTNING
  5
2446
 10
15.5420
 20
-31.1436
 30
0.000000
  70
    32
  0
VERTEX
  8
SAPA_ANSLUTNING
  5
2447
 10
15.5583
 20
-31.5076
 30
0.000000
  70
    32
  0
VERTEX
  8
SAPA_ANSLUTNING
  5
2448
 10
15.5637
 20
-31.8725
 30
0.000000
  70
    32
  0
VERTEX
  8
SAPA_ANSLUTNING
  5
2449
 10
15.5583
 20
-32.2374
 30
0.000000
  70
    32
  0
VERTEX
  8
SAPA_ANSLUTNING
  5
244A
 10
15.5420
 20
-32.6015
 30
0.000000
  70
    32
  0
VERTEX
  8
SAPA_ANSLUTNING
  5
244B
 10
15.5150
 20
-32.9638
 30
0.000000
  70
    32
  0
VERTEX
  8
SAPA_ANSLUTNING
  5
244C
 10
15.4773
 20
-33.3234
 30
0.000000
  70
    32
  0
VERTEX
  8
SAPA_ANSLUTNING
  5
244D
 10
15.4290
 20
-33.6796
 30
0.000000
  70
    32
  0
VERTEX
  8
SAPA_ANSLUTNING
  5
244E
 10
15.3702
 20
-34.0314
 30
0.000000
  70
    32
  0
VERTEX
  8
SAPA_ANSLUTNING
  5
244F
 10
15.3010
 20
-34.3780
 30
0.000000
  70
    32
  0
VERTEX
  8
SAPA_ANSLUTNING
  5
2450
 10
15.2216
 20
-34.7185
 30
0.000000
  70
    32
  0
VERTEX
  8
SAPA_ANSLUTNING
  5
2451
 10
15.1322
 20
-35.0522
 30
0.000000
  70
    32
  0
VERTEX
  8
SAPA_ANSLUTNING
  5
2452
 10
15.0331
 20
-35.3783
 30
0.000000
  70
    32
  0
VERTEX
  8
SAPA_ANSLUTNING
  5
2453
 10
14.9243
 20
-35.6959
 30
0.000000
  70
    32
  0
VERTEX
  8
SAPA_ANSLUTNING
  5
2454
 10
14.8063
 20
-36.0043
 30
0.000000
  70
    32
  0
VERTEX
  8
SAPA_ANSLUTNING
  5
2455
 10
14.6793
 20
-36.3027
 30
0.000000
  70
    32
  0
VERTEX
  8
SAPA_ANSLUTNING
  5
2456
 10
14.5436
 20
-36.5905
 30
0.000000
  70
    32
  0
VERTEX
  8
SAPA_ANSLUTNING
  5
2457
 10
14.3996
 20
-36.8669
 30
0.000000
  70
    32
  0
VERTEX
  8
SAPA_ANSLUTNING
  5
2458
 10
14.2475
 20
-37.1313
 30
0.000000
  70
    32
  0
VERTEX
  8
SAPA_ANSLUTNING
  5
2459
 10
14.0878
 20
-37.3830
 30
0.000000
  70
    32
  0
VERTEX
  8
SAPA_ANSLUTNING
  5
245A
 10
13.9207
 20
-37.6214
 30
0.000000
  70
    32
  0
VERTEX
  8
SAPA_ANSLUTNING
  5
245B
 10
13.7469
 20
-37.8459
 30
0.000000
  70
    32
  0
VERTEX
  8
SAPA_ANSLUTNING
  5
245C
 10
13.5665
 20
-38.0561
 30
0.000000
  70
    32
  0
VERTEX
  8
SAPA_ANSLUTNING
  5
245D
 10
13.3802
 20
-38.2514
 30
0.000000
  70
    32
  0
VERTEX
  8
SAPA_ANSLUTNING
  5
245E
 10
13.1883
 20
-38.4313
 30
0.000000
  70
    32
  0
VERTEX
  8
SAPA_ANSLUTNING
  5
245F
 10
12.9913
 20
-38.5955
 30
0.000000
  70
    32
  0
VERTEX
  8
SAPA_ANSLUTNING
  5
2460
 10
12.7896
 20
-38.7434
 30
0.000000
  70
    32
  0
VERTEX
  8
SAPA_ANSLUTNING
  5
2461
 10
12.5839
 20
-38.8748
 30
0.000000
  70
    32
  0
VERTEX
  8
SAPA_ANSLUTNING
  5
2462
 10
12.3744
 20
-38.9893
 30
0.000000
  70
    32
  0
VERTEX
  8
SAPA_ANSLUTNING
  5
2463
 10
12.1619
 20
-39.0866
 30
0.000000
  70
    32
  0
VERTEX
  8
SAPA_ANSLUTNING
  5
2464
 10
11.9466
 20
-39.1666
 30
0.000000
  70
    32
  0
VERTEX
  8
SAPA_ANSLUTNING
  5
2465
 10
11.7293
 20
-39.2290
 30
0.000000
  70
    32
  0
VERTEX
  8
SAPA_ANSLUTNING
  5
2466
 10
11.5104
 20
-39.2737
 30
0.000000
  70
    32
  0
VERTEX
  8
SAPA_ANSLUTNING
  5
2467
 10
11.2905
 20
-39.3005
 30
0.000000
  70
    32
  0
VERTEX
  8
SAPA_ANSLUTNING
  5
2468
 10
11.0700
 20
-39.3095
 30
0.000000
  70
    32
  0
SEQEND
  8
SAPA_ANSLUTNING
  5
2469
  0
POLYLINE
  5
854
  8
SAPA_ANSLUTNING
 66
     1
 10
0.0
 20
0.0
 30
0.0
 70
     1
1001
ACAD
1000
ASC_BOUNDS
1002
{
1070
    19
1005
98B
1002
}
  0
VERTEX
  5
1D73
  8
SAPA_ANSLUTNING
 10
12.74684964815747
 20
-24.50046984900883
 30
0.0
  0
VERTEX
  5
1D74
  8
SAPA_ANSLUTNING
 10
23.972867066226758
 20
-24.50046984900883
 30
0.0
 42
0.1318351716450102
  0
VERTEX
  5
1D75
  8
SAPA_ANSLUTNING
 10
23.98415980730692
 20
-39.33771372773343
 30
0.0
  0
VERTEX
  5
1D76
  8
SAPA_ANSLUTNING
 10
12.549851938234649
 20
-39.337713727733451
 30
0.0
 42
0.4622359140985589
  0
SEQEND
  5
1D77
  8
SAPA_ANSLUTNING
  0
LINE
  5
887
  8
SAPA_ANSLUTNING
 10
-10.99999999999987
 20
66.019999999997637
 30
0.0
 11
-26.600000000001121
 21
66.019999999997637
 31
0.0
  0
LINE
  5
888
  8
SAPA_ANSLUTNING
 10
-19.877173350034351
 20
65.269999999997637
 30
0.0
 11
-25.85000000000111
 21
65.269999999997637
 31
0.0
  0
LINE
  5
889
  8
SAPA_ANSLUTNING
 10
-10.99999999999987
 20
64.519999999997637
 30
0.0
 11
-25.10000000000111
 21
64.519999999997637
 31
0.0
  0
LINE
  5
88F
  8
SAPA_ANSLUTNING
 10
-10.99999999999987
 20
64.519999999997637
 30
0.0
 11
-10.99999999999987
 21
66.019999999997637
 31
0.0
  0
INSERT
  5
98B
  8
SAPA_ANSLUTNING
  6
CONTINUOUS
  2
*X22
 10
0.0
 20
0.0
 30
0.0
1001
ACAD
1000
HATCH
1002
{
1070
    19
1000
ANSI37
1040
0.25
1040
1.5707963267948959
1000
ASC_BOUNDS
1070
     1
1070
     1
1070
     1
1005
854
1000
ASC_SEEDPOINT
1011
19.542730876284839
1021
0.0
1031
0.0
1021
-31.1010347653305
1031
0.0
1000
R14_HATCH_DATA
1000
98B
1011
1.0
1021
0.0
1031
0.0
1021
0.0
1031
0.0
1011
0.0
1021
0.0
1031
0.0
1021
1.0
1031
0.0
1011
0.0
1021
0.0
1031
0.0
1021
0.0
1031
1.0
1040
0.0
1010
0.0
1020
0.0
1030
1.0
1000
ANSI37
1070
     0
1070
     1
1071
        1
1071
        7
1070
     1
1070
     1
1071
        4
1040
23.972867066226758
1040
-24.50046984900883
1040
0.0
1040
12.74684964815747
1040
-24.50046984900883
1040
-0.4622359140985589
1040
12.549851938234649
1040
-39.337713727733451
1040
0.0
1040
23.98415980730692
1040
-39.33771372773343
1040
-0.1318351716450102
1071
        1
1005
854
1070
     0
1070
     1
1040
1.5707963267948959
1040
0.25
1070
     0
1070
     2
1040
2.3561944901923439
1040
0.0
1040
0.6019505239992214
1040
-0.5612660075668221
1040
-0.5612660075668221
1070
     0
1040
3.926990816987241
1040
0.0
1040
0.6019505239992214
1040
0.5612660075668221
1040
-0.5612660075668221
1070
     0
1040
0.0884032882088985
1071
        1
1040
19.542730876284839
1040
-31.1010347653305
1040
0.0
1002
}
  0
INSERT
  5
9EA
  8
SAPA_ANSLUTNING
  6
CONTINUOUS
  2
*X23
 10
0.0
 20
0.0
 30
0.0
1001
ACAD
1000
HATCH
1002
{
1070
    19
1000
HEX
1040
0.25
1040
1.5707963267948959
1000
ASC_BOUNDS
1070
     1
1070
     1
1070
     1
1005
6F2
1000
ASC_SEEDPOINT
1011
10.879208532515801
1021
0.0
1031
0.0
1021
-31.454817789793651
1031
0.0
1000
R14_HATCH_DATA
1000
9EA
1011
1.0
1021
0.0
1031
0.0
1021
0.0
1031
0.0
1011
0.0
1021
0.0
1031
0.0
1021
1.0
1031
0.0
1011
0.0
1021
0.0
1031
0.0
1021
0.0
1031
1.0
1040
0.0
1010
0.0
1020
0.0
1030
1.0
1000
HEX
1070
     0
1070
     1
1071
        1
1071
        5
1071
        1
1070
     3
1040
11.069972453239179
1040
-31.87252034409175
1040
-0.0000000000000005
1040
-7.4369682658966658
1040
0.6042378466118592
1040
0.0
1040
6.2831853071795862
1070
     0
1071
        1
1005
6F2
1070
     0
1070
     1
1040
1.5707963267948959
1040
0.25
1070
     0
1070
     3
1040
1.5707963267948959
1040
0.0
1040
0.6019505239992214
1040
-1.374814999999999
1040
0.0000000000000001
1070
     2
1040
0.79375
1040
-1.587499999999999
1040
3.6651914291880909
1040
0.0
1040
0.6019505239992214
1040
0.6874074999999995
1040
-1.190624715503902
1070
     2
1040
0.7937499999999998
1040
-1.587499999999999
1040
2.6179938779914931
1040
0.0
1040
1.3957005239992211
1040
-0.6874075000000002
1040
-1.190624715503902
1070
     2
1040
0.79375
1040
-1.587499999999999
1040
0.0884032882088985
1071
        1
1040
10.879208532515801
1040
-31.454817789793651
1040
0.0
1002
}
  0
LINE
  5
A21
  8
SAPA_ANSLUTNING
 10
-19.877173350034351
 20
66.019999999997637
 30
0.0
 11
-19.877173350034351
 21
64.519999999997651
 31
0.0
  0
LINE
  5
A45
  8
SAPA_ANSLUTNING
 10
-177.44955902206431
 20
66.119999999997745
 30
0.0
 11
-10.99999999999987
 21
66.119999999997631
 31
0.0
  0
LINE
  5
A4B
  8
SAPA_ANSLUTNING
 10
-8.9771333159515052
 20
67.619999999997617
 30
0.0
 11
-178.94955902206431
 21
67.619999999997717
 31
0.0
  0
INSERT
  5
A93
  8
0
  2
*U24
 10
0.0
 20
0.0
 30
0.0
  0
INSERT
  5
A94
  8
0
  2
*U25
 10
0.0
 20
0.0
 30
0.0
  0
POLYLINE
  5
A96
  8
SAPA_LIGHT
 66
     1
 10
0.0
 20
0.0
 30
0.0
  0
VERTEX
  5
1E1F
  8
SAPA_LIGHT
 10
-24.999999999999119
 20
-24.50046984900883
 30
0.0
  0
VERTEX
  5
1E20
  8
SAPA_LIGHT
 10
-25.000000000001108
 20
35.499530150990161
 30
0.0
  0
VERTEX
  5
1E21
  8
SAPA_LIGHT
 10
-5.0000000000001101
 20
35.499530150990168
 30
0.0
  0
VERTEX
  5
1E22
  8
SAPA_LIGHT
 10
-5.0000000000001013
 20
67.619999999997617
 30
0.0
  0
VERTEX
  5
1E23
  8
SAPA_LIGHT
 10
-21.89767722167198
 20
67.619999999997617
 30
0.0
  0
VERTEX
  5
1E24
  8
SAPA_LIGHT
 10
-21.897677221672001
 20
79.499530150990921
 30
0.0
  0
VERTEX
  5
1E25
  8
SAPA_LIGHT
 10
21.897677221672211
 20
79.499530150990921
 30
0.0
  0
VERTEX
  5
1E26
  8
SAPA_LIGHT
 10
21.897677221672261
 20
67.619999999997646
 30
0.0
  0
VERTEX
  5
1E27
  8
SAPA_LIGHT
 10
5.0
 20
67.619999999997646
 30
0.0
  0
VERTEX
  5
1E28
  8
SAPA_LIGHT
 10
5.0000000000000009
 20
40.859999999997278
 30
0.0
  0
VERTEX
  5
1E29
  8
SAPA_LIGHT
 10
25.000000000001879
 20
40.859999999997292
 30
0.0
  0
VERTEX
  5
1E2A
  8
SAPA_LIGHT
 10
25.000000000001879
 20
-24.50046984900882
 30
0.0
  0
VERTEX
  5
1E2B
  8
SAPA_LIGHT
 10
-24.999999999999119
 20
-24.500469849010472
 30
0.0
  0
SEQEND
  5
1E2C
  8
SAPA_LIGHT
  0
POLYLINE
  5
A97
  8
SAPA_LIGHT
 66
     1
 10
0.0
 20
0.0
 30
0.0
  0
VERTEX
  5
1E2D
  8
SAPA_LIGHT
 10
40.999999999999432
 20
67.619999999997731
 30
0.0
  0
VERTEX
  5
1E2E
  8
SAPA_LIGHT
 10
10.99999999999943
 20
67.619999999997617
 30
0.0
  0
VERTEX
  5
1E2F
  8
SAPA_LIGHT
 10
10.999999999999879
 20
40.859999999997278
 30
0.0
  0
VERTEX
  5
1E30
  8
SAPA_LIGHT
 10
40.999999999999368
 20
40.859999999997633
 30
0.0
  0
SEQEND
  5
1E31
  8
SAPA_LIGHT
  0
LINE
  5
1842
  8
SAPA_ANSLUTNING
 10
-134.05131039818829
 20
-410.39275394744777
 30
0.0
 11
-134.051310398189
 21
-110.9879388742436
 31
0.0
  0
LINE
  5
1845
  8
SAPA_ANSLUTNING
 10
-89.785656323024185
 20
-39.50046984900883
 30
0.0
 11
-89.785656323024298
 21
-450.91582222807079
 31
0.0
  0
ARC
  5
1848
  8
SAPA_ANSLUTNING
 10
-143.97193537434441
 20
-404.04319121150559
 30
0.0
 40
56.915382799938271
 50
274.11294325954242
 51
325.0261378896285
  0
LINE
  5
184C
  8
SAPA_ANSLUTNING
 10
-134.05131039818829
 20
-410.39275394744777
 30
0.0
 11
-203.61488620811301
 21
-410.39275394744789
 31
0.0
  0
LINE
  5
184D
  8
SAPA_ANSLUTNING
 10
-135.05131039818821
 20
-409.39275394744789
 30
0.0
 11
-203.61488620811301
 21
-409.392753947448
 31
0.0
  0
LINE
  5
184E
  8
SAPA_ANSLUTNING
 10
-108.5477647706149
 20
-435.89275394744777
 30
0.0
 11
-203.61488620811301
 21
-435.89275394744777
 31
0.0
  0
LINE
  5
184F
  8
SAPA_ANSLUTNING
 10
-132.04776477061489
 20
-413.89275394744789
 30
0.0
 11
-203.61488620811301
 21
-413.89275394744789
 31
0.0
  0
LINE
  5
1850
  8
SAPA_ANSLUTNING
 10
-132.547764770615
 20
-412.39275394744777
 30
0.0
 11
-203.61488620811289
 21
-412.39275394744789
 31
0.0
  0
LINE
  5
1851
  8
SAPA_ANSLUTNING
  6
DASHDOT
 10
-203.61488620811301
 20
-402.19530240946813
 30
0.0
 11
-203.61488620811301
 21
-448.75991632665131
 31
0.0
  0
LINE
  5
1863
  8
SAPA_ANSLUTNING
 10
-195.04742604303431
 20
-413.2078833434864
 30
0.0
 11
-185.04743131081909
 21
-413.19761905252773
 31
0.0
  0
LINE
  5
1864
  8
SAPA_ANSLUTNING
 10
-195.04819586485621
 20
-412.45788373857022
 30
0.0
 11
-195.0466562212124
 21
-413.95788294840241
 31
0.0
  0
LINE
  5
1865
  8
SAPA_ANSLUTNING
 10
-185.0482011326412
 20
-412.44761944761137
 30
0.0
 11
-185.04666148899719
 21
-413.94761865744368
 31
0.0
  0
LINE
  5
1869
  8
SAPA_ANSLUTNING
 10
-175.04743657860391
 20
-413.18735476156888
 30
0.0
 11
-165.04744184638881
 21
-413.17709047061021
 31
0.0
  0
LINE
  5
186A
  8
SAPA_ANSLUTNING
 10
-175.0482064004259
 20
-412.4373551566527
 30
0.0
 11
-175.04666675678209
 21
-413.9373543664849
 31
0.0
  0
LINE
  5
186B
  8
SAPA_ANSLUTNING
 10
-165.0482116682108
 20
-412.42709086569403
 30
0.0
 11
-165.0466720245669
 21
-413.92709007552628
 31
0.0
  0
LINE
  5
186C
  8
SAPA_ANSLUTNING
 10
-155.04744711417359
 20
-413.16682617965142
 30
0.0
 11
-145.04745238195849
 21
-413.15656188869258
 31
0.0
  0
LINE
  5
186D
  8
SAPA_ANSLUTNING
 10
-155.04821693599561
 20
-412.4168265747353
 30
0.0
 11
-155.04667729235169
 21
-413.91682578456749
 31
0.0
  0
LINE
  5
186E
  8
SAPA_ANSLUTNING
 10
-145.0482222037804
 20
-412.40656228377662
 30
0.0
 11
-145.04668256013659
 21
-413.90656149360882
 31
0.0
  0
ARC
  5
1872
  8
SAPA_ANSLUTNING
 10
-132.04776477061489
 20
-412.39275394744777
 30
0.0
 40
1.5
 50
270.0
 51
0.0
  0
ARC
  5
1873
  8
SAPA_ANSLUTNING
 10
-132.547764770615
 20
-411.89275394744777
 30
0.0
 40
0.5
 50
270.0
 51
0.0
  0
LINE
  5
1874
  8
SAPA_ANSLUTNING
 10
-131.29776477061489
 20
-389.39275394744789
 30
0.0
 11
-131.297764770615
 21
-399.39275394744789
 31
0.0
  0
LINE
  5
1876
  8
SAPA_ANSLUTNING
 10
-132.047764770615
 20
-399.39275394744789
 30
0.0
 11
-130.547764770615
 21
-399.39275394744789
 31
0.0
  0
SOLID
  5
1890
  8
SAPA_ANSLUTNING
 10
-98.336892196404122
 20
-436.24227043469079
 30
0.0
 11
-96.479591343457244
 21
-436.98418251953831
 31
0.0
 12
-95.1825055153883
 22
-431.0413239182738
 32
0.0
 13
-95.1825055153883
 23
-431.0413239182738
 33
0.0
  0
LINE
  5
1894
  8
SAPA_ANSLUTNING
 10
-124.8381493943276
 20
-38.353841568182929
 30
0.0
 11
-116.8381493943277
 21
-38.353841568182929
 31
0.0
  0
ARC
  5
1895
  8
SAPA_ANSLUTNING
 10
-119.44923542065681
 20
-114.5743847222668
 30
0.0
 40
22.120220664451239
 50
16.878722858842561
 51
95.248297243386332
  0
LINE
  5
1896
  8
SAPA_ANSLUTNING
 10
-28.100000000001121
 20
-37.603841568182702
 30
0.0
 11
-171.58252914825761
 21
-37.603841568182467
 31
0.0
  0
LINE
  5
1897
  8
SAPA_ANSLUTNING
 10
-26.60000000000111
 20
-39.103841568182602
 30
0.0
 11
-171.08252914825761
 21
-39.103841568182482
 31
0.0
  0
LINE
  5
1898
  8
SAPA_ANSLUTNING
 10
-171.18445073681221
 20
-39.500469849008709
 30
0.0
 11
25.214343676975769
 21
-39.500469849008716
 31
0.0
  0
ARC
  5
18AF
  8
SAPA_ANSLUTNING
 10
-129.06342124589889
 20
-111.48828228071849
 30
0.0
 40
18.974692890818861
 50
104.1035407848526
 51
155.6794938156799
  0
SOLID
  5
18B2
  8
SAPA_ANSLUTNING
 10
-145.44183730950539
 20
-104.08306686360081
 30
0.0
 11
-147.2666082850705
 21
-103.2644027769725
 31
0.0
 12
-148.810215057173
 22
-109.148047746982
 32
0.0
 13
-148.810215057173
 23
-109.148047746982
 33
0.0
  0
LINE
  5
18B3
  8
SAPA_ANSLUTNING
 10
-132.047764770615
 20
-109.392753947448
 30
0.0
 11
-108.5477647706152
 21
-109.392753947448
 31
0.0
  0
ARC
  5
18B5
  8
SAPA_ANSLUTNING
 10
-136.61704175189641
 20
-111.7273698796577
 30
0.0
 40
2.6701564731612888
 50
16.076718142635091
 51
161.3294793039469
  0
ARC
  5
18B6
  8
SAPA_ANSLUTNING
 10
-136.64080556668611
 20
-111.7059338053454
 30
0.0
 40
1.6432698772667951
 50
14.69818520282775
 51
163.9762431714106
  0
LINE
  5
18B7
  8
SAPA_ANSLUTNING
 10
-139.14668153770839
 20
-110.87258444154941
 30
0.0
 11
-142.00856625138201
 21
-116.9646646653877
 31
0.0
  0
LINE
  5
18B8
  8
SAPA_ANSLUTNING
 10
-142.00856625138201
 20
-116.9646646653877
 30
0.0
 11
-141.1034628947761
 21
-117.3898562855554
 31
0.0
  0
LINE
  5
18B9
  8
SAPA_ANSLUTNING
 10
-141.1034628947761
 20
-117.3898562855554
 30
0.0
 11
-138.22023001256861
 21
-111.25233231804511
 31
0.0
  0
SOLID
  5
18BC
  8
SAPA_ANSLUTNING
 10
-121.4726167891202
 20
-93.546899843557426
 30
0.0
 11
-121.4726167891202
 21
-91.546899843557412
 31
0.0
 12
-127.4726167891202
 22
-92.546899843557398
 32
0.0
 13
-127.4726167891202
 23
-92.546899843557398
 33
0.0
  0
LINE
  5
18BD
  8
SAPA_ANSLUTNING
 10
-171.18445073681221
 20
-39.500469849008709
 30
0.0
 11
-171.18445073681241
 21
-84.500469849008823
 31
0.0
  0
LINE
  5
18BE
  8
SAPA_ANSLUTNING
 10
-173.08252914825761
 20
-39.103841568182482
 30
0.0
 11
-173.08252914825761
 21
-68.787357444661552
 31
0.0
  0
LINE
  5
18BF
  8
SAPA_ANSLUTNING
 10
-171.58252914825761
 20
-39.603841568182482
 30
0.0
 11
-171.58252914825761
 21
-84.680609543857614
 31
0.0
  0
LINE
  5
18C0
  8
SAPA_ANSLUTNING
 10
-173.08252914825761
 20
-82.736830510143022
 30
0.0
 11
-171.58252914825761
 21
-82.736830510143022
 31
0.0
  0
LINE
  5
18C1
  8
SAPA_ANSLUTNING
 10
-171.58252914825761
 20
-73.502913746047398
 30
0.0
 11
-173.08252914825781
 21
-73.502913746047398
 31
0.0
  0
LINE
  5
18C2
  8
SAPA_ANSLUTNING
 10
-172.33252914825781
 20
-73.502913746047398
 30
0.0
 11
-172.33252914825781
 21
-82.736830510143022
 31
0.0
  0
LINE
  5
18C3
  8
SAPA_ANSLUTNING
 10
-142.8381493943277
 20
-38.353841568182929
 30
0.0
 11
-134.83814939432759
 21
-38.353841568182929
 31
0.0
  0
LINE
  5
18C4
  8
SAPA_ANSLUTNING
 10
-172.33252914825781
 20
-40.326233752821622
 30
0.0
 11
-172.33252914825781
 21
-48.326233752821622
 31
0.0
  0
LINE
  5
18C5
  8
SAPA_ANSLUTNING
 10
-171.58252914825761
 20
-48.326233752821622
 30
0.0
 11
-173.08252914825781
 21
-48.326233752821622
 31
0.0
  0
ARC
  5
18C6
  8
SAPA_ANSLUTNING
 10
-171.58252914825761
 20
-39.103841568182482
 30
0.0
 40
1.5
 50
90.0
 51
180.0
  0
ARC
  5
18C7
  8
SAPA_ANSLUTNING
 10
-171.08252914825761
 20
-39.603841568182482
 30
0.0
 40
0.5
 50
90.0
 51
180.0
  0
LINE
  5
18C8
  8
SAPA_ANSLUTNING
 10
-171.58252914825761
 20
-40.326233752821622
 30
0.0
 11
-173.08252914825781
 21
-40.326233752821622
 31
0.0
  0
LINE
  5
18C9
  8
SAPA_ANSLUTNING
 10
-142.8381493943277
 20
-37.603841568182823
 30
0.0
 11
-142.8381493943277
 21
-39.10384156818305
 31
0.0
  0
LINE
  5
18CA
  8
SAPA_ANSLUTNING
 10
-134.83814939432759
 20
-37.603841568182702
 30
0.0
 11
-134.83814939432759
 21
-39.103841568182929
 31
0.0
  0
LINE
  5
18CB
  8
SAPA_ANSLUTNING
 10
-124.8381493943276
 20
-37.603841568182702
 30
0.0
 11
-124.8381493943276
 21
-39.103841568182929
 31
0.0
  0
LINE
  5
18E4
  8
SAPA_ANSLUTNING
 10
-88.838149394327672
 20
-38.353841568182929
 30
0.0
 11
-80.838149394327687
 21
-38.353841568182929
 31
0.0
  0
LINE
  5
18E5
  8
SAPA_ANSLUTNING
 10
-106.8381493943276
 20
-38.353841568182929
 30
0.0
 11
-98.838149394327672
 21
-38.353841568182929
 31
0.0
  0
LINE
  5
18E6
  8
SAPA_ANSLUTNING
 10
-116.8381493943277
 20
-37.603841568182702
 30
0.0
 11
-116.8381493943277
 21
-39.103841568182929
 31
0.0
  0
LINE
  5
18E7
  8
SAPA_ANSLUTNING
 10
-106.8381493943276
 20
-37.603841568182702
 30
0.0
 11
-106.8381493943276
 21
-39.103841568182929
 31
0.0
  0
LINE
  5
18E8
  8
SAPA_ANSLUTNING
 10
-98.838149394327672
 20
-37.603841568182702
 30
0.0
 11
-98.838149394327672
 21
-39.103841568182929
 31
0.0
  0
LINE
  5
18E9
  8
SAPA_ANSLUTNING
 10
-88.838149394327672
 20
-37.603841568182702
 30
0.0
 11
-88.838149394327672
 21
-39.103841568182929
 31
0.0
  0
LINE
  5
18EA
  8
SAPA_ANSLUTNING
 10
-80.838149394327687
 20
-37.603841568182702
 30
0.0
 11
-80.838149394327687
 21
-39.103841568182929
 31
0.0
  0
LINE
  5
18EB
  8
SAPA_ANSLUTNING
 10
-62.838149394327672
 20
-37.603841568182702
 30
0.0
 11
-62.838149394327672
 21
-39.103841568182929
 31
0.0
  0
LINE
  5
18EC
  8
SAPA_ANSLUTNING
 10
-70.838149394327672
 20
-37.603841568182702
 30
0.0
 11
-70.838149394327672
 21
-39.103841568182929
 31
0.0
  0
LINE
  5
18ED
  8
SAPA_ANSLUTNING
 10
-70.838149394327672
 20
-38.353841568182929
 30
0.0
 11
-62.838149394327672
 21
-38.353841568182929
 31
0.0
  0
LINE
  5
18EE
  8
SAPA_ANSLUTNING
 10
-44.838149394327672
 20
-38.353841568182929
 30
0.0
 11
-52.838149394327672
 21
-38.353841568182929
 31
0.0
  0
LINE
  5
18EF
  8
SAPA_ANSLUTNING
 10
-52.838149394327672
 20
-37.603841568182702
 30
0.0
 11
-52.838149394327672
 21
-39.103841568182929
 31
0.0
  0
LINE
  5
18F0
  8
SAPA_ANSLUTNING
 10
-44.838149394327672
 20
-37.603841568182702
 30
0.0
 11
-44.838149394327672
 21
-39.103841568182929
 31
0.0
  0
LINE
  5
18F1
  8
SAPA_ANSLUTNING
 10
-36.597329877559282
 20
-38.353841568182929
 30
0.0
 11
-28.597329877559272
 21
-38.353841568182823
 31
0.0
  0
LINE
  5
18F2
  8
SAPA_ANSLUTNING
 10
-36.597329877559282
 20
-37.603841568182702
 30
0.0
 11
-36.597329877559282
 21
-39.103841568182929
 31
0.0
  0
LINE
  5
1982
  8
SAPA_ANSLUTNING
 10
-160.8381493943277
 20
-38.35384156818305
 30
0.0
 11
-152.83814939432759
 21
-38.35384156818305
 31
0.0
  0
LINE
  5
1983
  8
SAPA_ANSLUTNING
 10
-160.8381493943277
 20
-37.603841568182929
 30
0.0
 11
-160.8381493943277
 21
-39.103841568183157
 31
0.0
  0
LINE
  5
1984
  8
SAPA_ANSLUTNING
 10
-152.83814939432759
 20
-37.603841568182823
 30
0.0
 11
-152.83814939432759
 21
-39.10384156818305
 31
0.0
  0
LINE
  5
1985
  8
SAPA_ANSLUTNING
 10
-28.597329877559279
 20
-37.603841568182702
 30
0.0
 11
-28.597329877559279
 21
-39.103841568182929
 31
0.0
  0
LINE
  5
19A2
  8
SAPA_ANSLUTNING
 10
-171.18445073681241
 20
-84.500469849008695
 30
0.0
 11
-89.785656323024284
 21
-84.500469849008695
 31
0.0
  0
LINE
  5
19AA
  8
SAPA_ANSLUTNING
 10
-173.08252914825761
 20
-39.266328167379129
 30
0.0
 11
-173.08252914825761
 21
-84.659285601773831
 31
0.0
  0
LINE
  5
19AD
  8
SAPA_ANSLUTNING
 10
-171.58252914825761
 20
-56.618715472800659
 30
0.0
 11
-173.08252914825781
 21
-56.618715472800659
 31
0.0
  0
LINE
  5
19AE
  8
SAPA_ANSLUTNING
 62
     1
 10
-173.08252914825761
 20
-65.852632236896397
 30
0.0
 11
-171.58252914825761
 21
-65.852632236896397
 31
0.0
  0
LINE
  5
19AF
  8
SAPA_ANSLUTNING
 10
-172.33252914825781
 20
-56.618715472800659
 30
0.0
 11
-172.33252914825781
 21
-65.852632236896397
 31
0.0
  0
LINE
  5
19E1
  8
SAPA_ANSLUTNING
 10
25.214343676975769
 20
-39.500469849008709
 30
0.0
 11
25.214343676976029
 21
-450.91582222807079
 31
0.0
  0
LINE
  5
1A56
  8
SAPA_ANSLUTNING
 10
-10.99999999999987
 20
66.119999999997631
 30
0.0
 11
-10.99999999999987
 21
67.619999999997617
 31
0.0
  0
LINE
  5
1A5D
  8
SAPA_ANSLUTNING
 10
-16.908276842760049
 20
64.419999999997628
 30
0.0
 11
-25.000000000001108
 21
59.748241456956592
 31
0.0
  0
LINE
  5
1A5E
  8
SAPA_ANSLUTNING
 10
-25.000000000001108
 20
59.748241456956592
 30
0.0
 11
-10.99999999999987
 21
51.665337688301108
 31
0.0
  0
LINE
  5
1A5F
  8
SAPA_ANSLUTNING
 10
-10.99999999999987
 20
51.665337688301108
 30
0.0
 11
-25.000000000001108
 21
43.582433919645617
 31
0.0
  0
LINE
  5
1A60
  8
SAPA_ANSLUTNING
 10
-25.000000000001108
 20
43.582433919645617
 30
0.0
 11
-10.99999999999987
 21
35.499530150990161
 31
0.0
  0
POLYLINE
  5
1A65
  8
SAPA_ANSLUTNING
 66
     1
 10
0.0
 20
0.0
 30
0.0
 70
     1
  0
VERTEX
  5
1E32
  8
SAPA_ANSLUTNING
 10
-25.000000000001108
 20
64.419999999997628
 30
0.0
  0
VERTEX
  5
1E33
  8
SAPA_ANSLUTNING
 10
-25.000000000001108
 20
35.499530150990161
 30
0.0
  0
VERTEX
  5
1E34
  8
SAPA_ANSLUTNING
 10
-10.99999999999987
 20
35.499530150990161
 30
0.0
  0
VERTEX
  5
1E35
  8
SAPA_ANSLUTNING
 10
-10.99999999999987
 20
64.419999999997643
 30
0.0
  0
SEQEND
  5
1E36
  8
SAPA_ANSLUTNING
  0
LINE
  5
1A72
  8
SAPA_ANSLUTNING
 10
-173.08252914825761
 20
-84.659285601773831
 30
0.0
 11
-171.58252914825761
 21
-84.659285601773831
 31
0.0
  0
LINE
  5
1A73
  8
SAPA_ANSLUTNING
 10
-25.10000000000111
 20
64.519999999997637
 30
0.0
 11
-25.10000000000111
 21
-37.603841568182602
 31
0.0
  0
LINE
  5
1A74
  8
SAPA_ANSLUTNING
 10
-25.85000000000111
 20
65.269999999997637
 30
0.0
 11
-25.850000000001121
 21
61.783318930989481
 31
0.0
  0
LINE
  5
1A75
  8
SAPA_ANSLUTNING
 10
-26.600000000001121
 20
66.019999999997637
 30
0.0
 11
-26.600000000001121
 21
-36.103841568182702
 31
0.0
  0
ARC
  5
1A76
  8
SAPA_ANSLUTNING
 10
-28.100000000001121
 20
-36.103841568182702
 30
0.0
 40
1.5
 50
269.99999999999989
 51
0.0
  0
ARC
  5
1A78
  8
SAPA_ANSLUTNING
 10
-26.60000000000111
 20
-37.603841568182602
 30
0.0
 40
1.5
 50
269.99999999999989
 51
0.0
  0
LINE
  5
1A79
  8
SAPA_ANSLUTNING
 10
-26.600000000001121
 20
-29.31550287581922
 30
0.0
 11
-25.10000000000111
 21
-29.31550287581922
 31
0.0
  0
LINE
  5
1A7A
  8
SAPA_ANSLUTNING
 10
-26.600000000001138
 20
-19.31550287581922
 30
0.0
 11
-25.100000000001131
 21
-19.31550287581922
 31
0.0
  0
LINE
  5
1A7B
  8
SAPA_ANSLUTNING
 10
-26.600000000001192
 20
0.6844971241807798
 30
0.0
 11
-25.100000000001181
 21
0.6844971241807834
 31
0.0
  0
LINE
  5
1A7E
  8
SAPA_ANSLUTNING
 10
-26.600000000001209
 20
10.68449712418078
 30
0.0
 11
-25.100000000001209
 21
10.68449712418078
 31
0.0
  0
LINE
  5
1A7F
  8
SAPA_ANSLUTNING
 10
-26.600000000001259
 20
30.68449712418078
 30
0.0
 11
-25.100000000001248
 21
30.68449712418078
 31
0.0
  0
LINE
  5
1A80
  8
SAPA_ANSLUTNING
 10
-26.60000000000128
 20
40.68449712418078
 30
0.0
 11
-25.10000000000128
 21
40.68449712418078
 31
0.0
  0
LINE
  5
1A81
  8
SAPA_ANSLUTNING
 10
-26.600000000001121
 20
61.783318930989481
 30
0.0
 11
-25.100000000001121
 21
61.783318930989481
 31
0.0
  0
LINE
  5
1A82
  8
SAPA_ANSLUTNING
 10
-25.85000000000111
 20
40.684497124180773
 30
0.0
 11
-25.850000000001121
 21
30.68449712418078
 31
0.0
  0
LINE
  5
1A84
  8
SAPA_ANSLUTNING
 10
-182.34955902206431
 20
-234.27154549307809
 30
0.0
 11
-195.37325993454141
 21
-256.85298255572337
 31
0.0
  0
LINE
  5
1A85
  8
SAPA_ANSLUTNING
 10
-195.37325993454141
 20
-256.85298255572337
 30
0.0
 11
-194.30776893137721
 21
-257.46749774851872
 31
0.0
  0
LINE
  5
1A86
  8
SAPA_ANSLUTNING
 10
-194.30776893137721
 20
-257.46749774851872
 30
0.0
 11
-181.1200487960611
 21
-234.6016722633741
 31
0.0
  0
LINE
  5
1A88
  8
SAPA_ANSLUTNING
 10
-181.1200487960611
 20
-86.437873252597797
 30
0.0
 11
-144.18920460019061
 21
-86.437873252597797
 31
0.0
  0
LINE
  5
1A89
  8
SAPA_ANSLUTNING
 10
-144.18920460019061
 20
-86.437873252597797
 30
0.0
 11
-144.18920460019061
 21
-85.207873252597778
 31
0.0
  0
LINE
  5
1A8A
  8
SAPA_ANSLUTNING
 10
-144.18920460019061
 20
-85.207873252597778
 30
0.0
 11
-182.34955902206431
 21
-85.207873252597778
 31
0.0
  0
LINE
  5
1A8B
  8
SAPA_ANSLUTNING
 10
-182.34955902206431
 20
-85.207873252597778
 30
0.0
 11
-182.34955902206431
 21
-234.27154549307809
 31
0.0
  0
LINE
  5
1A8C
  8
SAPA_ANSLUTNING
 10
-194.2211436465671
 20
-257.51745833329869
 30
0.0
 11
-187.98963136143891
 21
-246.7128104519187
 31
0.0
  0
LINE
  5
1A8E
  8
SAPA_ANSLUTNING
 10
-192.92176437441569
 20
-258.2668671050003
 30
0.0
 11
-186.69025208928741
 21
-247.46221922362031
 31
0.0
  0
LINE
  5
1A91
  8
SAPA_ANSLUTNING
 10
-195.52052291871851
 20
-256.76804956159719
 30
0.0
 11
-183.11829478155951
 21
-235.26416706322701
 31
0.0
  0
ARC
  5
1A92
  8
SAPA_ANSLUTNING
 10
-194.87083328264279
 20
-257.142753947448
 30
0.0
 40
0.7499999999999994
 50
150.0260734752886
 51
330.0260734752905
  0
ARC
  5
1A93
  8
SAPA_ANSLUTNING
 10
-194.87083328264279
 20
-257.142753947448
 30
0.0
 40
2.2499999999999991
 50
150.0260734752886
 51
330.0260734752905
  0
LINE
  5
1A94
  8
SAPA_ANSLUTNING
 10
-196.81990219087001
 20
-256.0186407898957
 30
0.0
 11
-184.61829478155951
 21
-234.86260905758809
 31
0.0
  0
LINE
  5
1A95
  8
SAPA_ANSLUTNING
 10
-186.69025208928741
 20
-247.46221922362031
 30
0.0
 11
-187.98963136143891
 21
-246.7128104519187
 31
0.0
  0
LINE
  5
1A96
  8
SAPA_ANSLUTNING
 10
-182.44955902206431
 20
61.119999999997738
 30
0.0
 11
-182.44955902206439
 21
-232.76613782422189
 31
0.0
  0
LINE
  5
1A97
  8
SAPA_ANSLUTNING
 10
-183.94955902206431
 20
62.619999999997717
 30
0.0
 11
-183.94955902206431
 21
-232.364579818583
 31
0.0
  0
ARC
  5
1A98
  8
SAPA_ANSLUTNING
 10
-188.94955902206419
 20
-232.364579818583
 30
0.0
 40
5.0
 50
330.02607347528959
 51
0.0
  0
ARC
  5
1A99
  8
SAPA_ANSLUTNING
 10
-187.44955902206431
 20
-232.76613782422189
 30
0.0
 40
5.0
 50
330.02607347528959
 51
0.0
  0
ARC
  5
1A9A
  8
SAPA_ANSLUTNING
 10
-177.44955902206431
 20
61.119999999997738
 30
0.0
 40
5.0
 50
89.999999999999957
 51
180.0
  0
ARC
  5
1A9B
  8
SAPA_ANSLUTNING
 10
-178.94955902206431
 20
62.619999999997717
 30
0.0
 40
5.0
 50
89.999999999999986
 51
180.0
  0
LINE
  5
1A9C
  8
SAPA_ANSLUTNING
  6
DASHDOT
 10
-92.678353638897534
 20
-450.91582222807079
 30
0.0
 11
30.035901194409242
 21
-450.91582222807079
 31
0.0
  0
LINE
  5
1A9D
  8
SAPA_ANSLUTNING
 10
-25.85000000000111
 20
-19.31550287581921
 30
0.0
 11
-25.850000000001121
 21
-29.315502875819231
 31
0.0
  0
LINE
  5
1A9E
  8
SAPA_ANSLUTNING
 10
-25.850000000001121
 20
10.68449712418078
 30
0.0
 11
-25.85000000000111
 21
0.6844971241807817
 31
0.0
  0
LINE
  5
1AA0
  8
SAPA_ANSLUTNING
 10
-27.039339828221301
 20
-37.164501739962517
 30
0.0
 11
-86.670674710903668
 21
66.119999999997702
 31
0.0
  0
LINE
  5
1AA1
  8
SAPA_ANSLUTNING
 10
-146.30200959358601
 20
-37.164501739962517
 30
0.0
 11
-86.670674710903668
 21
66.119999999997702
 31
0.0
  0
LINE
  5
1AA2
  8
SAPA_ANSLUTNING
 10
-146.30200959358601
 20
-37.164501739962517
 30
0.0
 11
-182.44955902206431
 21
25.444890439269301
 31
0.0
  0
LINE
  5
1AA3
  8
SAPA_ANSLUTNING
 10
-171.58252914825761
 20
-37.603841568182467
 30
0.0
 11
-182.44955902206431
 21
-37.603841568182467
 31
0.0
  0
LINE
  5
1AA9
  8
SAPA_ANSLUTNING
 10
-108.5477647706152
 20
-109.392753947448
 30
0.0
 11
-108.547764770615
 21
-435.89275394744777
 31
0.0
  0
LINE
  5
1AAA
  8
SAPA_ANSLUTNING
 10
-130.547764770615
 20
-109.392753947448
 30
0.0
 11
-130.547764770615
 21
-412.39275394744777
 31
0.0
  0
LINE
  5
1AAB
  8
SAPA_ANSLUTNING
 10
-132.047764770615
 20
-109.392753947448
 30
0.0
 11
-132.047764770615
 21
-411.89275394744777
 31
0.0
  0
LINE
  5
1AAD
  8
SAPA_ANSLUTNING
 10
-135.05131039818821
 20
-111.2889913646483
 30
0.0
 11
-135.05131039818821
 21
-409.39275394744789
 31
0.0
  0
LINE
  5
1AB9
  8
SAPA_ANSLUTNING
 10
-181.1200487960611
 20
-234.60167226337421
 30
0.0
 11
-181.1200487960611
 21
-86.437873252597797
 31
0.0
  0
LINE
  5
1B3B
  8
SAPA_ANSLUTNING
 10
-132.047764770615
 20
-389.39275394744789
 30
0.0
 11
-130.547764770615
 21
-389.39275394744789
 31
0.0
  0
LINE
  5
1B3C
  8
SAPA_ANSLUTNING
 10
-132.047764770615
 20
-369.39275394744789
 30
0.0
 11
-130.547764770615
 21
-369.39275394744789
 31
0.0
  0
LINE
  5
1B3D
  8
SAPA_ANSLUTNING
 10
-132.047764770615
 20
-359.39275394744789
 30
0.0
 11
-130.547764770615
 21
-359.39275394744789
 31
0.0
  0
LINE
  5
1B3E
  8
SAPA_ANSLUTNING
 10
-131.29776477061489
 20
-359.39275394744777
 30
0.0
 11
-131.297764770615
 21
-369.39275394744789
 31
0.0
  0
LINE
  5
1B3F
  8
SAPA_ANSLUTNING
 10
-132.04776477061489
 20
-339.39275394744789
 30
0.0
 11
-130.547764770615
 21
-339.39275394744789
 31
0.0
  0
LINE
  5
1B40
  8
SAPA_ANSLUTNING
 10
-132.04776477061489
 20
-329.39275394744789
 30
0.0
 11
-130.547764770615
 21
-329.39275394744789
 31
0.0
  0
LINE
  5
1B41
  8
SAPA_ANSLUTNING
 10
-131.2977647706148
 20
-329.39275394744777
 30
0.0
 11
-131.297764770615
 21
-339.39275394744789
 31
0.0
  0
LINE
  5
1B42
  8
SAPA_ANSLUTNING
 10
-132.04776477061489
 20
-309.39275394744789
 30
0.0
 11
-130.547764770615
 21
-309.39275394744789
 31
0.0
  0
LINE
  5
1B43
  8
SAPA_ANSLUTNING
 10
-132.04776477061489
 20
-299.39275394744789
 30
0.0
 11
-130.547764770615
 21
-299.39275394744789
 31
0.0
  0
LINE
  5
1B44
  8
SAPA_ANSLUTNING
 10
-131.2977647706148
 20
-299.39275394744777
 30
0.0
 11
-131.297764770615
 21
-309.39275394744789
 31
0.0
  0
LINE
  5
1B45
  8
SAPA_ANSLUTNING
 10
-132.04776477061489
 20
-279.39275394744789
 30
0.0
 11
-130.547764770615
 21
-279.39275394744789
 31
0.0
  0
LINE
  5
1B46
  8
SAPA_ANSLUTNING
 10
-132.04776477061489
 20
-269.39275394744789
 30
0.0
 11
-130.547764770615
 21
-269.39275394744789
 31
0.0
  0
LINE
  5
1B47
  8
SAPA_ANSLUTNING
 10
-131.2977647706148
 20
-269.39275394744777
 30
0.0
 11
-131.297764770615
 21
-279.39275394744789
 31
0.0
  0
LINE
  5
1B48
  8
SAPA_ANSLUTNING
 10
-132.04776477061489
 20
-249.39275394744789
 30
0.0
 11
-130.547764770615
 21
-249.39275394744789
 31
0.0
  0
LINE
  5
1B49
  8
SAPA_ANSLUTNING
 10
-132.04776477061489
 20
-239.39275394744789
 30
0.0
 11
-130.547764770615
 21
-239.39275394744789
 31
0.0
  0
LINE
  5
1B4A
  8
SAPA_ANSLUTNING
 10
-131.2977647706148
 20
-239.39275394744789
 30
0.0
 11
-131.297764770615
 21
-249.39275394744789
 31
0.0
  0
LINE
  5
1B4B
  8
SAPA_ANSLUTNING
 10
-132.047764770615
 20
-219.39275394744789
 30
0.0
 11
-130.547764770615
 21
-219.39275394744789
 31
0.0
  0
LINE
  5
1B4C
  8
SAPA_ANSLUTNING
 10
-132.047764770615
 20
-209.39275394744789
 30
0.0
 11
-130.547764770615
 21
-209.39275394744789
 31
0.0
  0
LINE
  5
1B4D
  8
SAPA_ANSLUTNING
 10
-131.29776477061489
 20
-209.3927539474478
 30
0.0
 11
-131.297764770615
 21
-219.39275394744789
 31
0.0
  0
LINE
  5
1B4E
  8
SAPA_ANSLUTNING
 10
-132.04776477061489
 20
-189.39275394744789
 30
0.0
 11
-130.547764770615
 21
-189.39275394744789
 31
0.0
  0
LINE
  5
1B4F
  8
SAPA_ANSLUTNING
 10
-132.04776477061489
 20
-179.39275394744789
 30
0.0
 11
-130.547764770615
 21
-179.39275394744789
 31
0.0
  0
LINE
  5
1B50
  8
SAPA_ANSLUTNING
 10
-131.2977647706148
 20
-179.3927539474478
 30
0.0
 11
-131.297764770615
 21
-189.39275394744789
 31
0.0
  0
LINE
  5
1B51
  8
SAPA_ANSLUTNING
 10
-132.047764770615
 20
-159.39275394744789
 30
0.0
 11
-130.547764770615
 21
-159.39275394744789
 31
0.0
  0
LINE
  5
1B52
  8
SAPA_ANSLUTNING
 10
-132.047764770615
 20
-149.39275394744789
 30
0.0
 11
-130.547764770615
 21
-149.39275394744789
 31
0.0
  0
LINE
  5
1B53
  8
SAPA_ANSLUTNING
 10
-131.29776477061489
 20
-149.3927539474478
 30
0.0
 11
-131.297764770615
 21
-159.39275394744789
 31
0.0
  0
LINE
  5
1B54
  8
SAPA_ANSLUTNING
 10
-132.04776477061489
 20
-129.39275394744789
 30
0.0
 11
-130.547764770615
 21
-129.39275394744789
 31
0.0
  0
LINE
  5
1B55
  8
SAPA_ANSLUTNING
 10
-132.04776477061489
 20
-119.3927539474479
 30
0.0
 11
-130.547764770615
 21
-119.3927539474479
 31
0.0
  0
LINE
  5
1B56
  8
SAPA_ANSLUTNING
 10
-131.2977647706148
 20
-119.3927539474478
 30
0.0
 11
-131.297764770615
 21
-129.39275394744789
 31
0.0
  0
LINE
  5
1B69
  8
SAPA_ANSLUTNING
 10
-97.989820563692106
 20
-398.78256619361872
 30
0.0
 11
-97.989820563692106
 21
-370.42120655833293
 31
0.0
  0
SOLID
  5
1B6A
  8
SAPA_ANSLUTNING
 10
-98.989820555209278
 20
-370.42107630620188
 30
0.0
 11
-96.989820572174921
 21
-370.42133681046391
 31
0.0
 12
-97.989039050906257
 22
-364.42120660922978
 32
0.0
 13
-97.989039050906257
 23
-364.42120660922978
 33
0.0
  0
LINE
  5
1B6B
  8
SAPA_ANSLUTNING
 10
-97.989820563692106
 20
-288.49757045127609
 30
0.0
 11
-97.989820563692106
 21
-260.13621081599041
 31
0.0
  0
SOLID
  5
1B6C
  8
SAPA_ANSLUTNING
 10
-98.989820555209278
 20
-260.13608056385942
 30
0.0
 11
-96.989820572174921
 21
-260.1363410681214
 31
0.0
 12
-97.989039050906257
 22
-254.1362108668873
 32
0.0
 13
-97.989039050906257
 23
-254.1362108668873
 33
0.0
  0
LINE
  5
1B6D
  8
SAPA_ANSLUTNING
 10
-97.989820563692106
 20
-168.8935707672444
 30
0.0
 11
-97.989820563692106
 21
-140.5322111319586
 31
0.0
  0
SOLID
  5
1B6E
  8
SAPA_ANSLUTNING
 10
-98.989820555209278
 20
-140.53208087982759
 30
0.0
 11
-96.989820572174921
 21
-140.5323413840897
 31
0.0
 12
-97.989039050906257
 22
-134.5322111828556
 32
0.0
 13
-97.989039050906257
 23
-134.5322111828556
 33
0.0
  0
ARC
  5
1C3D
  8
SAPA_FOGBAND
 10
-15.49767722167215
 20
72.47560088161876
 30
0.0
 40
0.1999999999999034
 50
179.9999999999593
 51
269.9999999999755
  0
LINE
  5
1C3E
  8
SAPA_FOGBAND
 10
-15.49767722167223
 20
72.275600881618857
 30
0.0
 11
-10.56814827806272
 21
72.27560088161863
 31
0.0
  0
ARC
  5
1C3F
  8
SAPA_FOGBAND
 10
-10.56814827806242
 20
71.275600881618587
 30
0.0
 40
1.000000000000042
 50
30.345472579278191
 51
90.000000000017309
  0
LINE
  5
1C40
  8
SAPA_FOGBAND
 10
-9.7051534157743617
 20
71.78081357708902
 30
0.0
 11
-6.8548302379562074
 21
67.693043485127191
 31
0.0
  0
ARC
  5
1C41
  8
SAPA_FOGBAND
 10
-7.717825100244589
 20
67.18783078965869
 30
0.0
 40
0.9999999999993461
 50
18.241841344461911
 51
30.345472579173251
  0
ARC
  5
1C42
  8
SAPA_FOGBAND
 10
-8.1191139771414527
 20
67.123404433072864
 30
0.0
 40
1.402769144204522
 50
321.85707667742997
 51
15.609435779333349
  0
ARC
  5
1C43
  8
SAPA_FOGBAND
 10
-7.1663218404448576
 20
66.388797465498669
 30
0.0
 40
0.2000000000000631
 50
225.8162306007498
 51
318.78447689251209
  0
LINE
  5
1C44
  8
SAPA_FOGBAND
 10
-7.305714238504037
 20
66.245375851495282
 30
0.0
 11
-10.8587601907169
 21
68.484597134760165
 31
0.0
  0
ARC
  5
1C45
  8
SAPA_FOGBAND
 10
-11.56397243751327
 20
67.775600881618843
 30
0.0
 40
1.000000000000016
 50
45.153306302306177
 51
89.999999999992568
  0
LINE
  5
1C46
  8
SAPA_FOGBAND
 10
-11.56397243751314
 20
68.775600881618857
 30
0.0
 11
-11.68263042392925
 21
68.775600881619084
 31
0.0
  0
ARC
  5
1C47
  8
SAPA_FOGBAND
 10
-11.68263042392925
 20
67.775600881618942
 30
0.0
 40
1.0000000000001421
 50
90.000000000000099
 51
137.1058587459728
  0
LINE
  5
1C48
  8
SAPA_FOGBAND
 10
-12.415242925595861
 20
68.456246841279381
 30
0.0
 11
-16.362753589753879
 21
67.835613553438179
 31
0.0
  0
LINE
  5
1C49
  8
SAPA_FOGBAND
 10
-16.362753589753879
 20
67.835613553438179
 30
0.0
 11
-16.91559561902465
 21
68.199145223693677
 31
0.0
  0
LINE
  5
1C4A
  8
SAPA_FOGBAND
 10
-16.91559561902465
 20
68.199145223693677
 30
0.0
 11
-13.60502981593924
 21
69.196621937978989
 31
0.0
  0
ARC
  5
1C4B
  8
SAPA_FOGBAND
 10
-13.859110661957301
 20
69.356130319222061
 30
0.0
 40
0.3000000000000584
 50
327.87997593855079
 51
96.952957468205923
  0
LINE
  5
1C4C
  8
SAPA_FOGBAND
 10
-13.895426974550791
 20
69.653924082487265
 30
0.0
 11
-16.733993534265551
 21
69.307757428863624
 31
0.0
  0
ARC
  5
1C4D
  8
SAPA_FOGBAND
 10
-16.69767722167235
 20
69.009963665598576
 30
0.0
 40
0.2999999999998775
 50
96.952957468155304
 51
179.99999999998369
  0
LINE
  5
1C4E
  8
SAPA_FOGBAND
 10
-16.99767722167223
 20
69.009963665598661
 30
0.0
 11
-16.99767722167223
 21
68.775600881618857
 31
0.0
  0
ARC
  5
1C4F
  8
SAPA_FOGBAND
 10
-17.297677221672188
 20
68.775600881619084
 30
0.0
 40
0.2999999999999545
 50
269.99999999995657
 51
359.99999999995657
  0
LINE
  5
1C50
  8
SAPA_FOGBAND
 10
-17.297677221672409
 20
68.475600881619116
 30
0.0
 11
-21.849398302582241
 21
68.475600881619116
 31
0.0
  0
LINE
  5
1C51
  8
SAPA_FOGBAND
 10
-21.849398302582241
 20
68.475600881619116
 30
0.0
 11
-28.17668642685101
 21
67.953905543507403
 31
0.0
  0
LINE
  5
1C52
  8
SAPA_FOGBAND
 10
-28.17668642685101
 20
67.953905543507403
 30
0.0
 11
-28.17668642685101
 21
67.953905543507403
 31
0.0
  0
LINE
  5
1C53
  8
SAPA_FOGBAND
 10
-28.17668642685101
 20
67.953905543507403
 30
0.0
 11
-28.764575565110931
 21
68.370228266410095
 31
0.0
  0
ARC
  5
1C54
  8
SAPA_FOGBAND
 10
-50.267652146792223
 20
71.367330644000575
 30
0.0
 40
21.710940217766002
 50
352.06522376247909
 51
355.36966433173939
  0
LINE
  5
1C55
  8
SAPA_FOGBAND
 10
-28.62757042739884
 20
69.61467884818228
 30
0.0
 11
-23.49767722167223
 21
71.275600881619084
 31
0.0
  0
LINE
  5
1C56
  8
SAPA_FOGBAND
 10
-23.49767722167223
 20
71.275600881619084
 30
0.0
 11
-23.49767722167223
 21
73.125600881618993
 31
0.0
  0
ARC
  5
1C57
  8
SAPA_FOGBAND
 10
-23.34767722167215
 20
73.125600881618993
 30
0.0
 40
0.1500000000000838
 50
89.999999999997286
 51
180.0
  0
LINE
  5
1C58
  8
SAPA_FOGBAND
 10
-23.347677221672139
 20
73.275600881619084
 30
0.0
 11
-22.231486297671719
 21
73.275600881618857
 31
0.0
  0
ARC
  5
1C59
  8
SAPA_FOGBAND
 10
-22.231486297671779
 20
73.125600881619121
 30
0.0
 40
0.1499999999997357
 50
6.5302153218177406
 51
89.999999999976936
  0
LINE
  5
1C5A
  8
SAPA_FOGBAND
 10
-22.082459494817499
 20
73.142659956358102
 30
0.0
 11
-21.998425105436471
 21
72.408541806879839
 31
0.0
  0
ARC
  5
1C5B
  8
SAPA_FOGBAND
 10
-21.84939830258196
 20
72.425600881619076
 30
0.0
 40
0.1499999999999871
 50
186.5302153219049
 51
270.00000000006378
  0
LINE
  5
1C5C
  8
SAPA_FOGBAND
 10
-21.84939830258179
 20
72.275600881619084
 30
0.0
 11
-18.49767722167223
 21
72.275600881619084
 31
0.0
  0
ARC
  5
1C5D
  8
SAPA_FOGBAND
 10
-18.497677221671999
 20
72.47560088161913
 30
0.0
 40
0.2000000000000455
 50
269.99999999993491
 51
359.99999999993491
  0
LINE
  5
1C5E
  8
SAPA_FOGBAND
 10
-18.297677221671961
 20
72.475600881618902
 30
0.0
 11
-18.297677221672409
 21
73.275600881618857
 31
0.0
  0
ARC
  5
1C5F
  8
SAPA_FOGBAND
 10
-18.09767722167226
 20
73.275600881618743
 30
0.0
 40
0.2000000000001592
 50
89.999999999967429
 51
179.9999999999674
  0
LINE
  5
1C60
  8
SAPA_FOGBAND
 10
-18.097677221672139
 20
73.475600881618902
 30
0.0
 11
-17.697677221672048
 21
73.475600881618902
 31
0.0
  0
ARC
  5
1C61
  8
SAPA_FOGBAND
 10
-17.697677221672141
 20
73.675600881618806
 30
0.0
 40
0.1999999999999034
 50
270.00000000002439
 51
0.0000000000407111
  0
LINE
  5
1C62
  8
SAPA_FOGBAND
 10
-17.49767722167223
 20
73.675600881618934
 30
0.0
 11
-17.49767722167223
 21
74.747199689960325
 31
0.0
  0
ARC
  5
1C63
  8
SAPA_FOGBAND
 10
-17.597677221672232
 20
74.747199689960382
 30
0.0
 40
0.0999999999999979
 50
359.99999999996749
 51
140.55544447107189
  0
LINE
  5
1C64
  8
SAPA_FOGBAND
 10
-17.674901196435599
 20
74.810732812988817
 30
0.0
 11
-18.488781322618589
 21
73.821468389505299
 31
0.0
  0
ARC
  5
1C65
  8
SAPA_FOGBAND
 10
-18.797677221672171
 20
74.075600881618925
 30
0.0
 40
0.4000000000000154
 50
140.55544447109861
 51
320.55544447109361
  0
LINE
  5
1C66
  8
SAPA_FOGBAND
 10
-19.106573120725781
 20
74.329733373732552
 30
0.0
 11
-17.962976906214749
 21
75.719764919474073
 31
0.0
  0
ARC
  5
1C67
  8
SAPA_FOGBAND
 10
-16.99767722167244
 20
74.925600881619118
 30
0.0
 40
1.249999999999827
 50
89.999999999990564
 51
140.55544447109551
  0
ARC
  5
1C68
  8
SAPA_FOGBAND
 10
-16.997677221672031
 20
74.925600881619133
 30
0.0
 40
1.249999999999815
 50
39.444555528904012
 51
90.000000000009436
  0
LINE
  5
1C69
  8
SAPA_FOGBAND
 10
-16.032377537129719
 20
75.719764919474073
 30
0.0
 11
-14.88878132261868
 21
74.329733373732552
 31
0.0
  0
ARC
  5
1C6A
  8
SAPA_FOGBAND
 10
-15.19767722167229
 20
74.075600881618925
 30
0.0
 40
0.4000000000000138
 50
219.44455552890639
 51
39.444555528901319
  0
LINE
  5
1C6B
  8
SAPA_FOGBAND
 10
-15.50657312072587
 20
73.821468389505299
 30
0.0
 11
-16.320453246908869
 21
74.810732812988817
 31
0.0
  0
ARC
  5
1C6C
  8
SAPA_FOGBAND
 10
-16.397677221672229
 20
74.747199689960382
 30
0.0
 40
0.099999999999997
 50
39.44455552892807
 51
180.00000000003249
  0
LINE
  5
1C6D
  8
SAPA_FOGBAND
 10
-16.49767722167223
 20
74.747199689960325
 30
0.0
 11
-16.49767722167223
 21
73.675600881619175
 31
0.0
  0
ARC
  5
1C6E
  8
SAPA_FOGBAND
 10
-16.29767722167227
 20
73.675600881619076
 30
0.0
 40
0.1999999999999602
 50
179.99999999997561
 51
269.9999999999593
  0
LINE
  5
1C6F
  8
SAPA_FOGBAND
 10
-16.297677221672409
 20
73.475600881619116
 30
0.0
 11
-15.897677221672319
 21
73.475600881618902
 31
0.0
  0
ARC
  5
1C70
  8
SAPA_FOGBAND
 10
-15.89767722167209
 20
73.275600881618857
 30
0.0
 40
0.2000000000000455
 50
0.0000000000651378
 51
90.000000000065128
  0
LINE
  5
1C71
  8
SAPA_FOGBAND
 10
-15.69767722167205
 20
73.275600881619084
 30
0.0
 11
-15.69767722167205
 21
72.475600881618902
 31
0.0
  0
POLYLINE
  5
1CFB
  8
SAPA_PROFIL
 66
     1
 10
0.0
 20
0.0
 30
0.0
 70
     1
  0
VERTEX
  5
2191
  8
SAPA_PROFIL
 10
-22.029836446936429
 20
78.747573217873509
 30
0.0
 42
0.5773502691895968
  0
VERTEX
  5
2192
  8
SAPA_PROFIL
 10
-22.02983644693597
 20
77.119445458758804
 30
0.0
  0
VERTEX
  5
2193
  8
SAPA_PROFIL
 10
-21.17596189432334
 20
76.626460740703763
 30
0.0
  0
VERTEX
  5
2194
  8
SAPA_PROFIL
 10
-22.300000000000072
 20
74.679569632028205
 30
0.0
  0
VERTEX
  5
2195
  8
SAPA_PROFIL
 10
-23.5
 20
74.679569632028205
 30
0.0
 42
0.4142135623729286
  0
VERTEX
  5
2196
  8
SAPA_PROFIL
 10
-23.800000000000072
 20
74.379569632028364
 30
0.0
  0
VERTEX
  5
2197
  8
SAPA_PROFIL
 10
-23.800000000000072
 20
73.979569632028273
 30
0.0
 42
0.4142135623732059
  0
VERTEX
  5
2198
  8
SAPA_PROFIL
 10
-23.5
 20
73.679569632028205
 30
0.0
  0
VERTEX
  5
2199
  8
SAPA_PROFIL
 10
-22.197677221672169
 20
73.679569632028546
 30
0.0
 42
-0.4142135623731506
  0
VERTEX
  5
219A
  8
SAPA_PROFIL
 10
-21.89767722167198
 20
73.379569632028478
 30
0.0
  0
VERTEX
  5
219B
  8
SAPA_PROFIL
 10
-21.89767722167198
 20
72.799530150991217
 30
0.0
 42
0.4142135623730951
  0
VERTEX
  5
219C
  8
SAPA_PROFIL
 10
-21.597677221672029
 20
72.499530150991149
 30
0.0
  0
VERTEX
  5
219D
  8
SAPA_PROFIL
 10
-19.189932926424831
 20
72.499530150991149
 30
0.0
  0
VERTEX
  5
219E
  8
SAPA_PROFIL
 10
-18.611293205911242
 20
72.958313389153631
 30
0.0
 42
0.7105995015649727
  0
VERTEX
  5
219F
  8
SAPA_PROFIL
 10
-18.797677221672071
 20
73.493389969588378
 30
0.0
  0
VERTEX
  5
21A0
  8
SAPA_PROFIL
 10
-19.497677221671889
 20
73.493389969588378
 30
0.0
  0
VERTEX
  5
21A1
  8
SAPA_PROFIL
 10
-19.49767722167201
 20
76.199530150990853
 30
0.0
 42
-0.4142135623731506
  0
VERTEX
  5
21A2
  8
SAPA_PROFIL
 10
-19.197677221671938
 20
76.499530150990921
 30
0.0
  0
VERTEX
  5
21A3
  8
SAPA_PROFIL
 10
-14.7976772216723
 20
76.499530150991021
 30
0.0
 42
-0.4142135623730951
  0
VERTEX
  5
21A4
  8
SAPA_PROFIL
 10
-14.49767722167212
 20
76.199530150990952
 30
0.0
  0
VERTEX
  5
21A5
  8
SAPA_PROFIL
 10
-14.49767722167212
 20
73.493389969588364
 30
0.0
  0
VERTEX
  5
21A6
  8
SAPA_PROFIL
 10
-15.19767722167194
 20
73.493389969588478
 30
0.0
 42
0.7105995015650586
  0
VERTEX
  5
21A7
  8
SAPA_PROFIL
 10
-15.38406123743289
 20
72.958313389153844
 30
0.0
  0
VERTEX
  5
21A8
  8
SAPA_PROFIL
 10
-14.80542151691907
 20
72.499530150990921
 30
0.0
  0
VERTEX
  5
21A9
  8
SAPA_PROFIL
 10
-6.3500000000000218
 20
72.499530150991021
 30
0.0
  0
VERTEX
  5
21AA
  8
SAPA_PROFIL
 10
-6.3500000000000218
 20
71.499530150991021
 30
0.0
  0
VERTEX
  5
21AB
  8
SAPA_PROFIL
 10
-5.3500000000000218
 20
71.499530150991021
 30
0.0
  0
VERTEX
  5
21AC
  8
SAPA_PROFIL
 10
-5.3500000000000218
 20
72.499530150991021
 30
0.0
  0
VERTEX
  5
21AD
  8
SAPA_PROFIL
 10
-2.4000000000000901
 20
72.499530150991021
 30
0.0
  0
VERTEX
  5
21AE
  8
SAPA_PROFIL
 10
-2.4000000000000901
 20
73.499530150991021
 30
0.0
  0
VERTEX
  5
21AF
  8
SAPA_PROFIL
 10
-0.5000000000002274
 20
73.499530150990907
 30
0.0
  0
VERTEX
  5
21B0
  8
SAPA_PROFIL
 10
0.0
 20
73.999530150990793
 30
0.0
  0
VERTEX
  5
21B1
  8
SAPA_PROFIL
 10
0.5000000000003411
 20
73.499530150990907
 30
0.0
  0
VERTEX
  5
21B2
  8
SAPA_PROFIL
 10
2.400000000000087
 20
73.499530150990907
 30
0.0
  0
VERTEX
  5
21B3
  8
SAPA_PROFIL
 10
2.400000000000087
 20
72.499530150991021
 30
0.0
  0
VERTEX
  5
21B4
  8
SAPA_PROFIL
 10
5.350000000000132
 20
72.499530150991021
 30
0.0
  0
VERTEX
  5
21B5
  8
SAPA_PROFIL
 10
5.350000000000132
 20
71.499530150991021
 30
0.0
  0
VERTEX
  5
21B6
  8
SAPA_PROFIL
 10
6.350000000000132
 20
71.499530150991021
 30
0.0
  0
VERTEX
  5
21B7
  8
SAPA_PROFIL
 10
6.350000000000132
 20
72.499530150991021
 30
0.0
  0
VERTEX
  5
21B8
  8
SAPA_PROFIL
 10
14.80542151691929
 20
72.499530150990907
 30
0.0
  0
VERTEX
  5
21B9
  8
SAPA_PROFIL
 10
15.384061237433
 20
72.958313389153844
 30
0.0
 42
0.7105995015650586
  0
VERTEX
  5
21BA
  8
SAPA_PROFIL
 10
15.19767722167216
 20
73.493389969588478
 30
0.0
  0
VERTEX
  5
21BB
  8
SAPA_PROFIL
 10
14.49767722167234
 20
73.493389969588364
 30
0.0
  0
VERTEX
  5
21BC
  8
SAPA_PROFIL
 10
14.497677221672349
 20
76.199530150990952
 30
0.0
 42
-0.4142135623730951
  0
VERTEX
  5
21BD
  8
SAPA_PROFIL
 10
14.79767722167241
 20
76.499530150991021
 30
0.0
  0
VERTEX
  5
21BE
  8
SAPA_PROFIL
 10
19.197677221672159
 20
76.499530150990907
 30
0.0
 42
-0.4142135623731506
  0
VERTEX
  5
21BF
  8
SAPA_PROFIL
 10
19.49767722167212
 20
76.199530150990839
 30
0.0
  0
VERTEX
  5
21C0
  8
SAPA_PROFIL
 10
19.49767722167201
 20
73.493389969588364
 30
0.0
  0
VERTEX
  5
21C1
  8
SAPA_PROFIL
 10
18.797677221672188
 20
73.493389969588478
 30
0.0
 42
0.7105995015649949
  0
VERTEX
  5
21C2
  8
SAPA_PROFIL
 10
18.611293205911348
 20
72.958313389153616
 30
0.0
  0
VERTEX
  5
21C3
  8
SAPA_PROFIL
 10
19.189932926424941
 20
72.499530150991134
 30
0.0
  0
VERTEX
  5
21C4
  8
SAPA_PROFIL
 10
21.597677221672139
 20
72.499530150991134
 30
0.0
 42
0.4142135623730951
  0
VERTEX
  5
21C5
  8
SAPA_PROFIL
 10
21.897677221672211
 20
72.799530150991203
 30
0.0
  0
VERTEX
  5
21C6
  8
SAPA_PROFIL
 10
21.897677221672211
 20
73.379569632028463
 30
0.0
 42
-0.4142135623731506
  0
VERTEX
  5
21C7
  8
SAPA_PROFIL
 10
22.197677221672279
 20
73.679569632028532
 30
0.0
  0
VERTEX
  5
21C8
  8
SAPA_PROFIL
 10
23.500000000000231
 20
73.679569632028191
 30
0.0
 42
0.414213562373206
  0
VERTEX
  5
21C9
  8
SAPA_PROFIL
 10
23.800000000000178
 20
73.979569632028259
 30
0.0
  0
VERTEX
  5
21CA
  8
SAPA_PROFIL
 10
23.800000000000178
 20
74.37956963202835
 30
0.0
 42
0.4142135623729286
  0
VERTEX
  5
21CB
  8
SAPA_PROFIL
 10
23.500000000000231
 20
74.679569632028191
 30
0.0
  0
VERTEX
  5
21CC
  8
SAPA_PROFIL
 10
22.300000000000178
 20
74.679569632028191
 30
0.0
  0
VERTEX
  5
21CD
  8
SAPA_PROFIL
 10
21.17596189432356
 20
76.626460740703763
 30
0.0
  0
VERTEX
  5
21CE
  8
SAPA_PROFIL
 10
22.029836446936091
 20
77.11944545875879
 30
0.0
 42
0.5773502691896019
  0
VERTEX
  5
21CF
  8
SAPA_PROFIL
 10
22.029836446936539
 20
78.747573217873494
 30
0.0
  0
VERTEX
  5
21D0
  8
SAPA_PROFIL
 10
20.959459605575152
 20
79.365555560118025
 30
0.0
 42
0.1316524948697527
  0
VERTEX
  5
21D1
  8
SAPA_PROFIL
 10
20.459459614829029
 20
79.499530150990907
 30
0.0
  0
VERTEX
  5
21D2
  8
SAPA_PROFIL
 10
-20.459459614828798
 20
79.499530150990921
 30
0.0
 42
0.1316524948697533
  0
VERTEX
  5
21D3
  8
SAPA_PROFIL
 10
-20.959459605575042
 20
79.365555560118054
 30
0.0
  0
SEQEND
  5
21D4
  8
SAPA_PROFIL
  0
POLYLINE
  5
1CFC
  8
SAPA_PROFIL
 62
     4
 66
     1
 10
0.0
 20
0.0
 30
0.0
 70
     1
  0
VERTEX
  5
21D5
  8
SAPA_PROFIL
 62
     4
 10
-1.1499999999999631
 20
48.849530150991079
 30
0.0
  0
VERTEX
  5
21D6
  8
SAPA_PROFIL
 62
     4
 10
-1.1499999999999631
 20
46.649530150991033
 30
0.0
 42
1.0
  0
VERTEX
  5
21D7
  8
SAPA_PROFIL
 62
     4
 10
1.149999999999991
 20
46.649530150991033
 30
0.0
  0
VERTEX
  5
21D8
  8
SAPA_PROFIL
 62
     4
 10
1.1500000000001049
 20
48.849530150991079
 30
0.0
 42
1.0
  0
SEQEND
  5
21D9
  8
SAPA_PROFIL
 62
     4
  0
POLYLINE
  5
1CFD
  8
SAPA_PROFIL
 62
     4
 66
     1
 10
0.0
 20
0.0
 30
0.0
 70
     1
  0
VERTEX
  5
21DA
  8
SAPA_PROFIL
 62
     4
 10
-3.9999999999999849
 20
63.999530150991063
 30
0.0
  0
VERTEX
  5
21DB
  8
SAPA_PROFIL
 62
     4
 10
-3.9999999999999849
 20
67.050362300027302
 30
0.0
  0
VERTEX
  5
21DC
  8
SAPA_PROFIL
 62
     4
 10
-3.9999999999999849
 20
70.378209807431404
 30
0.0
 42
-0.6681786379192966
  0
VERTEX
  5
21DD
  8
SAPA_PROFIL
 62
     4
 10
-3.146446609406766
 20
70.731763198024623
 30
0.0
  0
VERTEX
  5
21DE
  8
SAPA_PROFIL
 62
     4
 10
-1.0000000116217931
 20
68.585316590261513
 30
0.0
 42
0.1989123679837333
  0
VERTEX
  5
21DF
  8
SAPA_PROFIL
 62
     4
 10
-0.2928932287916837
 20
68.29242336980451
 30
0.0
  0
VERTEX
  5
21E0
  8
SAPA_PROFIL
 62
     4
 10
0.2928932088352525
 20
68.29242336980451
 30
0.0
 42
0.1989123667755704
  0
VERTEX
  5
21E1
  8
SAPA_PROFIL
 62
     4
 10
0.9999999883782209
 20
68.585316586974386
 30
0.0
  0
VERTEX
  5
21E2
  8
SAPA_PROFIL
 62
     4
 10
3.146446609406794
 20
70.731763198024623
 30
0.0
 42
-0.6681786379192936
  0
VERTEX
  5
21E3
  8
SAPA_PROFIL
 62
     4
 10
4.0
 20
70.378209807431404
 30
0.0
  0
VERTEX
  5
21E4
  8
SAPA_PROFIL
 62
     4
 10
4.0
 20
67.050362300027302
 30
0.0
  0
VERTEX
  5
21E5
  8
SAPA_PROFIL
 62
     4
 10
4.0000000000000142
 20
63.999530150991063
 30
0.0
 42
-0.4142135623730951
  0
VERTEX
  5
21E6
  8
SAPA_PROFIL
 62
     4
 10
3.5000000000000142
 20
63.49953015099107
 30
0.0
  0
VERTEX
  5
21E7
  8
SAPA_PROFIL
 62
     4
 10
-3.4999999999999849
 20
63.49953015099107
 30
0.0
 42
-0.4142135623730951
  0
SEQEND
  5
21E8
  8
SAPA_PROFIL
 62
     4
  0
POLYLINE
  5
1CFE
  8
SAPA_PROFIL
 62
     4
 66
     1
 10
0.0
 20
0.0
 30
0.0
 70
     1
  0
VERTEX
  5
21E9
  8
SAPA_PROFIL
 62
     4
 10
2.5857864376267941
 20
53.459530150991071
 30
0.0
  0
VERTEX
  5
21EA
  8
SAPA_PROFIL
 62
     4
 10
1.1465310628469889
 20
52.060274776211031
 30
0.0
 42
-0.9251773977986363
  0
VERTEX
  5
21EB
  8
SAPA_PROFIL
 62
     4
 10
-1.146531062846847
 20
52.060274776211031
 30
0.0
  0
VERTEX
  5
21EC
  8
SAPA_PROFIL
 62
     4
 10
-2.5857864376267652
 20
53.459530150991071
 30
0.0
  0
VERTEX
  5
21ED
  8
SAPA_PROFIL
 62
     4
 10
-3.4999999999999849
 20
53.459530150991071
 30
0.0
 42
-0.4142135623730769
  0
VERTEX
  5
21EE
  8
SAPA_PROFIL
 62
     4
 10
-3.9999999999999849
 20
53.959530150991071
 30
0.0
  0
VERTEX
  5
21EF
  8
SAPA_PROFIL
 62
     4
 10
-3.9999999999999849
 20
61.999530150991063
 30
0.0
 42
-0.4142135623730951
  0
VERTEX
  5
21F0
  8
SAPA_PROFIL
 62
     4
 10
-3.4999999999999849
 20
62.499530150991063
 30
0.0
  0
VERTEX
  5
21F1
  8
SAPA_PROFIL
 62
     4
 10
3.5000000000000142
 20
62.499530150991063
 30
0.0
 42
-0.4142135623730951
  0
VERTEX
  5
21F2
  8
SAPA_PROFIL
 62
     4
 10
4.0000000000000142
 20
61.999530150991063
 30
0.0
  0
VERTEX
  5
21F3
  8
SAPA_PROFIL
 62
     4
 10
4.0000000000000142
 20
53.959530150991071
 30
0.0
 42
-0.4142135623730951
  0
VERTEX
  5
21F4
  8
SAPA_PROFIL
 62
     4
 10
3.5000000000000142
 20
53.459530150991071
 30
0.0
  0
SEQEND
  5
21F5
  8
SAPA_PROFIL
 62
     4
  0
POLYLINE
  5
1CFF
  8
SAPA_PROFIL
 62
     4
 66
     1
 10
0.0
 20
0.0
 30
0.0
 70
     1
  0
VERTEX
  5
21F6
  8
SAPA_PROFIL
 62
     4
 10
-4.9999999999998721
 20
54.109530150991048
 30
0.0
 42
-1.0
  0
VERTEX
  5
21F7
  8
SAPA_PROFIL
 62
     4
 10
-6.2999999999999403
 20
54.109530150991048
 30
0.0
  0
VERTEX
  5
21F8
  8
SAPA_PROFIL
 62
     4
 10
-6.2999999999999403
 20
54.959530150991071
 30
0.0
  0
VERTEX
  5
21F9
  8
SAPA_PROFIL
 62
     4
 10
-6.2499999999998721
 20
54.959530150991071
 30
0.0
 42
1.0
  0
VERTEX
  5
21FA
  8
SAPA_PROFIL
 62
     4
 10
-6.2499999999998721
 20
55.459530150991071
 30
0.0
  0
VERTEX
  5
21FB
  8
SAPA_PROFIL
 62
     4
 10
-6.6999999999999167
 20
55.459530150991071
 30
0.0
 42
0.4142135623730951
  0
VERTEX
  5
21FC
  8
SAPA_PROFIL
 62
     4
 10
-6.9999999999998721
 20
55.159530150991003
 30
0.0
  0
VERTEX
  5
21FD
  8
SAPA_PROFIL
 62
     4
 10
-6.9999999999998721
 20
53.459530150991071
 30
0.0
 42
0.4225789089359373
  0
VERTEX
  5
21FE
  8
SAPA_PROFIL
 62
     4
 10
-5.9999999999998721
 20
52.499530150990942
 30
0.0
  0
VERTEX
  5
21FF
  8
SAPA_PROFIL
 62
     4
 10
-2.9999999999998721
 20
52.499530150990942
 30
0.0
  0
VERTEX
  5
2200
  8
SAPA_PROFIL
 62
     4
 10
-2.1499999999999631
 20
51.649530150991041
 30
0.0
  0
VERTEX
  5
2201
  8
SAPA_PROFIL
 62
     4
 10
-2.1499999999999631
 20
45.499530150991063
 30
0.0
 42
0.4142135623730951
  0
VERTEX
  5
2202
  8
SAPA_PROFIL
 62
     4
 10
-1.1499999999999631
 20
44.499530150991063
 30
0.0
  0
VERTEX
  5
2203
  8
SAPA_PROFIL
 62
     4
 10
1.149999999999991
 20
44.499530150991063
 30
0.0
 42
0.4142135623730951
  0
VERTEX
  5
2204
  8
SAPA_PROFIL
 62
     4
 10
2.149999999999991
 20
45.499530150991063
 30
0.0
  0
VERTEX
  5
2205
  8
SAPA_PROFIL
 62
     4
 10
2.149999999999991
 20
51.649530150990927
 30
0.0
  0
VERTEX
  5
2206
  8
SAPA_PROFIL
 62
     4
 10
3.0000000000000142
 20
52.499530150990942
 30
0.0
  0
VERTEX
  5
2207
  8
SAPA_PROFIL
 62
     4
 10
6.0000000000000142
 20
52.499530150990942
 30
0.0
 42
0.4225789089359373
  0
VERTEX
  5
2208
  8
SAPA_PROFIL
 62
     4
 10
7.0000000000000284
 20
53.459530150991071
 30
0.0
  0
VERTEX
  5
2209
  8
SAPA_PROFIL
 62
     4
 10
7.0000000000000284
 20
55.159530150991003
 30
0.0
 42
0.4142135623730951
  0
VERTEX
  5
220A
  8
SAPA_PROFIL
 62
     4
 10
6.6999999999999451
 20
55.459530150991071
 30
0.0
  0
VERTEX
  5
220B
  8
SAPA_PROFIL
 62
     4
 10
6.2500000000000142
 20
55.459530150991071
 30
0.0
 42
1.0
  0
VERTEX
  5
220C
  8
SAPA_PROFIL
 62
     4
 10
6.2500000000000142
 20
54.959530150991071
 30
0.0
  0
VERTEX
  5
220D
  8
SAPA_PROFIL
 62
     4
 10
6.3000000000000824
 20
54.959530150991071
 30
0.0
  0
VERTEX
  5
220E
  8
SAPA_PROFIL
 62
     4
 10
6.3000000000000824
 20
54.109530150991048
 30
0.0
 42
-1.0
  0
VERTEX
  5
220F
  8
SAPA_PROFIL
 62
     4
 10
5.0000000000000142
 20
54.109530150991048
 30
0.0
  0
VERTEX
  5
2210
  8
SAPA_PROFIL
 62
     4
 10
5.0
 20
67.050362300027302
 30
0.0
  0
VERTEX
  5
2211
  8
SAPA_PROFIL
 62
     4
 10
5.0
 20
72.499530150991063
 30
0.0
  0
VERTEX
  5
2212
  8
SAPA_PROFIL
 62
     4
 10
3.5000000000000142
 20
72.499530150991063
 30
0.0
  0
VERTEX
  5
2213
  8
SAPA_PROFIL
 62
     4
 10
0.353553390593234
 20
69.353083541584283
 30
0.0
 42
-0.4142135623730951
  0
VERTEX
  5
2214
  8
SAPA_PROFIL
 62
     4
 10
-0.3535533905932056
 20
69.353083541584283
 30
0.0
  0
VERTEX
  5
2215
  8
SAPA_PROFIL
 62
     4
 10
-3.4999999999999849
 20
72.499530150991063
 30
0.0
  0
VERTEX
  5
2216
  8
SAPA_PROFIL
 62
     4
 10
-5.0000000000000142
 20
72.499530150991063
 30
0.0
  0
VERTEX
  5
2217
  8
SAPA_PROFIL
 62
     4
 10
-4.9999999999999707
 20
67.050362300027302
 30
0.0
  0
VERTEX
  5
2218
  8
SAPA_PROFIL
 62
     4
 10
-4.9999999999998721
 20
54.409530150991031
 30
0.0
  0
SEQEND
  5
2219
  8
SAPA_PROFIL
 62
     4
  0
POLYLINE
  5
1D00
  8
SAPA_PROFIL
  6
CONTINUOUS
 62
     7
 66
     1
 10
0.0
 20
0.0
 30
0.0
 70
   129
  0
VERTEX
  5
221A
  8
SAPA_PROFIL
  6
CONTINUOUS
 62
     7
 10
3.4999999999999001
 20
31.49953015099118
 30
0.0
 42
0.4142135623730951
  0
VERTEX
  5
221B
  8
SAPA_PROFIL
  6
CONTINUOUS
 62
     7
 10
2.4999999999999001
 20
32.499530150991177
 30
0.0
  0
VERTEX
  5
221C
  8
SAPA_PROFIL
  6
CONTINUOUS
 62
     7
 10
-2.500000000000099
 20
32.499530150990147
 30
0.0
 42
0.4142135623730951
  0
VERTEX
  5
221D
  8
SAPA_PROFIL
  6
CONTINUOUS
 62
     7
 10
-3.5000000000000919
 20
31.499530150990161
 30
0.0
  0
VERTEX
  5
221E
  8
SAPA_PROFIL
  6
CONTINUOUS
 62
     7
 10
-3.500000000000103
 20
14.499530150990161
 30
0.0
 42
0.4142135623730951
  0
VERTEX
  5
221F
  8
SAPA_PROFIL
  6
CONTINUOUS
 62
     7
 10
-1.500000000000103
 20
12.499530150990161
 30
0.0
  0
VERTEX
  5
2220
  8
SAPA_PROFIL
  6
CONTINUOUS
 62
     7
 10
1.4999999999998961
 20
12.499530150990161
 30
0.0
 42
0.4142135623730951
  0
VERTEX
  5
2221
  8
SAPA_PROFIL
  6
CONTINUOUS
 62
     7
 10
3.4999999999998961
 20
14.499530150990161
 30
0.0
  0
SEQEND
  5
2222
  8
SAPA_PROFIL
  6
CONTINUOUS
 62
     7
  0
POLYLINE
  5
1D01
  8
SAPA_PROFIL
  6
CONTINUOUS
 62
     7
 66
     1
 10
0.0
 20
0.0
 30
0.0
 70
   129
  0
VERTEX
  5
2223
  8
SAPA_PROFIL
  6
CONTINUOUS
 62
     7
 10
22.899999999999888
 20
-22.50046984900882
 30
0.0
  0
VERTEX
  5
2224
  8
SAPA_PROFIL
  6
CONTINUOUS
 62
     7
 10
-22.900000000000109
 20
-22.50046984900882
 30
0.0
 42
-0.4142135623730951
  0
VERTEX
  5
2225
  8
SAPA_PROFIL
  6
CONTINUOUS
 62
     7
 10
-23.20000000000012
 20
-22.20046984900884
 30
0.0
  0
VERTEX
  5
2226
  8
SAPA_PROFIL
  6
CONTINUOUS
 62
     7
 10
-23.199999999999122
 20
-9.3004698490088273
 30
0.0
 42
-0.4142135623731104
  0
VERTEX
  5
2227
  8
SAPA_PROFIL
  6
CONTINUOUS
 62
     7
 10
-22.899999999999121
 20
-9.0004698490088142
 30
0.0
  0
VERTEX
  5
2228
  8
SAPA_PROFIL
  6
CONTINUOUS
 62
     7
 10
-17.999999999999119
 20
-9.0004698490088142
 30
0.0
 42
0.4142135623730951
  0
VERTEX
  5
2229
  8
SAPA_PROFIL
  6
CONTINUOUS
 62
     7
 10
-17.499999999999119
 20
-8.5004698490088142
 30
0.0
  0
VERTEX
  5
222A
  8
SAPA_PROFIL
  6
CONTINUOUS
 62
     7
 10
-17.499999999999119
 20
-6.4004698490088501
 30
0.0
 42
0.4142135623730951
  0
VERTEX
  5
222B
  8
SAPA_PROFIL
  6
CONTINUOUS
 62
     7
 10
-17.799999999999109
 20
-6.1004698490088378
 30
0.0
  0
VERTEX
  5
222C
  8
SAPA_PROFIL
  6
CONTINUOUS
 62
     7
 10
-18.299999999999109
 20
-6.1004698490088378
 30
0.0
 42
0.4142135623730389
  0
VERTEX
  5
222D
  8
SAPA_PROFIL
  6
CONTINUOUS
 62
     7
 10
-18.59999999999911
 20
-6.4004698490088501
 30
0.0
  0
VERTEX
  5
222E
  8
SAPA_PROFIL
  6
CONTINUOUS
 62
     7
 10
-18.599999999999419
 20
-6.7370967736445593
 30
0.0
 42
-0.5643553431125487
  0
VERTEX
  5
222F
  8
SAPA_PROFIL
  6
CONTINUOUS
 62
     7
 10
-22.924395043235119
 20
-4.8748648922418383
 30
0.0
  0
VERTEX
  5
2230
  8
SAPA_PROFIL
  6
CONTINUOUS
 62
     7
 10
-22.550000000002111
 20
-4.5004698490088151
 30
0.0
  0
VERTEX
  5
2231
  8
SAPA_PROFIL
  6
CONTINUOUS
 62
     7
 10
-22.924395043233339
 20
-4.1260748057724106
 30
0.0
 42
-0.5643553431119904
  0
VERTEX
  5
2232
  8
SAPA_PROFIL
  6
CONTINUOUS
 62
     7
 10
-18.59999999999911
 20
-2.2638429243748339
 30
0.0
  0
VERTEX
  5
2233
  8
SAPA_PROFIL
  6
CONTINUOUS
 62
     7
 10
-18.59999999999911
 20
-2.6004698490088671
 30
0.0
 42
0.4142135623730644
  0
VERTEX
  5
2234
  8
SAPA_PROFIL
  6
CONTINUOUS
 62
     7
 10
-18.299999999999109
 20
-2.9004698490088501
 30
0.0
  0
VERTEX
  5
2235
  8
SAPA_PROFIL
  6
CONTINUOUS
 62
     7
 10
-17.799999999999109
 20
-2.9004698490088501
 30
0.0
 42
0.4142135623730951
  0
VERTEX
  5
2236
  8
SAPA_PROFIL
  6
CONTINUOUS
 62
     7
 10
-17.499999999999119
 20
-2.6004698490088378
 30
0.0
  0
VERTEX
  5
2237
  8
SAPA_PROFIL
  6
CONTINUOUS
 62
     7
 10
-17.499999999999119
 20
-0.500469849008816
 30
0.0
 42
0.4142135623730951
  0
VERTEX
  5
2238
  8
SAPA_PROFIL
  6
CONTINUOUS
 62
     7
 10
-17.999999999999119
 20
-0.000469849008816
 30
0.0
  0
VERTEX
  5
2239
  8
SAPA_PROFIL
  6
CONTINUOUS
 62
     7
 10
-22.8999999999991
 20
-0.000469849008816
 30
0.0
 42
-0.4142135623731104
  0
VERTEX
  5
223A
  8
SAPA_PROFIL
  6
CONTINUOUS
 62
     7
 10
-23.199999999999111
 20
0.299530150991167
 30
0.0
  0
VERTEX
  5
223B
  8
SAPA_PROFIL
  6
CONTINUOUS
 62
     7
 10
-23.199999999999111
 20
10.199530150990149
 30
0.0
 42
-0.4142135623730951
  0
VERTEX
  5
223C
  8
SAPA_PROFIL
  6
CONTINUOUS
 62
     7
 10
-22.899999999999121
 20
10.49953015099118
 30
0.0
  0
VERTEX
  5
223D
  8
SAPA_PROFIL
  6
CONTINUOUS
 62
     7
 10
22.899999999999899
 20
10.49953015099117
 30
0.0
 42
-0.4142135623731206
  0
VERTEX
  5
223E
  8
SAPA_PROFIL
  6
CONTINUOUS
 62
     7
 10
23.199999999999889
 20
10.199530150991141
 30
0.0
  0
VERTEX
  5
223F
  8
SAPA_PROFIL
  6
CONTINUOUS
 62
     7
 10
23.199999999999878
 20
0.2995301509911599
 30
0.0
 42
-0.4142135623730951
  0
VERTEX
  5
2240
  8
SAPA_PROFIL
  6
CONTINUOUS
 62
     7
 10
22.899999999999899
 20
-0.0004698490088231
 30
0.0
  0
VERTEX
  5
2241
  8
SAPA_PROFIL
  6
CONTINUOUS
 62
     7
 10
17.99999999999989
 20
-0.0004698490088231
 30
0.0
 42
0.4142135623730951
  0
VERTEX
  5
2242
  8
SAPA_PROFIL
  6
CONTINUOUS
 62
     7
 10
17.49999999999989
 20
-0.5004698490088231
 30
0.0
  0
VERTEX
  5
2243
  8
SAPA_PROFIL
  6
CONTINUOUS
 62
     7
 10
17.49999999999989
 20
-2.6004698490088449
 30
0.0
 42
0.4142135623730951
  0
VERTEX
  5
2244
  8
SAPA_PROFIL
  6
CONTINUOUS
 62
     7
 10
17.799999999999869
 20
-2.9004698490088572
 30
0.0
  0
VERTEX
  5
2245
  8
SAPA_PROFIL
  6
CONTINUOUS
 62
     7
 10
18.299999999999869
 20
-2.9004698490088572
 30
0.0
 42
0.4142135623730951
  0
VERTEX
  5
2246
  8
SAPA_PROFIL
  6
CONTINUOUS
 62
     7
 10
18.599999999999881
 20
-2.6004698490088449
 30
0.0
  0
VERTEX
  5
2247
  8
SAPA_PROFIL
  6
CONTINUOUS
 62
     7
 10
18.599999999999881
 20
-2.263842924374841
 30
0.0
 42
-0.5643553431119905
  0
VERTEX
  5
2248
  8
SAPA_PROFIL
  6
CONTINUOUS
 62
     7
 10
22.924395043234121
 20
-4.1260748057723609
 30
0.0
  0
VERTEX
  5
2249
  8
SAPA_PROFIL
  6
CONTINUOUS
 62
     7
 10
22.550000000002889
 20
-4.5004698490088231
 30
0.0
  0
VERTEX
  5
224A
  8
SAPA_PROFIL
  6
CONTINUOUS
 62
     7
 10
22.92439504323589
 20
-4.8748648922418454
 30
0.0
 42
-0.5643553431125659
  0
VERTEX
  5
224B
  8
SAPA_PROFIL
  6
CONTINUOUS
 62
     7
 10
18.600000000000112
 20
-6.7370967736445087
 30
0.0
  0
VERTEX
  5
224C
  8
SAPA_PROFIL
  6
CONTINUOUS
 62
     7
 10
18.599999999999881
 20
-6.4004698490088572
 30
0.0
 42
0.4142135623730388
  0
VERTEX
  5
224D
  8
SAPA_PROFIL
  6
CONTINUOUS
 62
     7
 10
18.299999999999869
 20
-6.1004698490088449
 30
0.0
  0
VERTEX
  5
224E
  8
SAPA_PROFIL
  6
CONTINUOUS
 62
     7
 10
17.799999999999869
 20
-6.1004698490088449
 30
0.0
 42
0.4142135623730951
  0
VERTEX
  5
224F
  8
SAPA_PROFIL
  6
CONTINUOUS
 62
     7
 10
17.49999999999989
 20
-6.4004698490088572
 30
0.0
  0
VERTEX
  5
2250
  8
SAPA_PROFIL
  6
CONTINUOUS
 62
     7
 10
17.49999999999989
 20
-8.5004698490088231
 30
0.0
 42
0.4142135623730951
  0
VERTEX
  5
2251
  8
SAPA_PROFIL
  6
CONTINUOUS
 62
     7
 10
17.99999999999989
 20
-9.0004698490088231
 30
0.0
  0
VERTEX
  5
2252
  8
SAPA_PROFIL
  6
CONTINUOUS
 62
     7
 10
22.899999999999899
 20
-9.0004698490088231
 30
0.0
 42
-0.4142135623730951
  0
VERTEX
  5
2253
  8
SAPA_PROFIL
  6
CONTINUOUS
 62
     7
 10
23.199999999999878
 20
-9.3004698490088344
 30
0.0
  0
VERTEX
  5
2254
  8
SAPA_PROFIL
  6
CONTINUOUS
 62
     7
 10
23.199999999999871
 20
-22.20046984900884
 30
0.0
 42
-0.41421356237309
  0
SEQEND
  5
2255
  8
SAPA_PROFIL
  6
CONTINUOUS
 62
     7
  0
POLYLINE
  5
1D02
  8
SAPA_PROFIL
  6
CONTINUOUS
 62
     7
 66
     1
 10
0.0
 20
0.0
 30
0.0
 70
   129
  0
VERTEX
  5
2256
  8
SAPA_PROFIL
  6
CONTINUOUS
 62
     7
 10
16.200000000001911
 20
30.299530150990169
 30
0.0
 42
0.414213562373109
  0
VERTEX
  5
2257
  8
SAPA_PROFIL
  6
CONTINUOUS
 62
     7
 10
16.50000000000189
 20
29.99953015099015
 30
0.0
  0
VERTEX
  5
2258
  8
SAPA_PROFIL
  6
CONTINUOUS
 62
     7
 10
22.900000000000869
 20
29.99953015099015
 30
0.0
 42
-0.4142135623731854
  0
VERTEX
  5
2259
  8
SAPA_PROFIL
  6
CONTINUOUS
 62
     7
 10
23.199999999999889
 20
29.699530150990171
 30
0.0
  0
VERTEX
  5
225A
  8
SAPA_PROFIL
  6
CONTINUOUS
 62
     7
 10
23.199999999999889
 20
15.299531408951159
 30
0.0
 42
-0.4142142825135553
  0
VERTEX
  5
225B
  8
SAPA_PROFIL
  6
CONTINUOUS
 62
     7
 10
22.899999262386881
 20
14.99953140895215
 30
0.0
  0
VERTEX
  5
225C
  8
SAPA_PROFIL
  6
CONTINUOUS
 62
     7
 10
21.50000122935641
 20
14.999534851144629
 30
0.0
 42
0.5661922251793411
  0
VERTEX
  5
225D
  8
SAPA_PROFIL
  6
CONTINUOUS
 62
     7
 10
21.05882426669454
 20
14.264239351100169
 30
0.0
 42
-0.5661914134523967
  0
VERTEX
  5
225E
  8
SAPA_PROFIL
  6
CONTINUOUS
 62
     7
 10
20.000002506759881
 20
12.49953015099015
 30
0.0
  0
VERTEX
  5
225F
  8
SAPA_PROFIL
  6
CONTINUOUS
 62
     7
 10
6.9999999999998961
 20
12.499530150990161
 30
0.0
 42
-0.4142135623730951
  0
VERTEX
  5
2260
  8
SAPA_PROFIL
  6
CONTINUOUS
 62
     7
 10
4.9999999999998961
 20
14.499530150990161
 30
0.0
  0
VERTEX
  5
2261
  8
SAPA_PROFIL
  6
CONTINUOUS
 62
     7
 10
4.9999999999999067
 20
52.199530150990142
 30
0.0
 42
0.4142135623730951
  0
VERTEX
  5
2262
  8
SAPA_PROFIL
  6
CONTINUOUS
 62
     7
 10
4.6999999999998963
 20
52.499530150990147
 30
0.0
  0
VERTEX
  5
2263
  8
SAPA_PROFIL
  6
CONTINUOUS
 62
     7
 10
3.0757359312879009
 20
52.499530150991177
 30
0.0
  0
VERTEX
  5
2264
  8
SAPA_PROFIL
  6
CONTINUOUS
 62
     7
 10
2.1378679656449071
 20
51.561662185346158
 30
0.0
 42
0.1989123673804444
  0
VERTEX
  5
2265
  8
SAPA_PROFIL
  6
CONTINUOUS
 62
     7
 10
2.0499999999998901
 20
51.349530150990802
 30
0.0
  0
VERTEX
  5
2266
  8
SAPA_PROFIL
  6
CONTINUOUS
 62
     7
 10
2.0500000000008991
 20
50.149530150990159
 30
0.0
  0
VERTEX
  5
2267
  8
SAPA_PROFIL
  6
CONTINUOUS
 62
     7
 10
2.700000000000891
 20
50.149530150990159
 30
0.0
  0
VERTEX
  5
2268
  8
SAPA_PROFIL
  6
CONTINUOUS
 62
     7
 10
2.0767196957479039
 20
48.77329555531616
 30
0.0
 42
0.5450207774087934
  0
VERTEX
  5
2269
  8
SAPA_PROFIL
  6
CONTINUOUS
 62
     7
 10
2.3500000000006689
 20
48.349530150991143
 30
0.0
  0
VERTEX
  5
226A
  8
SAPA_PROFIL
  6
CONTINUOUS
 62
     7
 10
2.700000000000891
 20
48.349530150990169
 30
0.0
  0
VERTEX
  5
226B
  8
SAPA_PROFIL
  6
CONTINUOUS
 62
     7
 10
2.0767196957479039
 20
46.973295555316163
 30
0.0
 42
0.5450207774089168
  0
VERTEX
  5
226C
  8
SAPA_PROFIL
  6
CONTINUOUS
 62
     7
 10
2.3500000000007542
 20
46.549530150990172
 30
0.0
  0
VERTEX
  5
226D
  8
SAPA_PROFIL
  6
CONTINUOUS
 62
     7
 10
2.700000000000891
 20
46.549530150990172
 30
0.0
  0
VERTEX
  5
226E
  8
SAPA_PROFIL
  6
CONTINUOUS
 62
     7
 10
2.0767196957478968
 20
45.173295555316137
 30
0.0
 42
0.5450207774088086
  0
VERTEX
  5
226F
  8
SAPA_PROFIL
  6
CONTINUOUS
 62
     7
 10
2.3500000000006618
 20
44.74953015099117
 30
0.0
  0
VERTEX
  5
2270
  8
SAPA_PROFIL
  6
CONTINUOUS
 62
     7
 10
2.700000000000883
 20
44.749530150990147
 30
0.0
  0
VERTEX
  5
2271
  8
SAPA_PROFIL
  6
CONTINUOUS
 62
     7
 10
2.0767196957478968
 20
43.373295555316162
 30
0.0
 42
0.5450207774088141
  0
VERTEX
  5
2272
  8
SAPA_PROFIL
  6
CONTINUOUS
 62
     7
 10
2.3500000000006618
 20
42.949530150990142
 30
0.0
  0
VERTEX
  5
2273
  8
SAPA_PROFIL
  6
CONTINUOUS
 62
     7
 10
2.700000000000883
 20
42.949530150990142
 30
0.0
  0
VERTEX
  5
2274
  8
SAPA_PROFIL
  6
CONTINUOUS
 62
     7
 10
2.0767196957478968
 20
41.573295555316172
 30
0.0
 42
0.5450207774087156
  0
VERTEX
  5
2275
  8
SAPA_PROFIL
  6
CONTINUOUS
 62
     7
 10
2.3500000000006618
 20
41.149530150991147
 30
0.0
  0
VERTEX
  5
2276
  8
SAPA_PROFIL
  6
CONTINUOUS
 62
     7
 10
2.700000000000883
 20
41.149530150990159
 30
0.0
  0
VERTEX
  5
2277
  8
SAPA_PROFIL
  6
CONTINUOUS
 62
     7
 10
2.0767196957478968
 20
39.773295555316167
 30
0.0
 42
0.5450207774088258
  0
VERTEX
  5
2278
  8
SAPA_PROFIL
  6
CONTINUOUS
 62
     7
 10
2.3500000000006902
 20
39.349530150990176
 30
0.0
  0
VERTEX
  5
2279
  8
SAPA_PROFIL
  6
CONTINUOUS
 62
     7
 10
2.700000000000883
 20
39.349530150990176
 30
0.0
  0
VERTEX
  5
227A
  8
SAPA_PROFIL
  6
CONTINUOUS
 62
     7
 10
2.0767196957478968
 20
37.973295555316163
 30
0.0
 42
0.5450207774088105
  0
VERTEX
  5
227B
  8
SAPA_PROFIL
  6
CONTINUOUS
 62
     7
 10
2.3500000000006618
 20
37.549530150990172
 30
0.0
  0
VERTEX
  5
227C
  8
SAPA_PROFIL
  6
CONTINUOUS
 62
     7
 10
2.700000000000883
 20
37.549530150990172
 30
0.0
  0
VERTEX
  5
227D
  8
SAPA_PROFIL
  6
CONTINUOUS
 62
     7
 10
2.0767196957478968
 20
36.173295555316152
 30
0.0
 42
0.5450207774088258
  0
VERTEX
  5
227E
  8
SAPA_PROFIL
  6
CONTINUOUS
 62
     7
 10
2.3500000000006902
 20
35.749530150990161
 30
0.0
  0
VERTEX
  5
227F
  8
SAPA_PROFIL
  6
CONTINUOUS
 62
     7
 10
2.700000000000883
 20
35.749530150990161
 30
0.0
  0
VERTEX
  5
2280
  8
SAPA_PROFIL
  6
CONTINUOUS
 62
     7
 10
2.700000000000883
 20
35.499530150990161
 30
0.0
 42
-0.4142135623730951
  0
VERTEX
  5
2281
  8
SAPA_PROFIL
  6
CONTINUOUS
 62
     7
 10
1.700000000000883
 20
34.499530150990161
 30
0.0
  0
VERTEX
  5
2282
  8
SAPA_PROFIL
  6
CONTINUOUS
 62
     7
 10
-1.7000000000001161
 20
34.499530150990161
 30
0.0
 42
-0.4142135623730951
  0
VERTEX
  5
2283
  8
SAPA_PROFIL
  6
CONTINUOUS
 62
     7
 10
-2.7000000000001161
 20
35.499530150990161
 30
0.0
  0
VERTEX
  5
2284
  8
SAPA_PROFIL
  6
CONTINUOUS
 62
     7
 10
-2.7000000000001161
 20
36.649530150990159
 30
0.0
  0
VERTEX
  5
2285
  8
SAPA_PROFIL
  6
CONTINUOUS
 62
     7
 10
-2.350000000000108
 20
36.649530150990159
 30
0.0
 42
0.5450207774091047
  0
VERTEX
  5
2286
  8
SAPA_PROFIL
  6
CONTINUOUS
 62
     7
 10
-2.076719695747911
 20
37.073295555315553
 30
0.0
  0
VERTEX
  5
2287
  8
SAPA_PROFIL
  6
CONTINUOUS
 62
     7
 10
-2.7000000000001161
 20
38.449530150990171
 30
0.0
  0
VERTEX
  5
2288
  8
SAPA_PROFIL
  6
CONTINUOUS
 62
     7
 10
-2.350000000000108
 20
38.449530150990171
 30
0.0
 42
0.5450207774091047
  0
VERTEX
  5
2289
  8
SAPA_PROFIL
  6
CONTINUOUS
 62
     7
 10
-2.076719695747911
 20
38.873295555315543
 30
0.0
  0
VERTEX
  5
228A
  8
SAPA_PROFIL
  6
CONTINUOUS
 62
     7
 10
-2.7000000000001161
 20
40.249530150990161
 30
0.0
  0
VERTEX
  5
228B
  8
SAPA_PROFIL
  6
CONTINUOUS
 62
     7
 10
-2.350000000000108
 20
40.249530150990161
 30
0.0
 42
0.5450207774093641
  0
VERTEX
  5
228C
  8
SAPA_PROFIL
  6
CONTINUOUS
 62
     7
 10
-2.0767196957479679
 20
40.673295555315661
 30
0.0
  0
VERTEX
  5
228D
  8
SAPA_PROFIL
  6
CONTINUOUS
 62
     7
 10
-2.7000000000001161
 20
42.049530150990172
 30
0.0
  0
VERTEX
  5
228E
  8
SAPA_PROFIL
  6
CONTINUOUS
 62
     7
 10
-2.350000000000108
 20
42.049530150990172
 30
0.0
 42
0.5450207774092309
  0
VERTEX
  5
228F
  8
SAPA_PROFIL
  6
CONTINUOUS
 62
     7
 10
-2.076719695747939
 20
42.473295555315588
 30
0.0
  0
VERTEX
  5
2290
  8
SAPA_PROFIL
  6
CONTINUOUS
 62
     7
 10
-2.7000000000001161
 20
43.849530150990176
 30
0.0
  0
VERTEX
  5
2291
  8
SAPA_PROFIL
  6
CONTINUOUS
 62
     7
 10
-2.350000000000108
 20
43.849530150990176
 30
0.0
 42
0.5450207774091023
  0
VERTEX
  5
2292
  8
SAPA_PROFIL
  6
CONTINUOUS
 62
     7
 10
-2.076719695747911
 20
44.27329555531653
 30
0.0
  0
VERTEX
  5
2293
  8
SAPA_PROFIL
  6
CONTINUOUS
 62
     7
 10
-2.7000000000001161
 20
45.649530150990159
 30
0.0
  0
VERTEX
  5
2294
  8
SAPA_PROFIL
  6
CONTINUOUS
 62
     7
 10
-2.350000000000108
 20
45.649530150990159
 30
0.0
 42
0.5450207774091114
  0
VERTEX
  5
2295
  8
SAPA_PROFIL
  6
CONTINUOUS
 62
     7
 10
-2.0767196957479039
 20
46.073295555315553
 30
0.0
  0
VERTEX
  5
2296
  8
SAPA_PROFIL
  6
CONTINUOUS
 62
     7
 10
-2.700000000000109
 20
47.449530150990142
 30
0.0
  0
VERTEX
  5
2297
  8
SAPA_PROFIL
  6
CONTINUOUS
 62
     7
 10
-2.3500000000001
 20
47.449530150990142
 30
0.0
 42
0.54502077740921
  0
VERTEX
  5
2298
  8
SAPA_PROFIL
  6
CONTINUOUS
 62
     7
 10
-2.0767196957479319
 20
47.873295555316624
 30
0.0
  0
VERTEX
  5
2299
  8
SAPA_PROFIL
  6
CONTINUOUS
 62
     7
 10
-2.700000000000109
 20
49.24953015099117
 30
0.0
  0
VERTEX
  5
229A
  8
SAPA_PROFIL
  6
CONTINUOUS
 62
     7
 10
-2.3500000000001
 20
49.24953015099117
 30
0.0
 42
0.5450207774093123
  0
VERTEX
  5
229B
  8
SAPA_PROFIL
  6
CONTINUOUS
 62
     7
 10
-2.0767196957479608
 20
49.673295555315661
 30
0.0
  0
VERTEX
  5
229C
  8
SAPA_PROFIL
  6
CONTINUOUS
 62
     7
 10
-2.700000000000109
 20
51.049530150990172
 30
0.0
  0
VERTEX
  5
229D
  8
SAPA_PROFIL
  6
CONTINUOUS
 62
     7
 10
-2.3500000000001
 20
51.04953015099116
 30
0.0
 42
0.668178637919434
  0
VERTEX
  5
229E
  8
SAPA_PROFIL
  6
CONTINUOUS
 62
     7
 10
-2.137867965644126
 20
51.561662185347132
 30
0.0
  0
VERTEX
  5
229F
  8
SAPA_PROFIL
  6
CONTINUOUS
 62
     7
 10
-3.0757359312880999
 20
52.499530150991177
 30
0.0
  0
VERTEX
  5
22A0
  8
SAPA_PROFIL
  6
CONTINUOUS
 62
     7
 10
-4.7000000000001094
 20
52.499530150991177
 30
0.0
 42
0.4142135623730986
  0
VERTEX
  5
22A1
  8
SAPA_PROFIL
  6
CONTINUOUS
 62
     7
 10
-5.0000000000001057
 20
52.199530150990142
 30
0.0
  0
VERTEX
  5
22A2
  8
SAPA_PROFIL
  6
CONTINUOUS
 62
     7
 10
-5.0000000000000986
 20
14.499530150990161
 30
0.0
 42
-0.4142135623730951
  0
VERTEX
  5
22A3
  8
SAPA_PROFIL
  6
CONTINUOUS
 62
     7
 10
-7.0000000000001057
 20
12.499530150990161
 30
0.0
  0
VERTEX
  5
22A4
  8
SAPA_PROFIL
  6
CONTINUOUS
 62
     7
 10
-20.00000250675911
 20
12.499530150990161
 30
0.0
 42
-0.5661914134523486
  0
VERTEX
  5
22A5
  8
SAPA_PROFIL
  6
CONTINUOUS
 62
     7
 10
-21.058824266693829
 20
14.264239351100009
 30
0.0
 42
0.5661922251792668
  0
VERTEX
  5
22A6
  8
SAPA_PROFIL
  6
CONTINUOUS
 62
     7
 10
-21.500001229355551
 20
14.999534851144629
 30
0.0
  0
VERTEX
  5
22A7
  8
SAPA_PROFIL
  6
CONTINUOUS
 62
     7
 10
-22.89999926238611
 20
14.99953140895216
 30
0.0
 42
-0.4142142825134858
  0
VERTEX
  5
22A8
  8
SAPA_PROFIL
  6
CONTINUOUS
 62
     7
 10
-23.199999999999111
 20
15.29953140895117
 30
0.0
  0
VERTEX
  5
22A9
  8
SAPA_PROFIL
  6
CONTINUOUS
 62
     7
 10
-23.200000000000099
 20
29.699530150990181
 30
0.0
 42
-0.4142135623730811
  0
VERTEX
  5
22AA
  8
SAPA_PROFIL
  6
CONTINUOUS
 62
     7
 10
-22.900000000000091
 20
29.999530150990161
 30
0.0
  0
VERTEX
  5
22AB
  8
SAPA_PROFIL
  6
CONTINUOUS
 62
     7
 10
-16.500000000001108
 20
29.999530150990161
 30
0.0
 42
0.4142135623731158
  0
VERTEX
  5
22AC
  8
SAPA_PROFIL
  6
CONTINUOUS
 62
     7
 10
-16.200000000001111
 20
30.299530150990169
 30
0.0
  0
VERTEX
  5
22AD
  8
SAPA_PROFIL
  6
CONTINUOUS
 62
     7
 10
-16.200000000000092
 20
34.199530150990178
 30
0.0
 42
-0.2134217652833566
  0
VERTEX
  5
22AE
  8
SAPA_PROFIL
  6
CONTINUOUS
 62
     7
 10
-16.100000000001071
 20
34.423136948740201
 30
0.0
 42
0.213421765283343
  0
VERTEX
  5
22AF
  8
SAPA_PROFIL
  6
CONTINUOUS
 62
     7
 10
-16.000000000001101
 20
34.646743746490174
 30
0.0
  0
VERTEX
  5
22B0
  8
SAPA_PROFIL
  6
CONTINUOUS
 62
     7
 10
-16.000000000001101
 20
35.199530150990178
 30
0.0
 42
0.4142135623731228
  0
VERTEX
  5
22B1
  8
SAPA_PROFIL
  6
CONTINUOUS
 62
     7
 10
-16.300000000001098
 20
35.499530150990161
 30
0.0
  0
VERTEX
  5
22B2
  8
SAPA_PROFIL
  6
CONTINUOUS
 62
     7
 10
-18.000000000001101
 20
35.499530150990161
 30
0.0
  0
VERTEX
  5
22B3
  8
SAPA_PROFIL
  6
CONTINUOUS
 62
     7
 10
-18.58638401576092
 20
35.034606731424851
 30
0.0
 42
0.7105995015649606
  0
VERTEX
  5
22B4
  8
SAPA_PROFIL
  6
CONTINUOUS
 62
     7
 10
-18.400000000000102
 20
34.499530150990161
 30
0.0
  0
VERTEX
  5
22B5
  8
SAPA_PROFIL
  6
CONTINUOUS
 62
     7
 10
-18.00000000000114
 20
34.499530150990161
 30
0.0
 42
-0.4142135623731366
  0
VERTEX
  5
22B6
  8
SAPA_PROFIL
  6
CONTINUOUS
 62
     7
 10
-17.700000000001101
 20
34.199530150990178
 30
0.0
  0
VERTEX
  5
22B7
  8
SAPA_PROFIL
  6
CONTINUOUS
 62
     7
 10
-17.700000000001101
 20
31.799530150990169
 30
0.0
 42
-0.4142135623730951
  0
VERTEX
  5
22B8
  8
SAPA_PROFIL
  6
CONTINUOUS
 62
     7
 10
-18.000000000001101
 20
31.499530150990161
 30
0.0
  0
VERTEX
  5
22B9
  8
SAPA_PROFIL
  6
CONTINUOUS
 62
     7
 10
-22.900000000000091
 20
31.499530150990161
 30
0.0
 42
-0.4142135623731088
  0
VERTEX
  5
22BA
  8
SAPA_PROFIL
  6
CONTINUOUS
 62
     7
 10
-23.200000000000099
 20
31.799530150990169
 30
0.0
  0
VERTEX
  5
22BB
  8
SAPA_PROFIL
  6
CONTINUOUS
 62
     7
 10
-23.200000000000099
 20
34.199530150990178
 30
0.0
 42
-0.4142135623731229
  0
VERTEX
  5
22BC
  8
SAPA_PROFIL
  6
CONTINUOUS
 62
     7
 10
-22.900000000000109
 20
34.499530150990161
 30
0.0
  0
VERTEX
  5
22BD
  8
SAPA_PROFIL
  6
CONTINUOUS
 62
     7
 10
-22.000000000001108
 20
34.499530150990161
 30
0.0
 42
0.7105995015650805
  0
VERTEX
  5
22BE
  8
SAPA_PROFIL
  6
CONTINUOUS
 62
     7
 10
-21.813615984240101
 20
35.034606731425157
 30
0.0
  0
VERTEX
  5
22BF
  8
SAPA_PROFIL
  6
CONTINUOUS
 62
     7
 10
-22.4000000000011
 20
35.499530150990161
 30
0.0
  0
VERTEX
  5
22C0
  8
SAPA_PROFIL
  6
CONTINUOUS
 62
     7
 10
-24.700000000001111
 20
35.499530150990161
 30
0.0
 42
0.4142135623730951
  0
VERTEX
  5
22C1
  8
SAPA_PROFIL
  6
CONTINUOUS
 62
     7
 10
-25.000000000001108
 20
35.199530150990178
 30
0.0
  0
VERTEX
  5
22C2
  8
SAPA_PROFIL
  6
CONTINUOUS
 62
     7
 10
-24.999999999999119
 20
-24.00046984900882
 30
0.0
 42
0.4142135623730951
  0
VERTEX
  5
22C3
  8
SAPA_PROFIL
  6
CONTINUOUS
 62
     7
 10
-24.499999999999119
 20
-24.50046984900883
 30
0.0
  0
VERTEX
  5
22C4
  8
SAPA_PROFIL
  6
CONTINUOUS
 62
     7
 10
24.49999999999989
 20
-24.50046984900883
 30
0.0
 42
0.4142135623730951
  0
VERTEX
  5
22C5
  8
SAPA_PROFIL
  6
CONTINUOUS
 62
     7
 10
24.99999999999989
 20
-24.00046984900882
 30
0.0
  0
VERTEX
  5
22C6
  8
SAPA_PROFIL
  6
CONTINUOUS
 62
     7
 10
25.00000000000189
 20
35.199530150990149
 30
0.0
 42
0.4142135623731229
  0
VERTEX
  5
22C7
  8
SAPA_PROFIL
  6
CONTINUOUS
 62
     7
 10
24.700000000001911
 20
35.499530150990161
 30
0.0
  0
VERTEX
  5
22C8
  8
SAPA_PROFIL
  6
CONTINUOUS
 62
     7
 10
22.400000000001899
 20
35.499530150990161
 30
0.0
  0
VERTEX
  5
22C9
  8
SAPA_PROFIL
  6
CONTINUOUS
 62
     7
 10
21.813615984241139
 20
35.034606731424901
 30
0.0
 42
0.7105995015650992
  0
VERTEX
  5
22CA
  8
SAPA_PROFIL
  6
CONTINUOUS
 62
     7
 10
22.00000000000189
 20
34.499530150990161
 30
0.0
  0
VERTEX
  5
22CB
  8
SAPA_PROFIL
  6
CONTINUOUS
 62
     7
 10
22.900000000000869
 20
34.499530150990161
 30
0.0
 42
-0.4142135623731158
  0
VERTEX
  5
22CC
  8
SAPA_PROFIL
  6
CONTINUOUS
 62
     7
 10
23.200000000001911
 20
34.199530150990171
 30
0.0
  0
VERTEX
  5
22CD
  8
SAPA_PROFIL
  6
CONTINUOUS
 62
     7
 10
23.200000000000891
 20
31.799530150990162
 30
0.0
 42
-0.4142135623731088
  0
VERTEX
  5
22CE
  8
SAPA_PROFIL
  6
CONTINUOUS
 62
     7
 10
22.900000000000901
 20
31.49953015099015
 30
0.0
  0
VERTEX
  5
22CF
  8
SAPA_PROFIL
  6
CONTINUOUS
 62
     7
 10
18.00000000000189
 20
31.49953015099015
 30
0.0
 42
-0.4142135623730882
  0
VERTEX
  5
22D0
  8
SAPA_PROFIL
  6
CONTINUOUS
 62
     7
 10
17.7000000000019
 20
31.799530150990162
 30
0.0
  0
VERTEX
  5
22D1
  8
SAPA_PROFIL
  6
CONTINUOUS
 62
     7
 10
17.7000000000019
 20
34.199530150990171
 30
0.0
 42
-0.4142135623731367
  0
VERTEX
  5
22D2
  8
SAPA_PROFIL
  6
CONTINUOUS
 62
     7
 10
18.00000000000189
 20
34.499530150990161
 30
0.0
  0
VERTEX
  5
22D3
  8
SAPA_PROFIL
  6
CONTINUOUS
 62
     7
 10
18.400000000000929
 20
34.499530150990161
 30
0.0
 42
0.7105995015649363
  0
VERTEX
  5
22D4
  8
SAPA_PROFIL
  6
CONTINUOUS
 62
     7
 10
18.58638401576188
 20
35.034606731425157
 30
0.0
  0
VERTEX
  5
22D5
  8
SAPA_PROFIL
  6
CONTINUOUS
 62
     7
 10
18.00000000000189
 20
35.499530150990161
 30
0.0
  0
VERTEX
  5
22D6
  8
SAPA_PROFIL
  6
CONTINUOUS
 62
     7
 10
16.30000000000193
 20
35.499530150990161
 30
0.0
 42
0.4142135623731159
  0
VERTEX
  5
22D7
  8
SAPA_PROFIL
  6
CONTINUOUS
 62
     7
 10
16.00000000000189
 20
35.199530150990171
 30
0.0
  0
VERTEX
  5
22D8
  8
SAPA_PROFIL
  6
CONTINUOUS
 62
     7
 10
16.00000000000189
 20
34.646743746490159
 30
0.0
 42
0.2134217652833529
  0
VERTEX
  5
22D9
  8
SAPA_PROFIL
  6
CONTINUOUS
 62
     7
 10
16.100000000000911
 20
34.423136948740137
 30
0.0
 42
-0.2134217652833564
  0
VERTEX
  5
22DA
  8
SAPA_PROFIL
  6
CONTINUOUS
 62
     7
 10
16.20000000000088
 20
34.199530150990171
 30
0.0
  0
SEQEND
  5
22DB
  8
SAPA_PROFIL
  6
CONTINUOUS
 62
     7
  0
POLYLINE
  5
1D16
  8
SAPA_GLAS
 66
     1
 10
0.0
 20
0.0
 30
0.0
  0
VERTEX
  5
22F0
  8
SAPA_GLAS
 10
40.999999999999432
 20
49.619999999997731
 30
0.0
  0
VERTEX
  5
22F1
  8
SAPA_GLAS
 10
10.99999999999943
 20
49.619999999997511
 30
0.0
  0
VERTEX
  5
22F2
  8
SAPA_GLAS
 10
10.999999999999879
 20
40.859999999997278
 30
0.0
  0
VERTEX
  5
22F3
  8
SAPA_GLAS
 10
40.999999999999368
 20
40.859999999997633
 30
0.0
  0
SEQEND
  5
22F4
  8
SAPA_GLAS
  0
POLYLINE
  5
1D17
  8
SAPA_GLAS
 66
     1
 10
0.0
 20
0.0
 30
0.0
  0
VERTEX
  5
22F5
  8
SAPA_GLAS
 10
10.99999999999973
 20
49.619999999997511
 30
0.0
  0
VERTEX
  5
22F6
  8
SAPA_GLAS
 10
10.99999999999965
 20
61.61999999999761
 30
0.0
  0
VERTEX
  5
22F7
  8
SAPA_GLAS
 10
20.999999999999432
 20
61.619999999997688
 30
0.0
  0
VERTEX
  5
22F8
  8
SAPA_GLAS
 10
20.999999999999879
 20
49.619999999997582
 30
0.0
  0
VERTEX
  5
22F9
  8
SAPA_GLAS
 10
10.99999999999973
 20
49.619999999997511
 30
0.0
  0
SEQEND
  5
22FA
  8
SAPA_GLAS
  0
POLYLINE
  5
1D18
  8
SAPA_GLAS
 66
     1
 10
0.0
 20
0.0
 30
0.0
  0
VERTEX
  5
22FB
  8
SAPA_GLAS
 10
40.999999999999432
 20
67.619999999997731
 30
0.0
  0
VERTEX
  5
22FC
  8
SAPA_GLAS
 10
10.99999999999943
 20
67.619999999997617
 30
0.0
  0
VERTEX
  5
22FD
  8
SAPA_GLAS
 10
10.99999999999943
 20
61.61999999999761
 30
0.0
  0
VERTEX
  5
22FE
  8
SAPA_GLAS
 10
40.999999999999432
 20
61.619999999997837
 30
0.0
  0
SEQEND
  5
22FF
  8
SAPA_GLAS
  0
LINE
  5
1D19
  8
SAPA_GLAS
 10
10.999999999999879
 20
45.239999999997387
 30
0.0
 11
40.999999999999368
 21
45.239999999997607
 31
0.0
  0
POLYLINE
  5
1D20
  8
SAPA_FOGBAND
 66
     1
 10
0.0
 20
0.0
 30
0.0
 70
     1
  0
VERTEX
  5
2370
  8
SAPA_FOGBAND
 10
15.89435047379015
 20
40.690727555663102
 30
0.0
 42
0.4679153941829814
  0
VERTEX
  5
2371
  8
SAPA_FOGBAND
 10
15.65857338632236
 20
40.493961871815017
 30
0.0
  0
VERTEX
  5
2372
  8
SAPA_FOGBAND
 10
15.658384556282609
 20
35.942838045867013
 30
0.0
 42
0.6685323900181767
  0
VERTEX
  5
2373
  8
SAPA_FOGBAND
 10
15.99994416832555
 20
35.801555080675833
 30
0.0
 42
-0.1991665782226247
  0
VERTEX
  5
2374
  8
SAPA_FOGBAND
 10
16.07072397433398
 20
35.830913598093389
 30
0.0
  0
VERTEX
  5
2375
  8
SAPA_FOGBAND
 10
18.658384556282719
 20
35.830913598093623
 30
0.0
 42
-0.4142135623731784
  0
VERTEX
  5
2376
  8
SAPA_FOGBAND
 10
18.858384556282662
 20
35.630913598093571
 30
0.0
  0
VERTEX
  5
2377
  8
SAPA_FOGBAND
 10
18.858384556282662
 20
34.830913598093503
 30
0.0
 42
0.4142135623731368
  0
VERTEX
  5
2378
  8
SAPA_FOGBAND
 10
19.05838455628259
 20
34.630913598093457
 30
0.0
  0
VERTEX
  5
2379
  8
SAPA_FOGBAND
 10
19.458384556282681
 20
34.630913598093571
 30
0.0
 42
-0.4142135623733448
  0
VERTEX
  5
237A
  8
SAPA_FOGBAND
 10
19.658384556282499
 20
34.430913598093532
 30
0.0
  0
VERTEX
  5
237B
  8
SAPA_FOGBAND
 10
19.658384556282499
 20
33.359314789752027
 30
0.0
 42
-0.703825529076487
  0
VERTEX
  5
237C
  8
SAPA_FOGBAND
 10
19.481160581519131
 20
33.295781666723663
 30
0.0
  0
VERTEX
  5
237D
  8
SAPA_FOGBAND
 10
18.66728045533625
 20
34.285046090207061
 30
0.0
 42
0.9999999999999856
  0
VERTEX
  5
237E
  8
SAPA_FOGBAND
 10
18.049488657229059
 20
33.776781105979921
 30
0.0
  0
VERTEX
  5
237F
  8
SAPA_FOGBAND
 10
19.19308487173998
 20
32.386749560238627
 30
0.0
 42
0.2242387338110932
  0
VERTEX
  5
2380
  8
SAPA_FOGBAND
 10
20.15838455628273
 20
31.930913598093412
 30
0.0
 42
0.2242387338111004
  0
VERTEX
  5
2381
  8
SAPA_FOGBAND
 10
21.123684240825241
 20
32.386749560238627
 30
0.0
  0
VERTEX
  5
2382
  8
SAPA_FOGBAND
 10
22.26728045533628
 20
33.776781105979921
 30
0.0
 42
1.0000000000000899
  0
VERTEX
  5
2383
  8
SAPA_FOGBAND
 10
21.649488657228972
 20
34.285046090207061
 30
0.0
  0
VERTEX
  5
2384
  8
SAPA_FOGBAND
 10
20.835608531046091
 20
33.295781666723769
 30
0.0
 42
-0.7038255290763446
  0
VERTEX
  5
2385
  8
SAPA_FOGBAND
 10
20.65838455628273
 20
33.35931478975192
 30
0.0
  0
VERTEX
  5
2386
  8
SAPA_FOGBAND
 10
20.65838455628273
 20
34.430913598093532
 30
0.0
 42
-0.4142135623729703
  0
VERTEX
  5
2387
  8
SAPA_FOGBAND
 10
20.858384556282662
 20
34.630913598093571
 30
0.0
  0
VERTEX
  5
2388
  8
SAPA_FOGBAND
 10
21.258384556282628
 20
34.630913598093571
 30
0.0
 42
0.4142135623730117
  0
VERTEX
  5
2389
  8
SAPA_FOGBAND
 10
21.458384556282681
 20
34.830913598093503
 30
0.0
  0
VERTEX
  5
238A
  8
SAPA_FOGBAND
 10
21.458384556282571
 20
35.630913598093571
 30
0.0
 42
-0.4142135623731784
  0
VERTEX
  5
238B
  8
SAPA_FOGBAND
 10
21.658384556282609
 20
35.830913598093623
 30
0.0
  0
VERTEX
  5
238C
  8
SAPA_FOGBAND
 10
24.246045138231359
 20
35.830913598093282
 30
0.0
 42
-0.1991665782227297
  0
VERTEX
  5
238D
  8
SAPA_FOGBAND
 10
24.31682494423967
 20
35.801555080675833
 30
0.0
 42
0.6685323900181511
  0
VERTEX
  5
238E
  8
SAPA_FOGBAND
 10
24.658384556282609
 20
35.9428380458669
 30
0.0
  0
VERTEX
  5
238F
  8
SAPA_FOGBAND
 10
24.65857338507692
 20
40.493931852034159
 30
0.0
 42
0.4679406819625479
  0
VERTEX
  5
2390
  8
SAPA_FOGBAND
 10
24.422796297609128
 20
40.690714132226041
 30
0.0
  0
VERTEX
  5
2391
  8
SAPA_FOGBAND
 10
23.722833212511429
 20
40.563448116753868
 30
0.0
 42
0.3624646087620003
  0
VERTEX
  5
2392
  8
SAPA_FOGBAND
 10
23.558610300151489
 20
40.366674134734012
 30
0.0
  0
VERTEX
  5
2393
  8
SAPA_FOGBAND
 10
23.558610300151489
 20
40.251155165299572
 30
0.0
 42
-0.3515239862759624
  0
VERTEX
  5
2394
  8
SAPA_FOGBAND
 10
23.401996391715219
 20
40.055917753262861
 30
0.0
  0
VERTEX
  5
2395
  8
SAPA_FOGBAND
 10
21.87918654864302
 20
39.735729209227429
 30
0.0
 42
-0.751570456352482
  0
VERTEX
  5
2396
  8
SAPA_FOGBAND
 10
21.78893838433169
 20
39.905323805434023
 30
0.0
  0
VERTEX
  5
2397
  8
SAPA_FOGBAND
 10
23.219252310870839
 20
40.12835486826247
 30
0.0
 42
0.7197481174277197
  0
VERTEX
  5
2398
  8
SAPA_FOGBAND
 10
22.931886130291328
 20
40.72670972010598
 30
0.0
  0
VERTEX
  5
2399
  8
SAPA_FOGBAND
 10
20.791404622199821
 20
40.45850903031009
 30
0.0
 42
-0.5053637834253038
  0
VERTEX
  5
239A
  8
SAPA_FOGBAND
 10
20.56461030015134
 20
40.54158940541538
 30
0.0
  0
VERTEX
  5
239B
  8
SAPA_FOGBAND
 10
20.55061030015122
 20
40.589589405415829
 30
0.0
 42
0.3333333333331249
  0
VERTEX
  5
239C
  8
SAPA_FOGBAND
 10
20.35861030015133
 20
40.733589405415607
 30
0.0
  0
VERTEX
  5
239D
  8
SAPA_FOGBAND
 10
19.958610300151349
 20
40.733589405415728
 30
0.0
 42
0.3333333333331312
  0
VERTEX
  5
239E
  8
SAPA_FOGBAND
 10
19.766610300151338
 20
40.58958940541595
 30
0.0
  0
VERTEX
  5
239F
  8
SAPA_FOGBAND
 10
19.752610300151218
 20
40.541589405415607
 30
0.0
 42
-0.505363783425254
  0
VERTEX
  5
23A0
  8
SAPA_FOGBAND
 10
19.525815978102852
 20
40.458509030309983
 30
0.0
  0
VERTEX
  5
23A1
  8
SAPA_FOGBAND
 10
17.38533447001123
 20
40.726709720105873
 30
0.0
 42
0.7197481174279296
  0
VERTEX
  5
23A2
  8
SAPA_FOGBAND
 10
17.09796828943195
 20
40.12835486826247
 30
0.0
  0
VERTEX
  5
23A3
  8
SAPA_FOGBAND
 10
18.528282215970989
 20
39.905323805434129
 30
0.0
 42
-0.7515704563522813
  0
VERTEX
  5
23A4
  8
SAPA_FOGBAND
 10
18.438034051659539
 20
39.735729209227323
 30
0.0
  0
VERTEX
  5
23A5
  8
SAPA_FOGBAND
 10
16.91522420858746
 20
40.055917753262747
 30
0.0
 42
-0.3515239862759173
  0
VERTEX
  5
23A6
  8
SAPA_FOGBAND
 10
16.758610300151069
 20
40.251155165299672
 30
0.0
  0
VERTEX
  5
23A7
  8
SAPA_FOGBAND
 10
16.758610300151069
 20
40.366674134733898
 30
0.0
 42
0.3624646087620678
  0
VERTEX
  5
23A8
  8
SAPA_FOGBAND
 10
16.59438738779113
 20
40.563448116753868
 30
0.0
  0
SEQEND
  5
23A9
  8
SAPA_FOGBAND
  0
POLYLINE
  5
1D21
  8
SAPA_FOGBAND
 66
     1
 10
0.0
 20
0.0
 30
0.0
 70
     1
  0
VERTEX
  5
23AA
  8
SAPA_FOGBAND
 10
15.697677221671819
 20
72.475600881618902
 30
0.0
 42
-0.4142135623731784
  0
VERTEX
  5
23AB
  8
SAPA_FOGBAND
 10
15.49767722167201
 20
72.275600881618857
 30
0.0
  0
VERTEX
  5
23AC
  8
SAPA_FOGBAND
 10
10.568148278062489
 20
72.27560088161863
 30
0.0
 42
0.2663342079579515
  0
VERTEX
  5
23AD
  8
SAPA_FOGBAND
 10
9.7051534157741344
 20
71.78081357708902
 30
0.0
  0
VERTEX
  5
23AE
  8
SAPA_FOGBAND
 10
6.85483023795598
 20
67.693043485127191
 30
0.0
 42
0.052861208559515
  0
VERTEX
  5
23AF
  8
SAPA_FOGBAND
 10
6.7680813905855066
 20
67.50085936017922
 30
0.0
 42
0.2389362379610746
  0
VERTEX
  5
23B0
  8
SAPA_FOGBAND
 10
7.0158745558475166
 20
66.257018808056046
 30
0.0
 42
0.4294697894411934
  0
VERTEX
  5
23B1
  8
SAPA_FOGBAND
 10
7.3057142385038096
 20
66.245375851495282
 30
0.0
  0
VERTEX
  5
23B2
  8
SAPA_FOGBAND
 10
10.85876019071668
 20
68.484597134760165
 30
0.0
 42
-0.1982170680849751
  0
VERTEX
  5
23B3
  8
SAPA_FOGBAND
 10
11.563972437512909
 20
68.775600881618857
 30
0.0
  0
VERTEX
  5
23B4
  8
SAPA_FOGBAND
 10
11.68263042392903
 20
68.775600881619084
 30
0.0
 42
-0.2084822249037384
  0
VERTEX
  5
23B5
  8
SAPA_FOGBAND
 10
12.41524292559563
 20
68.456246841279381
 30
0.0
  0
VERTEX
  5
23B6
  8
SAPA_FOGBAND
 10
16.362753589753648
 20
67.835613553438179
 30
0.0
  0
VERTEX
  5
23B7
  8
SAPA_FOGBAND
 10
16.91559561902443
 20
68.199145223693677
 30
0.0
  0
VERTEX
  5
23B8
  8
SAPA_FOGBAND
 10
13.605029815939019
 20
69.196621937978989
 30
0.0
 42
-0.6313983151680102
  0
VERTEX
  5
23B9
  8
SAPA_FOGBAND
 10
13.89542697455056
 20
69.653924082487265
 30
0.0
  0
VERTEX
  5
23BA
  8
SAPA_FOGBAND
 10
16.73399353426532
 20
69.307757428863624
 30
0.0
 42
-0.379100851898285
  0
VERTEX
  5
23BB
  8
SAPA_FOGBAND
 10
16.99767722167201
 20
69.009963665598661
 30
0.0
  0
VERTEX
  5
23BC
  8
SAPA_FOGBAND
 10
16.99767722167201
 20
68.775600881618857
 30
0.0
 42
0.4142135623730951
  0
VERTEX
  5
23BD
  8
SAPA_FOGBAND
 10
17.297677221672188
 20
68.475600881619116
 30
0.0
  0
VERTEX
  5
23BE
  8
SAPA_FOGBAND
 10
21.849398302582021
 20
68.475600881619116
 30
0.0
  0
VERTEX
  5
23BF
  8
SAPA_FOGBAND
 10
28.176686426850779
 20
67.953905543507403
 30
0.0
  0
VERTEX
  5
23C0
  8
SAPA_FOGBAND
 10
28.176686426850779
 20
67.953905543507403
 30
0.0
  0
VERTEX
  5
23C1
  8
SAPA_FOGBAND
 10
28.7645755651107
 20
68.370228266410095
 30
0.0
 42
-0.0144193411868444
  0
VERTEX
  5
23C2
  8
SAPA_FOGBAND
 10
28.627570427398609
 20
69.61467884818228
 30
0.0
  0
VERTEX
  5
23C3
  8
SAPA_FOGBAND
 10
23.49767722167201
 20
71.275600881619084
 30
0.0
  0
VERTEX
  5
23C4
  8
SAPA_FOGBAND
 10
23.49767722167201
 20
73.125600881618993
 30
0.0
 42
0.4142135623731212
  0
VERTEX
  5
23C5
  8
SAPA_FOGBAND
 10
23.347677221671919
 20
73.275600881619084
 30
0.0
  0
VERTEX
  5
23C6
  8
SAPA_FOGBAND
 10
22.231486297671498
 20
73.275600881618857
 30
0.0
 42
0.3812119866949899
  0
VERTEX
  5
23C7
  8
SAPA_FOGBAND
 10
22.082459494817272
 20
73.142659956358102
 30
0.0
  0
VERTEX
  5
23C8
  8
SAPA_FOGBAND
 10
21.99842510543624
 20
72.408541806879839
 30
0.0
 42
-0.3812119866949819
  0
VERTEX
  5
23C9
  8
SAPA_FOGBAND
 10
21.849398302581559
 20
72.275600881619084
 30
0.0
  0
VERTEX
  5
23CA
  8
SAPA_FOGBAND
 10
18.497677221671999
 20
72.275600881619084
 30
0.0
 42
-0.4142135623730951
  0
VERTEX
  5
23CB
  8
SAPA_FOGBAND
 10
18.29767722167173
 20
72.475600881618902
 30
0.0
  0
VERTEX
  5
23CC
  8
SAPA_FOGBAND
 10
18.297677221672188
 20
73.275600881618857
 30
0.0
 42
0.4142135623730951
  0
VERTEX
  5
23CD
  8
SAPA_FOGBAND
 10
18.097677221671908
 20
73.475600881618902
 30
0.0
  0
VERTEX
  5
23CE
  8
SAPA_FOGBAND
 10
17.697677221671821
 20
73.475600881618902
 30
0.0
 42
-0.4142135623731784
  0
VERTEX
  5
23CF
  8
SAPA_FOGBAND
 10
17.49767722167201
 20
73.675600881618934
 30
0.0
  0
VERTEX
  5
23D0
  8
SAPA_FOGBAND
 10
17.49767722167201
 20
74.747199689960325
 30
0.0
 42
-0.7038255290761633
  0
VERTEX
  5
23D1
  8
SAPA_FOGBAND
 10
17.674901196435371
 20
74.810732812988817
 30
0.0
  0
VERTEX
  5
23D2
  8
SAPA_FOGBAND
 10
18.488781322618362
 20
73.821468389505299
 30
0.0
 42
0.9999999999999552
  0
VERTEX
  5
23D3
  8
SAPA_FOGBAND
 10
19.10657312072556
 20
74.329733373732552
 30
0.0
  0
VERTEX
  5
23D4
  8
SAPA_FOGBAND
 10
17.962976906214521
 20
75.719764919474073
 30
0.0
 42
0.2242387338111004
  0
VERTEX
  5
23D5
  8
SAPA_FOGBAND
 10
16.99767722167201
 20
76.175600881618934
 30
0.0
 42
0.2242387338111007
  0
VERTEX
  5
23D6
  8
SAPA_FOGBAND
 10
16.032377537129491
 20
75.719764919474073
 30
0.0
  0
VERTEX
  5
23D7
  8
SAPA_FOGBAND
 10
14.888781322618451
 20
74.329733373732552
 30
0.0
 42
0.9999999999999548
  0
VERTEX
  5
23D8
  8
SAPA_FOGBAND
 10
15.506573120725649
 20
73.821468389505299
 30
0.0
  0
VERTEX
  5
23D9
  8
SAPA_FOGBAND
 10
16.320453246908642
 20
74.810732812988817
 30
0.0
 42
-0.7038255290761636
  0
VERTEX
  5
23DA
  8
SAPA_FOGBAND
 10
16.497677221671999
 20
74.747199689960325
 30
0.0
  0
VERTEX
  5
23DB
  8
SAPA_FOGBAND
 10
16.497677221671999
 20
73.675600881619175
 30
0.0
 42
-0.4142135623730117
  0
VERTEX
  5
23DC
  8
SAPA_FOGBAND
 10
16.297677221672188
 20
73.475600881619116
 30
0.0
  0
VERTEX
  5
23DD
  8
SAPA_FOGBAND
 10
15.89767722167209
 20
73.475600881618902
 30
0.0
 42
0.4142135623730951
  0
VERTEX
  5
23DE
  8
SAPA_FOGBAND
 10
15.697677221671819
 20
73.275600881619084
 30
0.0
  0
SEQEND
  5
23DF
  8
SAPA_FOGBAND
  0
DIMENSION
  5
1D2C
  8
SAPA_MATT
  2
*D20
 10
-207.5340209066344
 20
-259.392753947448
 30
0.0
 11
-210.0340209066344
 21
-184.22532567747839
 31
0.0
 70
     0
  1
150
 13
-136.5566073940868
 23
-109.0578974075087
 33
0.0
 14
-194.87083328264279
 24
-259.392753947448
 34
0.0
 50
90.0
1001
ACAD
1000
DSTYLE
1002
{
1070
    40
1040
1.0
1002
}
  0
DIMENSION
  5
1D2F
  8
SAPA_MATT
  2
*D21
 10
-220.82018775657349
 20
-409.39275394744789
 30
0.0
 11
-223.3201877565734
 21
-259.22532567747839
 31
0.0
 70
     0
  1
300
 13
-136.5566073940868
 23
-109.0578974075087
 33
0.0
 14
-203.61488620811269
 24
-409.39275394744789
 34
0.0
 50
90.0
1001
ACAD
1000
DSTYLE
1002
{
1070
    40
1040
1.0
1002
}
  0
VIEWPORT
  5
C4
 67
     1
  8
0
 10
143.06236603067589
 20
116.00969601843509
 30
0.0
 40
369.98580003443811
 41
256.8421457311839
 68
     1
 69
     1
1001
ACAD
1000
MVIEW
1002
{
1070
    16
1010
0.0
1020
0.0
1030
0.0
1010
0.0
1020
0.0
1030
1.0
1040
0.0
1040
256.8421457311839
1040
99.112914085388169
1040
143.07606935501099
1040
50.0
1040
0.0
1040
0.0
1070
     0
1070
     0
1070
     1
1070
     1
1070
     0
1070
     0
1070
     0
1070
     0
1040
0.0
1040
0.0
1040
0.0
1040
10.0
1040
10.0
1040
10.0
1040
10.0
1070
     0
1002
{
1002
}
1002
}
  0
ENDSEC
  0
EOF
