  0
SECTION
  2
HEADER
  9
$ACADVER
  1
AC1009
  9
$INSBASE
 10
0.0
 20
0.0
 30
0.0
  9
$EXTMIN
 10
-210.17988547077911
 20
-108.3138500465783
 30
0.0
  9
$EXTMAX
 10
40.999999999999773
 20
89.999999999999474
 30
0.1
  9
$LIMMIN
 10
0.0
 20
0.0
  9
$LIMMAX
 10
790.0
 20
790.0
  9
$ORTHOMODE
 70
     0
  9
$REGENMODE
 70
     1
  9
$FILLMODE
 70
     1
  9
$QTEXTMODE
 70
     0
  9
$MIRRTEXT
 70
     1
  9
$DRAGMODE
 70
     2
  9
$LTSCALE
 40
4.0
  9
$OSMODE
 70
   167
  9
$ATTMODE
 70
     1
  9
$TEXTSIZE
 40
3.5
  9
$TRACEWID
 40
0.05
  9
$TEXTSTYLE
  7
ISO
  9
$CLAYER
  8
0
  9
$CELTYPE
  6
BYLAYER
  9
$CECOLOR
 62
   256
  9
$DIMSCALE
 40
0.0
  9
$DIMASZ
 40
3.0
  9
$DIMEXO
 40
1.5
  9
$DIMDLI
 40
10.0
  9
$DIMRND
 40
0.0
  9
$DIMDLE
 40
0.0
  9
$DIMEXE
 40
1.5
  9
$DIMTP
 40
0.0
  9
$DIMTM
 40
0.0
  9
$DIMTXT
 40
3.0
  9
$DIMCEN
 40
-5.0
  9
$DIMTSZ
 40
0.0
  9
$DIMTOL
 70
     0
  9
$DIMLIM
 70
     0
  9
$DIMTIH
 70
     0
  9
$DIMTOH
 70
     0
  9
$DIMSE1
 70
     0
  9
$DIMSE2
 70
     0
  9
$DIMTAD
 70
     1
  9
$DIMZIN
 70
     8
  9
$DIMBLK
  1

  9
$DIMASO
 70
     1
  9
$DIMSHO
 70
     1
  9
$DIMPOST
  1

  9
$DIMAPOST
  1

  9
$DIMALT
 70
     0
  9
$DIMALTD
 70
     0
  9
$DIMALTF
 40
25.399999999999999
  9
$DIMLFAC
 40
-1.0
  9
$DIMTOFL
 70
     1
  9
$DIMTVP
 40
0.0
  9
$DIMTIX
 70
     0
  9
$DIMSOXD
 70
     0
  9
$DIMSAH
 70
     0
  9
$DIMBLK1
  1

  9
$DIMBLK2
  1

  9
$DIMSTYLE
  2
MASKIN
  9
$DIMCLRD
 70
   256
  9
$DIMCLRE
 70
   256
  9
$DIMCLRT
 70
     2
  9
$DIMTFAC
 40
1.0
  9
$DIMGAP
 40
1.0
  9
$LUNITS
 70
     2
  9
$LUPREC
 70
     8
  9
$SKETCHINC
 40
0.1
  9
$FILLETRAD
 40
0.0
  9
$AUNITS
 70
     0
  9
$AUPREC
 70
     8
  9
$MENU
  1
ACAD
  9
$ELEVATION
 40
0.0
  9
$PELEVATION
 40
0.0
  9
$THICKNESS
 40
0.0
  9
$LIMCHECK
 70
     0
  9
$BLIPMODE
 70
     0
  9
$CHAMFERA
 40
0.0
  9
$CHAMFERB
 40
0.0
  9
$SKPOLY
 70
     0
  9
$TDCREATE
 40
2454901.5781186
  9
$TDUPDATE
 40
2458458.3447387731
  9
$TDINDWG
 40
0.0694097917
  9
$TDUSRTIMER
 40
0.0694097917
  9
$USRTIMER
 70
     1
  9
$ANGBASE
 50
0.0
  9
$ANGDIR
 70
     0
  9
$PDMODE
 70
     0
  9
$PDSIZE
 40
0.0
  9
$PLINEWID
 40
0.0
  9
$COORDS
 70
     1
  9
$SPLFRAME
 70
     0
  9
$SPLINETYPE
 70
     6
  9
$SPLINESEGS
 70
     8
  9
$ATTDIA
 70
     1
  9
$ATTREQ
 70
     1
  9
$HANDLING
 70
     1
  9
$HANDSEED
  5
2912
  9
$SURFTAB1
 70
     6
  9
$SURFTAB2
 70
     6
  9
$SURFTYPE
 70
     6
  9
$SURFU
 70
     6
  9
$SURFV
 70
     6
  9
$UCSNAME
  2

  9
$UCSORG
 10
0.0
 20
0.0
 30
0.0
  9
$UCSXDIR
 10
1.0
 20
0.0
 30
0.0
  9
$UCSYDIR
 10
0.0
 20
1.0
 30
0.0
  9
$PUCSNAME
  2

  9
$PUCSORG
 10
0.0
 20
0.0
 30
0.0
  9
$PUCSXDIR
 10
1.0
 20
0.0
 30
0.0
  9
$PUCSYDIR
 10
0.0
 20
1.0
 30
0.0
  9
$USERI1
 70
     0
  9
$USERI2
 70
     0
  9
$USERI3
 70
     0
  9
$USERI4
 70
     0
  9
$USERI5
 70
     0
  9
$USERR1
 40
0.0
  9
$USERR2
 40
0.0
  9
$USERR3
 40
0.0
  9
$USERR4
 40
0.0
  9
$USERR5
 40
0.0
  9
$WORLDVIEW
 70
     1
  9
$SHADEDGE
 70
     3
  9
$SHADEDIF
 70
    70
  9
$TILEMODE
 70
     1
  9
$MAXACTVP
 70
    16
  9
$PLIMCHECK
 70
     0
  9
$PEXTMIN
 10
1.0000000000000000E+020
 20
1.0000000000000000E+020
 30
1.0000000000000000E+020
  9
$PEXTMAX
 10
-1.0000000000000000E+020
 20
-1.0000000000000000E+020
 30
-1.0000000000000000E+020
  9
$PLIMMIN
 10
-5.069427490234375
 20
-5.8737497329711914
  9
$PLIMMAX
 10
291.89889526367187
 20
204.0995779037475
  9
$UNITMODE
 70
     0
  9
$VISRETAIN
 70
     1
  9
$PLINEGEN
 70
     0
  9
$PSLTSCALE
 70
     1
  0
ENDSEC
  0
SECTION
  2
TABLES
  0
TABLE
  2
VPORT
 70
     1
  0
VPORT
  2
*ACTIVE
 70
     0
 10
0.0
 20
0.0
 11
1.0
 21
1.0
 12
47.29285154450082
 22
130.3927366624946
 13
0.0
 23
0.0
 14
1.0
 24
1.0
 15
0.0
 25
0.0
 16
0.0
 26
0.0
 36
1.0
 17
0.0
 27
0.0
 37
0.0
 40
430.75692140619782
 41
1.7265193370165739
 42
50.0
 43
0.0
 44
0.0
 50
0.0
 51
0.0
 71
     0
 72
   100
 73
     1
 74
     1
 75
     0
 76
     0
 77
     0
 78
     0
  0
ENDTAB
  0
TABLE
  2
LTYPE
 70
    42
  0
LTYPE
  2
CONTINUOUS
 70
     0
  3
Solid line
 72
    65
 73
     0
 40
0.0
  0
LTYPE
  2
BYGG-01472602$0$NEWDOT
 70
     0
  3
____ . ____ . ____ . ____ . ____ . ____ . ____
 72
    65
 73
     4
 40
2.0
 49
1.0
 49
-0.5
 49
0.0
 49
-0.5
  0
LTYPE
  2
BYGG-01472602$0$ZIGZAG
 70
     0
  3
Zig zag /\/\/\/\/\/\/\/\/\/\/\/\/\/\/\/\/\/\/\/\/\/\/\/
 72
    65
 73
     4
 40
20.32254
 49
0.00254
 49
-5.0800000000000001
 49
-10.16
 49
-5.0800000000000001
  0
LTYPE
  2
BYGG-025060$0$NEWDOT
 70
     0
  3
____ . ____ . ____ . ____ . ____ . ____ . ____
 72
    65
 73
     4
 40
2.0
 49
1.0
 49
-0.5
 49
0.0
 49
-0.5
  0
LTYPE
  2
BYGG-012216$0$DASHDOT
 70
     0
  3
__ . __ . __ . __ . __ . __ . __ . __ . __ . __
 72
    65
 73
     4
 40
1.0
 49
0.5
 49
-0.25
 49
0.0
 49
-0.25
  0
LTYPE
  2
BYGG-024800$0$NEWDOT
 70
     0
  3
____ . ____ . ____ . ____ . ____ . ____ . ____
 72
    65
 73
     4
 40
2.0
 49
1.0
 49
-0.5
 49
0.0
 49
-0.5
  0
LTYPE
  2
BYGG-024807$0$NEWDOT
 70
     0
  3
____ . ____ . ____ . ____ . ____ . ____ . ____
 72
    65
 73
     4
 40
2.0
 49
1.0
 49
-0.5
 49
0.0
 49
-0.5
  0
LTYPE
  2
BYGG-024807$0$DASHDOT
 70
     0
  3
__ . __ . __ . __ . __ . __ . __ . __ . __ . __
 72
    65
 73
     4
 40
1.0
 49
0.5
 49
-0.25
 49
0.0
 49
-0.25
  0
LTYPE
  2
BYGG-030159$0$NEWDOT
 70
     0
  3
____ . ____ . ____ . ____ . ____ . ____ . ____
 72
    65
 73
     4
 40
2.0
 49
1.0
 49
-0.5
 49
0.0
 49
-0.5
  0
LTYPE
  2
BYGG-033168$0$NEWDOT
 70
     0
  3
____ . ____ . ____ . ____ . ____ . ____ . ____
 72
    65
 73
     4
 40
2.0
 49
1.0
 49
-0.5
 49
0.0
 49
-0.5
  0
LTYPE
  2
BYGG-033168$0$DASHDOT
 70
     0
  3
__ . __ . __ . __ . __ . __ . __ . __ . __ . __
 72
    65
 73
     4
 40
1.0
 49
0.5
 49
-0.25
 49
0.0
 49
-0.25
  0
LTYPE
  2
BYGG-033168$0$DASHED
 70
     0
  3
__ __ __ __ __ __ __ __ __ __ __ __ __ __ __
 72
    65
 73
     2
 40
0.75
 49
0.5
 49
-0.25
  0
LTYPE
  2
BYGG-033168$0$PHANTOM
 70
     0
  3
Phantom ______  __  __  ______  __  __  ______
 72
    65
 73
     6
 40
63.5
 49
31.75
 49
-6.3499999999999988
 49
6.3499999999999988
 49
-6.3499999999999988
 49
6.3499999999999988
 49
-6.3499999999999988
  0
LTYPE
  2
BYGG-027036$0$NEWDOT
 70
     0
  3
____ . ____ . ____ . ____ . ____ . ____ . ____
 72
    65
 73
     4
 40
2.0
 49
1.0
 49
-0.5
 49
0.0
 49
-0.5
  0
LTYPE
  2
BYGG-027036$0$DASHDOT
 70
     0
  3
__ . __ . __ . __ . __ . __ . __ . __ . __ . __
 72
    65
 73
     4
 40
1.0
 49
0.5
 49
-0.25
 49
0.0
 49
-0.25
  0
LTYPE
  2
BYGG-027036$0$DASHED
 70
     0
  3
__ __ __ __ __ __ __ __ __ __ __ __ __ __ __
 72
    65
 73
     2
 40
0.75
 49
0.5
 49
-0.25
  0
LTYPE
  2
BYGG-027036$0$PHANTOM
 70
     0
  3
Phantom ______  __  __  ______  __  __  ______
 72
    65
 73
     6
 40
63.5
 49
31.75
 49
-6.3499999999999988
 49
6.3499999999999988
 49
-6.3499999999999988
 49
6.3499999999999988
 49
-6.3499999999999988
  0
LTYPE
  2
BYGG-027036$0$HIDDEN
 70
     0
  3
_ _ _ _ _ _ _ _ _ _ _ _ _ _ _ _ _ _ _ _ _ _ _
 72
    65
 73
     2
 40
0.375
 49
0.25
 49
-0.125
  0
LTYPE
  2
BYGG-027036$0$DOT
 70
     0
  3
...............................................
 72
    65
 73
     2
 40
0.25
 49
0.0
 49
-0.25
  0
LTYPE
  2
BYGG-027036$0$CENTER
 70
     0
  3
____ _ ____ _ ____ _ ____ _ ____ _ ____ _ ____
 72
    65
 73
     4
 40
0.6
 49
0.375
 49
-0.075
 49
0.075
 49
-0.075
  0
LTYPE
  2
BYGG-033291$0$NEWDOT
 70
     0
  3
____ . ____ . ____ . ____ . ____ . ____ . ____
 72
    65
 73
     4
 40
2.0
 49
1.0
 49
-0.5
 49
0.0
 49
-0.5
  0
LTYPE
  2
BYGG-033291$0$DASHDOT
 70
     0
  3
__ . __ . __ . __ . __ . __ . __ . __ . __ . __
 72
    65
 73
     4
 40
1.0
 49
0.5
 49
-0.25
 49
0.0
 49
-0.25
  0
LTYPE
  2
BYGG-033291$0$DASHED
 70
     0
  3
__ __ __ __ __ __ __ __ __ __ __ __ __ __ __
 72
    65
 73
     2
 40
0.75
 49
0.5
 49
-0.25
  0
LTYPE
  2
BYGG-033291$0$PHANTOM
 70
     0
  3
Phantom ______  __  __  ______  __  __  ______
 72
    65
 73
     6
 40
63.5
 49
31.75
 49
-6.3499999999999988
 49
6.3499999999999988
 49
-6.3499999999999988
 49
6.3499999999999988
 49
-6.3499999999999988
  0
LTYPE
  2
BYGG-029021$0$NEWDOT
 70
     0
  3
____ . ____ . ____ . ____ . ____ . ____ . ____
 72
    65
 73
     4
 40
2.0
 49
1.0
 49
-0.5
 49
0.0
 49
-0.5
  0
LTYPE
  2
BYGG-029021$0$DASHDOT
 70
     0
  3
__ . __ . __ . __ . __ . __ . __ . __ . __ . __
 72
    65
 73
     4
 40
1.0
 49
0.5
 49
-0.25
 49
0.0
 49
-0.25
  0
LTYPE
  2
BYGG-029021$0$DASHED
 70
     0
  3
__ __ __ __ __ __ __ __ __ __ __ __ __ __ __
 72
    65
 73
     2
 40
0.75
 49
0.5
 49
-0.25
  0
LTYPE
  2
BYGG-029021$0$PHANTOM
 70
     0
  3
Phantom ______  __  __  ______  __  __  ______
 72
    65
 73
     6
 40
63.5
 49
31.75
 49
-6.3499999999999988
 49
6.3499999999999988
 49
-6.3499999999999988
 49
6.3499999999999988
 49
-6.3499999999999988
  0
LTYPE
  2
BYGG-029021$0$DASHED2
 70
     0
  3
_ _ _ _ _ _ _ _ _ _ _ _ _ _ _ _ _ _ _ _ _ _ _ _ _ _ _ _ _ _ _
 72
    65
 73
     2
 40
0.375
 49
0.25
 49
-0.125
  0
LTYPE
  2
BYGG-01409101$0$DASHDOT
 70
     0
  3
__ . __ . __ . __ . __ . __ . __ . __ . __ . __
 72
    65
 73
     4
 40
1.0
 49
0.5
 49
-0.25
 49
0.0
 49
-0.25
  0
LTYPE
  2
BYGG-01409101$0$HIDDEN
 70
     0
  3
_ _ _ _ _ _ _ _ _ _ _ _ _ _ _ _ _ _ _ _ _ _ _
 72
    65
 73
     2
 40
0.375
 49
0.25
 49
-0.125
  0
LTYPE
  2
BYGG-030601$0$NEWDOT
 70
     0
  3
____ . ____ . ____ . ____ . ____ . ____ . ____
 72
    65
 73
     4
 40
2.0
 49
1.0
 49
-0.5
 49
0.0
 49
-0.5
  0
LTYPE
  2
BYGG-030601$0$ZIGZAG
 70
     0
  3
Zig zag /\/\/\/\/\/\/\/\/\/\/\/\/\/\/\/\/\/\/\/\/\/\/\/
 72
    65
 73
     4
 40
20.32254
 49
0.00254
 49
-5.0800000000000001
 49
-10.16
 49
-5.0800000000000001
  0
LTYPE
  2
BYGG-025060$0$DASHDOT
 70
     0
  3
__ . __ . __ . __ . __ . __ . __ . __ . __ . __
 72
    65
 73
     4
 40
1.0
 49
0.5
 49
-0.25
 49
0.0
 49
-0.25
  0
LTYPE
  2
BYGG-027036$0$ALF
 70
     0
  3
*alf,- - - - - - - - - - - - -
 72
    65
 73
     2
 40
0.3
 49
0.1
 49
-0.2
  0
LTYPE
  2
BYGG-027036$0$CENTRE2
 70
     0
  3
___ _ ___ _ ___ _ ___ _ ___ _ ___ _ ___ _ ___ _
 72
    65
 73
     4
 40
28.574999999999999
 49
19.050000000000001
 49
-3.1749999999999989
 49
3.1749999999999989
 49
-3.1749999999999989
  0
LTYPE
  2
BYGG-029021$0$PHANTOM2
 70
     0
  3
Phantom (.5x) ___ _ _ ___ _ _ ___ _ _ ___ _ _
 72
    65
 73
     6
 40
1.25
 49
0.625
 49
-0.125
 49
0.125
 49
-0.125
 49
0.125
 49
-0.125
  0
LTYPE
  2
BYGG-024800$0$DASHDOT
 70
     0
  3
__ . __ . __ . __ . __ . __ . __ . __ . __ . __
 72
    65
 73
     4
 40
1.0
 49
0.5
 49
-0.25
 49
0.0
 49
-0.25
  0
LTYPE
  2
BYGG-01409101$0$PHANTOM2
 70
     0
  3
Phantom (.5x) ___ _ _ ___ _ _ ___ _ _ ___ _ _
 72
    65
 73
     6
 40
1.25
 49
0.625
 49
-0.125
 49
0.125
 49
-0.125
 49
0.125
 49
-0.125
  0
LTYPE
  2
BYGG-030601$0$PHANTOM2
 70
     0
  3
Phantom (.5x) ___ _ _ ___ _ _ ___ _ _ ___ _ _
 72
    65
 73
     6
 40
1.25
 49
0.625
 49
-0.125
 49
0.125
 49
-0.125
 49
0.125
 49
-0.125
  0
LTYPE
  2
BYGG-014090$0$PHANTOM2
 70
     0
  3
Phantom (.5x) ___ _ _ ___ _ _ ___ _ _ ___ _ _
 72
    65
 73
     6
 40
1.25
 49
0.625
 49
-0.125
 49
0.125
 49
-0.125
 49
0.125
 49
-0.125
  0
LTYPE
  2
BYGG-01409301$0$PHANTOM2
 70
     0
  3
Phantom (.5x) ___ _ _ ___ _ _ ___ _ _ ___ _ _
 72
    65
 73
     6
 40
1.25
 49
0.625
 49
-0.125
 49
0.125
 49
-0.125
 49
0.125
 49
-0.125
  0
ENDTAB
  0
TABLE
  2
LAYER
 70
   220
  0
LAYER
  2
0
 70
     0
 62
     7
  6
CONTINUOUS
  0
LAYER
  2
DEFPOINTS
 70
     0
 62
     7
  6
CONTINUOUS
  0
LAYER
  2
SAPA_LIGHT
 70
     1
 62
     1
  6
CONTINUOUS
  0
LAYER
  2
SAPA_ARTIKELNR
 70
     0
 62
     4
  6
CONTINUOUS
  0
LAYER
  2
BYGG-027036$0$DIM
 70
     4
 62
     5
  6
CONTINUOUS
  0
LAYER
  2
BYGG-027036$0$KON
 70
     4
 62
     7
  6
CONTINUOUS
  0
LAYER
  2
SAPA_ISOLATOR
 70
     0
 62
     4
  6
CONTINUOUS
  0
LAYER
  2
SAPA_MATT
 70
     0
 62
     1
  6
CONTINUOUS
  0
LAYER
  2
SAPA_GLAS
 70
     0
 62
     4
  6
CONTINUOUS
  0
LAYER
  2
SAPA_FOGBAND
 70
     0
 62
     2
  6
CONTINUOUS
  0
LAYER
  2
SAPA_PROFIL
 70
     0
 62
     7
  6
CONTINUOUS
  0
ENDTAB
  0
TABLE
  2
STYLE
 70
    60
  0
STYLE
  2
STANDARD
 70
     0
 40
0.0
 41
1.0
 50
0.0
 71
     0
 42
0.2
  3
txt
  4

  0
STYLE
  2
ISO
 70
     0
 40
0.0
 41
1.0
 50
0.0
 71
     0
 42
3.5
  3
txt
  4

  0
STYLE
  2

 70
     1
 40
0.0
 41
1.0
 50
0.0
 71
     0
 42
0.2
  3
ltypeshp.shx
  4

  0
STYLE
  2
BYGG-019434$0$STANDARD
 70
     0
 40
0.0
 41
1.0
 50
0.0
 71
     0
 42
0.2
  3
txt
  4

  0
STYLE
  2
BYGG-019434$0$ISO
 70
     0
 40
0.0
 41
1.0
 50
0.0
 71
     0
 42
3.5
  3
txt
  4

  0
STYLE
  2
BYGG-01472602$0$STANDARD
 70
     0
 40
0.0
 41
1.0
 50
0.0
 71
     0
 42
0.2
  3
txt
  4

  0
STYLE
  2
BYGG-01472602$0$ISO
 70
     0
 40
0.0
 41
1.0
 50
0.0
 71
     0
 42
2.5
  3
isocp3.shx
  4

  0
STYLE
  2
BYGG-019437$0$STANDARD
 70
     0
 40
0.0
 41
1.0
 50
0.0
 71
     0
 42
0.2
  3
txt
  4

  0
STYLE
  2
BYGG-019437$0$ISO
 70
     0
 40
0.0
 41
1.0
 50
0.0
 71
     0
 42
3.5
  3
txt
  4

  0
STYLE
  2
BYGG-023163$0$STANDARD
 70
     0
 40
0.0
 41
1.0
 50
0.0
 71
     0
 42
0.2
  3
txt
  4

  0
STYLE
  2
BYGG-023163$0$ISO
 70
     0
 40
0.0
 41
1.0
 50
0.0
 71
     0
 42
3.5
  3
txt
  4

  0
STYLE
  2
BYGG-020272$0$STANDARD
 70
     0
 40
0.0
 41
1.0
 50
0.0
 71
     0
 42
0.2
  3
txt
  4

  0
STYLE
  2
BYGG-020272$0$ISO
 70
     0
 40
0.0
 41
1.0
 50
0.0
 71
     0
 42
3.5
  3
isocp3.shx
  4

  0
STYLE
  2
BYGG-014014$0$STANDARD
 70
     0
 40
0.0
 41
1.0
 50
0.0
 71
     0
 42
0.2
  3
txt
  4

  0
STYLE
  2
BYGG-030661$0$STANDARD
 70
     0
 40
0.0
 41
1.0
 50
0.0
 71
     0
 42
0.2
  3
txt
  4

  0
STYLE
  2
BYGG-030661$0$ISO
 70
     0
 40
0.0
 41
1.0
 50
0.0
 71
     0
 42
3.5
  3
txt
  4

  0
STYLE
  2
BYGG-030159$0$STANDARD
 70
     0
 40
0.0
 41
1.0
 50
0.0
 71
     0
 42
0.2
  3
txt
  4

  0
STYLE
  2
BYGG-030159$0$ISO
 70
     0
 40
0.0
 41
1.0
 50
0.0
 71
     0
 42
3.5
  3
txt
  4

  0
STYLE
  2
BYGG-033291$0$STANDARD
 70
     0
 40
0.0
 41
1.0
 50
0.0
 71
     0
 42
0.2
  3
txt
  4

  0
STYLE
  2
BYGG-033291$0$ISO
 70
     0
 40
0.0
 41
1.0
 50
0.0
 71
     0
 42
3.5
  3
txt
  4

  0
STYLE
  2
BYGG-025060$0$STANDARD
 70
     0
 40
0.0
 41
1.0
 50
0.0
 71
     0
 42
0.2
  3
txt
  4

  0
STYLE
  2
BYGG-025060$0$ISO
 70
     0
 40
0.0
 41
1.0
 50
0.0
 71
     0
 42
3.5
  3
txt
  4

  0
STYLE
  2
BYGG-012216$0$STANDARD
 70
     0
 40
0.0
 41
1.0
 50
0.0
 71
     0
 42
0.2
  3
txt
  4

  0
STYLE
  2
BYGG-012216$0$ISO
 70
     0
 40
0.0
 41
1.0
 50
0.0
 71
     0
 42
3.5
  3
txt
  4

  0
STYLE
  2
BYGG-028980$0$STANDARD
 70
     0
 40
0.0
 41
1.0
 50
0.0
 71
     0
 42
0.2
  3
txt
  4

  0
STYLE
  2
BYGG-028980$0$ISO
 70
     0
 40
0.0
 41
1.0
 50
0.0
 71
     0
 42
3.5
  3
txt
  4

  0
STYLE
  2
BYGG-033168$0$STANDARD
 70
     0
 40
0.0
 41
1.0
 50
0.0
 71
     0
 42
0.2
  3
txt
  4

  0
STYLE
  2
BYGG-033168$0$ISO
 70
     0
 40
0.0
 41
1.0
 50
0.0
 71
     0
 42
3.5
  3
txt
  4

  0
STYLE
  2
BYGG-027036$0$STANDARD
 70
     0
 40
0.0
 41
1.0
 50
0.0
 71
     0
 42
0.2
  3
txt
  4

  0
STYLE
  2
BYGG-027036$0$ISO
 70
     0
 40
0.0
 41
1.0
 50
0.0
 71
     0
 42
3.5
  3
txt
  4

  0
STYLE
  2
BYGG-027036$0$SIMPLEX
 70
     0
 40
0.0
 41
1.0
 50
0.0
 71
     0
 42
0.4
  3
simplex
  4

  0
STYLE
  2
BYGG-027036$0$ITALIC
 70
     0
 40
0.0
 41
1.0
 50
0.0
 71
     0
 42
0.4
  3
ITALIC
  4

  0
STYLE
  2
BYGG-027036$0$SYMBOL1
 70
     0
 40
0.0
 41
1.0
 50
0.0
 71
     0
 42
0.2
  3
SIMPLEX.SHX
  4

  0
STYLE
  2
BYGG-027036$0$MONOTXT
 70
     0
 40
0.2
 41
1.0
 50
0.0
 71
     0
 42
0.2
  3
MONOTXT
  4

  0
STYLE
  2
BYGG-027036$0$TIMES
 70
     0
 40
0.0
 41
1.0
 50
0.0
 71
     0
 42
100.0
  3
txt
  4

  0
STYLE
  2
BYGG-027036$0$ROMANS
 70
     0
 40
0.0
 41
1.0
 50
0.0
 71
     0
 42
5.0
  3
romans
  4

  0
STYLE
  2
BYGG-027036$0$SEACAD_ARIAL
 70
     0
 40
0.0
 41
1.0
 50
0.0
 71
     0
 42
0.2
  3
txt
  4

  0
STYLE
  2
BYGG-027036$0$ANNOTATIVE
 70
     0
 40
0.0
 41
1.0
 50
0.0
 71
     0
 42
0.2
  3
txt
  4

  0
STYLE
  2
BYGG-019610$0$STANDARD
 70
     0
 40
0.0
 41
1.0
 50
0.0
 71
     0
 42
0.2
  3
txt
  4

  0
STYLE
  2
BYGG-019610$0$ISO
 70
     0
 40
0.0
 41
1.0
 50
0.0
 71
     0
 42
3.5
  3
txt
  4

  0
STYLE
  2
BYGG-029021$0$STANDARD
 70
     0
 40
0.0
 41
1.0
 50
0.0
 71
     0
 42
0.2
  3
txt
  4

  0
STYLE
  2
BYGG-029021$0$ISO
 70
     0
 40
0.0
 41
1.0
 50
0.0
 71
     0
 42
3.5
  3
txt
  4

  0
STYLE
  2
BYGG-029021$0$ANNOTATION
 70
     0
 40
0.0
 41
1.0
 50
0.0
 71
     0
 42
0.2
  3
txt
  4

  0
STYLE
  2
BYGG-029021$0$COTATION
 70
     0
 40
0.0
 41
1.0
 50
0.0
 71
     0
 42
0.2
  3
txt
  4

  0
STYLE
  2
BYGG-029021$0$ANNOTATIVE
 70
     0
 40
0.0
 41
1.0
 50
0.0
 71
     0
 42
0.2
  3
txt
  4

  0
STYLE
  2
BYGG-024800$0$STANDARD
 70
     0
 40
0.0
 41
1.0
 50
0.0
 71
     0
 42
0.2
  3
txt
  4

  0
STYLE
  2
BYGG-024800$0$ISO
 70
     0
 40
0.0
 41
1.0
 50
0.0
 71
     0
 42
3.5
  3
txt
  4

  0
STYLE
  2
BYGG-024807$0$STANDARD
 70
     0
 40
0.0
 41
1.0
 50
0.0
 71
     0
 42
0.2
  3
txt
  4

  0
STYLE
  2
BYGG-024807$0$ISO
 70
     0
 40
0.0
 41
1.0
 50
0.0
 71
     0
 42
3.5
  3
txt
  4

  0
STYLE
  2
BYGG-024807$0$ANNOTATIVE
 70
     0
 40
0.0
 41
1.0
 50
0.0
 71
     0
 42
0.2
  3
txt
  4

  0
STYLE
  2
BYGG-01409101$0$STANDARD
 70
     0
 40
0.0
 41
1.0
 50
0.0
 71
     0
 42
0.4
  3
txt
  4

  0
STYLE
  2
BYGG-01409101$0$SIMPLEX
 70
     0
 40
0.0
 41
1.0
 50
0.0
 71
     0
 42
0.2
  3
simplex
  4

  0
STYLE
  2
BYGG-036634$0$STANDARD
 70
     0
 40
0.0
 41
1.0
 50
0.0
 71
     0
 42
0.2
  3
txt
  4

  0
STYLE
  2
BYGG-036634$0$ISO
 70
     0
 40
0.0
 41
1.0
 50
0.0
 71
     0
 42
3.5
  3
txt
  4

  0
STYLE
  2
BYGG-030601$0$STANDARD
 70
     0
 40
0.0
 41
1.0
 50
0.0
 71
     0
 42
0.2
  3
txt
  4

  0
STYLE
  2
BYGG-030601$0$ISO
 70
     0
 40
0.0
 41
1.0
 50
0.0
 71
     0
 42
3.5
  3
txt
  4

  0
STYLE
  2
BYGG-014090$0$STANDARD
 70
     0
 40
0.0
 41
1.0
 50
0.0
 71
     0
 42
0.2
  3
txt
  4

  0
STYLE
  2
BYGG-014090$0$SIMPLEX
 70
     0
 40
0.0
 41
1.0
 50
0.0
 71
     0
 42
0.2
  3
simplex
  4

  0
STYLE
  2
BYGG-01409301$0$STANDARD
 70
     0
 40
0.0
 41
1.0
 50
0.0
 71
     0
 42
0.4
  3
txt
  4

  0
STYLE
  2
BYGG-01409301$0$ANNOTATIVE
 70
     0
 40
0.0
 41
1.0
 50
0.0
 71
     0
 42
0.4
  3
txt
  4

  0
ENDTAB
  0
TABLE
  2
VIEW
 70
     0
  0
ENDTAB
  0
TABLE
  2
UCS
 70
     0
  0
ENDTAB
  0
TABLE
  2
APPID
 70
    52
  0
APPID
  2
ACAD
 70
     0
  0
APPID
  2
ACAD_DSTYLE_DIMTEXT_FILL
 70
     0
  0
APPID
  2
ACAD_DSTYLE_DIMEXT_LENGTH
 70
     0
  0
APPID
  2
ACAD_DSTYLE_DIMEXT_ENABLED
 70
     0
  0
APPID
  2
ACAD_DSTYLE_DIM_LINETYPE
 70
     0
  0
APPID
  2
ACAD_DSTYLE_DIM_EXT1_LINETYPE
 70
     0
  0
APPID
  2
ACAD_DSTYLE_DIM_EXT2_LINETYPE
 70
     0
  0
APPID
  2
ACAD_DSTYLE_DIMJOGGED_JOGA
 70
     0
  0
APPID
  2
ACAD_DSTYLE_DIMARC_LENGTH_
 70
     0
  0
APPID
  2
ACAD_PSEXT
 70
     0
  0
APPID
  2
ACAD_MLEADERVER
 70
     0
  0
APPID
  2
AME_SOL
 70
     0
  0
APPID
  2
AMG_ARCHIVE11
 70
     0
  0
APPID
  2
DCO15
 70
     0
  0
APPID
  2
ACAECLAYERSTANDARD
 70
     0
  0
APPID
  2
ACADANNOTATIVE
 70
     0
  0
APPID
  2
ACAD_EXEMPT_FROM_CAD_STANDARDS
 70
     0
  0
APPID
  2
ACDBDYNAMICBLOCKGUID
 70
     0
  0
APPID
  2
ACDBBLOCKREPETAG
 70
     0
  0
APPID
  2
ACAD_DSTYLE_DIMJAG
 70
     0
  0
APPID
  2
ACAD_DSTYLE_DIMTALN
 70
     0
  0
APPID
  2
RC_PROFILE
 70
     0
  0
APPID
  2
ACAUTHENVIRON
 70
     0
  0
APPID
  2
ACDBDYNAMICBLOCKTRUENAME
 70
     0
  0
APPID
  2
ACAD_NAV_VCDISPLAY
 70
     0
  0
APPID
  2
ACCMTRANSPARENCY
 70
     0
  0
APPID
  2
PE_URL
 70
     0
  0
APPID
  2
ACDBBLOCKREPBTAG
 70
     0
  0
APPID
  2
ACAD_DSTYLE_DIMRADIAL_EXTENSION
 70
     0
  0
APPID
  2
ACLAYERTOOLS
 70
     0
  0
APPID
  2
ACAD_OBJECT_CHANGE_GUID
 70
     0
  0
APPID
  2
AVE_RENDER
 70
     0
  0
APPID
  2
AVE_ENTITY_MATERIAL
 70
     0
  0
APPID
  2
AVE_FINISH
 70
     0
  0
APPID
  2
AVE_MATERIAL
 70
     0
  0
APPID
  2
AVE_GLOBAL
 70
     0
  0
APPID
  2
4M_RENDER
 70
     0
  0
APPID
  2
LIBMAN
 70
     0
  0
APPID
  2
AUTOBUILD
 70
     0
  0
APPID
  2
GRADIENTCOLOR1ACI
 70
     0
  0
APPID
  2
GRADIENTCOLOR2ACI
 70
     0
  0
APPID
  2
GENIUS_GENREC_14
 70
     0
  0
APPID
  2
GENIUS_GENOBJ-N-REC_13
 70
     0
  0
APPID
  2
GENIUS_GENODEF_13
 70
     0
  0
APPID
  2
GENIUS_GENTRA_14
 70
     0
  0
APPID
  2
GENIUS_GENOREF_13
 70
     0
  0
APPID
  2
GENIUS_GENSCREG_15
 70
     0
  0
APPID
  2
GENIUS_GENOBJ-N-SDF_13
 70
     0
  0
APPID
  2
ACADANNOPO
 70
     0
  0
APPID
  2
ACADBPTGRAPHNODEID
 70
     0
  0
APPID
  2
ACDBATTR
 70
     0
  0
APPID
  2
AEC_XDATA_BOUND_SPACE
 70
     0
  0
ENDTAB
  0
TABLE
  2
DIMSTYLE
 70
    53
  0
DIMSTYLE
  2
STANDARD
 70
     0
  3

  4

  5

  6

  7

 40
1.0
 41
0.18
 42
0.0625
 43
0.38
 44
0.18
 45
0.0
 46
0.0
 47
0.0
 48
0.0
140
0.18
141
0.09
142
0.0
143
25.399999999999999
144
1.0
145
0.0
146
1.0
147
0.09
 71
     0
 72
     0
 73
     1
 74
     1
 75
     0
 76
     0
 77
     0
 78
     0
170
     0
171
     2
172
     0
173
     0
174
     0
175
     0
176
     0
177
     0
178
     0
  0
DIMSTYLE
  2
MASKIN
 70
     0
  3

  4

  5

  6

  7

 40
0.0
 41
3.0
 42
1.5
 43
10.0
 44
1.5
 45
0.0
 46
0.0
 47
0.0
 48
0.0
140
3.0
141
-5.0
142
0.0
143
25.399999999999999
144
-1.0
145
0.0
146
1.0
147
1.0
 71
     0
 72
     0
 73
     0
 74
     0
 75
     0
 76
     0
 77
     1
 78
     8
170
     0
171
     0
172
     1
173
     0
174
     0
175
     0
176
   256
177
   256
178
     2
  0
DIMSTYLE
  2
BYGG-019434$0$STANDARD
 70
     0
  3

  4

  5

  6

  7

 40
1.0
 41
0.18
 42
0.0625
 43
0.38
 44
0.18
 45
0.0
 46
0.0
 47
0.0
 48
0.0
140
0.18
141
0.09
142
0.0
143
25.399999999999999
144
1.0
145
0.0
146
1.0
147
0.09
 71
     0
 72
     0
 73
     1
 74
     1
 75
     0
 76
     0
 77
     0
 78
     0
170
     0
171
     2
172
     0
173
     0
174
     0
175
     0
176
     0
177
     0
178
     0
  0
DIMSTYLE
  2
BYGG-019434$0$MASKIN
 70
     0
  3

  4

  5

  6

  7

 40
0.0
 41
3.0
 42
1.5
 43
10.0
 44
1.5
 45
0.0
 46
0.0
 47
0.0
 48
0.0
140
3.0
141
-5.0
142
0.0
143
25.399999999999999
144
-1.0
145
0.0
146
1.0
147
1.0
 71
     0
 72
     0
 73
     0
 74
     0
 75
     0
 76
     0
 77
     1
 78
     8
170
     0
171
     0
172
     1
173
     0
174
     0
175
     0
176
   256
177
   256
178
     2
  0
DIMSTYLE
  2
BYGG-01472602$0$STANDARD
 70
     0
  3

  4

  5

  6

  7

 40
1.0
 41
0.18
 42
0.0625
 43
0.38
 44
0.18
 45
0.0
 46
0.0
 47
0.0
 48
0.0
140
0.18
141
0.09
142
0.0
143
25.399999999999999
144
1.0
145
0.0
146
1.0
147
0.09
 71
     0
 72
     0
 73
     1
 74
     1
 75
     0
 76
     0
 77
     0
 78
     0
170
     0
171
     2
172
     0
173
     0
174
     0
175
     0
176
     0
177
     0
178
     0
  0
DIMSTYLE
  2
BYGG-01472602$0$MASKIN
 70
     0
  3

  4

  5

  6

  7

 40
0.0
 41
3.0
 42
1.5
 43
10.0
 44
1.5
 45
0.0
 46
0.0
 47
0.0
 48
0.0
140
3.0
141
-5.0
142
0.0
143
25.399999999999999
144
-1.0
145
0.0
146
1.0
147
1.0
 71
     0
 72
     0
 73
     0
 74
     1
 75
     0
 76
     0
 77
     1
 78
     8
170
     0
171
     0
172
     1
173
     0
174
     0
175
     0
176
   256
177
   256
178
     2
  0
DIMSTYLE
  2
BYGG-019437$0$STANDARD
 70
     0
  3

  4

  5

  6

  7

 40
1.0
 41
0.18
 42
0.0625
 43
0.38
 44
0.18
 45
0.0
 46
0.0
 47
0.0
 48
0.0
140
0.18
141
0.09
142
0.0
143
25.399999999999999
144
1.0
145
0.0
146
1.0
147
0.09
 71
     0
 72
     0
 73
     1
 74
     1
 75
     0
 76
     0
 77
     0
 78
     0
170
     0
171
     2
172
     0
173
     0
174
     0
175
     0
176
     0
177
     0
178
     0
  0
DIMSTYLE
  2
BYGG-019437$0$MASKIN
 70
     0
  3

  4

  5

  6

  7

 40
0.0
 41
3.0
 42
1.5
 43
10.0
 44
1.5
 45
0.0
 46
0.0
 47
0.0
 48
0.0
140
3.0
141
-5.0
142
0.0
143
25.399999999999999
144
-1.0
145
0.0
146
1.0
147
1.0
 71
     0
 72
     0
 73
     0
 74
     0
 75
     0
 76
     0
 77
     1
 78
     8
170
     0
171
     0
172
     1
173
     0
174
     0
175
     0
176
   256
177
   256
178
     2
  0
DIMSTYLE
  2
BYGG-023163$0$STANDARD
 70
     0
  3

  4

  5

  6

  7

 40
1.0
 41
0.18
 42
0.0625
 43
0.38
 44
0.18
 45
0.0
 46
0.0
 47
0.0
 48
0.0
140
0.18
141
0.09
142
0.0
143
25.399999999999999
144
1.0
145
0.0
146
1.0
147
0.09
 71
     0
 72
     0
 73
     1
 74
     1
 75
     0
 76
     0
 77
     0
 78
     0
170
     0
171
     2
172
     0
173
     0
174
     0
175
     0
176
     0
177
     0
178
     0
  0
DIMSTYLE
  2
BYGG-023163$0$MASKIN
 70
     0
  3

  4

  5

  6

  7

 40
0.0
 41
3.0
 42
1.5
 43
10.0
 44
1.5
 45
0.0
 46
0.0
 47
0.0
 48
0.0
140
3.0
141
-5.0
142
0.0
143
25.399999999999999
144
-1.0
145
0.0
146
1.0
147
1.0
 71
     0
 72
     0
 73
     0
 74
     0
 75
     0
 76
     0
 77
     1
 78
     8
170
     0
171
     0
172
     1
173
     0
174
     0
175
     0
176
   256
177
   256
178
     2
  0
DIMSTYLE
  2
BYGG-020272$0$STANDARD
 70
     0
  3

  4

  5

  6

  7

 40
1.0
 41
0.18
 42
0.0625
 43
0.38
 44
0.18
 45
0.0
 46
0.0
 47
0.0
 48
0.0
140
0.18
141
0.09
142
0.0
143
25.399999999999999
144
1.0
145
0.0
146
1.0
147
0.09
 71
     0
 72
     0
 73
     1
 74
     1
 75
     0
 76
     0
 77
     0
 78
     0
170
     0
171
     2
172
     0
173
     0
174
     0
175
     0
176
     0
177
     0
178
     0
  0
DIMSTYLE
  2
BYGG-020272$0$MASKIN
 70
     0
  3

  4

  5

  6

  7

 40
0.0
 41
3.0
 42
1.5
 43
10.0
 44
1.5
 45
0.0
 46
0.0
 47
0.0
 48
0.0
140
3.0
141
-5.0
142
0.0
143
25.399999999999999
144
-1.0
145
0.0
146
1.0
147
1.0
 71
     0
 72
     0
 73
     0
 74
     0
 75
     0
 76
     0
 77
     1
 78
     8
170
     0
171
     0
172
     1
173
     0
174
     0
175
     0
176
   256
177
   256
178
     2
  0
DIMSTYLE
  2
BYGG-014014$0$STANDARD
 70
     0
  3

  4

  5

  6

  7

 40
1.0
 41
0.18
 42
0.0625
 43
0.38
 44
0.18
 45
0.0
 46
0.0
 47
0.0
 48
0.0
140
0.18
141
0.09
142
0.0
143
25.399999999999999
144
1.0
145
0.0
146
1.0
147
0.09
 71
     0
 72
     0
 73
     1
 74
     1
 75
     0
 76
     0
 77
     0
 78
     0
170
     0
171
     2
172
     0
173
     0
174
     0
175
     0
176
     0
177
     0
178
     0
  0
DIMSTYLE
  2
BYGG-030661$0$STANDARD
 70
     0
  3

  4

  5

  6

  7

 40
1.0
 41
0.18
 42
0.0625
 43
0.38
 44
0.18
 45
0.0
 46
0.0
 47
0.0
 48
0.0
140
0.18
141
0.09
142
0.0
143
25.399999999999999
144
1.0
145
0.0
146
1.0
147
0.09
 71
     0
 72
     0
 73
     1
 74
     1
 75
     0
 76
     0
 77
     0
 78
     0
170
     0
171
     2
172
     0
173
     0
174
     0
175
     0
176
     0
177
     0
178
     0
  0
DIMSTYLE
  2
BYGG-030661$0$MASKIN
 70
     0
  3

  4

  5

  6

  7

 40
0.0
 41
3.0
 42
1.5
 43
10.0
 44
1.5
 45
0.0
 46
0.0
 47
0.0
 48
0.0
140
3.0
141
-5.0
142
0.0
143
25.399999999999999
144
-1.0
145
0.0
146
1.0
147
1.0
 71
     0
 72
     0
 73
     0
 74
     0
 75
     0
 76
     0
 77
     1
 78
     8
170
     0
171
     0
172
     1
173
     0
174
     0
175
     0
176
   256
177
   256
178
     2
  0
DIMSTYLE
  2
BYGG-030159$0$STANDARD
 70
     0
  3

  4

  5

  6

  7

 40
1.0
 41
0.18
 42
0.0625
 43
0.38
 44
0.18
 45
0.0
 46
0.0
 47
0.0
 48
0.0
140
0.18
141
0.09
142
0.0
143
25.399999999999999
144
1.0
145
0.0
146
1.0
147
0.09
 71
     0
 72
     0
 73
     1
 74
     1
 75
     0
 76
     0
 77
     0
 78
     0
170
     0
171
     2
172
     0
173
     0
174
     0
175
     0
176
     0
177
     0
178
     0
  0
DIMSTYLE
  2
BYGG-030159$0$MASKIN
 70
     0
  3

  4

  5

  6

  7

 40
0.0
 41
3.0
 42
1.5
 43
10.0
 44
1.5
 45
0.0
 46
0.0
 47
0.0
 48
0.0
140
3.0
141
-5.0
142
0.0
143
25.399999999999999
144
-1.0
145
0.0
146
1.0
147
1.0
 71
     0
 72
     0
 73
     0
 74
     0
 75
     0
 76
     0
 77
     1
 78
     8
170
     0
171
     0
172
     1
173
     0
174
     0
175
     0
176
   256
177
   256
178
     2
  0
DIMSTYLE
  2
BYGG-033291$0$STANDARD
 70
     0
  3

  4

  5

  6

  7

 40
1.0
 41
0.18
 42
0.0625
 43
0.38
 44
0.18
 45
0.0
 46
0.0
 47
0.0
 48
0.0
140
0.18
141
0.09
142
0.0
143
25.399999999999999
144
1.0
145
0.0
146
1.0
147
0.09
 71
     0
 72
     0
 73
     1
 74
     1
 75
     0
 76
     0
 77
     0
 78
     0
170
     0
171
     2
172
     0
173
     0
174
     0
175
     0
176
     0
177
     0
178
     0
  0
DIMSTYLE
  2
BYGG-033291$0$MASKIN
 70
     0
  3

  4

  5

  6

  7

 40
0.0
 41
3.0
 42
1.5
 43
10.0
 44
1.5
 45
0.0
 46
0.0
 47
0.0
 48
0.0
140
3.0
141
-5.0
142
0.0
143
25.399999999999999
144
-1.0
145
0.0
146
1.0
147
1.0
 71
     0
 72
     0
 73
     0
 74
     0
 75
     0
 76
     0
 77
     1
 78
     8
170
     0
171
     0
172
     1
173
     0
174
     0
175
     0
176
   256
177
   256
178
     2
  0
DIMSTYLE
  2
BYGG-025060$0$MASKIN
 70
     0
  3

  4

  5

  6

  7

 40
0.0
 41
3.0
 42
1.5
 43
10.0
 44
1.5
 45
0.0
 46
0.0
 47
0.0
 48
0.0
140
3.0
141
-5.0
142
0.0
143
25.399999999999999
144
-1.0
145
0.0
146
1.0
147
1.0
 71
     0
 72
     0
 73
     0
 74
     0
 75
     0
 76
     0
 77
     1
 78
     8
170
     0
171
     0
172
     1
173
     0
174
     0
175
     0
176
   256
177
   256
178
     2
  0
DIMSTYLE
  2
BYGG-025060$0$STANDARD
 70
     0
  3

  4

  5

  6

  7

 40
1.0
 41
0.18
 42
0.0625
 43
0.38
 44
0.18
 45
0.0
 46
0.0
 47
0.0
 48
0.0
140
0.18
141
0.09
142
0.0
143
25.399999999999999
144
1.0
145
0.0
146
1.0
147
0.09
 71
     0
 72
     0
 73
     1
 74
     1
 75
     0
 76
     0
 77
     0
 78
     0
170
     0
171
     2
172
     0
173
     0
174
     0
175
     0
176
     0
177
     0
178
     0
  0
DIMSTYLE
  2
BYGG-012216$0$MASKIN
 70
     0
  3

  4

  5

  6

  7

 40
0.0
 41
3.0
 42
1.5
 43
10.0
 44
1.5
 45
0.0
 46
0.0
 47
0.0
 48
0.0
140
3.0
141
-5.0
142
0.0
143
25.399999999999999
144
-1.0
145
0.0
146
1.0
147
1.0
 71
     0
 72
     0
 73
     0
 74
     0
 75
     0
 76
     0
 77
     1
 78
     8
170
     0
171
     0
172
     1
173
     0
174
     0
175
     0
176
   256
177
   256
178
     2
  0
DIMSTYLE
  2
BYGG-012216$0$STANDARD
 70
     0
  3

  4

  5

  6

  7

 40
1.0
 41
0.18
 42
0.0625
 43
0.38
 44
0.18
 45
0.0
 46
0.0
 47
0.0
 48
0.0
140
0.18
141
0.09
142
0.0
143
25.399999999999999
144
1.0
145
0.0
146
1.0
147
0.09
 71
     0
 72
     0
 73
     1
 74
     1
 75
     0
 76
     0
 77
     0
 78
     0
170
     0
171
     2
172
     0
173
     0
174
     0
175
     0
176
     0
177
     0
178
     0
  0
DIMSTYLE
  2
BYGG-028980$0$STANDARD
 70
     0
  3

  4

  5

  6

  7

 40
1.0
 41
0.18
 42
0.0625
 43
0.38
 44
0.18
 45
0.0
 46
0.0
 47
0.0
 48
0.0
140
0.18
141
0.09
142
0.0
143
25.399999999999999
144
1.0
145
0.0
146
1.0
147
0.09
 71
     0
 72
     0
 73
     1
 74
     1
 75
     0
 76
     0
 77
     0
 78
     0
170
     0
171
     2
172
     0
173
     0
174
     0
175
     0
176
     0
177
     0
178
     0
  0
DIMSTYLE
  2
BYGG-028980$0$MASKIN
 70
     0
  3

  4

  5

  6

  7

 40
0.0
 41
3.0
 42
1.5
 43
10.0
 44
1.5
 45
0.0
 46
0.0
 47
0.0
 48
0.0
140
3.0
141
-5.0
142
0.0
143
25.399999999999999
144
-1.0
145
0.0
146
1.0
147
1.0
 71
     0
 72
     0
 73
     0
 74
     0
 75
     0
 76
     0
 77
     1
 78
     8
170
     0
171
     0
172
     1
173
     0
174
     0
175
     0
176
   256
177
   256
178
     2
  0
DIMSTYLE
  2
BYGG-033168$0$STANDARD
 70
     0
  3

  4

  5

  6

  7

 40
1.0
 41
0.18
 42
0.0625
 43
0.38
 44
0.18
 45
0.0
 46
0.0
 47
0.0
 48
0.0
140
0.18
141
0.09
142
0.0
143
25.399999999999999
144
1.0
145
0.0
146
1.0
147
0.09
 71
     0
 72
     0
 73
     1
 74
     1
 75
     0
 76
     0
 77
     0
 78
     0
170
     0
171
     2
172
     0
173
     0
174
     0
175
     0
176
     0
177
     0
178
     0
  0
DIMSTYLE
  2
BYGG-033168$0$MASKIN
 70
     0
  3

  4

  5

  6

  7

 40
0.0
 41
3.0
 42
1.5
 43
10.0
 44
1.5
 45
0.0
 46
0.0
 47
0.0
 48
0.0
140
3.0
141
-5.0
142
0.0
143
25.399999999999999
144
-1.0
145
0.0
146
1.0
147
1.0
 71
     0
 72
     0
 73
     0
 74
     0
 75
     0
 76
     0
 77
     1
 78
     8
170
     0
171
     0
172
     1
173
     0
174
     0
175
     0
176
   256
177
   256
178
     2
  0
DIMSTYLE
  2
BYGG-027036$0$STANDARD
 70
     0
  3

  4

  5

  6

  7

 40
1.0
 41
0.18
 42
0.0625
 43
0.38
 44
0.18
 45
0.0
 46
0.0
 47
0.0
 48
0.0
140
0.18
141
0.09
142
0.0
143
25.399999999999999
144
1.0
145
0.0
146
1.0
147
0.09
 71
     0
 72
     0
 73
     1
 74
     1
 75
     0
 76
     0
 77
     0
 78
     0
170
     0
171
     2
172
     0
173
     0
174
     0
175
     0
176
     0
177
     0
178
     0
  0
DIMSTYLE
  2
BYGG-027036$0$MASKIN
 70
     0
  3

  4

  5

  6

  7

 40
0.0
 41
3.0
 42
1.5
 43
10.0
 44
1.5
 45
0.0
 46
0.0
 47
0.0
 48
0.0
140
3.0
141
-5.0
142
0.0
143
25.399999999999999
144
-1.0
145
0.0
146
1.0
147
1.0
 71
     0
 72
     0
 73
     0
 74
     0
 75
     0
 76
     0
 77
     1
 78
     8
170
     0
171
     0
172
     1
173
     0
174
     0
175
     0
176
   256
177
   256
178
     2
  0
DIMSTYLE
  2
BYGG-027036$0$STANDARD$4
 70
     0
  3

  4

  5

  6

  7

 40
1.0
 41
2.5
 42
2.0
 43
3.75
 44
1.0
 45
0.0
 46
0.0
 47
0.0
 48
0.0
140
5.0
141
3.0
142
0.0
143
0.0394
144
1.0
145
1.0
146
1.0
147
1.0
 71
     0
 72
     0
 73
     1
 74
     0
 75
     0
 76
     0
 77
     1
 78
     8
170
     0
171
     2
172
     1
173
     0
174
     0
175
     0
176
     5
177
     5
178
     5
  0
DIMSTYLE
  2
BYGG-027036$0$STANDARD$2
 70
     0
  3

  4

  5

  6

  7

 40
1.0
 41
2.5
 42
2.0
 43
3.75
 44
1.0
 45
0.0
 46
0.0
 47
0.0
 48
0.0
140
5.0
141
3.0
142
0.0
143
0.0394
144
1.0
145
1.0
146
1.0
147
1.0
 71
     0
 72
     0
 73
     1
 74
     0
 75
     0
 76
     0
 77
     1
 78
     8
170
     0
171
     2
172
     1
173
     0
174
     0
175
     0
176
     5
177
     5
178
     5
  0
DIMSTYLE
  2
BYGG-027036$0$DMST_1
 70
     0
  3

  4

  5

  6

  7

 40
1.0
 41
0.3500000000000001
 42
0.0
 43
7.0
 44
0.2
 45
0.0
 46
0.0
 47
0.0
 48
0.0
140
0.3500000000000001
141
0.0
142
0.0
143
25.399999999999999
144
1.0
145
0.0
146
1.0
147
0.09
 71
     0
 72
     0
 73
     0
 74
     0
 75
     0
 76
     0
 77
     1
 78
     9
170
     0
171
     2
172
     0
173
     0
174
     0
175
     0
176
     1
177
     1
178
     2
  0
DIMSTYLE
  2
BYGG-027036$0$ANNOTATIVE
 70
     0
  3

  4

  5

  6

  7

 40
1.0
 41
0.18
 42
0.0625
 43
0.38
 44
0.18
 45
0.0
 46
0.0
 47
0.0
 48
0.0
140
0.18
141
0.09
142
0.0
143
25.399999999999999
144
1.0
145
0.0
146
1.0
147
0.09
 71
     0
 72
     0
 73
     1
 74
     1
 75
     0
 76
     0
 77
     0
 78
     0
170
     0
171
     2
172
     0
173
     0
174
     0
175
     0
176
     0
177
     0
178
     0
  0
DIMSTYLE
  2
BYGG-019610$0$STANDARD
 70
     0
  3

  4

  5

  6

  7

 40
1.0
 41
0.18
 42
0.0625
 43
0.38
 44
0.18
 45
0.0
 46
0.0
 47
0.0
 48
0.0
140
0.18
141
0.09
142
0.0
143
25.399999999999999
144
1.0
145
0.0
146
1.0
147
0.09
 71
     0
 72
     0
 73
     1
 74
     1
 75
     0
 76
     0
 77
     0
 78
     0
170
     0
171
     2
172
     0
173
     0
174
     0
175
     0
176
     0
177
     0
178
     0
  0
DIMSTYLE
  2
BYGG-019610$0$MASKIN
 70
     0
  3

  4

  5

  6

  7

 40
0.0
 41
3.0
 42
1.5
 43
10.0
 44
1.5
 45
0.0
 46
0.0
 47
0.0
 48
0.0
140
3.0
141
-5.0
142
0.0
143
25.399999999999999
144
-1.0
145
0.0
146
1.0
147
1.0
 71
     0
 72
     0
 73
     0
 74
     0
 75
     0
 76
     0
 77
     1
 78
     8
170
     0
171
     0
172
     1
173
     0
174
     0
175
     0
176
   256
177
   256
178
     2
  0
DIMSTYLE
  2
BYGG-029021$0$STANDARD
 70
     0
  3

  4

  5

  6

  7

 40
1.0
 41
0.18
 42
0.0625
 43
0.38
 44
0.18
 45
0.0
 46
0.0
 47
0.0
 48
0.0
140
0.18
141
0.09
142
0.0
143
25.399999999999999
144
1.0
145
0.0
146
1.0
147
0.09
 71
     0
 72
     0
 73
     1
 74
     1
 75
     0
 76
     0
 77
     0
 78
     0
170
     0
171
     2
172
     0
173
     0
174
     0
175
     0
176
     0
177
     0
178
     0
  0
DIMSTYLE
  2
BYGG-029021$0$MASKIN
 70
     0
  3

  4

  5

  6

  7

 40
0.0
 41
3.0
 42
1.5
 43
10.0
 44
1.5
 45
0.0
 46
0.0
 47
0.0
 48
0.0
140
3.0
141
-5.0
142
0.0
143
25.399999999999999
144
-1.0
145
0.0
146
1.0
147
1.0
 71
     0
 72
     0
 73
     0
 74
     0
 75
     0
 76
     0
 77
     1
 78
     8
170
     0
171
     0
172
     1
173
     0
174
     0
175
     0
176
   256
177
   256
178
     2
  0
DIMSTYLE
  2
BYGG-029021$0$MASKIN1
 70
     0
  3

  4

  5

  6

  7

 40
0.0
 41
3.0
 42
1.5
 43
10.0
 44
1.5
 45
0.0
 46
0.0
 47
0.0
 48
0.0
140
3.0
141
-5.0
142
0.0
143
25.399999999999999
144
-1.0
145
0.0
146
1.0
147
1.0
 71
     0
 72
     0
 73
     0
 74
     0
 75
     0
 76
     0
 77
     1
 78
     8
170
     0
171
     0
172
     1
173
     0
174
     0
175
     0
176
   256
177
   256
178
   256
  0
DIMSTYLE
  2
BYGG-029021$0$COTATION_HUT
 70
     0
  3

  4

  5

  6

  7

 40
1.0
 41
0.25
 42
0.1
 43
3.75
 44
0.18
 45
0.0
 46
0.0
 47
0.0
 48
0.0
140
0.25
141
2.5
142
0.0
143
25.399999999999999
144
1.0
145
0.05
146
0.7000000000000002
147
0.09
 71
     1
 72
     0
 73
     0
 74
     0
 75
     0
 76
     0
 77
     1
 78
     0
170
     0
171
     2
172
     1
173
     0
174
     0
175
     0
176
     0
177
     0
178
     0
  0
DIMSTYLE
  2
BYGG-029021$0$ANNOTATIVE
 70
     0
  3

  4

  5

  6

  7

 40
1.0
 41
0.18
 42
0.0625
 43
0.38
 44
0.18
 45
0.0
 46
0.0
 47
0.0
 48
0.0
140
0.18
141
0.09
142
0.0
143
25.399999999999999
144
1.0
145
0.0
146
1.0
147
0.09
 71
     0
 72
     0
 73
     1
 74
     1
 75
     0
 76
     0
 77
     0
 78
     0
170
     0
171
     2
172
     0
173
     0
174
     0
175
     0
176
     0
177
     0
178
     0
  0
DIMSTYLE
  2
BYGG-024800$0$MASKIN
 70
     0
  3

  4

  5

  6

  7

 40
0.0
 41
3.0
 42
1.5
 43
10.0
 44
1.5
 45
0.0
 46
0.0
 47
0.0
 48
0.0
140
3.0
141
-5.0
142
0.0
143
25.399999999999999
144
-1.0
145
0.0
146
1.0
147
1.0
 71
     0
 72
     0
 73
     0
 74
     0
 75
     0
 76
     0
 77
     1
 78
     8
170
     0
171
     0
172
     1
173
     0
174
     0
175
     0
176
   256
177
   256
178
     2
  0
DIMSTYLE
  2
BYGG-024800$0$STANDARD
 70
     0
  3

  4

  5

  6

  7

 40
1.0
 41
0.18
 42
0.0625
 43
0.38
 44
0.18
 45
0.0
 46
0.0
 47
0.0
 48
0.0
140
0.18
141
0.09
142
0.0
143
25.399999999999999
144
1.0
145
0.0
146
1.0
147
0.09
 71
     0
 72
     0
 73
     1
 74
     1
 75
     0
 76
     0
 77
     0
 78
     0
170
     0
171
     2
172
     0
173
     0
174
     0
175
     0
176
     0
177
     0
178
     0
  0
DIMSTYLE
  2
BYGG-024807$0$MASKIN
 70
     0
  3

  4

  5

  6

  7

 40
0.0
 41
3.0
 42
1.5
 43
10.0
 44
1.5
 45
0.0
 46
0.0
 47
0.0
 48
0.0
140
3.0
141
-5.0
142
0.0
143
25.399999999999999
144
-1.0
145
0.0
146
1.0
147
1.0
 71
     0
 72
     0
 73
     0
 74
     0
 75
     0
 76
     0
 77
     1
 78
     8
170
     0
171
     0
172
     1
173
     0
174
     0
175
     0
176
   256
177
   256
178
     2
  0
DIMSTYLE
  2
BYGG-024807$0$STANDARD
 70
     0
  3

  4

  5

  6

  7

 40
1.0
 41
0.18
 42
0.0625
 43
0.38
 44
0.18
 45
0.0
 46
0.0
 47
0.0
 48
0.0
140
0.18
141
0.09
142
0.0
143
25.399999999999999
144
1.0
145
0.0
146
1.0
147
0.09
 71
     0
 72
     0
 73
     1
 74
     1
 75
     0
 76
     0
 77
     0
 78
     0
170
     0
171
     2
172
     0
173
     0
174
     0
175
     0
176
     0
177
     0
178
     0
  0
DIMSTYLE
  2
BYGG-024807$0$ANNOTATIVE
 70
     0
  3

  4

  5

  6

  7

 40
1.0
 41
0.18
 42
0.0625
 43
0.38
 44
0.18
 45
0.0
 46
0.0
 47
0.0
 48
0.0
140
0.18
141
0.09
142
0.0
143
25.399999999999999
144
1.0
145
0.0
146
1.0
147
0.09
 71
     0
 72
     0
 73
     1
 74
     1
 75
     0
 76
     0
 77
     0
 78
     0
170
     0
171
     2
172
     0
173
     0
174
     0
175
     0
176
     0
177
     0
178
     0
  0
DIMSTYLE
  2
BYGG-01409101$0$STANDARD
 70
     0
  3

  4

  5

  6

  7

 40
1.0
 41
0.18
 42
0.0625
 43
0.38
 44
0.18
 45
0.0
 46
0.0
 47
0.0
 48
0.0
140
0.18
141
0.09
142
0.0
143
25.399999999999999
144
1.0
145
0.0
146
1.0
147
0.09
 71
     0
 72
     0
 73
     1
 74
     1
 75
     0
 76
     0
 77
     0
 78
     0
170
     0
171
     2
172
     0
173
     0
174
     0
175
     0
176
     0
177
     0
178
     0
  0
DIMSTYLE
  2
BYGG-036634$0$STANDARD
 70
     0
  3

  4

  5

  6

  7

 40
1.0
 41
0.18
 42
0.0625
 43
0.38
 44
0.18
 45
0.0
 46
0.0
 47
0.0
 48
0.0
140
0.18
141
0.09
142
0.0
143
25.399999999999999
144
1.0
145
0.0
146
1.0
147
0.09
 71
     0
 72
     0
 73
     1
 74
     1
 75
     0
 76
     0
 77
     0
 78
     0
170
     0
171
     2
172
     0
173
     0
174
     0
175
     0
176
     0
177
     0
178
     0
  0
DIMSTYLE
  2
BYGG-036634$0$MASKIN
 70
     0
  3

  4

  5

  6

  7

 40
0.0
 41
3.0
 42
1.5
 43
10.0
 44
1.5
 45
0.0
 46
0.0
 47
0.0
 48
0.0
140
3.0
141
-5.0
142
0.0
143
25.399999999999999
144
-1.0
145
0.0
146
1.0
147
1.0
 71
     0
 72
     0
 73
     0
 74
     0
 75
     0
 76
     0
 77
     1
 78
     8
170
     0
171
     0
172
     1
173
     0
174
     0
175
     0
176
   256
177
   256
178
     2
  0
DIMSTYLE
  2
BYGG-030601$0$STANDARD
 70
     0
  3

  4

  5

  6

  7

 40
1.0
 41
0.18
 42
0.0625
 43
0.38
 44
0.18
 45
0.0
 46
0.0
 47
0.0
 48
0.0
140
0.18
141
0.09
142
0.0
143
25.399999999999999
144
1.0
145
0.0
146
1.0
147
0.09
 71
     0
 72
     0
 73
     1
 74
     1
 75
     0
 76
     0
 77
     0
 78
     0
170
     0
171
     2
172
     0
173
     0
174
     0
175
     0
176
     0
177
     0
178
     0
  0
DIMSTYLE
  2
BYGG-030601$0$MASKIN
 70
     0
  3

  4

  5

  6

  7

 40
0.0
 41
3.0
 42
1.5
 43
10.0
 44
1.5
 45
0.0
 46
0.0
 47
0.0
 48
0.0
140
3.0
141
-5.0
142
0.0
143
25.399999999999999
144
-1.0
145
0.0
146
1.0
147
1.0
 71
     0
 72
     0
 73
     0
 74
     0
 75
     0
 76
     0
 77
     1
 78
     8
170
     0
171
     0
172
     1
173
     0
174
     0
175
     0
176
   256
177
   256
178
     2
  0
DIMSTYLE
  2
BYGG-014090$0$STANDARD
 70
     0
  3

  4

  5

  6

  7

 40
1.0
 41
0.18
 42
0.0625
 43
0.38
 44
0.18
 45
0.0
 46
0.0
 47
0.0
 48
0.0
140
0.18
141
0.09
142
0.0
143
25.399999999999999
144
1.0
145
0.0
146
1.0
147
0.09
 71
     0
 72
     0
 73
     1
 74
     1
 75
     0
 76
     0
 77
     0
 78
     0
170
     0
171
     2
172
     0
173
     0
174
     0
175
     0
176
     0
177
     0
178
     0
  0
DIMSTYLE
  2
BYGG-01409301$0$STANDARD
 70
     0
  3

  4

  5

  6

  7

 40
1.0
 41
0.18
 42
0.0625
 43
0.38
 44
0.18
 45
0.0
 46
0.0
 47
0.0
 48
0.0
140
0.18
141
0.09
142
0.0
143
25.399999999999999
144
1.0
145
0.0
146
1.0
147
0.09
 71
     0
 72
     0
 73
     1
 74
     1
 75
     0
 76
     0
 77
     0
 78
     0
170
     0
171
     2
172
     0
173
     0
174
     0
175
     0
176
     0
177
     0
178
     0
  0
DIMSTYLE
  2
BYGG-01409301$0$ANNOTATIVE
 70
     0
  3

  4

  5

  6

  7

 40
1.0
 41
0.18
 42
0.0625
 43
0.38
 44
0.18
 45
0.0
 46
0.0
 47
0.0
 48
0.0
140
0.18
141
0.09
142
0.0
143
25.399999999999999
144
1.0
145
0.0
146
1.0
147
0.09
 71
     0
 72
     0
 73
     1
 74
     1
 75
     0
 76
     0
 77
     0
 78
     0
170
     0
171
     2
172
     0
173
     0
174
     0
175
     0
176
     0
177
     0
178
     0
  0
ENDTAB
  0
ENDSEC
  0
SECTION
  2
BLOCKS
  0
BLOCK
  8
0
  2
$MODEL_SPACE
 70
     0
 10
0.0
 20
0.0
 30
0.0
  3
$MODEL_SPACE
  1

  0
ENDBLK
  5
37
  8
0
  0
BLOCK
 67
     1
  8
0
  2
$PAPER_SPACE
 70
     0
 10
0.0
 20
0.0
 30
0.0
  3
$PAPER_SPACE
  1

  0
ENDBLK
  5
35
 67
     1
  8
0
  0
BLOCK
  8
0
  2
BYGG-027036$0$RH
 70
     2
 10
0.0
 20
0.0
 30
0.0
  3
BYGG-027036$0$RH
  1

  0
ATTDEF
  5
127C
  8
BYGG-027036$0$KON
 10
11.0
 20
2.2999999999999989
 30
0.0
 40
0.4400000000000001
  1

  7
BYGG-027036$0$SIMPLEX
 72
     4
 11
11.0
 21
2.2999999999999989
 31
0.0
  3
Benämning
  2
BENÄMNING
 70
     0
  0
ATTDEF
  5
127E
  8
BYGG-027036$0$KON
 10
11.0
 20
1.5
 30
0.0
 40
0.4400000000000001
  1

  7
BYGG-027036$0$SIMPLEX
 72
     4
 11
11.0
 21
1.5
 31
0.0
  3
Gummi-hårdhet-färg
  2
GUMMI-HÅRDHET-FÄRG
 70
     0
  0
ATTDEF
  5
127F
  8
BYGG-027036$0$KON
 10
11.0
 20
0.7
 30
0.0
 40
0.4400000000000001
  1

  7
BYGG-027036$0$SIMPLEX
 72
     4
 11
11.0
 21
0.7
 31
0.0
  3
Kund
  2
KUND
 70
     0
  0
ATTDEF
  5
1280
  8
BYGG-027036$0$KON
 10
18.399999999999999
 20
0.8
 30
0.0
 40
0.4
  1

  7
BYGG-027036$0$SIMPLEX
 72
     4
 11
18.399999999999999
 21
0.8
 31
0.0
  3
Rit.Nr:
  2
RIT.NR:
 70
     0
  0
ATTDEF
  5
1281
  8
BYGG-027036$0$KON
 10
18.399999999999999
 20
3.2000000000000002
 30
0.0
 40
0.4
  1

  7
BYGG-027036$0$SIMPLEX
 72
     4
 11
18.399999999999999
 21
3.2000000000000002
 31
0.0
  3
Det.Nr:
  2
DET.NR:
 70
     0
  0
ATTDEF
  5
1282
  8
BYGG-027036$0$KON
 10
18.800000000000001
 20
2.0
 30
0.0
 40
0.4
  1

  7
BYGG-027036$0$SIMPLEX
 72
     4
 11
18.800000000000001
 21
2.0
 31
0.0
  3
Skala:
  2
SKALA:
 70
     1
  0
ATTDEF
  5
1283
  8
BYGG-027036$0$KON
 10
3.6000000000000001
 20
1.8999999999999999
 30
0.0
 40
0.3
  1

  7
BYGG-027036$0$SIMPLEX
 72
     4
 11
3.6000000000000001
 21
1.8999999999999999
 31
0.0
  3
Datum
  2
DATUM
 70
     0
  0
ATTDEF
  5
1284
  8
BYGG-027036$0$KON
 10
3.399999999999999
 20
0.9
 30
0.0
 40
0.4
  1

  7
BYGG-027036$0$SIMPLEX
 72
     4
 11
3.399999999999999
 21
0.9
 31
0.0
  3
Ritad av:
  2
RITAD:
 70
     1
  0
ATTDEF
  5
1285
  8
BYGG-027036$0$KON
 10
3.1999999999999988
 20
5.2999999999999989
 30
0.0
 40
0.4
  1

  7
BYGG-027036$0$SIMPLEX
  3
Säljare:
  2
SÄLJARE
 70
     1
  0
ENDBLK
  5
1286
  8
0
  0
BLOCK
  8
0
  2
*D111
 70
     1
 10
0.0
 20
0.0
 30
0.0
  3
*D111
  1

  0
LINE
  5
18A9
  8
SAPA_MATT
 10
15.99999999999994
 20
-87.849999999999483
 30
0.0
 11
15.99999999999994
 21
-108.3138500465783
 31
0.0
  0
LINE
  5
18AA
  8
SAPA_MATT
 10
-16.00000000000011
 20
-87.849999999999483
 30
0.0
 11
-16.00000000000011
 21
-108.3138500465783
 31
0.0
  0
LINE
  5
18AB
  8
SAPA_MATT
 10
12.99999999999994
 20
-106.8138500465783
 30
0.0
 11
-13.00000000000011
 21
-106.8138500465783
 31
0.0
  0
SOLID
  5
18AC
  8
SAPA_MATT
 10
12.99999999999994
 20
-106.3138500465783
 30
0.0
 11
12.99999999999994
 21
-107.3138500465783
 31
0.0
 12
15.99999999999994
 22
-106.8138500465783
 32
0.0
 13
15.99999999999994
 23
-106.8138500465783
 33
0.0
  0
SOLID
  5
18AD
  8
SAPA_MATT
 10
-13.00000000000011
 20
-106.3138500465783
 30
0.0
 11
-13.00000000000011
 21
-107.3138500465783
 31
0.0
 12
-16.00000000000011
 22
-106.8138500465783
 32
0.0
 13
-16.00000000000011
 23
-106.8138500465783
 33
0.0
  0
INSERT
  5
18AE
  8
0
  2
*U123
 10
0.0
 20
0.0
 30
0.0
  0
POINT
  5
18AF
  8
DEFPOINTS
 62
     0
 10
15.99999999999994
 20
-86.349999999999483
 30
0.0
  0
POINT
  5
18B0
  8
DEFPOINTS
 62
     0
 10
-16.00000000000011
 20
-86.349999999999483
 30
0.0
  0
POINT
  5
18B1
  8
DEFPOINTS
 62
     0
 10
-16.00000000000011
 20
-106.8138500465783
 30
0.0
  0
ENDBLK
  5
1847
  8
0
  0
BLOCK
  8
0
  2
*D112
 70
     1
 10
0.0
 20
0.0
 30
0.0
  3
*D112
  1

  0
LINE
  5
18A0
  8
SAPA_MATT
 10
25.000000000000981
 20
65.499999999999488
 30
0.0
 11
25.000000000000981
 21
85.999999999999488
 31
0.0
  0
LINE
  5
18A1
  8
SAPA_MATT
 10
-25.0
 20
65.499999999999488
 30
0.0
 11
-25.0
 21
85.999999999999488
 31
0.0
  0
LINE
  5
18A2
  8
SAPA_MATT
 10
22.00000000000097
 20
84.499999999999488
 30
0.0
 11
-22.0
 21
84.499999999999488
 31
0.0
  0
SOLID
  5
18A3
  8
SAPA_MATT
 10
22.00000000000097
 20
84.999999999999474
 30
0.0
 11
22.00000000000097
 21
83.999999999999474
 31
0.0
 12
25.000000000000981
 22
84.499999999999488
 32
0.0
 13
25.000000000000981
 23
84.499999999999488
 33
0.0
  0
SOLID
  5
18A4
  8
SAPA_MATT
 10
-22.0
 20
84.999999999999474
 30
0.0
 11
-22.0
 21
83.999999999999474
 31
0.0
 12
-25.0
 22
84.499999999999488
 32
0.0
 13
-25.0
 23
84.499999999999488
 33
0.0
  0
INSERT
  5
18A5
  8
0
  2
*U122
 10
0.0
 20
0.0
 30
0.0
  0
POINT
  5
18A6
  8
DEFPOINTS
 62
     0
 10
25.000000000000981
 20
63.999999999999481
 30
0.0
  0
POINT
  5
18A7
  8
DEFPOINTS
 62
     0
 10
-25.0
 20
63.999999999999481
 30
0.0
  0
POINT
  5
18A8
  8
DEFPOINTS
 62
     0
 10
-25.0
 20
84.499999999999488
 30
0.0
  0
ENDBLK
  5
1853
  8
0
  0
BLOCK
  8
0
  2
*D113
 70
     1
 10
0.0
 20
0.0
 30
0.0
  3
*D113
  1

  0
LINE
  5
27FA
  8
SAPA_MATT
 10
-16.00000000000011
 20
-87.849999999999483
 30
0.0
 11
-16.00000000000011
 21
-108.3138500465783
 31
0.0
  0
LINE
  5
27FB
  8
SAPA_MATT
 10
-76.000000000001194
 20
-65.999946820781531
 30
0.0
 11
-76.000000000001194
 21
-108.3138500465783
 31
0.0
  0
LINE
  5
27FC
  8
SAPA_MATT
 10
-19.00000000000011
 20
-106.8138500465783
 30
0.0
 11
-73.000000000001194
 21
-106.8138500465783
 31
0.0
  0
SOLID
  5
27FD
  8
SAPA_MATT
 10
-19.00000000000011
 20
-106.3138500465783
 30
0.0
 11
-19.00000000000011
 21
-107.3138500465783
 31
0.0
 12
-16.00000000000011
 22
-106.8138500465783
 32
0.0
 13
-16.00000000000011
 23
-106.8138500465783
 33
0.0
  0
SOLID
  5
27FE
  8
SAPA_MATT
 10
-73.000000000001194
 20
-106.3138500465783
 30
0.0
 11
-73.000000000001194
 21
-107.3138500465783
 31
0.0
 12
-76.000000000001194
 22
-106.8138500465783
 32
0.0
 13
-76.000000000001194
 23
-106.8138500465783
 33
0.0
  0
TEXT
  8
SAPA_MATT
  40
3
  5
280B
  62
2
  72
0
  71
0
 10
-52.0000
 20
-109.624
 30
0.000000
  1
60
  7
ISO
  0
POINT
  5
2800
  8
DEFPOINTS
 62
     0
 10
-16.00000000000011
 20
-86.349999999999483
 30
0.0
  0
POINT
  5
2801
  8
DEFPOINTS
 62
     0
 10
-76.000000000001194
 20
-64.499946820781531
 30
0.0
  0
POINT
  5
2802
  8
DEFPOINTS
 62
     0
 10
-76.000000000001194
 20
-106.8138500465783
 30
0.0
  0
ENDBLK
  5
185F
  8
0
  0
BLOCK
  8
0
  2
*D114
 70
     1
 10
0.0
 20
0.0
 30
0.0
  3
*D114
  1

  0
LINE
  5
27EF
  8
SAPA_MATT
 10
-76.000000000001194
 20
-65.999946820781531
 30
0.0
 11
-76.000000000001194
 21
-108.3138500465783
 31
0.0
  0
LINE
  5
27F0
  8
SAPA_MATT
 10
-81.000000000000995
 20
-70.849948021764106
 30
0.0
 11
-81.000000000000995
 21
-108.3138500465783
 31
0.0
  0
LINE
  5
27F1
  8
SAPA_MATT
 10
-73.000000000001194
 20
-106.8138500465783
 30
0.0
 11
-70.000000000001194
 21
-106.8138500465783
 31
0.0
  0
LINE
  5
27F2
  8
SAPA_MATT
 10
-84.000000000001009
 20
-106.8138500465783
 30
0.0
 11
-87.000000000000995
 21
-106.8138500465783
 31
0.0
  0
LINE
  5
27F3
  8
SAPA_MATT
 10
-76.000000000001194
 20
-106.8138500465783
 30
0.0
 11
-81.000000000000995
 21
-106.8138500465783
 31
0.0
  0
SOLID
  5
27F4
  8
SAPA_MATT
 10
-73.000000000001194
 20
-106.3138500465783
 30
0.0
 11
-73.000000000001194
 21
-107.3138500465783
 31
0.0
 12
-76.000000000001194
 22
-106.8138500465783
 32
0.0
 13
-76.000000000001194
 23
-106.8138500465783
 33
0.0
  0
SOLID
  5
27F5
  8
SAPA_MATT
 10
-84.000000000001009
 20
-106.3138500465783
 30
0.0
 11
-84.000000000001009
 21
-107.3138500465783
 31
0.0
 12
-81.000000000000995
 22
-106.8138500465783
 32
0.0
 13
-81.000000000000995
 23
-106.8138500465783
 33
0.0
  0
TEXT
  8
SAPA_MATT
  40
3
  5
280C
  62
2
  72
0
  71
0
 10
-84.5000
 20
-109.624
 30
0.000000
  1
5
  7
ISO
  0
POINT
  5
27F7
  8
DEFPOINTS
 62
     0
 10
-76.000000000001194
 20
-64.499946820781531
 30
0.0
  0
POINT
  5
27F8
  8
DEFPOINTS
 62
     0
 10
-81.000000000000995
 20
-69.349948021764106
 30
0.0
  0
POINT
  5
27F9
  8
DEFPOINTS
 62
     0
 10
-81.000000000000995
 20
-106.8138500465783
 30
0.0
  0
ENDBLK
  5
186B
  8
0
  0
BLOCK
  8
0
  2
*D115
 70
     1
 10
0.0
 20
0.0
 30
0.0
  3
*D115
  1

  0
LINE
  5
27E6
  8
SAPA_MATT
 10
-81.000000000000995
 20
-70.849948021764106
 30
0.0
 11
-81.000000000000995
 21
-108.3138500465783
 31
0.0
  0
LINE
  5
27E7
  8
SAPA_MATT
 10
-169.99999999978931
 20
-73.199947648272314
 30
0.0
 11
-169.99999999978931
 21
-108.3138500465783
 31
0.0
  0
LINE
  5
27E8
  8
SAPA_MATT
 10
-84.000000000001009
 20
-106.8138500465783
 30
0.0
 11
-166.99999999978931
 21
-106.8138500465783
 31
0.0
  0
SOLID
  5
27E9
  8
SAPA_MATT
 10
-84.000000000001009
 20
-106.3138500465783
 30
0.0
 11
-84.000000000001009
 21
-107.3138500465783
 31
0.0
 12
-81.000000000000995
 22
-106.8138500465783
 32
0.0
 13
-81.000000000000995
 23
-106.8138500465783
 33
0.0
  0
SOLID
  5
27EA
  8
SAPA_MATT
 10
-166.99999999978931
 20
-106.3138500465783
 30
0.0
 11
-166.99999999978931
 21
-107.3138500465783
 31
0.0
 12
-169.99999999978931
 22
-106.8138500465783
 32
0.0
 13
-169.99999999978931
 23
-106.8138500465783
 33
0.0
  0
TEXT
  8
SAPA_MATT
  40
3
  5
280D
  62
2
  72
0
  71
0
 10
-131.500
 20
-109.624
 30
0.000000
  1
89
  7
ISO
  0
POINT
  5
27EC
  8
DEFPOINTS
 62
     0
 10
-81.000000000000995
 20
-69.349948021764106
 30
0.0
  0
POINT
  5
27ED
  8
DEFPOINTS
 62
     0
 10
-169.99999999978931
 20
-71.699947648272314
 30
0.0
  0
POINT
  5
27EE
  8
DEFPOINTS
 62
     0
 10
-169.99999999978931
 20
-106.8138500465783
 30
0.0
  0
ENDBLK
  5
1879
  8
0
  0
BLOCK
  8
0
  2
*U116
 70
     1
 10
0.0
 20
0.0
 30
0.0
  3
*U116
  1

  0
TEXT
  5
1921
  8
SAPA_ARTIKELNR
 10
-5.7895021366381112
 20
67.057004625961554
 30
0.0
 40
3.5
  1
68281
  7
ISO
  0
ENDBLK
  5
1923
  8
0
  0
BLOCK
  8
0
  2
*U117
 70
     1
 10
0.0
 20
0.0
 30
0.0
  3
*U117
  1

  0
TEXT
  5
194C
  8
SAPA_ARTIKELNR
 10
-14.37805773798873
 20
-92.169861053055556
 30
0.0
 40
3.5
  1
42844/42863
  7
ISO
  0
ENDBLK
  5
194E
  8
0
  0
BLOCK
  8
0
  2
*U118
 70
     1
 10
0.0
 20
0.0
 30
0.0
  3
*U118
  1

  0
TEXT
  5
1950
  8
SAPA_ARTIKELNR
 10
-66.304870603386604
 20
19.947120488328348
 30
0.0
 40
3.5
  1
86423
  7
ISO
  0
ENDBLK
  5
1952
  8
0
  0
BLOCK
  8
0
  2
*U119
 70
     1
 10
0.0
 20
0.0
 30
0.0
  3
*U119
  1

  0
TEXT
  5
1954
  8
SAPA_ARTIKELNR
 10
-136.33035799216131
 20
19.947120488328359
 30
0.0
 40
3.5
  1
86424
  7
ISO
  0
ENDBLK
  5
1956
  8
0
  0
BLOCK
  8
0
  2
*U120
 70
     1
 10
0.0
 20
0.0
 30
0.0
  3
*U120
  1

  0
SOLID
  5
1BD3
  8
SAPA_PROFIL
  6
CONTINUOUS
 62
     2
 10
-86.831507495362828
 20
-67.067340025555055
 30
0.1
 11
-87.008284190659467
 21
-67.140563330258431
 31
0.1
 12
-86.654730800066176
 22
-67.140563330258431
 32
0.1
 13
-86.654730800066176
 23
-67.140563330258431
 33
0.1
210
0.0
220
0.0
230
1.0
  0
SOLID
  5
1BD4
  8
SAPA_PROFIL
  6
CONTINUOUS
 62
     2
 10
-87.008284190659467
 20
-67.140563330258431
 30
0.1
 11
-87.081507495362828
 21
-67.317340025555069
 31
0.1
 12
-86.581507495362814
 22
-67.317340025555069
 32
0.1
 13
-86.581507495362814
 23
-67.317340025555069
 33
0.1
210
0.0
220
0.0
230
1.0
  0
SOLID
  5
1BD5
  8
SAPA_PROFIL
  6
CONTINUOUS
 62
     2
 10
87.008284190659467
 20
-67.140563330258431
 30
-0.1
 11
86.654730800066176
 21
-67.140563330258431
 31
-0.1
 12
86.581507495362814
 22
-67.317340025555069
 32
-0.1
 13
86.581507495362814
 23
-67.317340025555069
 33
-0.1
210
0.0
220
0.0
230
-1.0
  0
SOLID
  5
1BD6
  8
SAPA_PROFIL
  6
CONTINUOUS
 62
     2
 10
87.008284190659467
 20
-67.494116720851693
 30
-0.1
 11
86.654730800066176
 21
-67.494116720851693
 31
-0.1
 12
86.831507495362828
 22
-67.567340025555069
 32
-0.1
 13
86.831507495362828
 23
-67.567340025555069
 33
-0.1
210
0.0
220
0.0
230
-1.0
  0
SOLID
  5
1BD7
  8
SAPA_PROFIL
  6
CONTINUOUS
 62
     2
 10
-87.081507495362828
 20
-67.317340025555069
 30
0.1
 11
-87.008284190659467
 21
-67.494116720851693
 31
0.1
 12
-86.654730800066176
 22
-67.494116720851693
 32
0.1
 13
-86.654730800066176
 23
-67.494116720851693
 33
0.1
210
0.0
220
0.0
230
1.0
  0
SOLID
  5
1BD8
  8
SAPA_PROFIL
  6
CONTINUOUS
 62
     2
 10
87.081507495362828
 20
-67.317340025555069
 30
-0.1
 11
86.581507495362814
 21
-67.317340025555069
 31
-0.1
 12
86.654730800066176
 22
-67.494116720851693
 32
-0.1
 13
86.654730800066176
 23
-67.494116720851693
 33
-0.1
210
0.0
220
0.0
230
-1.0
  0
LINE
  5
1BD9
  8
SAPA_PROFIL
  6
CONTINUOUS
 62
     2
 10
-86.831507495362828
 20
-67.067340025555055
 30
0.1
 11
-87.008284190659467
 21
-67.140563330258431
 31
0.1
  0
LINE
  5
1BDA
  8
SAPA_PROFIL
  6
CONTINUOUS
 62
     2
 10
-86.654730800066176
 20
-67.140563330258431
 30
0.1
 11
-86.831507495362828
 21
-67.067340025555055
 31
0.1
  0
LINE
  5
1BDB
  8
SAPA_PROFIL
  6
CONTINUOUS
 62
     2
 10
-87.008284190659467
 20
-67.140563330258431
 30
0.1
 11
-87.081507495362828
 21
-67.317340025555069
 31
0.1
  0
LINE
  5
1BDC
  8
SAPA_PROFIL
  6
CONTINUOUS
 62
     2
 10
-86.654730800066176
 20
-67.140563330258431
 30
0.1
 11
-86.581507495362814
 21
-67.317340025555069
 31
0.1
  0
LINE
  5
1BDD
  8
SAPA_PROFIL
  6
CONTINUOUS
 62
     2
 10
-86.654730800066176
 20
-67.494116720851693
 30
0.1
 11
-86.831507495362828
 21
-67.567340025555069
 31
0.1
  0
LINE
  5
1BDE
  8
SAPA_PROFIL
  6
CONTINUOUS
 62
     2
 10
-86.831507495362828
 20
-67.567340025555069
 30
0.1
 11
-87.008284190659467
 21
-67.494116720851693
 31
0.1
  0
LINE
  5
1BDF
  8
SAPA_PROFIL
  6
CONTINUOUS
 62
     2
 10
-87.081507495362828
 20
-67.317340025555069
 30
0.1
 11
-87.008284190659467
 21
-67.494116720851693
 31
0.1
  0
LINE
  5
1BE0
  8
SAPA_PROFIL
  6
CONTINUOUS
 62
     2
 10
-86.581507495362814
 20
-67.317340025555069
 30
0.1
 11
-86.654730800066176
 21
-67.494116720851693
 31
0.1
  0
ENDBLK
  5
1BE2
  8
0
  0
BLOCK
  8
0
  2
*U121
 70
     1
 10
0.0
 20
0.0
 30
0.0
  3
*U121
  1

  0
SOLID
  5
21DD
  8
SAPA_PROFIL
  6
CONTINUOUS
 62
     2
 10
-86.831507495362828
 20
-67.067340025555055
 30
0.1
 11
-87.008284190659467
 21
-67.140563330258431
 31
0.1
 12
-86.654730800066176
 22
-67.140563330258431
 32
0.1
 13
-86.654730800066176
 23
-67.140563330258431
 33
0.1
210
0.0
220
0.0
230
1.0
  0
SOLID
  5
21DE
  8
SAPA_PROFIL
  6
CONTINUOUS
 62
     2
 10
-87.008284190659467
 20
-67.140563330258431
 30
0.1
 11
-87.081507495362828
 21
-67.317340025555069
 31
0.1
 12
-86.581507495362814
 22
-67.317340025555069
 32
0.1
 13
-86.581507495362814
 23
-67.317340025555069
 33
0.1
210
0.0
220
0.0
230
1.0
  0
SOLID
  5
21DF
  8
SAPA_PROFIL
  6
CONTINUOUS
 62
     2
 10
87.008284190659467
 20
-67.140563330258431
 30
-0.1
 11
86.654730800066176
 21
-67.140563330258431
 31
-0.1
 12
86.581507495362814
 22
-67.317340025555069
 32
-0.1
 13
86.581507495362814
 23
-67.317340025555069
 33
-0.1
210
0.0
220
0.0
230
-1.0
  0
SOLID
  5
21E0
  8
SAPA_PROFIL
  6
CONTINUOUS
 62
     2
 10
87.008284190659467
 20
-67.494116720851693
 30
-0.1
 11
86.654730800066176
 21
-67.494116720851693
 31
-0.1
 12
86.831507495362828
 22
-67.567340025555069
 32
-0.1
 13
86.831507495362828
 23
-67.567340025555069
 33
-0.1
210
0.0
220
0.0
230
-1.0
  0
SOLID
  5
21E1
  8
SAPA_PROFIL
  6
CONTINUOUS
 62
     2
 10
-87.081507495362828
 20
-67.317340025555069
 30
0.1
 11
-87.008284190659467
 21
-67.494116720851693
 31
0.1
 12
-86.654730800066176
 22
-67.494116720851693
 32
0.1
 13
-86.654730800066176
 23
-67.494116720851693
 33
0.1
210
0.0
220
0.0
230
1.0
  0
SOLID
  5
21E2
  8
SAPA_PROFIL
  6
CONTINUOUS
 62
     2
 10
87.081507495362828
 20
-67.317340025555069
 30
-0.1
 11
86.581507495362814
 21
-67.317340025555069
 31
-0.1
 12
86.654730800066176
 22
-67.494116720851693
 32
-0.1
 13
86.654730800066176
 23
-67.494116720851693
 33
-0.1
210
0.0
220
0.0
230
-1.0
  0
LINE
  5
21E3
  8
SAPA_PROFIL
  6
CONTINUOUS
 62
     2
 10
-86.831507495362828
 20
-67.067340025555055
 30
0.1
 11
-87.008284190659467
 21
-67.140563330258431
 31
0.1
  0
LINE
  5
21E4
  8
SAPA_PROFIL
  6
CONTINUOUS
 62
     2
 10
-86.654730800066176
 20
-67.140563330258431
 30
0.1
 11
-86.831507495362828
 21
-67.067340025555055
 31
0.1
  0
LINE
  5
21E5
  8
SAPA_PROFIL
  6
CONTINUOUS
 62
     2
 10
-87.008284190659467
 20
-67.140563330258431
 30
0.1
 11
-87.081507495362828
 21
-67.317340025555069
 31
0.1
  0
LINE
  5
21E6
  8
SAPA_PROFIL
  6
CONTINUOUS
 62
     2
 10
-86.654730800066176
 20
-67.140563330258431
 30
0.1
 11
-86.581507495362814
 21
-67.317340025555069
 31
0.1
  0
LINE
  5
21E7
  8
SAPA_PROFIL
  6
CONTINUOUS
 62
     2
 10
-86.654730800066176
 20
-67.494116720851693
 30
0.1
 11
-86.831507495362828
 21
-67.567340025555069
 31
0.1
  0
LINE
  5
21E8
  8
SAPA_PROFIL
  6
CONTINUOUS
 62
     2
 10
-86.831507495362828
 20
-67.567340025555069
 30
0.1
 11
-87.008284190659467
 21
-67.494116720851693
 31
0.1
  0
LINE
  5
21E9
  8
SAPA_PROFIL
  6
CONTINUOUS
 62
     2
 10
-87.081507495362828
 20
-67.317340025555069
 30
0.1
 11
-87.008284190659467
 21
-67.494116720851693
 31
0.1
  0
LINE
  5
21EA
  8
SAPA_PROFIL
  6
CONTINUOUS
 62
     2
 10
-86.581507495362814
 20
-67.317340025555069
 30
0.1
 11
-86.654730800066176
 21
-67.494116720851693
 31
0.1
  0
ENDBLK
  5
21EC
  8
0
  0
BLOCK
  8
0
  2
*U122
 70
     1
 10
0.0
 20
0.0
 30
0.0
  3
*U122
  1

  0
TEXT
  5
2804
  8
SAPA_MATT
 62
     2
 10
-2.099999999999512
 20
85.499999999999488
 30
0.0
 40
3.0
  1
50
  7
ISO
  0
ENDBLK
  5
2806
  8
0
  0
BLOCK
  8
0
  2
*U123
 70
     1
 10
0.0
 20
0.0
 30
0.0
  3
*U123
  1

  0
TEXT
  5
2808
  8
SAPA_MATT
 62
     2
 10
-2.1000000000000849
 20
-105.8138500465783
 30
0.0
 40
3.0
  1
32
  7
ISO
  0
ENDBLK
  5
280A
  8
0
  0
ENDSEC
  0
SECTION
  2
ENTITIES
  0
POLYLINE
  5
6FB
  8
SAPA_LIGHT
 66
     1
 10
0.0
 20
0.0
 30
0.0
  0
VERTEX
  5
190B
  8
SAPA_LIGHT
 10
25.0
 20
64.499999999999474
 30
0.0
  0
VERTEX
  5
190C
  8
SAPA_LIGHT
 10
-25.0
 20
64.499999999999446
 30
0.0
  0
VERTEX
  5
190D
  8
SAPA_LIGHT
 10
-25.0
 20
-46.853932708651541
 30
0.0
  0
VERTEX
  5
190E
  8
SAPA_LIGHT
 10
-4.9999999999999751
 20
-46.853932708651541
 30
0.0
  0
VERTEX
  5
190F
  8
SAPA_LIGHT
 10
-4.9999999999999707
 20
-72.499999999998636
 30
0.0
  0
VERTEX
  5
1910
  8
SAPA_LIGHT
 10
-16.000000000000391
 20
-72.499999999998636
 30
0.0
  0
VERTEX
  5
1911
  8
SAPA_LIGHT
 10
-16.000000000000391
 20
-77.646446609404535
 30
0.0
  0
VERTEX
  5
1912
  8
SAPA_LIGHT
 10
-6.968469869991587
 20
-86.423879532509702
 30
0.0
  0
VERTEX
  5
1913
  8
SAPA_LIGHT
 10
6.9684698699921572
 20
-86.423879532509702
 30
0.0
  0
VERTEX
  5
1914
  8
SAPA_LIGHT
 10
15.961939766255661
 20
-77.484234934994149
 30
0.0
  0
VERTEX
  5
1915
  8
SAPA_LIGHT
 10
15.961939766255661
 20
-72.499999999998636
 30
0.0
  0
VERTEX
  5
1916
  8
SAPA_LIGHT
 10
5.0000000000003304
 20
-72.499999999998636
 30
0.0
  0
VERTEX
  5
1917
  8
SAPA_LIGHT
 10
5.0000000000003331
 20
-45.499999999998629
 30
0.0
  0
VERTEX
  5
1918
  8
SAPA_LIGHT
 10
25.00000000000103
 20
-45.499999999998629
 30
0.0
  0
VERTEX
  5
1919
  8
SAPA_LIGHT
 10
25.00000000000097
 20
64.499999999999474
 30
0.0
  0
SEQEND
  5
191A
  8
SAPA_LIGHT
  0
POLYLINE
  5
6FC
  8
SAPA_LIGHT
 66
     1
 10
0.0
 20
0.0
 30
0.0
  0
VERTEX
  5
191B
  8
SAPA_LIGHT
 10
40.999999999999773
 20
-72.499999999998636
 30
0.0
  0
VERTEX
  5
191C
  8
SAPA_LIGHT
 10
10.999999999999771
 20
-72.499999999998636
 30
0.0
  0
VERTEX
  5
191D
  8
SAPA_LIGHT
 10
10.999999999999771
 20
-45.499999999998629
 30
0.0
  0
VERTEX
  5
191E
  8
SAPA_LIGHT
 10
40.999999999999773
 20
-45.499999999998629
 30
0.0
  0
SEQEND
  5
191F
  8
SAPA_LIGHT
  0
INSERT
  5
709
  8
0
  2
*U116
 10
0.0
 20
0.0
 30
0.0
  0
POLYLINE
  5
A58
  8
SAPA_LIGHT
 66
     1
 10
0.0
 20
0.0
 30
0.0
  0
VERTEX
  5
1924
  8
SAPA_LIGHT
 10
-183.00000000000119
 20
-63.249947679035238
 30
0.0
  0
VERTEX
  5
1925
  8
SAPA_LIGHT
 10
-153.00000000000119
 20
-63.249947679035238
 30
0.0
  0
VERTEX
  5
1926
  8
SAPA_LIGHT
 10
-153.00000000000111
 20
-36.249947679035252
 30
0.0
  0
VERTEX
  5
1927
  8
SAPA_LIGHT
 10
-183.00000000000119
 20
-36.249947679035252
 30
0.0
  0
SEQEND
  5
1928
  8
SAPA_LIGHT
  0
POLYLINE
  5
AAC
  8
SAPA_LIGHT
 66
     1
 10
0.0
 20
0.0
 30
0.0
  0
VERTEX
  5
1929
  8
SAPA_LIGHT
 10
-31.00000000000119
 20
1.800052393359806
 30
0.0
  0
VERTEX
  5
192A
  8
SAPA_LIGHT
 10
-170.00000000001481
 20
1.800052393359806
 30
0.0
  0
VERTEX
  5
192B
  8
SAPA_LIGHT
 10
-170.00000000001481
 20
-36.249947679035252
 30
0.0
  0
VERTEX
  5
192C
  8
SAPA_LIGHT
 10
-148.7887370868213
 20
-36.249947679035238
 30
0.0
  0
VERTEX
  5
192D
  8
SAPA_LIGHT
 10
-148.78873708682141
 20
-67.749947649157491
 30
0.0
  0
VERTEX
  5
192E
  8
SAPA_LIGHT
 10
-170.00000000000131
 20
-67.749947649157519
 30
0.0
  0
VERTEX
  5
192F
  8
SAPA_LIGHT
 10
-170.00000000000139
 20
-72.199947648243267
 30
0.0
  0
VERTEX
  5
1930
  8
SAPA_LIGHT
 10
-9.0000000001066951
 20
-72.199947648243196
 30
0.0
  0
VERTEX
  5
1931
  8
SAPA_LIGHT
 10
-9.0000000001066969
 20
-46.853932708651541
 30
0.0
  0
VERTEX
  5
1932
  8
SAPA_LIGHT
 10
-31.00000000000119
 20
-46.853932708651541
 30
0.0
  0
VERTEX
  5
1933
  8
SAPA_LIGHT
 10
-31.00000000000119
 20
1.800052393359806
 30
0.0
  0
SEQEND
  5
1934
  8
SAPA_LIGHT
  0
INSERT
  5
CAC
  8
0
  2
*U117
 10
0.0
 20
0.0
 30
0.0
  0
INSERT
  5
F59
  8
0
  2
*U118
 10
0.0
 20
0.0
 30
0.0
  0
INSERT
  5
F5A
  8
0
  2
*U119
 10
0.0
 20
0.0
 30
0.0
  0
INSERT
  5
1602
  8
BYGG-027036$0$KON
 66
     1
  2
BYGG-027036$0$RH
 10
-559.98359050052272
 20
-386.9365731728609
 30
0.0
 50
180.0
  0
ATTRIB
  5
1603
  8
BYGG-027036$0$KON
 10
-563.18359050052266
 20
-392.23657317286091
 30
0.0
 40
0.4
  1
GGFJ
 50
180.0
  7
BYGG-027036$0$SIMPLEX
  2
SÄLJARE
 70
     1
  0
ATTRIB
  5
1604
  8
BYGG-027036$0$KON
 10
-563.58359050052275
 20
-388.83657317286088
 30
0.0
 40
0.3
  1

 50
180.0
  7
BYGG-027036$0$SIMPLEX
 72
     4
 11
-563.58359050052275
 21
-388.83657317286088
 31
0.0
  2
DATUM
 70
     0
  0
ATTRIB
  5
1605
  8
BYGG-027036$0$KON
 10
-563.38359050052259
 20
-387.83657317286088
 30
0.0
 40
0.4
  1

 50
180.0
  7
BYGG-027036$0$SIMPLEX
 72
     4
 11
-563.38359050052259
 21
-387.83657317286088
 31
0.0
  2
RITAD:
 70
     1
  0
ATTRIB
  5
1606
  8
BYGG-027036$0$KON
 10
-570.98359050052272
 20
-389.23657317286091
 30
0.0
 40
0.4400000000000001
  1

 50
180.0
  7
BYGG-027036$0$SIMPLEX
 72
     4
 11
-570.98359050052272
 21
-389.23657317286091
 31
0.0
  2
BENÄMNING
 70
     0
  0
ATTRIB
  5
1607
  8
BYGG-027036$0$KON
 10
-570.98359050052272
 20
-388.4365731728609
 30
0.0
 40
0.4400000000000001
  1

 50
180.0
  7
BYGG-027036$0$SIMPLEX
 72
     4
 11
-570.98359050052272
 21
-388.4365731728609
 31
0.0
  2
GUMMI-HÅRDHET-FÄRG
 70
     0
  0
ATTRIB
  5
1608
  8
BYGG-027036$0$KON
 10
-570.98359050052272
 20
-387.63657317286089
 30
0.0
 40
0.4400000000000001
  1

 50
180.0
  7
BYGG-027036$0$SIMPLEX
 72
     4
 11
-570.98359050052272
 21
-387.63657317286089
 31
0.0
  2
KUND
 70
     0
  0
ATTRIB
  5
1609
  8
BYGG-027036$0$KON
 10
-578.78359050052256
 20
-388.9365731728609
 30
0.0
 40
0.4
  1

 50
180.0
  7
BYGG-027036$0$SIMPLEX
 72
     4
 11
-578.78359050052256
 21
-388.9365731728609
 31
0.0
  2
SKALA:
 70
     1
  0
ATTRIB
  5
160A
  8
BYGG-027036$0$KON
 10
-578.3835905005227
 20
-387.73657317286091
 30
0.0
 40
0.4
  1

 50
180.0
  7
BYGG-027036$0$SIMPLEX
 72
     4
 11
-578.3835905005227
 21
-387.73657317286091
 31
0.0
  2
RIT.NR:
 70
     0
  0
ATTRIB
  5
160B
  8
BYGG-027036$0$KON
 10
-578.3835905005227
 20
-390.13657317286078
 30
0.0
 40
0.4
  1

 50
180.0
  7
BYGG-027036$0$SIMPLEX
 72
     4
 11
-578.3835905005227
 21
-390.13657317286078
 31
0.0
  2
DET.NR:
 70
     0
  0
SEQEND
  5
160C
  8
BYGG-027036$0$KON
  0
INSERT
  5
160D
  8
BYGG-027036$0$KON
 66
     1
  2
BYGG-027036$0$RH
 10
-559.98359050052272
 20
-386.9365731728609
 30
0.0
 50
180.0
  0
ATTRIB
  5
160E
  8
BYGG-027036$0$KON
 10
-570.98359050052272
 20
-389.23657317286091
 30
0.0
 40
0.4400000000000001
  1

 50
180.0
  7
BYGG-027036$0$SIMPLEX
 72
     4
 11
-570.98359050052272
 21
-389.23657317286091
 31
0.0
  2
BENÄMNING
 70
     0
  0
ATTRIB
  5
160F
  8
BYGG-027036$0$KON
 10
-570.98359050052272
 20
-388.4365731728609
 30
0.0
 40
0.4400000000000001
  1

 50
180.0
  7
BYGG-027036$0$SIMPLEX
 72
     4
 11
-570.98359050052272
 21
-388.4365731728609
 31
0.0
  2
GUMMI-HÅRDHET-FÄRG
 70
     0
  0
ATTRIB
  5
1610
  8
BYGG-027036$0$KON
 10
-570.98359050052272
 20
-387.63657317286089
 30
0.0
 40
0.4400000000000001
  1

 50
180.0
  7
BYGG-027036$0$SIMPLEX
 72
     4
 11
-570.98359050052272
 21
-387.63657317286089
 31
0.0
  2
KUND
 70
     0
  0
ATTRIB
  5
1611
  8
BYGG-027036$0$KON
 10
-578.3835905005227
 20
-387.73657317286091
 30
0.0
 40
0.4
  1

 50
180.0
  7
BYGG-027036$0$SIMPLEX
 72
     4
 11
-578.3835905005227
 21
-387.73657317286091
 31
0.0
  2
RIT.NR:
 70
     0
  0
ATTRIB
  5
1612
  8
BYGG-027036$0$KON
 10
-578.3835905005227
 20
-390.13657317286078
 30
0.0
 40
0.4
  1

 50
180.0
  7
BYGG-027036$0$SIMPLEX
 72
     4
 11
-578.3835905005227
 21
-390.13657317286078
 31
0.0
  2
DET.NR:
 70
     0
  0
ATTRIB
  5
1613
  8
BYGG-027036$0$KON
 10
-578.78359050052256
 20
-388.9365731728609
 30
0.0
 40
0.4
  1

 50
180.0
  7
BYGG-027036$0$SIMPLEX
 72
     4
 11
-578.78359050052256
 21
-388.9365731728609
 31
0.0
  2
SKALA:
 70
     1
  0
ATTRIB
  5
1614
  8
BYGG-027036$0$KON
 10
-563.58359050052275
 20
-388.83657317286088
 30
0.0
 40
0.3
  1

 50
180.0
  7
BYGG-027036$0$SIMPLEX
 72
     4
 11
-563.58359050052275
 21
-388.83657317286088
 31
0.0
  2
DATUM
 70
     0
  0
ATTRIB
  5
1615
  8
BYGG-027036$0$KON
 10
-563.38359050052259
 20
-387.83657317286088
 30
0.0
 40
0.4
  1

 50
180.0
  7
BYGG-027036$0$SIMPLEX
 72
     4
 11
-563.38359050052259
 21
-387.83657317286088
 31
0.0
  2
RITAD:
 70
     1
  0
ATTRIB
  5
1616
  8
BYGG-027036$0$KON
 10
-563.18359050052266
 20
-392.23657317286091
 30
0.0
 40
0.4
  1

 50
180.0
  7
BYGG-027036$0$SIMPLEX
  2
SÄLJARE
 70
     1
  0
SEQEND
  5
1617
  8
BYGG-027036$0$KON
  0
INSERT
  5
1618
  8
BYGG-027036$0$DIM
 66
     1
  2
BYGG-027036$0$RH
 10
-559.98359050052272
 20
-386.9365731728609
 30
0.0
 50
180.0
  0
ATTRIB
  5
1619
  8
BYGG-027036$0$KON
 10
-570.98359050052272
 20
-389.23657317286091
 30
0.0
 40
0.4400000000000001
  1

 50
180.0
  7
BYGG-027036$0$SIMPLEX
 72
     4
 11
-570.98359050052272
 21
-389.23657317286091
 31
0.0
  2
BENÄMNING
 70
     0
  0
ATTRIB
  5
161A
  8
BYGG-027036$0$KON
 10
-570.98359050052272
 20
-388.4365731728609
 30
0.0
 40
0.4400000000000001
  1

 50
180.0
  7
BYGG-027036$0$SIMPLEX
 72
     4
 11
-570.98359050052272
 21
-388.4365731728609
 31
0.0
  2
GUMMI-HÅRDHET-FÄRG
 70
     0
  0
ATTRIB
  5
161B
  8
BYGG-027036$0$KON
 10
-570.98359050052272
 20
-387.63657317286089
 30
0.0
 40
0.4400000000000001
  1

 50
180.0
  7
BYGG-027036$0$SIMPLEX
 72
     4
 11
-570.98359050052272
 21
-387.63657317286089
 31
0.0
  2
KUND
 70
     0
  0
ATTRIB
  5
161C
  8
BYGG-027036$0$KON
 10
-578.3835905005227
 20
-387.73657317286091
 30
0.0
 40
0.4
  1

 50
180.0
  7
BYGG-027036$0$SIMPLEX
 72
     4
 11
-578.3835905005227
 21
-387.73657317286091
 31
0.0
  2
RIT.NR:
 70
     0
  0
ATTRIB
  5
161D
  8
BYGG-027036$0$KON
 10
-578.3835905005227
 20
-390.13657317286078
 30
0.0
 40
0.4
  1

 50
180.0
  7
BYGG-027036$0$SIMPLEX
 72
     4
 11
-578.3835905005227
 21
-390.13657317286078
 31
0.0
  2
DET.NR:
 70
     0
  0
ATTRIB
  5
161E
  8
BYGG-027036$0$KON
 10
-578.78359050052256
 20
-388.9365731728609
 30
0.0
 40
0.4
  1

 50
180.0
  7
BYGG-027036$0$SIMPLEX
 72
     4
 11
-578.78359050052256
 21
-388.9365731728609
 31
0.0
  2
SKALA:
 70
     1
  0
ATTRIB
  5
161F
  8
BYGG-027036$0$KON
 10
-563.58359050052275
 20
-388.83657317286088
 30
0.0
 40
0.3
  1

 50
180.0
  7
BYGG-027036$0$SIMPLEX
 72
     4
 11
-563.58359050052275
 21
-388.83657317286088
 31
0.0
  2
DATUM
 70
     0
  0
ATTRIB
  5
1620
  8
BYGG-027036$0$KON
 10
-563.38359050052259
 20
-387.83657317286088
 30
0.0
 40
0.4
  1

 50
180.0
  7
BYGG-027036$0$SIMPLEX
 72
     4
 11
-563.38359050052259
 21
-387.83657317286088
 31
0.0
  2
RITAD:
 70
     1
  0
ATTRIB
  5
1621
  8
BYGG-027036$0$KON
 10
-563.18359050052266
 20
-392.23657317286091
 30
0.0
 40
0.4
  1

 50
180.0
  7
BYGG-027036$0$SIMPLEX
  2
SÄLJARE
 70
     1
  0
SEQEND
  5
1622
  8
BYGG-027036$0$DIM
  0
CIRCLE
  5
17A9
  8
SAPA_PROFIL
 62
     2
 10
-166.66796481167279
 20
-69.358006485422209
 30
0.0
 40
0.8999999999999985
  0
POLYLINE
  5
17AA
  8
SAPA_PROFIL
 62
     2
 66
     1
 10
0.0
 20
0.0
 30
0.0
  0
VERTEX
  5
1FB4
  8
SAPA_PROFIL
 62
     2
 10
-168.06796481167279
 20
-68.050000073849219
 30
0.0
  0
VERTEX
  5
1FB5
  8
SAPA_PROFIL
 62
     2
 10
-167.87560639168041
 20
-69.140918884001962
 30
0.0
  0
VERTEX
  5
1FB6
  8
SAPA_PROFIL
 62
     2
 10
-168.30740295158199
 20
-69.256618423521957
 30
0.0
 42
0.4430158954262519
  0
VERTEX
  5
1FB7
  8
SAPA_PROFIL
 62
     2
 10
-168.44287999912609
 20
-69.520094851628926
 30
0.0
  0
VERTEX
  5
1FB8
  8
SAPA_PROFIL
 62
     2
 10
-167.96593180590699
 20
-70.790582599547065
 30
0.0
 42
0.3125358528825162
  0
VERTEX
  5
1FB9
  8
SAPA_PROFIL
 62
     2
 10
-167.59145009277759
 20
-71.050000073848764
 30
0.0
  0
VERTEX
  5
1FBA
  8
SAPA_PROFIL
 62
     2
 10
-165.7212947768673
 20
-71.050000073849105
 30
0.0
 42
0.3125358528825104
  0
VERTEX
  5
1FBB
  8
SAPA_PROFIL
 62
     2
 10
-165.3468130637379
 20
-70.790582599546894
 30
0.0
  0
VERTEX
  5
1FBC
  8
SAPA_PROFIL
 62
     2
 10
-164.8698648705188
 20
-69.520094851628699
 30
0.0
 42
0.4430158954262519
  0
VERTEX
  5
1FBD
  8
SAPA_PROFIL
 62
     2
 10
-165.0053419180629
 20
-69.256618423521843
 30
0.0
  0
VERTEX
  5
1FBE
  8
SAPA_PROFIL
 62
     2
 10
-165.43713847796471
 20
-69.140918884001792
 30
0.0
  0
VERTEX
  5
1FBF
  8
SAPA_PROFIL
 62
     2
 10
-165.24487243482261
 20
-68.050000073849034
 30
0.0
  0
SEQEND
  5
1FC0
  8
SAPA_PROFIL
 62
     2
  0
POLYLINE
  5
17AB
  8
SAPA_PROFIL
 62
     2
 66
     1
 10
0.0
 20
0.0
 30
0.0
 70
     1
  0
VERTEX
  5
1FC1
  8
SAPA_PROFIL
 62
     2
 10
-168.05637243482249
 20
-68.050000073849219
 30
0.0
 42
-0.285714285714282
  0
VERTEX
  5
1FC2
  8
SAPA_PROFIL
 62
     2
 10
-165.25637243482259
 20
-68.050000073849034
 30
0.0
  0
VERTEX
  5
1FC3
  8
SAPA_PROFIL
 62
     2
 10
-163.18259226543469
 20
-68.05000007384848
 30
0.0
 42
0.3882600129940275
  0
VERTEX
  5
1FC4
  8
SAPA_PROFIL
 62
     2
 10
-162.88379076809329
 20
-67.776789347568865
 30
0.0
  0
VERTEX
  5
1FC5
  8
SAPA_PROFIL
 62
     2
 10
-162.41758084416699
 20
-63.876789347568767
 30
0.0
 42
0.4406523138893894
  0
VERTEX
  5
1FC6
  8
SAPA_PROFIL
 62
     2
 10
-162.7163823415089
 20
-63.550000073848871
 30
0.0
  0
VERTEX
  5
1FC7
  8
SAPA_PROFIL
 62
     2
 10
-164.42617433842921
 20
-63.550000073848992
 30
0.0
 42
0.3394542588634375
  0
VERTEX
  5
1FC8
  8
SAPA_PROFIL
 62
     2
 10
-164.71595208631581
 20
-63.772354360317991
 30
0.0
  0
VERTEX
  5
1FC9
  8
SAPA_PROFIL
 62
     2
 10
-164.91833181424721
 20
-63.989940142485644
 30
0.0
 42
-0.3394542588633663
  0
VERTEX
  5
1FCA
  8
SAPA_PROFIL
 62
     2
 10
-165.20810956213401
 20
-64.212294428954635
 30
0.0
  0
VERTEX
  5
1FCB
  8
SAPA_PROFIL
 62
     2
 10
-168.10463530751181
 20
-64.212294428954806
 30
0.0
 42
-0.3394542588634373
  0
VERTEX
  5
1FCC
  8
SAPA_PROFIL
 62
     2
 10
-168.39441305539839
 20
-63.989940142485857
 30
0.0
  0
VERTEX
  5
1FCD
  8
SAPA_PROFIL
 62
     2
 10
-168.59679278332979
 20
-63.772354360318282
 30
0.0
 42
0.3394542588633662
  0
VERTEX
  5
1FCE
  8
SAPA_PROFIL
 62
     2
 10
-168.88657053121659
 20
-63.550000073849269
 30
0.0
  0
VERTEX
  5
1FCF
  8
SAPA_PROFIL
 62
     2
 10
-170.59636252813669
 20
-63.55000007384939
 30
0.0
 42
0.4406523138893994
  0
VERTEX
  5
1FD0
  8
SAPA_PROFIL
 62
     2
 10
-170.89516402547829
 20
-63.876789347569343
 30
0.0
  0
VERTEX
  5
1FD1
  8
SAPA_PROFIL
 62
     2
 10
-170.4289541015518
 20
-67.776789347569377
 30
0.0
 42
0.3882600129940462
  0
VERTEX
  5
1FD2
  8
SAPA_PROFIL
 62
     2
 10
-170.13015260421039
 20
-68.05000007384939
 30
0.0
  0
VERTEX
  5
1FD3
  8
SAPA_PROFIL
 62
     2
 10
-168.06796481167279
 20
-68.050000073849219
 30
0.0
  0
SEQEND
  5
1FD4
  8
SAPA_PROFIL
 62
     2
  0
POLYLINE
  5
17AC
  8
SAPA_PROFIL
  6
CONTINUOUS
 66
     1
 10
0.0
 20
0.0
 30
0.0
 70
     1
  0
VERTEX
  5
1FD5
  8
SAPA_PROFIL
  6
CONTINUOUS
 10
-165.58311288153871
 20
10.107797028339689
 30
0.0
  0
VERTEX
  5
1FD6
  8
SAPA_PROFIL
  6
CONTINUOUS
 10
-150.44457742493151
 20
10.52736051773169
 30
0.0
 42
-0.2061234514950211
  0
VERTEX
  5
1FD7
  8
SAPA_PROFIL
  6
CONTINUOUS
 10
-150.07717188707019
 20
10.38110582714193
 30
0.0
  0
VERTEX
  5
1FD8
  8
SAPA_PROFIL
  6
CONTINUOUS
 10
-148.1464466073374
 20
8.4503805474088125
 30
0.0
 42
0.1989123673797024
  0
VERTEX
  5
1FD9
  8
SAPA_PROFIL
  6
CONTINUOUS
 10
-147.79289321674409
 20
8.3039339380019896
 30
0.0
  0
VERTEX
  5
1FDA
  8
SAPA_PROFIL
  6
CONTINUOUS
 10
-143.61211517687909
 20
8.3039339380019896
 30
0.0
 42
0.6681786379193032
  0
VERTEX
  5
1FDB
  8
SAPA_PROFIL
  6
CONTINUOUS
 10
-143.43533848158251
 20
8.7307106332986262
 30
0.0
  0
VERTEX
  5
1FDC
  8
SAPA_PROFIL
  6
CONTINUOUS
 10
-144.42253752080421
 20
9.7179096725203067
 30
0.0
 42
0.4584832902918763
  0
VERTEX
  5
1FDD
  8
SAPA_PROFIL
  6
CONTINUOUS
 10
-145.93373633551909
 20
9.6053077286719315
 30
0.0
 42
-0.2378770156285958
  0
VERTEX
  5
1FDE
  8
SAPA_PROFIL
  6
CONTINUOUS
 10
-146.13475934390161
 20
9.5039339380047352
 30
0.0
  0
VERTEX
  5
1FDF
  8
SAPA_PROFIL
  6
CONTINUOUS
 10
-147.2958369418958
 20
9.5039339380025041
 30
0.0
 42
-0.1989123673801665
  0
VERTEX
  5
1FE0
  8
SAPA_PROFIL
  6
CONTINUOUS
 10
-147.6493903324901
 20
9.6503805474092132
 30
0.0
  0
VERTEX
  5
1FE1
  8
SAPA_PROFIL
  6
CONTINUOUS
 10
-147.99999999793059
 20
10.00099021284967
 30
0.0
  0
VERTEX
  5
1FE2
  8
SAPA_PROFIL
  6
CONTINUOUS
 10
-148.42680759047661
 20
10.427947040441611
 30
0.0
 42
-0.1988669396406054
  0
VERTEX
  5
1FE3
  8
SAPA_PROFIL
  6
CONTINUOUS
 10
-148.49999999793059
 20
10.604692833087711
 30
0.0
  0
VERTEX
  5
1FE4
  8
SAPA_PROFIL
  6
CONTINUOUS
 10
-148.4999999979307
 20
10.751166039924669
 30
0.0
 42
-0.4142135623733282
  0
VERTEX
  5
1FE5
  8
SAPA_PROFIL
  6
CONTINUOUS
 10
-148.25000099793041
 20
11.00116503992467
 30
0.0
  0
VERTEX
  5
1FE6
  8
SAPA_PROFIL
  6
CONTINUOUS
 10
-148.24999999793079
 20
11.00116503992467
 30
0.0
 42
0.4142135623732616
  0
VERTEX
  5
1FE7
  8
SAPA_PROFIL
  6
CONTINUOUS
 10
-147.99999999793059
 20
11.25116503992461
 30
0.0
  0
VERTEX
  5
1FE8
  8
SAPA_PROFIL
  6
CONTINUOUS
 10
-147.99999999793059
 20
11.75006484635855
 30
0.0
 42
0.4209003450991805
  0
VERTEX
  5
1FE9
  8
SAPA_PROFIL
  6
CONTINUOUS
 10
-148.2556935086505
 20
12.00000000582148
 30
0.0
 42
-0.0067990255081984
  0
VERTEX
  5
1FEA
  8
SAPA_PROFIL
  6
CONTINUOUS
 10
-169.49779016963791
 20
11.8050309464129
 30
0.0
 42
0.4155086472897409
  0
VERTEX
  5
1FEB
  8
SAPA_PROFIL
  6
CONTINUOUS
 10
-169.99999999794409
 20
11.305035829777751
 30
0.0
  0
VERTEX
  5
1FEC
  8
SAPA_PROFIL
  6
CONTINUOUS
 10
-169.99999999793059
 20
-26.394621398208901
 30
0.0
 42
0.4142135623716549
  0
VERTEX
  5
1FED
  8
SAPA_PROFIL
  6
CONTINUOUS
 10
-169.6999999979306
 20
-26.69462139821022
 30
0.0
  0
VERTEX
  5
1FEE
  8
SAPA_PROFIL
  6
CONTINUOUS
 10
-168.4999999979452
 20
-26.694621398209989
 30
0.0
 42
0.4142135623732907
  0
VERTEX
  5
1FEF
  8
SAPA_PROFIL
  6
CONTINUOUS
 10
-168.1999999979453
 20
-26.394621398209811
 30
0.0
  0
VERTEX
  5
1FF0
  8
SAPA_PROFIL
  6
CONTINUOUS
 10
-168.19999999794609
 20
-25.194621398210391
 30
0.0
 42
-0.4142135623732116
  0
VERTEX
  5
1FF1
  8
SAPA_PROFIL
  6
CONTINUOUS
 10
-167.69999999794609
 20
-24.694621398210192
 30
0.0
  0
VERTEX
  5
1FF2
  8
SAPA_PROFIL
  6
CONTINUOUS
 10
-158.79999999793191
 20
-24.694621398210192
 30
0.0
 42
0.4142135623733198
  0
VERTEX
  5
1FF3
  8
SAPA_PROFIL
  6
CONTINUOUS
 10
-158.49999999793201
 20
-24.39462139821001
 30
0.0
  0
VERTEX
  5
1FF4
  8
SAPA_PROFIL
  6
CONTINUOUS
 10
-158.49999999793221
 20
-23.694621398209989
 30
0.0
 42
0.4142135623728995
  0
VERTEX
  5
1FF5
  8
SAPA_PROFIL
  6
CONTINUOUS
 10
-158.79999999793219
 20
-23.39462139821018
 30
0.0
  0
VERTEX
  5
1FF6
  8
SAPA_PROFIL
  6
CONTINUOUS
 10
-167.9999999979355
 20
-23.39462139821029
 30
0.0
 42
-0.4142135623716508
  0
VERTEX
  5
1FF7
  8
SAPA_PROFIL
  6
CONTINUOUS
 10
-168.4999999979307
 20
-22.894621398210269
 30
0.0
  0
VERTEX
  5
1FF8
  8
SAPA_PROFIL
  6
CONTINUOUS
 10
-168.4999999979307
 20
-5.496066061995406
 30
0.0
 42
-0.41421356237163
  0
VERTEX
  5
1FF9
  8
SAPA_PROFIL
  6
CONTINUOUS
 10
-167.99999999793059
 20
-4.996066061997908
 30
0.0
  0
VERTEX
  5
1FFA
  8
SAPA_PROFIL
  6
CONTINUOUS
 10
-146.08582707856621
 20
-4.996066061997908
 30
0.0
 42
-0.4663076581592616
  0
VERTEX
  5
1FFB
  8
SAPA_PROFIL
  6
CONTINUOUS
 10
-145.7903847526625
 20
-5.3481605152979048
 30
0.0
  0
VERTEX
  5
1FFC
  8
SAPA_PROFIL
  6
CONTINUOUS
 10
-145.89544232383409
 20
-5.943971608696585
 30
0.0
 42
0.7332303362587812
  0
VERTEX
  5
1FFD
  8
SAPA_PROFIL
  6
CONTINUOUS
 10
-145.38786796357471
 20
-6.2081980963540238
 30
0.0
  0
VERTEX
  5
1FFE
  8
SAPA_PROFIL
  6
CONTINUOUS
 10
-143.38786796357729
 20
-4.2081980963565107
 30
0.0
 42
0.6681786379237062
  0
VERTEX
  5
1FFF
  8
SAPA_PROFIL
  6
CONTINUOUS
 10
-143.59999999793069
 20
-3.6960660619980241
 30
0.0
  0
VERTEX
  5
2000
  8
SAPA_PROFIL
  6
CONTINUOUS
 10
-167.99999999793059
 20
-3.6960660619980099
 30
0.0
 42
-0.4142135623716217
  0
VERTEX
  5
2001
  8
SAPA_PROFIL
  6
CONTINUOUS
 10
-168.4999999979307
 20
-3.1960660619955088
 30
0.0
  0
VERTEX
  5
2002
  8
SAPA_PROFIL
  6
CONTINUOUS
 10
-168.4999999979307
 20
7.1089485412402951
 30
0.0
 42
-0.40612121347231
  0
SEQEND
  5
2003
  8
SAPA_PROFIL
  6
CONTINUOUS
  0
POLYLINE
  5
17AD
  8
SAPA_PROFIL
 62
     2
 10
-165.89999999794571
 20
-30.344621411522319
 30
0.0
 66
     1
 70
     8
  0
VERTEX
  8
SAPA_PROFIL
  5
280E
 10
-165.900
 20
-30.3446
 30
0.000000
  70
    32
  0
VERTEX
  8
SAPA_PROFIL
  5
280F
 10
-165.896
 20
-30.4428
 30
0.000000
  70
    32
  0
VERTEX
  8
SAPA_PROFIL
  5
2810
 10
-165.883
 20
-30.5407
 30
0.000000
  70
    32
  0
VERTEX
  8
SAPA_PROFIL
  5
2811
 10
-165.862
 20
-30.6381
 30
0.000000
  70
    32
  0
VERTEX
  8
SAPA_PROFIL
  5
2812
 10
-165.833
 20
-30.7348
 30
0.000000
  70
    32
  0
VERTEX
  8
SAPA_PROFIL
  5
2813
 10
-165.795
 20
-30.8306
 30
0.000000
  70
    32
  0
VERTEX
  8
SAPA_PROFIL
  5
2814
 10
-165.749
 20
-30.9252
 30
0.000000
  70
    32
  0
VERTEX
  8
SAPA_PROFIL
  5
2815
 10
-165.695
 20
-31.0184
 30
0.000000
  70
    32
  0
VERTEX
  8
SAPA_PROFIL
  5
2816
 10
-165.634
 20
-31.1100
 30
0.000000
  70
    32
  0
VERTEX
  8
SAPA_PROFIL
  5
2817
 10
-165.564
 20
-31.1997
 30
0.000000
  70
    32
  0
VERTEX
  8
SAPA_PROFIL
  5
2818
 10
-165.487
 20
-31.2874
 30
0.000000
  70
    32
  0
VERTEX
  8
SAPA_PROFIL
  5
2819
 10
-165.402
 20
-31.3728
 30
0.000000
  70
    32
  0
VERTEX
  8
SAPA_PROFIL
  5
281A
 10
-165.310
 20
-31.4558
 30
0.000000
  70
    32
  0
VERTEX
  8
SAPA_PROFIL
  5
281B
 10
-165.211
 20
-31.5360
 30
0.000000
  70
    32
  0
VERTEX
  8
SAPA_PROFIL
  5
281C
 10
-165.106
 20
-31.6134
 30
0.000000
  70
    32
  0
VERTEX
  8
SAPA_PROFIL
  5
281D
 10
-164.993
 20
-31.6877
 30
0.000000
  70
    32
  0
VERTEX
  8
SAPA_PROFIL
  5
281E
 10
-164.875
 20
-31.7588
 30
0.000000
  70
    32
  0
VERTEX
  8
SAPA_PROFIL
  5
281F
 10
-164.750
 20
-31.8265
 30
0.000000
  70
    32
  0
VERTEX
  8
SAPA_PROFIL
  5
2820
 10
-164.620
 20
-31.8906
 30
0.000000
  70
    32
  0
VERTEX
  8
SAPA_PROFIL
  5
2821
 10
-164.485
 20
-31.9510
 30
0.000000
  70
    32
  0
VERTEX
  8
SAPA_PROFIL
  5
2822
 10
-164.344
 20
-32.0076
 30
0.000000
  70
    32
  0
VERTEX
  8
SAPA_PROFIL
  5
2823
 10
-164.199
 20
-32.0601
 30
0.000000
  70
    32
  0
VERTEX
  8
SAPA_PROFIL
  5
2824
 10
-164.050
 20
-32.1085
 30
0.000000
  70
    32
  0
VERTEX
  8
SAPA_PROFIL
  5
2825
 10
-163.896
 20
-32.1526
 30
0.000000
  70
    32
  0
VERTEX
  8
SAPA_PROFIL
  5
2826
 10
-163.739
 20
-32.1924
 30
0.000000
  70
    32
  0
VERTEX
  8
SAPA_PROFIL
  5
2827
 10
-163.579
 20
-32.2277
 30
0.000000
  70
    32
  0
VERTEX
  8
SAPA_PROFIL
  5
2828
 10
-163.416
 20
-32.2585
 30
0.000000
  70
    32
  0
VERTEX
  8
SAPA_PROFIL
  5
2829
 10
-163.250
 20
-32.2847
 30
0.000000
  70
    32
  0
VERTEX
  8
SAPA_PROFIL
  5
282A
 10
-163.083
 20
-32.3062
 30
0.000000
  70
    32
  0
VERTEX
  8
SAPA_PROFIL
  5
282B
 10
-162.914
 20
-32.3230
 30
0.000000
  70
    32
  0
VERTEX
  8
SAPA_PROFIL
  5
282C
 10
-162.743
 20
-32.3350
 30
0.000000
  70
    32
  0
VERTEX
  8
SAPA_PROFIL
  5
282D
 10
-162.572
 20
-32.3422
 30
0.000000
  70
    32
  0
VERTEX
  8
SAPA_PROFIL
  5
282E
 10
-162.400
 20
-32.3446
 30
0.000000
  70
    32
  0
VERTEX
  8
SAPA_PROFIL
  5
282F
 10
-162.228
 20
-32.3422
 30
0.000000
  70
    32
  0
VERTEX
  8
SAPA_PROFIL
  5
2830
 10
-162.057
 20
-32.3350
 30
0.000000
  70
    32
  0
VERTEX
  8
SAPA_PROFIL
  5
2831
 10
-161.886
 20
-32.3230
 30
0.000000
  70
    32
  0
VERTEX
  8
SAPA_PROFIL
  5
2832
 10
-161.717
 20
-32.3062
 30
0.000000
  70
    32
  0
VERTEX
  8
SAPA_PROFIL
  5
2833
 10
-161.550
 20
-32.2847
 30
0.000000
  70
    32
  0
VERTEX
  8
SAPA_PROFIL
  5
2834
 10
-161.384
 20
-32.2585
 30
0.000000
  70
    32
  0
VERTEX
  8
SAPA_PROFIL
  5
2835
 10
-161.221
 20
-32.2277
 30
0.000000
  70
    32
  0
VERTEX
  8
SAPA_PROFIL
  5
2836
 10
-161.061
 20
-32.1924
 30
0.000000
  70
    32
  0
VERTEX
  8
SAPA_PROFIL
  5
2837
 10
-160.904
 20
-32.1526
 30
0.000000
  70
    32
  0
VERTEX
  8
SAPA_PROFIL
  5
2838
 10
-160.750
 20
-32.1085
 30
0.000000
  70
    32
  0
VERTEX
  8
SAPA_PROFIL
  5
2839
 10
-160.601
 20
-32.0601
 30
0.000000
  70
    32
  0
VERTEX
  8
SAPA_PROFIL
  5
283A
 10
-160.456
 20
-32.0076
 30
0.000000
  70
    32
  0
VERTEX
  8
SAPA_PROFIL
  5
283B
 10
-160.315
 20
-31.9510
 30
0.000000
  70
    32
  0
VERTEX
  8
SAPA_PROFIL
  5
283C
 10
-160.180
 20
-31.8906
 30
0.000000
  70
    32
  0
VERTEX
  8
SAPA_PROFIL
  5
283D
 10
-160.050
 20
-31.8265
 30
0.000000
  70
    32
  0
VERTEX
  8
SAPA_PROFIL
  5
283E
 10
-159.925
 20
-31.7588
 30
0.000000
  70
    32
  0
VERTEX
  8
SAPA_PROFIL
  5
283F
 10
-159.807
 20
-31.6877
 30
0.000000
  70
    32
  0
VERTEX
  8
SAPA_PROFIL
  5
2840
 10
-159.694
 20
-31.6134
 30
0.000000
  70
    32
  0
VERTEX
  8
SAPA_PROFIL
  5
2841
 10
-159.589
 20
-31.5360
 30
0.000000
  70
    32
  0
VERTEX
  8
SAPA_PROFIL
  5
2842
 10
-159.490
 20
-31.4558
 30
0.000000
  70
    32
  0
VERTEX
  8
SAPA_PROFIL
  5
2843
 10
-159.398
 20
-31.3728
 30
0.000000
  70
    32
  0
VERTEX
  8
SAPA_PROFIL
  5
2844
 10
-159.313
 20
-31.2874
 30
0.000000
  70
    32
  0
VERTEX
  8
SAPA_PROFIL
  5
2845
 10
-159.236
 20
-31.1997
 30
0.000000
  70
    32
  0
VERTEX
  8
SAPA_PROFIL
  5
2846
 10
-159.166
 20
-31.1100
 30
0.000000
  70
    32
  0
VERTEX
  8
SAPA_PROFIL
  5
2847
 10
-159.105
 20
-31.0184
 30
0.000000
  70
    32
  0
VERTEX
  8
SAPA_PROFIL
  5
2848
 10
-159.051
 20
-30.9252
 30
0.000000
  70
    32
  0
VERTEX
  8
SAPA_PROFIL
  5
2849
 10
-159.005
 20
-30.8306
 30
0.000000
  70
    32
  0
VERTEX
  8
SAPA_PROFIL
  5
284A
 10
-158.967
 20
-30.7348
 30
0.000000
  70
    32
  0
VERTEX
  8
SAPA_PROFIL
  5
284B
 10
-158.938
 20
-30.6381
 30
0.000000
  70
    32
  0
VERTEX
  8
SAPA_PROFIL
  5
284C
 10
-158.917
 20
-30.5407
 30
0.000000
  70
    32
  0
VERTEX
  8
SAPA_PROFIL
  5
284D
 10
-158.904
 20
-30.4428
 30
0.000000
  70
    32
  0
VERTEX
  8
SAPA_PROFIL
  5
284E
 10
-158.900
 20
-30.3446
 30
0.000000
  70
    32
  0
VERTEX
  8
SAPA_PROFIL
  5
284F
 10
-158.904
 20
-30.2465
 30
0.000000
  70
    32
  0
VERTEX
  8
SAPA_PROFIL
  5
2850
 10
-158.917
 20
-30.1486
 30
0.000000
  70
    32
  0
VERTEX
  8
SAPA_PROFIL
  5
2851
 10
-158.938
 20
-30.0512
 30
0.000000
  70
    32
  0
VERTEX
  8
SAPA_PROFIL
  5
2852
 10
-158.967
 20
-29.9544
 30
0.000000
  70
    32
  0
VERTEX
  8
SAPA_PROFIL
  5
2853
 10
-159.005
 20
-29.8587
 30
0.000000
  70
    32
  0
VERTEX
  8
SAPA_PROFIL
  5
2854
 10
-159.051
 20
-29.7641
 30
0.000000
  70
    32
  0
VERTEX
  8
SAPA_PROFIL
  5
2855
 10
-159.105
 20
-29.6708
 30
0.000000
  70
    32
  0
VERTEX
  8
SAPA_PROFIL
  5
2856
 10
-159.166
 20
-29.5793
 30
0.000000
  70
    32
  0
VERTEX
  8
SAPA_PROFIL
  5
2857
 10
-159.236
 20
-29.4895
 30
0.000000
  70
    32
  0
VERTEX
  8
SAPA_PROFIL
  5
2858
 10
-159.313
 20
-29.4018
 30
0.000000
  70
    32
  0
VERTEX
  8
SAPA_PROFIL
  5
2859
 10
-159.398
 20
-29.3164
 30
0.000000
  70
    32
  0
VERTEX
  8
SAPA_PROFIL
  5
285A
 10
-159.490
 20
-29.2335
 30
0.000000
  70
    32
  0
VERTEX
  8
SAPA_PROFIL
  5
285B
 10
-159.589
 20
-29.1532
 30
0.000000
  70
    32
  0
VERTEX
  8
SAPA_PROFIL
  5
285C
 10
-159.694
 20
-29.0758
 30
0.000000
  70
    32
  0
VERTEX
  8
SAPA_PROFIL
  5
285D
 10
-159.807
 20
-29.0015
 30
0.000000
  70
    32
  0
VERTEX
  8
SAPA_PROFIL
  5
285E
 10
-159.925
 20
-28.9304
 30
0.000000
  70
    32
  0
VERTEX
  8
SAPA_PROFIL
  5
285F
 10
-160.050
 20
-28.8627
 30
0.000000
  70
    32
  0
VERTEX
  8
SAPA_PROFIL
  5
2860
 10
-160.180
 20
-28.7986
 30
0.000000
  70
    32
  0
VERTEX
  8
SAPA_PROFIL
  5
2861
 10
-160.315
 20
-28.7382
 30
0.000000
  70
    32
  0
VERTEX
  8
SAPA_PROFIL
  5
2862
 10
-160.456
 20
-28.6817
 30
0.000000
  70
    32
  0
VERTEX
  8
SAPA_PROFIL
  5
2863
 10
-160.601
 20
-28.6292
 30
0.000000
  70
    32
  0
VERTEX
  8
SAPA_PROFIL
  5
2864
 10
-160.750
 20
-28.5808
 30
0.000000
  70
    32
  0
VERTEX
  8
SAPA_PROFIL
  5
2865
 10
-160.904
 20
-28.5366
 30
0.000000
  70
    32
  0
VERTEX
  8
SAPA_PROFIL
  5
2866
 10
-161.061
 20
-28.4969
 30
0.000000
  70
    32
  0
VERTEX
  8
SAPA_PROFIL
  5
2867
 10
-161.221
 20
-28.4615
 30
0.000000
  70
    32
  0
VERTEX
  8
SAPA_PROFIL
  5
2868
 10
-161.384
 20
-28.4307
 30
0.000000
  70
    32
  0
VERTEX
  8
SAPA_PROFIL
  5
2869
 10
-161.550
 20
-28.4046
 30
0.000000
  70
    32
  0
VERTEX
  8
SAPA_PROFIL
  5
286A
 10
-161.717
 20
-28.3831
 30
0.000000
  70
    32
  0
VERTEX
  8
SAPA_PROFIL
  5
286B
 10
-161.886
 20
-28.3663
 30
0.000000
  70
    32
  0
VERTEX
  8
SAPA_PROFIL
  5
286C
 10
-162.057
 20
-28.3543
 30
0.000000
  70
    32
  0
VERTEX
  8
SAPA_PROFIL
  5
286D
 10
-162.228
 20
-28.3470
 30
0.000000
  70
    32
  0
VERTEX
  8
SAPA_PROFIL
  5
286E
 10
-162.400
 20
-28.3446
 30
0.000000
  70
    32
  0
VERTEX
  8
SAPA_PROFIL
  5
286F
 10
-162.572
 20
-28.3470
 30
0.000000
  70
    32
  0
VERTEX
  8
SAPA_PROFIL
  5
2870
 10
-162.743
 20
-28.3543
 30
0.000000
  70
    32
  0
VERTEX
  8
SAPA_PROFIL
  5
2871
 10
-162.914
 20
-28.3663
 30
0.000000
  70
    32
  0
VERTEX
  8
SAPA_PROFIL
  5
2872
 10
-163.083
 20
-28.3831
 30
0.000000
  70
    32
  0
VERTEX
  8
SAPA_PROFIL
  5
2873
 10
-163.250
 20
-28.4046
 30
0.000000
  70
    32
  0
VERTEX
  8
SAPA_PROFIL
  5
2874
 10
-163.416
 20
-28.4307
 30
0.000000
  70
    32
  0
VERTEX
  8
SAPA_PROFIL
  5
2875
 10
-163.579
 20
-28.4615
 30
0.000000
  70
    32
  0
VERTEX
  8
SAPA_PROFIL
  5
2876
 10
-163.739
 20
-28.4969
 30
0.000000
  70
    32
  0
VERTEX
  8
SAPA_PROFIL
  5
2877
 10
-163.896
 20
-28.5366
 30
0.000000
  70
    32
  0
VERTEX
  8
SAPA_PROFIL
  5
2878
 10
-164.050
 20
-28.5808
 30
0.000000
  70
    32
  0
VERTEX
  8
SAPA_PROFIL
  5
2879
 10
-164.199
 20
-28.6292
 30
0.000000
  70
    32
  0
VERTEX
  8
SAPA_PROFIL
  5
287A
 10
-164.344
 20
-28.6817
 30
0.000000
  70
    32
  0
VERTEX
  8
SAPA_PROFIL
  5
287B
 10
-164.485
 20
-28.7382
 30
0.000000
  70
    32
  0
VERTEX
  8
SAPA_PROFIL
  5
287C
 10
-164.620
 20
-28.7986
 30
0.000000
  70
    32
  0
VERTEX
  8
SAPA_PROFIL
  5
287D
 10
-164.750
 20
-28.8627
 30
0.000000
  70
    32
  0
VERTEX
  8
SAPA_PROFIL
  5
287E
 10
-164.875
 20
-28.9304
 30
0.000000
  70
    32
  0
VERTEX
  8
SAPA_PROFIL
  5
287F
 10
-164.993
 20
-29.0015
 30
0.000000
  70
    32
  0
VERTEX
  8
SAPA_PROFIL
  5
2880
 10
-165.106
 20
-29.0758
 30
0.000000
  70
    32
  0
VERTEX
  8
SAPA_PROFIL
  5
2881
 10
-165.211
 20
-29.1532
 30
0.000000
  70
    32
  0
VERTEX
  8
SAPA_PROFIL
  5
2882
 10
-165.310
 20
-29.2335
 30
0.000000
  70
    32
  0
VERTEX
  8
SAPA_PROFIL
  5
2883
 10
-165.402
 20
-29.3164
 30
0.000000
  70
    32
  0
VERTEX
  8
SAPA_PROFIL
  5
2884
 10
-165.487
 20
-29.4018
 30
0.000000
  70
    32
  0
VERTEX
  8
SAPA_PROFIL
  5
2885
 10
-165.564
 20
-29.4895
 30
0.000000
  70
    32
  0
VERTEX
  8
SAPA_PROFIL
  5
2886
 10
-165.634
 20
-29.5793
 30
0.000000
  70
    32
  0
VERTEX
  8
SAPA_PROFIL
  5
2887
 10
-165.695
 20
-29.6708
 30
0.000000
  70
    32
  0
VERTEX
  8
SAPA_PROFIL
  5
2888
 10
-165.749
 20
-29.7641
 30
0.000000
  70
    32
  0
VERTEX
  8
SAPA_PROFIL
  5
2889
 10
-165.795
 20
-29.8587
 30
0.000000
  70
    32
  0
VERTEX
  8
SAPA_PROFIL
  5
288A
 10
-165.833
 20
-29.9544
 30
0.000000
  70
    32
  0
VERTEX
  8
SAPA_PROFIL
  5
288B
 10
-165.862
 20
-30.0512
 30
0.000000
  70
    32
  0
VERTEX
  8
SAPA_PROFIL
  5
288C
 10
-165.883
 20
-30.1486
 30
0.000000
  70
    32
  0
VERTEX
  8
SAPA_PROFIL
  5
288D
 10
-165.896
 20
-30.2465
 30
0.000000
  70
    32
  0
VERTEX
  8
SAPA_PROFIL
  5
288E
 10
-165.900
 20
-30.3446
 30
0.000000
  70
    32
  0
SEQEND
  8
SAPA_PROFIL
  5
288F
  0
POLYLINE
  5
17AE
  8
SAPA_PROFIL
 62
     2
 66
     1
 10
0.0
 20
0.0
 30
0.0
 70
     1
  0
VERTEX
  5
2004
  8
SAPA_PROFIL
 62
     2
 10
-157.5812192343196
 20
-24.694621398209812
 30
0.0
  0
VERTEX
  5
2005
  8
SAPA_PROFIL
 62
     2
 10
-167.89999999794551
 20
-24.694621398209812
 30
0.0
 42
0.4142135623730951
  0
VERTEX
  5
2006
  8
SAPA_PROFIL
 62
     2
 10
-168.1999999979455
 20
-24.994621398209819
 30
0.0
  0
VERTEX
  5
2007
  8
SAPA_PROFIL
 62
     2
 10
-168.1999999979455
 20
-26.694621398209812
 30
0.0
  0
VERTEX
  5
2008
  8
SAPA_PROFIL
 62
     2
 10
-170.01370008986589
 20
-26.694621398209812
 30
0.0
 42
0.4005932428724212
  0
VERTEX
  5
2009
  8
SAPA_PROFIL
 62
     2
 10
-170.31337265758589
 20
-26.98060882685056
 30
0.0
  0
VERTEX
  5
200A
  8
SAPA_PROFIL
 62
     2
 10
-170.7996725656655
 20
-36.180608826850559
 30
0.0
 42
0.427966335106886
  0
VERTEX
  5
200B
  8
SAPA_PROFIL
 62
     2
 10
-170.49999999794551
 20
-36.494621398209823
 30
0.0
  0
VERTEX
  5
200C
  8
SAPA_PROFIL
 62
     2
 10
-156.81953534864681
 20
-36.494621398209823
 30
0.0
 42
0.0195279011117891
  0
VERTEX
  5
200D
  8
SAPA_PROFIL
 62
     2
 10
-156.78052419853361
 20
-36.493097205212372
 30
0.0
  0
VERTEX
  5
200E
  8
SAPA_PROFIL
 62
     2
 10
-148.771977697719
 20
-35.666776174713831
 30
0.0
 42
0.3915187749346392
  0
VERTEX
  5
200F
  8
SAPA_PROFIL
 62
     2
 10
-147.8499999979455
 20
-34.66982456070874
 30
0.0
  0
VERTEX
  5
2010
  8
SAPA_PROFIL
 62
     2
 10
-147.8499999979455
 20
-32.375127943545529
 30
0.0
 42
0.2613472755167645
  0
VERTEX
  5
2011
  8
SAPA_PROFIL
 62
     2
 10
-148.08939084342131
 20
-31.948416250972919
 30
0.0
  0
VERTEX
  5
2012
  8
SAPA_PROFIL
 62
     2
 10
-157.0600009252712
 20
-24.841198013064599
 30
0.0
 42
0.1379343940649207
  0
SEQEND
  5
2013
  8
SAPA_PROFIL
 62
     2
  0
POLYLINE
  5
17AF
  8
SAPA_PROFIL
 66
     1
 10
0.0
 20
0.0
 30
0.0
 70
     1
  0
VERTEX
  5
2014
  8
SAPA_PROFIL
 10
-97.545009244861376
 20
-8.4999999929723025
 30
0.0
  0
VERTEX
  5
2015
  8
SAPA_PROFIL
 10
-101.3977956493615
 20
-8.4999999929723025
 30
0.0
 42
0.4142135623731784
  0
VERTEX
  5
2016
  8
SAPA_PROFIL
 10
-101.69779564936169
 20
-8.7999999929723707
 30
0.0
  0
VERTEX
  5
2017
  8
SAPA_PROFIL
 10
-101.6977956493615
 20
-9.0999999929727231
 30
0.0
  0
VERTEX
  5
2018
  8
SAPA_PROFIL
 10
-100.7740352186581
 20
-10.69999999297235
 30
0.0
 42
-0.5773502691887984
  0
VERTEX
  5
2019
  8
SAPA_PROFIL
 10
-100.9472402994152
 20
-10.999999992972301
 30
0.0
  0
VERTEX
  5
201A
  8
SAPA_PROFIL
 10
-102.33288094547009
 20
-10.999999992972301
 30
0.0
 42
-0.2679491924311038
  0
VERTEX
  5
201B
  8
SAPA_PROFIL
 10
-103.1989063492546
 20
-10.499999992972469
 30
0.0
  0
VERTEX
  5
201C
  8
SAPA_PROFIL
 10
-104.20926931882769
 20
-8.7499999955855081
 30
0.0
 42
0.2679491932396976
  0
VERTEX
  5
201D
  8
SAPA_PROFIL
 10
-104.6422820222289
 20
-8.4999999955854797
 30
0.0
  0
VERTEX
  5
201E
  8
SAPA_PROFIL
 10
-137.28038475566001
 20
-8.4999999955854442
 30
0.0
  0
VERTEX
  5
201F
  8
SAPA_PROFIL
 10
-137.7999999979306
 20
-8.199999995585447
 30
0.0
  0
VERTEX
  5
2020
  8
SAPA_PROFIL
 10
-138.3196152402013
 20
-8.4999999955854442
 30
0.0
  0
VERTEX
  5
2021
  8
SAPA_PROFIL
 10
-138.6577179736326
 20
-8.4999999955854442
 30
0.0
 42
0.2679491916226445
  0
VERTEX
  5
2022
  8
SAPA_PROFIL
 10
-139.0907306755249
 20
-8.7499999929723522
 30
0.0
  0
VERTEX
  5
2023
  8
SAPA_PROFIL
 10
-140.1010936466069
 20
-10.49999999297235
 30
0.0
 42
-0.2679491924311319
  0
VERTEX
  5
2024
  8
SAPA_PROFIL
 10
-140.9671190503912
 20
-10.99999999297229
 30
0.0
  0
VERTEX
  5
2025
  8
SAPA_PROFIL
 10
-142.3527596964463
 20
-10.99999999297229
 30
0.0
 42
-0.5773502691893683
  0
VERTEX
  5
2026
  8
SAPA_PROFIL
 10
-142.52596477720331
 20
-10.699999992972341
 30
0.0
  0
VERTEX
  5
2027
  8
SAPA_PROFIL
 10
-141.60220434649989
 20
-9.0999999929723039
 30
0.0
  0
VERTEX
  5
2028
  8
SAPA_PROFIL
 10
-141.60220434649989
 20
-8.7999999929723636
 30
0.0
 42
0.4142135623732059
  0
VERTEX
  5
2029
  8
SAPA_PROFIL
 10
-141.90220434650001
 20
-8.4999999929722954
 30
0.0
  0
VERTEX
  5
202A
  8
SAPA_PROFIL
 10
-145.75499075100021
 20
-8.4999999929722954
 30
0.0
 42
-0.2134217652834387
  0
VERTEX
  5
202B
  8
SAPA_PROFIL
 10
-145.97859754875029
 20
-8.3999999929721731
 30
0.0
 42
0.7625858545243238
  0
VERTEX
  5
202C
  8
SAPA_PROFIL
 10
-146.30892362976729
 20
-8.5845791951696562
 30
0.0
  0
VERTEX
  5
202D
  8
SAPA_PROFIL
 10
-146.2508499927782
 20
-8.7759621951633768
 30
0.0
  0
VERTEX
  5
202E
  8
SAPA_PROFIL
 10
-145.16628554580649
 20
-10.66180588702443
 30
0.0
  0
VERTEX
  5
202F
  8
SAPA_PROFIL
 10
-144.84452781758819
 20
-10.65124452079745
 30
0.0
 42
-0.5773502691897466
  0
VERTEX
  5
2030
  8
SAPA_PROFIL
 10
-144.66157407747801
 20
-10.94540082105229
 30
0.0
  0
VERTEX
  5
2031
  8
SAPA_PROFIL
 10
-144.8137079885868
 20
-11.23008310428394
 30
0.0
 42
-0.221694662643019
  0
VERTEX
  5
2032
  8
SAPA_PROFIL
 10
-145.35458782006361
 20
-11.63589200943872
 30
0.0
  0
VERTEX
  5
2033
  8
SAPA_PROFIL
 10
-147.16781829072181
 20
-12.01733860556644
 30
0.0
 42
-0.476975532698164
  0
VERTEX
  5
2034
  8
SAPA_PROFIL
 10
-147.53947516566771
 20
-11.715085781059971
 30
0.0
  0
VERTEX
  5
2035
  8
SAPA_PROFIL
 10
-147.53939155778411
 20
-10.211984700297959
 30
0.0
  0
VERTEX
  5
2036
  8
SAPA_PROFIL
 10
-147.4915458077856
 20
-10.19746629105086
 30
0.0
 42
0.4142135623730951
  0
VERTEX
  5
2037
  8
SAPA_PROFIL
 10
-147.2915817632782
 20
-9.8232813355750501
 30
0.0
  0
VERTEX
  5
2038
  8
SAPA_PROFIL
 10
-147.7999999979308
 20
-8.5078676157296691
 30
0.0
  0
VERTEX
  5
2039
  8
SAPA_PROFIL
 10
-147.7999999979306
 20
-5.5097167545561261
 30
0.0
 42
-0.2562769736732418
  0
VERTEX
  5
203A
  8
SAPA_PROFIL
 10
-147.7074689996152
 20
-5.3410442503447833
 30
0.0
  0
VERTEX
  5
203B
  8
SAPA_PROFIL
 10
-146.4612035004574
 20
-4.5469912441681721
 30
0.0
 42
-0.5920056181180006
  0
VERTEX
  5
203C
  8
SAPA_PROFIL
 10
-145.9999999979307
 20
-4.8000000004852437
 30
0.0
  0
VERTEX
  5
203D
  8
SAPA_PROFIL
 10
-145.9999999979307
 20
-6.2000000004852209
 30
0.0
 42
0.4142135623731505
  0
VERTEX
  5
203E
  8
SAPA_PROFIL
 10
-145.69999999793069
 20
-6.5000000004852607
 30
0.0
  0
VERTEX
  5
203F
  8
SAPA_PROFIL
 10
-143.2999999979308
 20
-6.5000000004851186
 30
0.0
 42
0.4142135623729841
  0
VERTEX
  5
2040
  8
SAPA_PROFIL
 10
-142.99999999793079
 20
-6.2000000004852209
 30
0.0
  0
VERTEX
  5
2041
  8
SAPA_PROFIL
 10
-142.99999999793079
 20
11.199999999514841
 30
0.0
 42
0.4142135623730882
  0
VERTEX
  5
2042
  8
SAPA_PROFIL
 10
-143.2999999979308
 20
11.49999999951485
 30
0.0
  0
VERTEX
  5
2043
  8
SAPA_PROFIL
 10
-145.69999999793089
 20
11.499999999514831
 30
0.0
 42
0.4142135623730118
  0
VERTEX
  5
2044
  8
SAPA_PROFIL
 10
-145.9999999979307
 20
11.199999999514761
 30
0.0
  0
VERTEX
  5
2045
  8
SAPA_PROFIL
 10
-145.9999999979307
 20
9.7999999995147498
 30
0.0
 42
-0.5877032589249656
  0
VERTEX
  5
2046
  8
SAPA_PROFIL
 10
-146.4579602050583
 20
9.5449537822046402
 30
0.0
  0
VERTEX
  5
2047
  8
SAPA_PROFIL
 10
-147.9053068026827
 20
10.44135275944684
 30
0.0
 42
-0.2596812337301635
  0
VERTEX
  5
2048
  8
SAPA_PROFIL
 10
-147.99999999793079
 20
10.61138357098694
 30
0.0
  0
VERTEX
  5
2049
  8
SAPA_PROFIL
 10
-147.99999999793079
 20
13.30000000434636
 30
0.0
 42
-0.4142135623732095
  0
VERTEX
  5
204A
  8
SAPA_PROFIL
 10
-147.7999999979308
 20
13.500000004346351
 30
0.0
  0
VERTEX
  5
204B
  8
SAPA_PROFIL
 10
-104.9999985037807
 20
13.50000000434634
 30
0.0
 42
-0.4142135623730067
  0
VERTEX
  5
204C
  8
SAPA_PROFIL
 10
-102.9999999979307
 20
11.50000149849685
 30
0.0
  0
VERTEX
  5
204D
  8
SAPA_PROFIL
 10
-102.9999999979307
 20
5.799999257271427
 30
0.0
 42
0.4142135623729993
  0
VERTEX
  5
204E
  8
SAPA_PROFIL
 10
-102.00000074500559
 20
4.8000000043463347
 30
0.0
  0
VERTEX
  5
204F
  8
SAPA_PROFIL
 10
-94.498980997930573
 20
4.8000000043464333
 30
0.0
 42
-0.4142135623730951
  0
VERTEX
  5
2050
  8
SAPA_PROFIL
 10
-93.498980997930673
 20
3.800000004346419
 30
0.0
  0
VERTEX
  5
2051
  8
SAPA_PROFIL
 10
-93.498980997930673
 20
3.302224854931441
 30
0.0
 42
-0.4142135623729598
  0
VERTEX
  5
2052
  8
SAPA_PROFIL
 10
-93.698980848515674
 20
3.10222500434634
 30
0.0
  0
VERTEX
  5
2053
  8
SAPA_PROFIL
 10
-95.296831561109343
 20
3.1022250043464261
 30
0.0
 42
0.414645992438811
  0
VERTEX
  5
2054
  8
SAPA_PROFIL
 10
-95.496831343197812
 20
2.9019297678858922
 30
0.0
  0
VERTEX
  5
2055
  8
SAPA_PROFIL
 10
-95.498387850139665
 20
-8.5036965589544415
 30
0.0
  0
VERTEX
  5
2056
  8
SAPA_PROFIL
 10
-96.008418232582983
 20
-9.823281335575043
 30
0.0
 42
0.4142135623730951
  0
VERTEX
  5
2057
  8
SAPA_PROFIL
 10
-95.808454188075586
 20
-10.19746629105085
 30
0.0
  0
VERTEX
  5
2058
  8
SAPA_PROFIL
 10
-95.760608438077085
 20
-10.211984700297959
 30
0.0
  0
VERTEX
  5
2059
  8
SAPA_PROFIL
 10
-95.760524830193461
 20
-11.71508578105996
 30
0.0
 42
-0.4769755326981641
  0
VERTEX
  5
205A
  8
SAPA_PROFIL
 10
-96.132181705139317
 20
-12.01733860556643
 30
0.0
  0
VERTEX
  5
205B
  8
SAPA_PROFIL
 10
-97.945412175797571
 20
-11.635892009438709
 30
0.0
 42
-0.2216946626430191
  0
VERTEX
  5
205C
  8
SAPA_PROFIL
 10
-98.486292007274372
 20
-11.23008310428391
 30
0.0
  0
VERTEX
  5
205D
  8
SAPA_PROFIL
 10
-98.638425918383135
 20
-10.945400821052271
 30
0.0
 42
-0.5773502691897466
  0
VERTEX
  5
205E
  8
SAPA_PROFIL
 10
-98.455472178272956
 20
-10.65124452079746
 30
0.0
  0
VERTEX
  5
205F
  8
SAPA_PROFIL
 10
-98.133714450054697
 20
-10.661805887024419
 30
0.0
  0
VERTEX
  5
2060
  8
SAPA_PROFIL
 10
-97.049150003082971
 20
-8.7759621951633697
 30
0.0
  0
VERTEX
  5
2061
  8
SAPA_PROFIL
 10
-96.991076366093878
 20
-8.5845791951696491
 30
0.0
 42
0.7625858545243257
  0
VERTEX
  5
2062
  8
SAPA_PROFIL
 10
-97.321402447110884
 20
-8.399999992972166
 30
0.0
 42
-0.2134217652834391
  0
SEQEND
  5
2063
  8
SAPA_PROFIL
  0
POLYLINE
  5
17B0
  8
SAPA_PROFIL
 66
     1
 10
0.0
 20
0.0
 30
0.0
 70
     1
  0
VERTEX
  5
2064
  8
SAPA_PROFIL
 10
-104.9999999979307
 20
11.50000000756453
 30
0.0
  0
VERTEX
  5
2065
  8
SAPA_PROFIL
 10
-106.9999999979307
 20
11.50000000756453
 30
0.0
  0
VERTEX
  5
2066
  8
SAPA_PROFIL
 10
-106.9999999979306
 20
11.40000000756463
 30
0.0
 42
-0.4142135623732199
  0
VERTEX
  5
2067
  8
SAPA_PROFIL
 10
-107.1999999979306
 20
11.20000000756454
 30
0.0
  0
VERTEX
  5
2068
  8
SAPA_PROFIL
 10
-108.7999999979306
 20
11.200000007564441
 30
0.0
 42
-0.4142135623727933
  0
VERTEX
  5
2069
  8
SAPA_PROFIL
 10
-108.9999999979307
 20
11.40000000756433
 30
0.0
  0
VERTEX
  5
206A
  8
SAPA_PROFIL
 10
-108.9999999979307
 20
11.50000000756453
 30
0.0
  0
VERTEX
  5
206B
  8
SAPA_PROFIL
 10
-137.2999999979306
 20
11.500000007564539
 30
0.0
  0
VERTEX
  5
206C
  8
SAPA_PROFIL
 10
-137.2999999979308
 20
11.40000000756454
 30
0.0
 42
-0.4142135623730847
  0
VERTEX
  5
206D
  8
SAPA_PROFIL
 10
-137.4999999979309
 20
11.200000007564549
 30
0.0
  0
VERTEX
  5
206E
  8
SAPA_PROFIL
 10
-139.09999999793089
 20
11.200000007564659
 30
0.0
 42
-0.4142135623730847
  0
VERTEX
  5
206F
  8
SAPA_PROFIL
 10
-139.29999999793071
 20
11.40000000756454
 30
0.0
  0
VERTEX
  5
2070
  8
SAPA_PROFIL
 10
-139.29999999793071
 20
11.500000007564539
 30
0.0
  0
VERTEX
  5
2071
  8
SAPA_PROFIL
 10
-140.99999999793079
 20
11.500000007564539
 30
0.0
 42
0.4142135623730675
  0
VERTEX
  5
2072
  8
SAPA_PROFIL
 10
-141.2999999979306
 20
11.200000007564549
 30
0.0
  0
VERTEX
  5
2073
  8
SAPA_PROFIL
 10
-141.2999999979306
 20
-6.3999999924354434
 30
0.0
 42
0.4142135623730673
  0
VERTEX
  5
2074
  8
SAPA_PROFIL
 10
-140.99999999793079
 20
-6.699999992435397
 30
0.0
  0
VERTEX
  5
2075
  8
SAPA_PROFIL
 10
-139.29999999793051
 20
-6.699999992435397
 30
0.0
  0
VERTEX
  5
2076
  8
SAPA_PROFIL
 10
-139.2999999979308
 20
-6.3999999924353856
 30
0.0
 42
-0.4142135623731367
  0
VERTEX
  5
2077
  8
SAPA_PROFIL
 10
-139.09999999793069
 20
-6.199999992435397
 30
0.0
  0
VERTEX
  5
2078
  8
SAPA_PROFIL
 10
-137.4999999979309
 20
-6.1999999924353411
 30
0.0
 42
-0.4142135623732407
  0
VERTEX
  5
2079
  8
SAPA_PROFIL
 10
-137.29999999793071
 20
-6.3999999924355571
 30
0.0
  0
VERTEX
  5
207A
  8
SAPA_PROFIL
 10
-137.2999999979308
 20
-6.6999999924354539
 30
0.0
  0
VERTEX
  5
207B
  8
SAPA_PROFIL
 10
-108.9999999979305
 20
-6.6999999924354583
 30
0.0
  0
VERTEX
  5
207C
  8
SAPA_PROFIL
 10
-108.9999999979306
 20
-6.3999999924353901
 30
0.0
 42
-0.4142135623732199
  0
VERTEX
  5
207D
  8
SAPA_PROFIL
 10
-108.7999999979306
 20
-6.1999999924354006
 30
0.0
  0
VERTEX
  5
207E
  8
SAPA_PROFIL
 10
-107.1999999979306
 20
-6.1999999924354903
 30
0.0
 42
-0.4142135623733448
  0
VERTEX
  5
207F
  8
SAPA_PROFIL
 10
-106.9999999979307
 20
-6.3999999924355642
 30
0.0
  0
VERTEX
  5
2080
  8
SAPA_PROFIL
 10
-106.9999999979307
 20
-6.699999992435405
 30
0.0
  0
VERTEX
  5
2081
  8
SAPA_PROFIL
 10
-97.499999997930885
 20
-6.699999992435405
 30
0.0
 42
0.4142135623732061
  0
VERTEX
  5
2082
  8
SAPA_PROFIL
 10
-97.199999997930789
 20
-6.3999999924353927
 30
0.0
  0
VERTEX
  5
2083
  8
SAPA_PROFIL
 10
-97.199999997930789
 20
2.8000000043464328
 30
0.0
 42
0.4142135623732059
  0
VERTEX
  5
2084
  8
SAPA_PROFIL
 10
-97.499999997930885
 20
3.1000000043464162
 30
0.0
  0
VERTEX
  5
2085
  8
SAPA_PROFIL
 10
-102.00000074500549
 20
3.1000000043464171
 30
0.0
 42
-0.414213562373052
  0
VERTEX
  5
2086
  8
SAPA_PROFIL
 10
-104.6999999979306
 20
5.7999992572712582
 30
0.0
  0
VERTEX
  5
2087
  8
SAPA_PROFIL
 10
-104.6999999979306
 20
11.20000000756454
 30
0.0
 42
0.4142135623732891
  0
SEQEND
  5
2088
  8
SAPA_PROFIL
  0
POLYLINE
  5
17B1
  8
SAPA_PROFIL
 66
     1
 10
0.0
 20
0.0
 30
0.1
 70
     1
  0
VERTEX
  5
2089
  8
SAPA_PROFIL
 10
-103.2003825292544
 20
-48.499999992889883
 30
0.1
 42
-0.2679491924311119
  0
VERTEX
  5
208A
  8
SAPA_PROFIL
 10
-102.33435712547011
 20
-47.999999992889983
 30
0.1
  0
VERTEX
  5
208B
  8
SAPA_PROFIL
 10
-100.948716479415
 20
-47.999999992890089
 30
0.1
 42
-0.5773502691897603
  0
VERTEX
  5
208C
  8
SAPA_PROFIL
 10
-100.7755113986582
 20
-48.299999992890051
 30
0.1
  0
VERTEX
  5
208D
  8
SAPA_PROFIL
 10
-101.69927182936151
 20
-49.899999992889732
 30
0.1
  0
VERTEX
  5
208E
  8
SAPA_PROFIL
 10
-101.69927182936151
 20
-50.199999992889907
 30
0.1
 42
0.4142135623728995
  0
VERTEX
  5
208F
  8
SAPA_PROFIL
 10
-101.3992718293616
 20
-50.499999992889983
 30
0.1
  0
VERTEX
  5
2090
  8
SAPA_PROFIL
 10
-97.546485424861515
 20
-50.499999992889919
 30
0.1
 42
-0.2134217652834313
  0
VERTEX
  5
2091
  8
SAPA_PROFIL
 10
-97.322878627111436
 20
-50.599999992890041
 30
0.1
 42
0.7625858545243313
  0
VERTEX
  5
2092
  8
SAPA_PROFIL
 10
-96.992552546094402
 20
-50.415420790692579
 30
0.1
  0
VERTEX
  5
2093
  8
SAPA_PROFIL
 10
-97.050626183083494
 20
-50.224037790698858
 30
0.1
  0
VERTEX
  5
2094
  8
SAPA_PROFIL
 10
-98.135190630055234
 20
-48.338194098837803
 30
0.1
  0
VERTEX
  5
2095
  8
SAPA_PROFIL
 10
-98.456948358273522
 20
-48.348755465064798
 30
0.1
 42
-0.5773502691897454
  0
VERTEX
  5
2096
  8
SAPA_PROFIL
 10
-98.639902098383658
 20
-48.05459916480995
 30
0.1
  0
VERTEX
  5
2097
  8
SAPA_PROFIL
 10
-98.487768187274924
 20
-47.769916881578297
 30
0.1
 42
-0.2216946626430149
  0
VERTEX
  5
2098
  8
SAPA_PROFIL
 10
-97.946888355798123
 20
-47.364107976423512
 30
0.1
  0
VERTEX
  5
2099
  8
SAPA_PROFIL
 10
-96.133657885139883
 20
-46.982661380295802
 30
0.1
 42
-0.476975532698164
  0
VERTEX
  5
209A
  8
SAPA_PROFIL
 10
-95.762001010193984
 20
-47.284914204802263
 30
0.1
  0
VERTEX
  5
209B
  8
SAPA_PROFIL
 10
-95.762084618077637
 20
-48.788015285564271
 30
0.1
  0
VERTEX
  5
209C
  8
SAPA_PROFIL
 10
-95.809930368076124
 20
-48.802533694811373
 30
0.1
 42
0.4142135623730875
  0
VERTEX
  5
209D
  8
SAPA_PROFIL
 10
-96.00989441258352
 20
-49.176718650287192
 30
0.1
  0
VERTEX
  5
209E
  8
SAPA_PROFIL
 10
-95.499999994019788
 20
-50.495951652049207
 30
0.1
  0
VERTEX
  5
209F
  8
SAPA_PROFIL
 10
-95.499999994019788
 20
-70.231478389546055
 30
0.1
 42
0.3821712090170728
  0
VERTEX
  5
20A0
  8
SAPA_PROFIL
 10
-95.23311977811403
 20
-70.529644584647968
 30
0.1
  0
VERTEX
  5
20A1
  8
SAPA_PROFIL
 10
-88.655148994019811
 20
-71.05548411961297
 30
0.1
 42
0.4469990000000183
  0
VERTEX
  5
20A2
  8
SAPA_PROFIL
 10
-88.099948994019826
 20
-70.558540119612971
 30
0.1
  0
VERTEX
  5
20A3
  8
SAPA_PROFIL
 10
-88.099948994019798
 20
-68.799999992889965
 30
0.1
 42
-0.414213999999998
  0
VERTEX
  5
20A4
  8
SAPA_PROFIL
 10
-87.099948994019826
 20
-67.799999992889951
 30
0.1
  0
VERTEX
  5
20A5
  8
SAPA_PROFIL
 10
-86.832404994019797
 20
-67.79999999288998
 30
0.1
 42
-0.2896899999999924
  0
VERTEX
  5
20A6
  8
SAPA_PROFIL
 10
-85.928896994019766
 20
-68.371427992889977
 30
0.1
 42
-0.5507599999999715
  0
VERTEX
  5
20A7
  8
SAPA_PROFIL
 10
-86.199948994019778
 20
-68.799999992889965
 30
0.1
  0
VERTEX
  5
20A8
  8
SAPA_PROFIL
 10
-86.499948994019775
 20
-68.799999992889951
 30
0.1
 42
0.4142140000001125
  0
VERTEX
  5
20A9
  8
SAPA_PROFIL
 10
-86.699948994019792
 20
-68.999999992889968
 30
0.1
  0
VERTEX
  5
20AA
  8
SAPA_PROFIL
 10
-86.699948994019792
 20
-70.099999992889991
 30
0.1
 42
0.4142139999999939
  0
VERTEX
  5
20AB
  8
SAPA_PROFIL
 10
-85.699948994019792
 20
-71.099999992889991
 30
0.1
  0
VERTEX
  5
20AC
  8
SAPA_PROFIL
 10
-83.399999994019822
 20
-71.099999992889991
 30
0.1
 42
0.4142139999999918
  0
VERTEX
  5
20AD
  8
SAPA_PROFIL
 10
-82.399999994019822
 20
-70.099999992889991
 30
0.1
  0
VERTEX
  5
20AE
  8
SAPA_PROFIL
 10
-82.399999994019794
 20
-68.999999992889968
 30
0.1
 42
0.4142139999999378
  0
VERTEX
  5
20AF
  8
SAPA_PROFIL
 10
-82.599999994019825
 20
-68.799999992889965
 30
0.1
  0
VERTEX
  5
20B0
  8
SAPA_PROFIL
 10
-82.89994899401978
 20
-68.799999992889937
 30
0.1
 42
-0.5507599999999796
  0
VERTEX
  5
20B1
  8
SAPA_PROFIL
 10
-83.171001994019804
 20
-68.371427992889991
 30
0.1
 42
-0.2896900000000027
  0
VERTEX
  5
20B2
  8
SAPA_PROFIL
 10
-82.267493994019787
 20
-67.799999992889951
 30
0.1
  0
VERTEX
  5
20B3
  8
SAPA_PROFIL
 10
-81.999999994019788
 20
-67.79999999288998
 30
0.1
 42
-0.4142140000000064
  0
VERTEX
  5
20B4
  8
SAPA_PROFIL
 10
-80.999999994019774
 20
-68.799999992889965
 30
0.1
  0
VERTEX
  5
20B5
  8
SAPA_PROFIL
 10
-80.999999994019845
 20
-70.499999992889968
 30
0.1
 42
-0.4142139999999918
  0
VERTEX
  5
20B6
  8
SAPA_PROFIL
 10
-82.999999994019788
 20
-72.499999992889968
 30
0.1
  0
VERTEX
  5
20B7
  8
SAPA_PROFIL
 10
-169.4999999940197
 20
-72.499999992889911
 30
0.1
 42
-0.414213999999996
  0
VERTEX
  5
20B8
  8
SAPA_PROFIL
 10
-169.9999999940197
 20
-71.99999999288994
 30
0.1
  0
VERTEX
  5
20B9
  8
SAPA_PROFIL
 10
-169.99999999401959
 20
-68.299999992889951
 30
0.1
 42
-0.4142139999999107
  0
VERTEX
  5
20BA
  8
SAPA_PROFIL
 10
-169.69999999401981
 20
-67.999999992889968
 30
0.1
  0
VERTEX
  5
20BB
  8
SAPA_PROFIL
 10
-168.93245499401971
 20
-67.999999992889968
 30
0.1
 42
-0.2896899999999864
  0
VERTEX
  5
20BC
  8
SAPA_PROFIL
 10
-168.0289469940198
 20
-68.571427992889923
 30
0.1
 42
-0.5507600000000558
  0
VERTEX
  5
20BD
  8
SAPA_PROFIL
 10
-168.29999999401969
 20
-68.999999992889968
 30
0.1
  0
VERTEX
  5
20BE
  8
SAPA_PROFIL
 10
-168.4999999940197
 20
-68.999999992889968
 30
0.1
 42
0.414214000000073
  0
VERTEX
  5
20BF
  8
SAPA_PROFIL
 10
-168.79999999401969
 20
-69.299999992889951
 30
0.1
  0
VERTEX
  5
20C0
  8
SAPA_PROFIL
 10
-168.79999999401969
 20
-70.799999992889951
 30
0.1
 42
0.414213999999996
  0
VERTEX
  5
20C1
  8
SAPA_PROFIL
 10
-168.29999999401969
 20
-71.299999992889951
 30
0.1
  0
VERTEX
  5
20C2
  8
SAPA_PROFIL
 10
-164.9999999940197
 20
-71.299999992889951
 30
0.1
 42
0.4142140000000002
  0
VERTEX
  5
20C3
  8
SAPA_PROFIL
 10
-164.4999999940197
 20
-70.799999992889951
 30
0.1
  0
VERTEX
  5
20C4
  8
SAPA_PROFIL
 10
-164.4999999940197
 20
-69.299999992889951
 30
0.1
 42
0.4142140000000209
  0
VERTEX
  5
20C5
  8
SAPA_PROFIL
 10
-164.7999999940198
 20
-68.999999992889968
 30
0.1
  0
VERTEX
  5
20C6
  8
SAPA_PROFIL
 10
-164.9999999940197
 20
-68.999999992890025
 30
0.1
 42
-0.5507600000000054
  0
VERTEX
  5
20C7
  8
SAPA_PROFIL
 10
-165.27105199401981
 20
-68.571427992889923
 30
0.1
 42
-0.2896899999999876
  0
VERTEX
  5
20C8
  8
SAPA_PROFIL
 10
-164.3675439940198
 20
-67.999999992889968
 30
0.1
  0
VERTEX
  5
20C9
  8
SAPA_PROFIL
 10
-163.37007299401981
 20
-67.999999992889983
 30
0.1
 42
-0.0436609999999812
  0
VERTEX
  5
20CA
  8
SAPA_PROFIL
 10
-163.2832479940198
 20
-68.007595992889975
 30
0.1
  0
VERTEX
  5
20CB
  8
SAPA_PROFIL
 10
-161.71317599401979
 20
-68.284441992889981
 30
0.1
 42
-0.839099999999979
  0
VERTEX
  5
20CC
  8
SAPA_PROFIL
 10
-161.71317599401979
 20
-69.269249992889954
 30
0.1
  0
VERTEX
  5
20CD
  8
SAPA_PROFIL
 10
-162.88682399401981
 20
-69.476194992889958
 30
0.1
 42
0.363970000000042
  0
VERTEX
  5
20CE
  8
SAPA_PROFIL
 10
-163.2999999940198
 20
-69.96859899288998
 30
0.1
  0
VERTEX
  5
20CF
  8
SAPA_PROFIL
 10
-163.2999999940198
 20
-70.779999992889941
 30
0.1
 42
0.4373279999999794
  0
VERTEX
  5
20D0
  8
SAPA_PROFIL
 10
-162.7609049940198
 20
-71.278468992889955
 30
0.1
  0
VERTEX
  5
20D1
  8
SAPA_PROFIL
 10
-148.2878467206034
 20
-70.711670506494102
 30
0.1
 42
0.4023941355298093
  0
VERTEX
  5
20D2
  8
SAPA_PROFIL
 10
-147.9999999940197
 20
-70.411916777667784
 30
0.1
  0
VERTEX
  5
20D3
  8
SAPA_PROFIL
 10
-147.9999999940197
 20
-69.611382992889958
 30
0.1
 42
-0.2596810000001062
  0
VERTEX
  5
20D4
  8
SAPA_PROFIL
 10
-147.9053069940197
 20
-69.441351992889963
 30
0.1
  0
VERTEX
  5
20D5
  8
SAPA_PROFIL
 10
-146.4579599940198
 20
-68.544952992889876
 30
0.1
 42
-0.5877030000000574
  0
VERTEX
  5
20D6
  8
SAPA_PROFIL
 10
-145.9999999940197
 20
-68.799999992890008
 30
0.1
  0
VERTEX
  5
20D7
  8
SAPA_PROFIL
 10
-145.9999999940197
 20
-70.199999992889971
 30
0.1
 42
0.4142139999999773
  0
VERTEX
  5
20D8
  8
SAPA_PROFIL
 10
-145.69999999401981
 20
-70.499999992889968
 30
0.1
  0
VERTEX
  5
20D9
  8
SAPA_PROFIL
 10
-143.2999999940198
 20
-70.499999992889968
 30
0.1
 42
0.4142140000000855
  0
VERTEX
  5
20DA
  8
SAPA_PROFIL
 10
-142.9999999940197
 20
-70.199999992889971
 30
0.1
  0
VERTEX
  5
20DB
  8
SAPA_PROFIL
 10
-142.9999999940197
 20
-52.799999992889987
 30
0.1
 42
0.4142140000001167
  0
VERTEX
  5
20DC
  8
SAPA_PROFIL
 10
-143.2999999940198
 20
-52.499999992889983
 30
0.1
  0
VERTEX
  5
20DD
  8
SAPA_PROFIL
 10
-145.69999999401981
 20
-52.499999992889983
 30
0.1
 42
0.4142140000000127
  0
VERTEX
  5
20DE
  8
SAPA_PROFIL
 10
-145.9999999940197
 20
-52.799999992889987
 30
0.1
  0
VERTEX
  5
20DF
  8
SAPA_PROFIL
 10
-145.9999999940197
 20
-54.199999992889971
 30
0.1
 42
-0.5920054160710117
  0
VERTEX
  5
20E0
  8
SAPA_PROFIL
 10
-146.4612033321346
 20
-54.453008505647738
 30
0.1
  0
VERTEX
  5
20E1
  8
SAPA_PROFIL
 10
-147.7074689883475
 20
-53.658955475826083
 30
0.1
 42
-0.2562769852931595
  0
VERTEX
  5
20E2
  8
SAPA_PROFIL
 10
-147.79999999401969
 20
-53.49028296692746
 30
0.1
  0
VERTEX
  5
20E3
  8
SAPA_PROFIL
 10
-147.79999999401969
 20
-50.49595165204893
 30
0.1
  0
VERTEX
  5
20E4
  8
SAPA_PROFIL
 10
-147.2901055754561
 20
-49.176718650287242
 30
0.1
 42
0.4142135623730875
  0
VERTEX
  5
20E5
  8
SAPA_PROFIL
 10
-147.49006961996349
 20
-48.80253369481143
 30
0.1
  0
VERTEX
  5
20E6
  8
SAPA_PROFIL
 10
-147.53791536996201
 20
-48.788015285564327
 30
0.1
  0
VERTEX
  5
20E7
  8
SAPA_PROFIL
 10
-147.5379989778456
 20
-47.284914204802313
 30
0.1
 42
-0.4769755326981641
  0
VERTEX
  5
20E8
  8
SAPA_PROFIL
 10
-147.1663421028997
 20
-46.982661380295852
 30
0.1
  0
VERTEX
  5
20E9
  8
SAPA_PROFIL
 10
-145.35311163224139
 20
-47.36410797642354
 30
0.1
 42
-0.2216946626430149
  0
VERTEX
  5
20EA
  8
SAPA_PROFIL
 10
-144.81223180076469
 20
-47.769916881578368
 30
0.1
  0
VERTEX
  5
20EB
  8
SAPA_PROFIL
 10
-144.6600978896559
 20
-48.05459916481
 30
0.1
 42
-0.5773502691897454
  0
VERTEX
  5
20EC
  8
SAPA_PROFIL
 10
-144.84305162976611
 20
-48.348755465064819
 30
0.1
  0
VERTEX
  5
20ED
  8
SAPA_PROFIL
 10
-145.16480935798441
 20
-48.33819409883786
 30
0.1
  0
VERTEX
  5
20EE
  8
SAPA_PROFIL
 10
-146.24937380495609
 20
-50.224037790698887
 30
0.1
  0
VERTEX
  5
20EF
  8
SAPA_PROFIL
 10
-146.30744744194519
 20
-50.415420790692608
 30
0.1
 42
0.7625858545243333
  0
VERTEX
  5
20F0
  8
SAPA_PROFIL
 10
-145.97712136092821
 20
-50.599999992890091
 30
0.1
 42
-0.2134217652834462
  0
VERTEX
  5
20F1
  8
SAPA_PROFIL
 10
-145.75351456317799
 20
-50.499999992889983
 30
0.1
  0
VERTEX
  5
20F2
  8
SAPA_PROFIL
 10
-141.90072815867791
 20
-50.499999992889983
 30
0.1
 42
0.4142135623729119
  0
VERTEX
  5
20F3
  8
SAPA_PROFIL
 10
-141.60072815867809
 20
-50.199999992889907
 30
0.1
  0
VERTEX
  5
20F4
  8
SAPA_PROFIL
 10
-141.60072815867809
 20
-49.899999992889732
 30
0.1
  0
VERTEX
  5
20F5
  8
SAPA_PROFIL
 10
-142.52448858938149
 20
-48.299999992890108
 30
0.1
 42
-0.5773502691897497
  0
VERTEX
  5
20F6
  8
SAPA_PROFIL
 10
-142.35128350862459
 20
-47.999999992889983
 30
0.1
  0
VERTEX
  5
20F7
  8
SAPA_PROFIL
 10
-140.96564286256941
 20
-47.999999992889812
 30
0.1
 42
-0.2679491924311136
  0
VERTEX
  5
20F8
  8
SAPA_PROFIL
 10
-140.09961745878499
 20
-48.499999992889812
 30
0.1
  0
VERTEX
  5
20F9
  8
SAPA_PROFIL
 10
-139.0892544877029
 20
-50.249999992890011
 30
0.1
 42
0.2679491924310958
  0
VERTEX
  5
20FA
  8
SAPA_PROFIL
 10
-138.65624178581069
 20
-50.499999992889983
 30
0.1
  0
VERTEX
  5
20FB
  8
SAPA_PROFIL
 10
-138.3196152362903
 20
-50.499999992889983
 30
0.1
  0
VERTEX
  5
20FC
  8
SAPA_PROFIL
 10
-137.79999999401969
 20
-50.799999992889973
 30
0.1
  0
VERTEX
  5
20FD
  8
SAPA_PROFIL
 10
-137.28038475174901
 20
-50.499999992889983
 30
0.1
  0
VERTEX
  5
20FE
  8
SAPA_PROFIL
 10
-104.6437582022288
 20
-50.499999992889983
 30
0.1
 42
0.2679491924311033
  0
VERTEX
  5
20FF
  8
SAPA_PROFIL
 10
-104.2107455003366
 20
-50.249999992890011
 30
0.1
  0
SEQEND
  5
2100
  8
SAPA_PROFIL
  0
POLYLINE
  5
17B2
  8
SAPA_PROFIL
 66
     1
 10
0.0
 20
0.0
 30
0.1
 70
     1
  0
VERTEX
  5
2101
  8
SAPA_PROFIL
 10
-139.09999999401981
 20
-52.799999992889987
 30
0.1
  0
VERTEX
  5
2102
  8
SAPA_PROFIL
 10
-137.49999999401979
 20
-52.799999992889987
 30
0.1
 42
0.4142135623730951
  0
VERTEX
  5
2103
  8
SAPA_PROFIL
 10
-137.2999999940198
 20
-52.599999992889963
 30
0.1
  0
VERTEX
  5
2104
  8
SAPA_PROFIL
 10
-137.2999999940198
 20
-52.299999909016648
 30
0.1
  0
VERTEX
  5
2105
  8
SAPA_PROFIL
 10
-101.19999999401981
 20
-52.299999909016648
 30
0.1
  0
VERTEX
  5
2106
  8
SAPA_PROFIL
 10
-101.19999999401981
 20
-52.599999992889963
 30
0.1
 42
0.4142135623730951
  0
VERTEX
  5
2107
  8
SAPA_PROFIL
 10
-100.9999999940198
 20
-52.799999992889987
 30
0.1
  0
VERTEX
  5
2108
  8
SAPA_PROFIL
 10
-99.399999994019765
 20
-52.799999992889987
 30
0.1
 42
0.4142135623730951
  0
VERTEX
  5
2109
  8
SAPA_PROFIL
 10
-99.199999994019777
 20
-52.599999992889963
 30
0.1
  0
VERTEX
  5
210A
  8
SAPA_PROFIL
 10
-99.199999994019777
 20
-52.299999909016648
 30
0.1
  0
VERTEX
  5
210B
  8
SAPA_PROFIL
 10
-97.499999994019774
 20
-52.299999909016641
 30
0.1
 42
-0.4142135623730951
  0
VERTEX
  5
210C
  8
SAPA_PROFIL
 10
-97.199999994019777
 20
-52.599999909016653
 30
0.1
  0
VERTEX
  5
210D
  8
SAPA_PROFIL
 10
-97.199999994019777
 20
-70.199999992889971
 30
0.1
 42
-0.4142135623730951
  0
VERTEX
  5
210E
  8
SAPA_PROFIL
 10
-97.499999994019774
 20
-70.499999992889968
 30
0.1
  0
VERTEX
  5
210F
  8
SAPA_PROFIL
 10
-99.199999994019777
 20
-70.499999992889968
 30
0.1
  0
VERTEX
  5
2110
  8
SAPA_PROFIL
 10
-99.199999994019777
 20
-70.399999992889946
 30
0.1
 42
0.4142135623730951
  0
VERTEX
  5
2111
  8
SAPA_PROFIL
 10
-99.399999994019765
 20
-70.199999992889971
 30
0.1
  0
VERTEX
  5
2112
  8
SAPA_PROFIL
 10
-100.9999999940198
 20
-70.199999992889971
 30
0.1
 42
0.4142135623730951
  0
VERTEX
  5
2113
  8
SAPA_PROFIL
 10
-101.19999999401981
 20
-70.399999992889946
 30
0.1
  0
VERTEX
  5
2114
  8
SAPA_PROFIL
 10
-101.19999999401981
 20
-70.499999992889968
 30
0.1
  0
VERTEX
  5
2115
  8
SAPA_PROFIL
 10
-137.2999999940198
 20
-70.499999992889968
 30
0.1
  0
VERTEX
  5
2116
  8
SAPA_PROFIL
 10
-137.2999999940198
 20
-70.399999992889946
 30
0.1
 42
0.4142135623730951
  0
VERTEX
  5
2117
  8
SAPA_PROFIL
 10
-137.49999999401979
 20
-70.199999992889971
 30
0.1
  0
VERTEX
  5
2118
  8
SAPA_PROFIL
 10
-139.09999999401981
 20
-70.199999992889971
 30
0.1
 42
0.4142135623730951
  0
VERTEX
  5
2119
  8
SAPA_PROFIL
 10
-139.2999999940198
 20
-70.399999992889946
 30
0.1
  0
VERTEX
  5
211A
  8
SAPA_PROFIL
 10
-139.2999999940198
 20
-70.499999992889968
 30
0.1
  0
VERTEX
  5
211B
  8
SAPA_PROFIL
 10
-140.99999999401979
 20
-70.499999992889968
 30
0.1
 42
-0.4142135623730951
  0
VERTEX
  5
211C
  8
SAPA_PROFIL
 10
-141.2999999940198
 20
-70.199999992889971
 30
0.1
  0
VERTEX
  5
211D
  8
SAPA_PROFIL
 10
-141.2999999940198
 20
-52.599999909016653
 30
0.1
 42
-0.4142135623730951
  0
VERTEX
  5
211E
  8
SAPA_PROFIL
 10
-140.99999999401979
 20
-52.299999909016648
 30
0.1
  0
VERTEX
  5
211F
  8
SAPA_PROFIL
 10
-139.2999999940198
 20
-52.299999909016648
 30
0.1
  0
VERTEX
  5
2120
  8
SAPA_PROFIL
 10
-139.2999999940198
 20
-52.599999992889963
 30
0.1
 42
0.4142135623730951
  0
SEQEND
  5
2121
  8
SAPA_PROFIL
  0
POLYLINE
  5
17B3
  8
SAPA_PROFIL
 62
     4
 66
     1
 10
0.0
 20
0.0
 30
0.0
  0
VERTEX
  5
2122
  8
SAPA_PROFIL
 62
     4
 10
-145.0966328846383
 20
-20.450670870617898
 30
0.0
 42
-0.5571646428658034
  0
VERTEX
  5
2123
  8
SAPA_PROFIL
 62
     4
 10
-144.22891397048281
 20
-20.987631374754731
 30
0.0
  0
VERTEX
  5
2124
  8
SAPA_PROFIL
 62
     4
 10
-144.22891397048321
 20
-38.012368611275932
 30
0.0
 42
-0.5571645048035741
  0
VERTEX
  5
2125
  8
SAPA_PROFIL
 62
     4
 10
-145.09663265834939
 20
-38.549329228236992
 30
0.0
  0
VERTEX
  5
2126
  8
SAPA_PROFIL
 62
     4
 10
-146.76277331441739
 20
-37.718622140690293
 30
0.0
 42
-0.284385813979063
  0
VERTEX
  5
2127
  8
SAPA_PROFIL
 62
     4
 10
-146.92891397048481
 20
-37.450141832209937
 30
0.0
  0
VERTEX
  5
2128
  8
SAPA_PROFIL
 62
     4
 10
-146.92891397048481
 20
-21.549858153820619
 30
0.0
 42
-0.2843858139786238
  0
VERTEX
  5
2129
  8
SAPA_PROFIL
 62
     4
 10
-146.7627733144179
 20
-21.281377845340341
 30
0.0
  0
VERTEX
  5
212A
  8
SAPA_PROFIL
 62
     4
 10
-145.0966326583486
 20
-20.45067075779318
 30
0.0
  0
SEQEND
  5
212B
  8
SAPA_PROFIL
 62
     4
  0
POLYLINE
  5
17B4
  8
SAPA_PROFIL
 62
     4
 66
     1
 10
0.0
 20
0.0
 30
0.0
 70
     1
  0
VERTEX
  5
212C
  8
SAPA_PROFIL
 62
     4
 10
-147.28574548498241
 20
-43.917611177682573
 30
0.0
  0
VERTEX
  5
212D
  8
SAPA_PROFIL
 62
     4
 10
-147.69230568098661
 20
-44.181634456058582
 30
0.0
 42
0.2539676464751066
  0
VERTEX
  5
212E
  8
SAPA_PROFIL
 62
     4
 10
-147.82891397048269
 20
-44.433235626443292
 30
0.0
  0
VERTEX
  5
212F
  8
SAPA_PROFIL
 62
     4
 10
-147.82891397048269
 20
-45.814735211648639
 30
0.0
 42
0.3152987888790479
  0
VERTEX
  5
2130
  8
SAPA_PROFIL
 62
     4
 10
-147.4999240421445
 20
-46.284581522040952
 30
0.0
  0
VERTEX
  5
2131
  8
SAPA_PROFIL
 62
     4
 10
-145.0390938516932
 20
-47.180250462949559
 30
0.0
 42
-0.2694959974287434
  0
VERTEX
  5
2132
  8
SAPA_PROFIL
 62
     4
 10
-144.84596187734931
 20
-47.411769509350897
 30
0.0
 42
-0.0612686379508233
  0
VERTEX
  5
2133
  8
SAPA_PROFIL
 62
     4
 10
-144.83237850671881
 20
-47.704444942204191
 30
0.0
  0
VERTEX
  5
2134
  8
SAPA_PROFIL
 62
     4
 10
-144.63064182798999
 20
-48.053863119512449
 30
0.0
 42
-0.5773502691891679
  0
VERTEX
  5
2135
  8
SAPA_PROFIL
 62
     4
 10
-144.8125071627845
 20
-48.368863119512042
 30
0.0
  0
VERTEX
  5
2136
  8
SAPA_PROFIL
 62
     4
 10
-145.0796216909109
 20
-48.368863119512291
 30
0.0
  0
VERTEX
  5
2137
  8
SAPA_PROFIL
 62
     4
 10
-145.8883051522192
 20
-49.767390820146531
 30
0.0
 42
0.1318219888653519
  0
VERTEX
  5
2138
  8
SAPA_PROFIL
 62
     4
 10
-145.92859754875661
 20
-49.917563922618882
 30
0.0
  0
VERTEX
  5
2139
  8
SAPA_PROFIL
 62
     4
 10
-145.92859754875019
 20
-50.099999993055661
 30
0.0
 42
0.4142135623724291
  0
VERTEX
  5
213A
  8
SAPA_PROFIL
 62
     4
 10
-145.52859754875061
 20
-50.499999993056207
 30
0.0
  0
VERTEX
  5
213B
  8
SAPA_PROFIL
 62
     4
 10
-142.12859754874961
 20
-50.499999993054843
 30
0.0
 42
0.4142135623744271
  0
VERTEX
  5
213C
  8
SAPA_PROFIL
 62
     4
 10
-141.72859754874861
 20
-50.099999993055661
 30
0.0
  0
VERTEX
  5
213D
  8
SAPA_PROFIL
 62
     4
 10
-141.7285975487479
 20
-49.920384750784358
 30
0.0
 42
0.1316524975874005
  0
VERTEX
  5
213E
  8
SAPA_PROFIL
 62
     4
 10
-141.76878992761351
 20
-49.770384750787542
 30
0.0
  0
VERTEX
  5
213F
  8
SAPA_PROFIL
 62
     4
 10
-142.69493937426611
 20
-48.166246853785289
 30
0.0
 42
-0.1316524975875904
  0
VERTEX
  5
2140
  8
SAPA_PROFIL
 62
     4
 10
-142.82891397048081
 20
-47.666246853783569
 30
0.0
  0
VERTEX
  5
2141
  8
SAPA_PROFIL
 62
     4
 10
-142.82891397048081
 20
-47.2499999930562
 30
0.0
 42
-0.4142135623730951
  0
VERTEX
  5
2142
  8
SAPA_PROFIL
 62
     4
 10
-141.8289139704809
 20
-46.249999993056207
 30
0.0
  0
VERTEX
  5
2143
  8
SAPA_PROFIL
 62
     4
 10
-138.8289139704836
 20
-46.249999993056207
 30
0.0
 42
0.9999996830128083
  0
VERTEX
  5
2144
  8
SAPA_PROFIL
 62
     4
 10
-138.82891397048181
 20
-45.2499999930562
 30
0.0
  0
VERTEX
  5
2145
  8
SAPA_PROFIL
 62
     4
 10
-141.82891397048181
 20
-45.2499999930562
 30
0.0
 42
-0.4142135623730951
  0
VERTEX
  5
2146
  8
SAPA_PROFIL
 62
     4
 10
-142.82891397048181
 20
-44.249999993056207
 30
0.0
  0
VERTEX
  5
2147
  8
SAPA_PROFIL
 62
     4
 10
-142.82891397048181
 20
-14.74999999297162
 30
0.0
 42
-0.4142135623730951
  0
VERTEX
  5
2148
  8
SAPA_PROFIL
 62
     4
 10
-141.82891397048181
 20
-13.74999999297162
 30
0.0
  0
VERTEX
  5
2149
  8
SAPA_PROFIL
 62
     4
 10
-138.8289139704836
 20
-13.74999999297162
 30
0.0
 42
0.9999999999999998
  0
VERTEX
  5
214A
  8
SAPA_PROFIL
 62
     4
 10
-138.8289139704836
 20
-12.74999999297162
 30
0.0
  0
VERTEX
  5
214B
  8
SAPA_PROFIL
 62
     4
 10
-141.82891397048181
 20
-12.74999999297162
 30
0.0
 42
-0.4142135623736278
  0
VERTEX
  5
214C
  8
SAPA_PROFIL
 62
     4
 10
-142.82891397048181
 20
-11.74999999297162
 30
0.0
  0
VERTEX
  5
214D
  8
SAPA_PROFIL
 62
     4
 10
-142.82891397048181
 20
-11.33375313224516
 30
0.0
 42
-0.1316524975874375
  0
VERTEX
  5
214E
  8
SAPA_PROFIL
 62
     4
 10
-142.69493937426569
 20
-10.83375313224496
 30
0.0
  0
VERTEX
  5
214F
  8
SAPA_PROFIL
 62
     4
 10
-141.76878992761351
 20
-9.2296152352430152
 30
0.0
 42
0.1316524975874
  0
VERTEX
  5
2150
  8
SAPA_PROFIL
 62
     4
 10
-141.7285975487479
 20
-9.0796152352434731
 30
0.0
  0
VERTEX
  5
2151
  8
SAPA_PROFIL
 62
     4
 10
-141.72859754874861
 20
-8.8999999929721696
 30
0.0
 42
0.4142135623744271
  0
VERTEX
  5
2152
  8
SAPA_PROFIL
 62
     4
 10
-142.12859754874961
 20
-8.4999999929729881
 30
0.0
  0
VERTEX
  5
2153
  8
SAPA_PROFIL
 62
     4
 10
-145.52859754875061
 20
-8.4999999929716221
 30
0.0
 42
0.4142135623724291
  0
VERTEX
  5
2154
  8
SAPA_PROFIL
 62
     4
 10
-145.92859754875019
 20
-8.8999999929721696
 30
0.0
  0
VERTEX
  5
2155
  8
SAPA_PROFIL
 62
     4
 10
-145.92859754875661
 20
-9.0824360634089487
 30
0.0
 42
0.1318219888653524
  0
VERTEX
  5
2156
  8
SAPA_PROFIL
 62
     4
 10
-145.8883051522192
 20
-9.2326091658812928
 30
0.0
  0
VERTEX
  5
2157
  8
SAPA_PROFIL
 62
     4
 10
-145.07962169099491
 20
-10.631136866360951
 30
0.0
  0
VERTEX
  5
2158
  8
SAPA_PROFIL
 62
     4
 10
-144.8125071627818
 20
-10.631136866360951
 30
0.0
 42
-0.577350269189159
  0
VERTEX
  5
2159
  8
SAPA_PROFIL
 62
     4
 10
-144.63064182798729
 20
-10.94613686636054
 30
0.0
  0
VERTEX
  5
215A
  8
SAPA_PROFIL
 62
     4
 10
-144.83237850666441
 20
-11.295555043579199
 30
0.0
 42
-0.0612687673629489
  0
VERTEX
  5
215B
  8
SAPA_PROFIL
 62
     4
 10
-144.84596187735059
 20
-11.588230476679421
 30
0.0
 42
-0.2694959974285039
  0
VERTEX
  5
215C
  8
SAPA_PROFIL
 62
     4
 10
-145.0390938516945
 20
-11.81974952307994
 30
0.0
  0
VERTEX
  5
215D
  8
SAPA_PROFIL
 62
     4
 10
-147.49992404214771
 20
-12.7154184639896
 30
0.0
 42
0.3152987888784035
  0
VERTEX
  5
215E
  8
SAPA_PROFIL
 62
     4
 10
-147.82891397048419
 20
-13.18526477438283
 30
0.0
  0
VERTEX
  5
215F
  8
SAPA_PROFIL
 62
     4
 10
-147.82891397048269
 20
-14.56676435958726
 30
0.0
 42
0.2539676464741841
  0
VERTEX
  5
2160
  8
SAPA_PROFIL
 62
     4
 10
-147.6923056809874
 20
-14.81836552997134
 30
0.0
  0
VERTEX
  5
2161
  8
SAPA_PROFIL
 62
     4
 10
-147.28574548498241
 20
-15.08238880834798
 30
0.0
 42
0.5862177598324623
  0
VERTEX
  5
2162
  8
SAPA_PROFIL
 62
     4
 10
-146.8289139704859
 20
-14.826646993109639
 30
0.0
  0
VERTEX
  5
2163
  8
SAPA_PROFIL
 62
     4
 10
-146.8289139704936
 20
-13.885472312599831
 30
0.0
 42
-0.3152987888813165
  0
VERTEX
  5
2164
  8
SAPA_PROFIL
 62
     4
 10
-146.49992404215681
 20
-13.415626002202069
 30
0.0
  0
VERTEX
  5
2165
  8
SAPA_PROFIL
 62
     4
 10
-145.29992404214559
 20
-12.97886172107812
 30
0.0
 42
-0.5205670505515651
  0
VERTEX
  5
2166
  8
SAPA_PROFIL
 62
     4
 10
-144.6289139704829
 20
-13.448708031471339
 30
0.0
  0
VERTEX
  5
2167
  8
SAPA_PROFIL
 62
     4
 10
-144.62891397048281
 20
-18.465148972140192
 30
0.0
 42
-0.3702522326300203
  0
VERTEX
  5
2168
  8
SAPA_PROFIL
 62
     4
 10
-144.8833739231485
 20
-18.761672333933522
 30
0.0
 42
-0.0982365330332397
  0
VERTEX
  5
2169
  8
SAPA_PROFIL
 62
     4
 10
-146.5710606981435
 20
-18.852125092144458
 30
0.0
 42
-0.3735060174783164
  0
VERTEX
  5
216A
  8
SAPA_PROFIL
 62
     4
 10
-146.8289139704836
 20
-18.55510042423348
 30
0.0
  0
VERTEX
  5
216B
  8
SAPA_PROFIL
 62
     4
 10
-146.82891397048451
 20
-18.126646993110821
 30
0.0
 42
0.5920056181162531
  0
VERTEX
  5
216C
  8
SAPA_PROFIL
 62
     4
 10
-147.2901174730124
 20
-17.873638236793418
 30
0.0
  0
VERTEX
  5
216D
  8
SAPA_PROFIL
 62
     4
 10
-147.6923056809907
 20
-18.134822312949119
 30
0.0
 42
0.2539676464746725
  0
VERTEX
  5
216E
  8
SAPA_PROFIL
 62
     4
 10
-147.8289139704861
 20
-18.386423483332891
 30
0.0
  0
VERTEX
  5
216F
  8
SAPA_PROFIL
 62
     4
 10
-147.82891397048451
 20
-40.613576502698571
 30
0.0
 42
0.2539676464741819
  0
VERTEX
  5
2170
  8
SAPA_PROFIL
 62
     4
 10
-147.6923056809907
 20
-40.865177673081433
 30
0.0
  0
VERTEX
  5
2171
  8
SAPA_PROFIL
 62
     4
 10
-147.2901174730124
 20
-41.126361749235237
 30
0.0
 42
0.5920055144124249
  0
VERTEX
  5
2172
  8
SAPA_PROFIL
 62
     4
 10
-146.82891397048451
 20
-40.873352992919727
 30
0.0
  0
VERTEX
  5
2173
  8
SAPA_PROFIL
 62
     4
 10
-146.82891399575951
 20
-40.444899515629508
 30
0.0
 42
-0.3735060174775405
  0
VERTEX
  5
2174
  8
SAPA_PROFIL
 62
     4
 10
-146.57106072341941
 20
-40.14787484771982
 30
0.0
 42
-0.0355900683670349
  0
VERTEX
  5
2175
  8
SAPA_PROFIL
 62
     4
 10
-145.9551871366196
 20
-40.103981283687567
 30
0.0
 42
-0.0624282003873116
  0
VERTEX
  5
2176
  8
SAPA_PROFIL
 62
     4
 10
-144.88337394842449
 20
-40.238327605930508
 30
0.0
 42
-0.3702522326309292
  0
VERTEX
  5
2177
  8
SAPA_PROFIL
 62
     4
 10
-144.62891399575881
 20
-40.534850967723891
 30
0.0
  0
VERTEX
  5
2178
  8
SAPA_PROFIL
 62
     4
 10
-144.62891397048261
 20
-45.551291954557399
 30
0.0
 42
-0.5205670505515692
  0
VERTEX
  5
2179
  8
SAPA_PROFIL
 62
     4
 10
-145.29992404214559
 20
-46.021138264950622
 30
0.0
  0
VERTEX
  5
217A
  8
SAPA_PROFIL
 62
     4
 10
-146.4999240421551
 20
-45.584373983825671
 30
0.0
 42
-0.3152987888807539
  0
VERTEX
  5
217B
  8
SAPA_PROFIL
 62
     4
 10
-146.82891397049269
 20
-45.114527673429819
 30
0.0
  0
VERTEX
  5
217C
  8
SAPA_PROFIL
 62
     4
 10
-146.82891397048579
 20
-44.173352992920726
 30
0.0
 42
0.5862175119221242
  0
VERTEX
  5
217D
  8
SAPA_PROFIL
 62
     4
 10
-147.285745296241
 20
-43.917611061938779
 30
0.0
 42
-0.0000002084758573
  0
SEQEND
  5
217E
  8
SAPA_PROFIL
 62
     4
  0
POLYLINE
  5
17B5
  8
SAPA_PROFIL
 62
     4
 66
     1
 10
0.0
 20
0.0
 30
0.0
  0
VERTEX
  5
217F
  8
SAPA_PROFIL
 62
     4
 10
-98.203367111223258
 20
-20.450670870617898
 30
0.0
 42
0.5571646428658034
  0
VERTEX
  5
2180
  8
SAPA_PROFIL
 62
     4
 10
-99.071086025378804
 20
-20.987631374754731
 30
0.0
  0
VERTEX
  5
2181
  8
SAPA_PROFIL
 62
     4
 10
-99.071086025378349
 20
-38.012368611275932
 30
0.0
 42
0.5571645048035741
  0
VERTEX
  5
2182
  8
SAPA_PROFIL
 62
     4
 10
-98.203367337512191
 20
-38.549329228236992
 30
0.0
  0
VERTEX
  5
2183
  8
SAPA_PROFIL
 62
     4
 10
-96.537226681444153
 20
-37.718622140690293
 30
0.0
 42
0.284385813979063
  0
VERTEX
  5
2184
  8
SAPA_PROFIL
 62
     4
 10
-96.371086025376727
 20
-37.450141832209937
 30
0.0
  0
VERTEX
  5
2185
  8
SAPA_PROFIL
 62
     4
 10
-96.371086025376727
 20
-21.549858153820619
 30
0.0
 42
0.2843858139786238
  0
VERTEX
  5
2186
  8
SAPA_PROFIL
 62
     4
 10
-96.537226681443641
 20
-21.281377845340341
 30
0.0
  0
VERTEX
  5
2187
  8
SAPA_PROFIL
 62
     4
 10
-98.203367337512987
 20
-20.45067075779318
 30
0.0
  0
SEQEND
  5
2188
  8
SAPA_PROFIL
 62
     4
  0
POLYLINE
  5
17B6
  8
SAPA_PROFIL
 62
     4
 66
     1
 10
0.0
 20
0.0
 30
0.0
 70
     1
  0
VERTEX
  5
2189
  8
SAPA_PROFIL
 62
     4
 10
-96.014254510879141
 20
-43.917611177682573
 30
0.0
  0
VERTEX
  5
218A
  8
SAPA_PROFIL
 62
     4
 10
-95.607694314875005
 20
-44.181634456058582
 30
0.0
 42
-0.2539676464751066
  0
VERTEX
  5
218B
  8
SAPA_PROFIL
 62
     4
 10
-95.471086025378895
 20
-44.433235626443292
 30
0.0
  0
VERTEX
  5
218C
  8
SAPA_PROFIL
 62
     4
 10
-95.471086025378895
 20
-45.814735211648639
 30
0.0
 42
-0.3152987888790479
  0
VERTEX
  5
218D
  8
SAPA_PROFIL
 62
     4
 10
-95.800075953717055
 20
-46.284581522040952
 30
0.0
  0
VERTEX
  5
218E
  8
SAPA_PROFIL
 62
     4
 10
-98.260906144168345
 20
-47.180250462949559
 30
0.0
 42
0.2694959974287434
  0
VERTEX
  5
218F
  8
SAPA_PROFIL
 62
     4
 10
-98.45403811851223
 20
-47.411769509350897
 30
0.0
 42
0.0612686379508233
  0
VERTEX
  5
2190
  8
SAPA_PROFIL
 62
     4
 10
-98.467621489142743
 20
-47.704444942204191
 30
0.0
  0
VERTEX
  5
2191
  8
SAPA_PROFIL
 62
     4
 10
-98.669358167871565
 20
-48.053863119512449
 30
0.0
 42
0.5773502691891679
  0
VERTEX
  5
2192
  8
SAPA_PROFIL
 62
     4
 10
-98.487492833076999
 20
-48.368863119512042
 30
0.0
  0
VERTEX
  5
2193
  8
SAPA_PROFIL
 62
     4
 10
-98.220378304950685
 20
-48.368863119512291
 30
0.0
  0
VERTEX
  5
2194
  8
SAPA_PROFIL
 62
     4
 10
-97.411694843642366
 20
-49.767390820146531
 30
0.0
 42
-0.1318219888653519
  0
VERTEX
  5
2195
  8
SAPA_PROFIL
 62
     4
 10
-97.37140244710497
 20
-49.917563922618882
 30
0.0
  0
VERTEX
  5
2196
  8
SAPA_PROFIL
 62
     4
 10
-97.37140244711135
 20
-50.099999993055661
 30
0.0
 42
-0.4142135623724291
  0
VERTEX
  5
2197
  8
SAPA_PROFIL
 62
     4
 10
-97.771402447110987
 20
-50.499999993056207
 30
0.0
  0
VERTEX
  5
2198
  8
SAPA_PROFIL
 62
     4
 10
-101.171402447112
 20
-50.499999993054843
 30
0.0
 42
-0.4142135623744271
  0
VERTEX
  5
2199
  8
SAPA_PROFIL
 62
     4
 10
-101.571402447113
 20
-50.099999993055661
 30
0.0
  0
VERTEX
  5
219A
  8
SAPA_PROFIL
 62
     4
 10
-101.5714024471136
 20
-49.920384750784358
 30
0.0
 42
-0.1316524975874005
  0
VERTEX
  5
219B
  8
SAPA_PROFIL
 62
     4
 10
-101.531210068248
 20
-49.770384750787542
 30
0.0
  0
VERTEX
  5
219C
  8
SAPA_PROFIL
 62
     4
 10
-100.6050606215955
 20
-48.166246853785289
 30
0.0
 42
0.1316524975875904
  0
VERTEX
  5
219D
  8
SAPA_PROFIL
 62
     4
 10
-100.4710860253807
 20
-47.666246853783569
 30
0.0
  0
VERTEX
  5
219E
  8
SAPA_PROFIL
 62
     4
 10
-100.4710860253807
 20
-47.2499999930562
 30
0.0
 42
0.4142135623730951
  0
VERTEX
  5
219F
  8
SAPA_PROFIL
 62
     4
 10
-101.4710860253807
 20
-46.249999993056207
 30
0.0
  0
VERTEX
  5
21A0
  8
SAPA_PROFIL
 62
     4
 10
-104.471086025378
 20
-46.249999993056207
 30
0.0
 42
-0.9999996830128083
  0
VERTEX
  5
21A1
  8
SAPA_PROFIL
 62
     4
 10
-104.4710860253798
 20
-45.2499999930562
 30
0.0
  0
VERTEX
  5
21A2
  8
SAPA_PROFIL
 62
     4
 10
-101.4710860253798
 20
-45.2499999930562
 30
0.0
 42
0.4142135623730951
  0
VERTEX
  5
21A3
  8
SAPA_PROFIL
 62
     4
 10
-100.4710860253798
 20
-44.249999993056207
 30
0.0
  0
VERTEX
  5
21A4
  8
SAPA_PROFIL
 62
     4
 10
-100.4710860253798
 20
-14.74999999297162
 30
0.0
 42
0.4142135623730951
  0
VERTEX
  5
21A5
  8
SAPA_PROFIL
 62
     4
 10
-101.4710860253798
 20
-13.74999999297162
 30
0.0
  0
VERTEX
  5
21A6
  8
SAPA_PROFIL
 62
     4
 10
-104.471086025378
 20
-13.74999999297162
 30
0.0
 42
-0.9999999999999998
  0
VERTEX
  5
21A7
  8
SAPA_PROFIL
 62
     4
 10
-104.471086025378
 20
-12.74999999297162
 30
0.0
  0
VERTEX
  5
21A8
  8
SAPA_PROFIL
 62
     4
 10
-101.4710860253798
 20
-12.74999999297162
 30
0.0
 42
0.4142135623736278
  0
VERTEX
  5
21A9
  8
SAPA_PROFIL
 62
     4
 10
-100.4710860253798
 20
-11.74999999297162
 30
0.0
  0
VERTEX
  5
21AA
  8
SAPA_PROFIL
 62
     4
 10
-100.4710860253798
 20
-11.33375313224516
 30
0.0
 42
0.1316524975874375
  0
VERTEX
  5
21AB
  8
SAPA_PROFIL
 62
     4
 10
-100.6050606215958
 20
-10.83375313224496
 30
0.0
  0
VERTEX
  5
21AC
  8
SAPA_PROFIL
 62
     4
 10
-101.531210068248
 20
-9.2296152352430152
 30
0.0
 42
-0.1316524975874
  0
VERTEX
  5
21AD
  8
SAPA_PROFIL
 62
     4
 10
-101.5714024471136
 20
-9.0796152352434731
 30
0.0
  0
VERTEX
  5
21AE
  8
SAPA_PROFIL
 62
     4
 10
-101.571402447113
 20
-8.8999999929721696
 30
0.0
 42
-0.4142135623744271
  0
VERTEX
  5
21AF
  8
SAPA_PROFIL
 62
     4
 10
-101.171402447112
 20
-8.4999999929729881
 30
0.0
  0
VERTEX
  5
21B0
  8
SAPA_PROFIL
 62
     4
 10
-97.771402447110987
 20
-8.4999999929716221
 30
0.0
 42
-0.4142135623724291
  0
VERTEX
  5
21B1
  8
SAPA_PROFIL
 62
     4
 10
-97.37140244711135
 20
-8.8999999929721696
 30
0.0
  0
VERTEX
  5
21B2
  8
SAPA_PROFIL
 62
     4
 10
-97.37140244710497
 20
-9.0824360634089487
 30
0.0
 42
-0.1318219888653524
  0
VERTEX
  5
21B3
  8
SAPA_PROFIL
 62
     4
 10
-97.411694843642366
 20
-9.2326091658812928
 30
0.0
  0
VERTEX
  5
21B4
  8
SAPA_PROFIL
 62
     4
 10
-98.220378304866713
 20
-10.631136866360951
 30
0.0
  0
VERTEX
  5
21B5
  8
SAPA_PROFIL
 62
     4
 10
-98.487492833079742
 20
-10.631136866360951
 30
0.0
 42
0.577350269189159
  0
VERTEX
  5
21B6
  8
SAPA_PROFIL
 62
     4
 10
-98.669358167874321
 20
-10.94613686636054
 30
0.0
  0
VERTEX
  5
21B7
  8
SAPA_PROFIL
 62
     4
 10
-98.467621489197214
 20
-11.295555043579199
 30
0.0
 42
0.0612687673629489
  0
VERTEX
  5
21B8
  8
SAPA_PROFIL
 62
     4
 10
-98.454038118510994
 20
-11.588230476679421
 30
0.0
 42
0.2694959974285039
  0
VERTEX
  5
21B9
  8
SAPA_PROFIL
 62
     4
 10
-98.260906144167038
 20
-11.81974952307994
 30
0.0
  0
VERTEX
  5
21BA
  8
SAPA_PROFIL
 62
     4
 10
-95.800075953713872
 20
-12.7154184639896
 30
0.0
 42
-0.3152987888784035
  0
VERTEX
  5
21BB
  8
SAPA_PROFIL
 62
     4
 10
-95.471086025377303
 20
-13.18526477438283
 30
0.0
  0
VERTEX
  5
21BC
  8
SAPA_PROFIL
 62
     4
 10
-95.471086025378895
 20
-14.56676435958726
 30
0.0
 42
-0.2539676464741841
  0
VERTEX
  5
21BD
  8
SAPA_PROFIL
 62
     4
 10
-95.607694314874166
 20
-14.81836552997134
 30
0.0
  0
VERTEX
  5
21BE
  8
SAPA_PROFIL
 62
     4
 10
-96.014254510879141
 20
-15.08238880834798
 30
0.0
 42
-0.5862177598324623
  0
VERTEX
  5
21BF
  8
SAPA_PROFIL
 62
     4
 10
-96.471086025375655
 20
-14.826646993109639
 30
0.0
  0
VERTEX
  5
21C0
  8
SAPA_PROFIL
 62
     4
 10
-96.471086025367981
 20
-13.885472312599831
 30
0.0
 42
0.3152987888813165
  0
VERTEX
  5
21C1
  8
SAPA_PROFIL
 62
     4
 10
-96.800075953704734
 20
-13.415626002202069
 30
0.0
  0
VERTEX
  5
21C2
  8
SAPA_PROFIL
 62
     4
 10
-98.000075953715964
 20
-12.97886172107812
 30
0.0
 42
0.5205670505515651
  0
VERTEX
  5
21C3
  8
SAPA_PROFIL
 62
     4
 10
-98.671086025378713
 20
-13.448708031471339
 30
0.0
  0
VERTEX
  5
21C4
  8
SAPA_PROFIL
 62
     4
 10
-98.671086025378756
 20
-18.465148972140192
 30
0.0
 42
0.3702522326300203
  0
VERTEX
  5
21C5
  8
SAPA_PROFIL
 62
     4
 10
-98.416626072713015
 20
-18.761672333933522
 30
0.0
 42
0.0982365330332397
  0
VERTEX
  5
21C6
  8
SAPA_PROFIL
 62
     4
 10
-96.728939297718014
 20
-18.852125092144458
 30
0.0
 42
0.3735060174783164
  0
VERTEX
  5
21C7
  8
SAPA_PROFIL
 62
     4
 10
-96.471086025377986
 20
-18.55510042423348
 30
0.0
  0
VERTEX
  5
21C8
  8
SAPA_PROFIL
 62
     4
 10
-96.471086025377076
 20
-18.126646993110821
 30
0.0
 42
-0.5920056181162531
  0
VERTEX
  5
21C9
  8
SAPA_PROFIL
 62
     4
 10
-96.009882522849153
 20
-17.873638236793418
 30
0.0
  0
VERTEX
  5
21CA
  8
SAPA_PROFIL
 62
     4
 10
-95.607694314870855
 20
-18.134822312949119
 30
0.0
 42
-0.2539676464746725
  0
VERTEX
  5
21CB
  8
SAPA_PROFIL
 62
     4
 10
-95.471086025375499
 20
-18.386423483332891
 30
0.0
  0
VERTEX
  5
21CC
  8
SAPA_PROFIL
 62
     4
 10
-95.471086025377076
 20
-40.613576502698571
 30
0.0
 42
-0.2539676464741819
  0
VERTEX
  5
21CD
  8
SAPA_PROFIL
 62
     4
 10
-95.607694314870855
 20
-40.865177673081433
 30
0.0
  0
VERTEX
  5
21CE
  8
SAPA_PROFIL
 62
     4
 10
-96.00988252284921
 20
-41.126361749235237
 30
0.0
 42
-0.5920055144124249
  0
VERTEX
  5
21CF
  8
SAPA_PROFIL
 62
     4
 10
-96.471086025377076
 20
-40.873352992919727
 30
0.0
  0
VERTEX
  5
21D0
  8
SAPA_PROFIL
 62
     4
 10
-96.471086000102076
 20
-40.444899515629508
 30
0.0
 42
0.3735060174775405
  0
VERTEX
  5
21D1
  8
SAPA_PROFIL
 62
     4
 10
-96.728939272442176
 20
-40.14787484771982
 30
0.0
 42
0.0355900683670349
  0
VERTEX
  5
21D2
  8
SAPA_PROFIL
 62
     4
 10
-97.344812859241955
 20
-40.103981283687567
 30
0.0
 42
0.0624282003873116
  0
VERTEX
  5
21D3
  8
SAPA_PROFIL
 62
     4
 10
-98.416626047437077
 20
-40.238327605930508
 30
0.0
 42
0.3702522326309292
  0
VERTEX
  5
21D4
  8
SAPA_PROFIL
 62
     4
 10
-98.671086000102804
 20
-40.534850967723891
 30
0.0
  0
VERTEX
  5
21D5
  8
SAPA_PROFIL
 62
     4
 10
-98.671086025378955
 20
-45.551291954557399
 30
0.0
 42
0.5205670505515692
  0
VERTEX
  5
21D6
  8
SAPA_PROFIL
 62
     4
 10
-98.000075953715964
 20
-46.021138264950622
 30
0.0
  0
VERTEX
  5
21D7
  8
SAPA_PROFIL
 62
     4
 10
-96.800075953706525
 20
-45.584373983825671
 30
0.0
 42
0.3152987888807539
  0
VERTEX
  5
21D8
  8
SAPA_PROFIL
 62
     4
 10
-96.471086025368891
 20
-45.114527673429819
 30
0.0
  0
VERTEX
  5
21D9
  8
SAPA_PROFIL
 62
     4
 10
-96.471086025375712
 20
-44.173352992920726
 30
0.0
 42
-0.5862175119221242
  0
VERTEX
  5
21DA
  8
SAPA_PROFIL
 62
     4
 10
-96.014254699620594
 20
-43.917611061938779
 30
0.0
 42
0.0000002084758573
  0
SEQEND
  5
21DB
  8
SAPA_PROFIL
 62
     4
  0
CIRCLE
  5
17B7
  8
SAPA_PROFIL
 62
     2
 10
-86.831507495362828
 20
-67.317340025555069
 30
0.1
 40
0.25
  0
INSERT
  5
17B8
  8
SAPA_PROFIL
  6
CONTINUOUS
 62
     2
  2
*U121
 10
0.0
 20
0.0
 30
0.0
1001
ACAD
1002
{
1000
R14_HATCH_DATA
1000
17B8
1011
1.0
1021
0.0
1031
0.0
1021
0.0
1031
0.0
1011
0.0
1021
0.0
1031
0.0
1021
1.0
1031
0.0
1011
0.0
1021
0.0
1031
0.0
1021
0.0
1031
1.0
1040
0.1
1010
0.0
1020
0.0
1030
1.0
1000
SOLID
1070
     1
1070
     1
1071
        1
1071
        7
1070
     1
1070
     1
1071
        2
1040
-86.831507495362828
1040
-67.067340025555055
1040
-1.0
1040
-86.831507495362828
1040
-67.567340025555069
1040
-1.0
1071
        1
1005
17B7
1070
     0
1070
     1
1040
0.0095408196840103
1071
        1
1040
-86.831507495362828
1040
-67.21734002555506
1040
0.1
1002
}
  0
POLYLINE
  5
17B9
  8
SAPA_PROFIL
 62
     2
 66
     1
 10
0.0
 20
0.0
 30
0.1
 70
     1
  0
VERTEX
  5
21ED
  8
SAPA_PROFIL
 62
     2
 10
-84.499974494019796
 20
-69.991719264420951
 30
0.1
  0
VERTEX
  5
21EE
  8
SAPA_PROFIL
 62
     2
 10
-84.399974494019801
 20
-69.991719264420951
 30
0.1
 42
0.4142135623730959
  0
VERTEX
  5
21EF
  8
SAPA_PROFIL
 62
     2
 10
-83.699974494019798
 20
-69.291719264420934
 30
0.1
  0
VERTEX
  5
21F0
  8
SAPA_PROFIL
 62
     2
 10
-83.699974494019798
 20
-68.191719264420954
 30
0.1
 42
0.4142135623730961
  0
VERTEX
  5
21F1
  8
SAPA_PROFIL
 62
     2
 10
-83.899974494019787
 20
-67.991719264420951
 30
0.1
  0
VERTEX
  5
21F2
  8
SAPA_PROFIL
 62
     2
 10
-84.999974494019796
 20
-67.991719264420951
 30
0.1
 42
0.4142135623730956
  0
VERTEX
  5
21F3
  8
SAPA_PROFIL
 62
     2
 10
-85.199974494019798
 20
-68.191719264420954
 30
0.1
  0
VERTEX
  5
21F4
  8
SAPA_PROFIL
 62
     2
 10
-85.199974494019798
 20
-69.291719264420934
 30
0.1
 42
0.4142135623730946
  0
SEQEND
  5
21F5
  8
SAPA_PROFIL
 62
     2
  0
POLYLINE
  5
17BA
  8
SAPA_PROFIL
 62
     2
 66
     1
 10
0.0
 20
0.0
 30
0.1
  0
VERTEX
  5
21F6
  8
SAPA_PROFIL
 62
     2
 10
-85.999974494019796
 20
-68.691719264420954
 30
0.1
  0
VERTEX
  5
21F7
  8
SAPA_PROFIL
 62
     2
 10
-85.999974494019796
 20
-68.043953699147863
 30
0.1
 42
0.4416942457848117
  0
VERTEX
  5
21F8
  8
SAPA_PROFIL
 62
     2
 10
-86.218528853647726
 20
-67.84481621965493
 30
0.1
  0
VERTEX
  5
21F9
  8
SAPA_PROFIL
 62
     2
 10
-87.181420134391885
 20
-67.934532284912962
 30
0.1
 42
-0.4416942457848106
  0
VERTEX
  5
21FA
  8
SAPA_PROFIL
 62
     2
 10
-87.399974494019816
 20
-67.735394805420029
 30
0.1
  0
VERTEX
  5
21FB
  8
SAPA_PROFIL
 62
     2
 10
-87.399974494019816
 20
-67.185412465828492
 30
0.1
 42
-0.5445962197109637
  0
VERTEX
  5
21FC
  8
SAPA_PROFIL
 62
     2
 10
-86.694295448614724
 20
-66.729675556766622
 30
0.1
  0
VERTEX
  5
21FD
  8
SAPA_PROFIL
 62
     2
 10
-86.335244295329446
 20
-66.891719264420942
 30
0.1
  0
VERTEX
  5
21FE
  8
SAPA_PROFIL
 62
     2
 10
-84.86228505658157
 20
-66.891719264420942
 30
0.1
 42
-0.336437923496554
  0
VERTEX
  5
21FF
  8
SAPA_PROFIL
 62
     2
 10
-83.790541326966732
 20
-67.079226082262679
 30
0.1
  0
VERTEX
  5
2200
  8
SAPA_PROFIL
 62
     2
 10
-83.228677691143005
 20
-67.079226082262679
 30
0.1
 42
0.1919812372740513
  0
VERTEX
  5
2201
  8
SAPA_PROFIL
 62
     2
 10
-82.884690643542982
 20
-66.942093704245423
 30
0.1
  0
VERTEX
  5
2202
  8
SAPA_PROFIL
 62
     2
 10
-82.492823713139671
 20
-66.570616227955384
 30
0.1
 42
0.9249153594910841
  0
VERTEX
  5
2203
  8
SAPA_PROFIL
 62
     2
 10
-84.158601641661875
 20
-64.33692141287608
 30
0.1
  0
VERTEX
  5
2204
  8
SAPA_PROFIL
 62
     2
 10
-85.243146581330663
 20
-64.870469468127709
 30
0.1
 42
-0.4184584792862776
  0
VERTEX
  5
2205
  8
SAPA_PROFIL
 62
     2
 10
-85.829848897902096
 20
-64.466717347707998
 30
0.1
 42
-0.3891337693453737
  0
VERTEX
  5
2206
  8
SAPA_PROFIL
 62
     2
 10
-85.684682006361612
 20
-64.238628039765388
 30
0.1
  0
VERTEX
  5
2207
  8
SAPA_PROFIL
 62
     2
 10
-84.598785915796583
 20
-63.675722987277503
 30
0.1
 42
-0.8864286961344978
  0
VERTEX
  5
2208
  8
SAPA_PROFIL
 62
     2
 10
-81.927006013860066
 20
-67.034921742798232
 30
0.1
  0
VERTEX
  5
2209
  8
SAPA_PROFIL
 62
     2
 10
-81.496446875978805
 20
-67.150289716087343
 30
0.1
 42
-0.9163311740174273
  0
VERTEX
  5
220A
  8
SAPA_PROFIL
 62
     2
 10
-81.634836791118872
 20
-67.935137925839683
 30
0.1
  0
VERTEX
  5
220B
  8
SAPA_PROFIL
 62
     2
 10
-82.682543345470265
 20
-67.843475479632119
 30
0.1
 42
0.4400105308918339
  0
VERTEX
  5
220C
  8
SAPA_PROFIL
 62
     2
 10
-82.899974494019801
 20
-68.042714419250473
 30
0.1
  0
VERTEX
  5
220D
  8
SAPA_PROFIL
 62
     2
 10
-82.899974494019801
 20
-68.891719264420942
 30
0.1
  0
VERTEX
  5
220E
  8
SAPA_PROFIL
 62
     2
 10
-82.499974494019796
 20
-68.891719264420942
 30
0.1
 42
-0.569380983920789
  0
VERTEX
  5
220F
  8
SAPA_PROFIL
 62
     2
 10
-82.324420448456209
 20
-69.187535636123599
 30
0.1
  0
VERTEX
  5
2210
  8
SAPA_PROFIL
 62
     2
 10
-83.029386048355278
 20
-70.4791683795289
 30
0.1
 42
-0.274387813087548
  0
VERTEX
  5
2211
  8
SAPA_PROFIL
 62
     2
 10
-83.556048185046023
 20
-70.791719264420948
 30
0.1
  0
VERTEX
  5
2212
  8
SAPA_PROFIL
 62
     2
 10
-85.343900802993574
 20
-70.791719264420948
 30
0.1
 42
-0.274387813087548
  0
VERTEX
  5
2213
  8
SAPA_PROFIL
 62
     2
 10
-85.870562939684319
 20
-70.4791683795289
 30
0.1
  0
VERTEX
  5
2214
  8
SAPA_PROFIL
 62
     2
 10
-86.575528539583388
 20
-69.187535636123599
 30
0.1
 42
-0.5693809839207892
  0
VERTEX
  5
2215
  8
SAPA_PROFIL
 62
     2
 10
-86.399974494019787
 20
-68.891719264420942
 30
0.1
  0
VERTEX
  5
2216
  8
SAPA_PROFIL
 62
     2
 10
-85.999974494019796
 20
-68.891719264420942
 30
0.1
  0
VERTEX
  5
2217
  8
SAPA_PROFIL
 62
     2
 10
-85.999974494019796
 20
-68.042714419250473
 30
0.1
  0
SEQEND
  5
2218
  8
SAPA_PROFIL
 62
     2
  0
POLYLINE
  5
17BB
  8
SAPA_PROFIL
 66
     1
 10
0.0
 20
0.0
 30
0.0
 70
     1
  0
VERTEX
  5
2219
  8
SAPA_PROFIL
 10
-81.453514569158656
 20
-8.4999999990099369
 30
0.0
 42
-0.2134217652834387
  0
VERTEX
  5
221A
  8
SAPA_PROFIL
 10
-81.677121366908764
 20
-8.3999999990098289
 30
0.0
 42
0.7625858545243219
  0
VERTEX
  5
221B
  8
SAPA_PROFIL
 10
-82.007447447925784
 20
-8.5845792012073048
 30
0.0
  0
VERTEX
  5
221C
  8
SAPA_PROFIL
 10
-81.949373810936692
 20
-8.7759622012010254
 30
0.0
  0
VERTEX
  5
221D
  8
SAPA_PROFIL
 10
-80.864809363964966
 20
-10.66180589306208
 30
0.0
  0
VERTEX
  5
221E
  8
SAPA_PROFIL
 10
-80.543051635746693
 20
-10.6512445268351
 30
0.0
 42
-0.5773502691897439
  0
VERTEX
  5
221F
  8
SAPA_PROFIL
 10
-80.360097895636528
 20
-10.945400827089941
 30
0.0
  0
VERTEX
  5
2220
  8
SAPA_PROFIL
 10
-80.512231806745277
 20
-11.230083110321569
 30
0.0
 42
-0.2216946626430187
  0
VERTEX
  5
2221
  8
SAPA_PROFIL
 10
-81.053111638222063
 20
-11.635892015476371
 30
0.0
  0
VERTEX
  5
2222
  8
SAPA_PROFIL
 10
-82.866342108880303
 20
-12.017338611604091
 30
0.0
 42
-0.4769755326981641
  0
VERTEX
  5
2223
  8
SAPA_PROFIL
 10
-83.237998983826202
 20
-11.715085787097619
 30
0.0
  0
VERTEX
  5
2224
  8
SAPA_PROFIL
 10
-83.237915375942549
 20
-10.21198470633561
 30
0.0
  0
VERTEX
  5
2225
  8
SAPA_PROFIL
 10
-83.190069625944048
 20
-10.197466297088511
 30
0.0
 42
0.4142135623730944
  0
VERTEX
  5
2226
  8
SAPA_PROFIL
 10
-82.990105581436666
 20
-9.8232813416126987
 30
0.0
  0
VERTEX
  5
2227
  8
SAPA_PROFIL
 10
-83.500000000000156
 20
-8.5040483398512876
 30
0.0
  0
VERTEX
  5
2228
  8
SAPA_PROFIL
 10
-83.500000000000213
 20
11.23147839764621
 30
0.0
 42
0.38217120901707
  0
VERTEX
  5
2229
  8
SAPA_PROFIL
 10
-83.766880215905957
 20
11.52964459274814
 30
0.0
  0
VERTEX
  5
222A
  8
SAPA_PROFIL
 10
-90.344851000000176
 20
12.055484127713131
 30
0.0
 42
0.4469990000000265
  0
VERTEX
  5
222B
  8
SAPA_PROFIL
 10
-90.900051000000303
 20
11.55854012771308
 30
0.0
  0
VERTEX
  5
222C
  8
SAPA_PROFIL
 10
-90.900051000000175
 20
9.8000000009900834
 30
0.0
 42
-0.4142139999999868
  0
VERTEX
  5
222D
  8
SAPA_PROFIL
 10
-91.900051000000119
 20
8.8000000009901118
 30
0.0
  0
VERTEX
  5
222E
  8
SAPA_PROFIL
 10
-92.167595000000233
 20
8.8000000009900692
 30
0.0
 42
-0.2896899999999956
  0
VERTEX
  5
222F
  8
SAPA_PROFIL
 10
-93.071103000000221
 20
9.3714280009901447
 30
0.0
 42
-0.5507599999999603
  0
VERTEX
  5
2230
  8
SAPA_PROFIL
 10
-92.800051000000167
 20
9.8000000009900834
 30
0.0
  0
VERTEX
  5
2231
  8
SAPA_PROFIL
 10
-92.500051000000227
 20
9.8000000009900798
 30
0.0
 42
0.4142140000001095
  0
VERTEX
  5
2232
  8
SAPA_PROFIL
 10
-92.300051000000124
 20
10.000000000990131
 30
0.0
  0
VERTEX
  5
2233
  8
SAPA_PROFIL
 10
-92.300051000000195
 20
11.100000000990089
 30
0.0
 42
0.4142139999999826
  0
VERTEX
  5
2234
  8
SAPA_PROFIL
 10
-93.300051000000167
 20
12.100000000990031
 30
0.0
  0
VERTEX
  5
2235
  8
SAPA_PROFIL
 10
-95.60000000000025
 20
12.100000000990081
 30
0.0
 42
0.4142139999999877
  0
VERTEX
  5
2236
  8
SAPA_PROFIL
 10
-96.600000000000236
 20
11.100000000990139
 30
0.0
  0
VERTEX
  5
2237
  8
SAPA_PROFIL
 10
-96.60000000000025
 20
10.00000000099007
 30
0.0
 42
0.4142139999999481
  0
VERTEX
  5
2238
  8
SAPA_PROFIL
 10
-96.400000000000134
 20
9.8000000009901171
 30
0.0
  0
VERTEX
  5
2239
  8
SAPA_PROFIL
 10
-96.100051000000235
 20
9.8000000009900763
 30
0.0
 42
-0.5507600000000124
  0
VERTEX
  5
223A
  8
SAPA_PROFIL
 10
-95.828998000000183
 20
9.3714280009900772
 30
0.0
 42
-0.2896899999999978
  0
VERTEX
  5
223B
  8
SAPA_PROFIL
 10
-96.732506000000114
 20
8.8000000009900532
 30
0.0
  0
VERTEX
  5
223C
  8
SAPA_PROFIL
 10
-97.000000000000242
 20
8.8000000009900798
 30
0.0
 42
-0.4142140000000002
  0
VERTEX
  5
223D
  8
SAPA_PROFIL
 10
-98.000000000000227
 20
9.8000000009900941
 30
0.0
  0
VERTEX
  5
223E
  8
SAPA_PROFIL
 10
-98.000000000000256
 20
11.50000000099007
 30
0.0
 42
-0.4142139999999887
  0
VERTEX
  5
223F
  8
SAPA_PROFIL
 10
-96.000000000000199
 20
13.500000000990131
 30
0.0
  0
VERTEX
  5
2240
  8
SAPA_PROFIL
 10
-31.20000000000028
 20
13.50000000099007
 30
0.0
 42
-0.4142135623730847
  0
VERTEX
  5
2241
  8
SAPA_PROFIL
 10
-31.00000000000027
 20
13.300000000990069
 30
0.0
  0
VERTEX
  5
2242
  8
SAPA_PROFIL
 10
-31.000000000000281
 20
10.611383000990109
 30
0.0
 42
-0.2596810000000924
  0
VERTEX
  5
2243
  8
SAPA_PROFIL
 10
-31.094693000000291
 20
10.44135200099009
 30
0.0
  0
VERTEX
  5
2244
  8
SAPA_PROFIL
 10
-32.542040000000213
 20
9.5449530009900787
 30
0.0
 42
-0.5877030000000333
  0
VERTEX
  5
2245
  8
SAPA_PROFIL
 10
-33.000000000000298
 20
9.8000000009901402
 30
0.0
  0
VERTEX
  5
2246
  8
SAPA_PROFIL
 10
-33.000000000000291
 20
11.20000000099011
 30
0.0
 42
0.4142139999999517
  0
VERTEX
  5
2247
  8
SAPA_PROFIL
 10
-33.30000000000021
 20
11.50000000099009
 30
0.0
  0
VERTEX
  5
2248
  8
SAPA_PROFIL
 10
-35.700000000000223
 20
11.50000000099006
 30
0.0
 42
0.4142140000000525
  0
VERTEX
  5
2249
  8
SAPA_PROFIL
 10
-36.000000000000227
 20
11.200000000990119
 30
0.0
  0
VERTEX
  5
224A
  8
SAPA_PROFIL
 10
-36.000000000000277
 20
-6.199999999009866
 30
0.0
 42
0.4142140000001183
  0
VERTEX
  5
224B
  8
SAPA_PROFIL
 10
-35.700000000000188
 20
-6.4999999990100479
 30
0.0
  0
VERTEX
  5
224C
  8
SAPA_PROFIL
 10
-33.300000000000182
 20
-6.4999999990099422
 30
0.0
 42
0.4142140000000144
  0
VERTEX
  5
224D
  8
SAPA_PROFIL
 10
-33.000000000000341
 20
-6.1999999990099228
 30
0.0
  0
VERTEX
  5
224E
  8
SAPA_PROFIL
 10
-33.000000000000291
 20
-4.7999999990098887
 30
0.0
 42
-0.5920054160710128
  0
VERTEX
  5
224F
  8
SAPA_PROFIL
 10
-32.538796661885378
 20
-4.5469914862521579
 30
0.0
  0
VERTEX
  5
2250
  8
SAPA_PROFIL
 10
-31.292531005672402
 20
-5.3410445160737714
 30
0.0
 42
-0.2562769852931535
  0
VERTEX
  5
2251
  8
SAPA_PROFIL
 10
-31.200000000000301
 20
-5.509717024972395
 30
0.0
  0
VERTEX
  5
2252
  8
SAPA_PROFIL
 10
-31.200000000000291
 20
-8.5040483398507742
 30
0.0
  0
VERTEX
  5
2253
  8
SAPA_PROFIL
 10
-31.709894418563959
 20
-9.8232813416126756
 30
0.0
 42
0.4142135623730948
  0
VERTEX
  5
2254
  8
SAPA_PROFIL
 10
-31.509930374056569
 20
-10.197466297088489
 30
0.0
  0
VERTEX
  5
2255
  8
SAPA_PROFIL
 10
-31.462084624058079
 20
-10.21198470633559
 30
0.0
  0
VERTEX
  5
2256
  8
SAPA_PROFIL
 10
-31.46200101617444
 20
-11.7150857870976
 30
0.0
 42
-0.4769755326981646
  0
VERTEX
  5
2257
  8
SAPA_PROFIL
 10
-31.8336578911203
 20
-12.01733861160406
 30
0.0
  0
VERTEX
  5
2258
  8
SAPA_PROFIL
 10
-33.646888361778551
 20
-11.63589201547633
 30
0.0
 42
-0.2216946626430189
  0
VERTEX
  5
2259
  8
SAPA_PROFIL
 10
-34.187768193255337
 20
-11.23008311032155
 30
0.0
  0
VERTEX
  5
225A
  8
SAPA_PROFIL
 10
-34.339902104364107
 20
-10.9454008270899
 30
0.0
 42
-0.5773502691897443
  0
VERTEX
  5
225B
  8
SAPA_PROFIL
 10
-34.156948364253921
 20
-10.651244526835089
 30
0.0
  0
VERTEX
  5
225C
  8
SAPA_PROFIL
 10
-33.835190636035676
 20
-10.66180589306205
 30
0.0
  0
VERTEX
  5
225D
  8
SAPA_PROFIL
 10
-32.750626189063937
 20
-8.7759622012010023
 30
0.0
  0
VERTEX
  5
225E
  8
SAPA_PROFIL
 10
-32.692552552074858
 20
-8.5845792012072888
 30
0.0
 42
0.7625858545243274
  0
VERTEX
  5
225F
  8
SAPA_PROFIL
 10
-33.02287863309185
 20
-8.3999999990097844
 30
0.0
 42
-0.2134217652834391
  0
VERTEX
  5
2260
  8
SAPA_PROFIL
 10
-33.246485430841972
 20
-8.4999999990099067
 30
0.0
  0
VERTEX
  5
2261
  8
SAPA_PROFIL
 10
-37.099271835342002
 20
-8.4999999990099262
 30
0.0
 42
0.4142135623729077
  0
VERTEX
  5
2262
  8
SAPA_PROFIL
 10
-37.399271835341892
 20
-8.7999999990100033
 30
0.0
  0
VERTEX
  5
2263
  8
SAPA_PROFIL
 10
-37.399271835341949
 20
-9.0999999990101852
 30
0.0
  0
VERTEX
  5
2264
  8
SAPA_PROFIL
 10
-36.475511404638667
 20
-10.69999999900981
 30
0.0
 42
-0.5773502691897674
  0
VERTEX
  5
2265
  8
SAPA_PROFIL
 10
-36.648716485395433
 20
-10.99999999900993
 30
0.0
  0
VERTEX
  5
2266
  8
SAPA_PROFIL
 10
-38.034357131450577
 20
-10.99999999900993
 30
0.0
 42
-0.2679491924311062
  0
VERTEX
  5
2267
  8
SAPA_PROFIL
 10
-38.900382535235011
 20
-10.49999999901012
 30
0.0
  0
VERTEX
  5
2268
  8
SAPA_PROFIL
 10
-39.910745506317078
 20
-8.7499999990098782
 30
0.0
 42
0.267949192431108
  0
VERTEX
  5
2269
  8
SAPA_PROFIL
 10
-40.343758208209287
 20
-8.4999999990099262
 30
0.0
  0
VERTEX
  5
226A
  8
SAPA_PROFIL
 10
-74.356241791791135
 20
-8.4999999990099226
 30
0.0
 42
0.2679491924311069
  0
VERTEX
  5
226B
  8
SAPA_PROFIL
 10
-74.789254493683359
 20
-8.7499999990099013
 30
0.0
  0
VERTEX
  5
226C
  8
SAPA_PROFIL
 10
-75.799617464765447
 20
-10.49999999901004
 30
0.0
 42
-0.2679491924311082
  0
VERTEX
  5
226D
  8
SAPA_PROFIL
 10
-76.665642868549867
 20
-10.999999999009921
 30
0.0
  0
VERTEX
  5
226E
  8
SAPA_PROFIL
 10
-78.051283514604961
 20
-10.99999999900993
 30
0.0
 42
-0.5773502691897738
  0
VERTEX
  5
226F
  8
SAPA_PROFIL
 10
-78.224488595361748
 20
-10.699999999009851
 30
0.0
  0
VERTEX
  5
2270
  8
SAPA_PROFIL
 10
-77.300728164658494
 20
-9.0999999990101799
 30
0.0
  0
VERTEX
  5
2271
  8
SAPA_PROFIL
 10
-77.300728164658494
 20
-8.7999999990099962
 30
0.0
 42
0.4142135623729009
  0
VERTEX
  5
2272
  8
SAPA_PROFIL
 10
-77.600728164658364
 20
-8.4999999990098658
 30
0.0
  0
SEQEND
  5
2273
  8
SAPA_PROFIL
  0
POLYLINE
  5
17BC
  8
SAPA_PROFIL
 66
     1
 10
0.0
 20
0.0
 30
0.0
 70
     1
  0
VERTEX
  5
2274
  8
SAPA_PROFIL
 10
-79.800000000000267
 20
-6.399999999009907
 30
0.0
 42
-0.4142135623730951
  0
VERTEX
  5
2275
  8
SAPA_PROFIL
 10
-79.60000000000025
 20
-6.1999999990098607
 30
0.0
  0
VERTEX
  5
2276
  8
SAPA_PROFIL
 10
-78.000000000000213
 20
-6.1999999990099184
 30
0.0
 42
-0.4142135623730951
  0
VERTEX
  5
2277
  8
SAPA_PROFIL
 10
-77.800000000000182
 20
-6.399999999009907
 30
0.0
  0
VERTEX
  5
2278
  8
SAPA_PROFIL
 10
-77.800000000000182
 20
-6.7000000828832347
 30
0.0
  0
VERTEX
  5
2279
  8
SAPA_PROFIL
 10
-41.700000000000223
 20
-6.70000008288324
 30
0.0
  0
VERTEX
  5
227A
  8
SAPA_PROFIL
 10
-41.700000000000237
 20
-6.3999999990099106
 30
0.0
 42
-0.4142135623730951
  0
VERTEX
  5
227B
  8
SAPA_PROFIL
 10
-41.50000000000022
 20
-6.1999999990098651
 30
0.0
  0
VERTEX
  5
227C
  8
SAPA_PROFIL
 10
-39.900000000000212
 20
-6.1999999990099219
 30
0.0
 42
-0.4142135623730951
  0
VERTEX
  5
227D
  8
SAPA_PROFIL
 10
-39.700000000000223
 20
-6.3999999990099106
 30
0.0
  0
VERTEX
  5
227E
  8
SAPA_PROFIL
 10
-39.700000000000223
 20
-6.70000008288324
 30
0.0
  0
VERTEX
  5
227F
  8
SAPA_PROFIL
 10
-38.000000000000227
 20
-6.7000000828831912
 30
0.0
 42
0.4142135623730951
  0
VERTEX
  5
2280
  8
SAPA_PROFIL
 10
-37.700000000000223
 20
-6.4000000828832286
 30
0.0
  0
VERTEX
  5
2281
  8
SAPA_PROFIL
 10
-37.700000000000237
 20
11.20000000099011
 30
0.0
 42
0.414213562373095
  0
VERTEX
  5
2282
  8
SAPA_PROFIL
 10
-38.000000000000227
 20
11.50000000099006
 30
0.0
  0
VERTEX
  5
2283
  8
SAPA_PROFIL
 10
-39.700000000000223
 20
11.50000000099006
 30
0.0
  0
VERTEX
  5
2284
  8
SAPA_PROFIL
 10
-39.700000000000223
 20
11.40000000099004
 30
0.0
 42
-0.4142135623730951
  0
VERTEX
  5
2285
  8
SAPA_PROFIL
 10
-39.900000000000212
 20
11.20000000099011
 30
0.0
  0
VERTEX
  5
2286
  8
SAPA_PROFIL
 10
-41.50000000000022
 20
11.20000000099005
 30
0.0
 42
-0.4142135623730951
  0
VERTEX
  5
2287
  8
SAPA_PROFIL
 10
-41.700000000000223
 20
11.40000000099004
 30
0.0
  0
VERTEX
  5
2288
  8
SAPA_PROFIL
 10
-41.700000000000223
 20
11.50000000099006
 30
0.0
  0
VERTEX
  5
2289
  8
SAPA_PROFIL
 10
-77.800000000000182
 20
11.50000000099007
 30
0.0
  0
VERTEX
  5
228A
  8
SAPA_PROFIL
 10
-77.800000000000239
 20
11.40000000099004
 30
0.0
 42
-0.4142135623730951
  0
VERTEX
  5
228B
  8
SAPA_PROFIL
 10
-78.000000000000213
 20
11.20000000099011
 30
0.0
  0
VERTEX
  5
228C
  8
SAPA_PROFIL
 10
-79.60000000000025
 20
11.200000000990061
 30
0.0
 42
-0.4142135623730898
  0
VERTEX
  5
228D
  8
SAPA_PROFIL
 10
-79.800000000000182
 20
11.40000000099004
 30
0.0
  0
VERTEX
  5
228E
  8
SAPA_PROFIL
 10
-79.800000000000182
 20
11.50000000099007
 30
0.0
  0
VERTEX
  5
228F
  8
SAPA_PROFIL
 10
-81.500000000000227
 20
11.50000000099012
 30
0.0
 42
0.4142135623730953
  0
VERTEX
  5
2290
  8
SAPA_PROFIL
 10
-81.800000000000196
 20
11.20000000099011
 30
0.0
  0
VERTEX
  5
2291
  8
SAPA_PROFIL
 10
-81.800000000000239
 20
-6.4000000828832242
 30
0.0
 42
0.4142135623730951
  0
VERTEX
  5
2292
  8
SAPA_PROFIL
 10
-81.500000000000227
 20
-6.7000000828832347
 30
0.0
  0
VERTEX
  5
2293
  8
SAPA_PROFIL
 10
-79.800000000000182
 20
-6.7000000828832347
 30
0.0
  0
SEQEND
  5
2294
  8
SAPA_PROFIL
  0
POLYLINE
  5
17BD
  8
SAPA_PROFIL
 66
     1
 10
0.0
 20
0.0
 30
0.0
 70
     1
  0
VERTEX
  5
2295
  8
SAPA_PROFIL
 10
-33.246485430841872
 20
-50.499999999009901
 30
0.0
  0
VERTEX
  5
2296
  8
SAPA_PROFIL
 10
-37.099271835341931
 20
-50.499999999009901
 30
0.0
 42
-0.414213562372901
  0
VERTEX
  5
2297
  8
SAPA_PROFIL
 10
-37.3992718353418
 20
-50.199999999009833
 30
0.0
  0
VERTEX
  5
2298
  8
SAPA_PROFIL
 10
-37.39927183534185
 20
-49.899999999009651
 30
0.0
  0
VERTEX
  5
2299
  8
SAPA_PROFIL
 10
-36.475511404638567
 20
-48.299999999009977
 30
0.0
 42
0.5773502691897976
  0
VERTEX
  5
229A
  8
SAPA_PROFIL
 10
-36.648716485395333
 20
-47.999999999009901
 30
0.0
  0
VERTEX
  5
229B
  8
SAPA_PROFIL
 10
-38.034357131450477
 20
-47.999999999009901
 30
0.0
 42
0.2679491924311222
  0
VERTEX
  5
229C
  8
SAPA_PROFIL
 10
-38.900382535234897
 20
-48.499999999009759
 30
0.0
  0
VERTEX
  5
229D
  8
SAPA_PROFIL
 10
-39.910745506316992
 20
-50.24999999900993
 30
0.0
 42
-0.2679491924310994
  0
VERTEX
  5
229E
  8
SAPA_PROFIL
 10
-40.343758208209188
 20
-50.49999999900993
 30
0.0
  0
VERTEX
  5
229F
  8
SAPA_PROFIL
 10
-74.356241791791092
 20
-50.499999999009901
 30
0.0
 42
-0.2679491924311005
  0
VERTEX
  5
22A0
  8
SAPA_PROFIL
 10
-74.789254493683302
 20
-50.24999999900993
 30
0.0
  0
VERTEX
  5
22A1
  8
SAPA_PROFIL
 10
-75.799617464765362
 20
-48.499999999009731
 30
0.0
 42
0.2679491924311199
  0
VERTEX
  5
22A2
  8
SAPA_PROFIL
 10
-76.66564286854981
 20
-47.999999999009901
 30
0.0
  0
VERTEX
  5
22A3
  8
SAPA_PROFIL
 10
-78.051283514604933
 20
-47.999999999009887
 30
0.0
 42
0.5773502691897738
  0
VERTEX
  5
22A4
  8
SAPA_PROFIL
 10
-78.22448859536172
 20
-48.29999999900997
 30
0.0
  0
VERTEX
  5
22A5
  8
SAPA_PROFIL
 10
-77.300728164658409
 20
-49.899999999009651
 30
0.0
  0
VERTEX
  5
22A6
  8
SAPA_PROFIL
 10
-77.300728164658409
 20
-50.199999999009833
 30
0.0
 42
-0.414213562372901
  0
VERTEX
  5
22A7
  8
SAPA_PROFIL
 10
-77.600728164658335
 20
-50.499999999009958
 30
0.0
  0
VERTEX
  5
22A8
  8
SAPA_PROFIL
 10
-81.453514569158415
 20
-50.499999999009901
 30
0.0
 42
0.2134217652834299
  0
VERTEX
  5
22A9
  8
SAPA_PROFIL
 10
-81.677121366908494
 20
-50.599999999010024
 30
0.0
 42
-0.7625858545243327
  0
VERTEX
  5
22AA
  8
SAPA_PROFIL
 10
-82.007447447925529
 20
-50.415420796812562
 30
0.0
  0
VERTEX
  5
22AB
  8
SAPA_PROFIL
 10
-81.949373810936436
 20
-50.224037796818841
 30
0.0
  0
VERTEX
  5
22AC
  8
SAPA_PROFIL
 10
-80.864809363964696
 20
-48.338194104957772
 30
0.0
  0
VERTEX
  5
22AD
  8
SAPA_PROFIL
 10
-80.543051635746423
 20
-48.348755471184759
 30
0.0
 42
0.5773502691897466
  0
VERTEX
  5
22AE
  8
SAPA_PROFIL
 10
-80.360097895636258
 20
-48.054599170929919
 30
0.0
  0
VERTEX
  5
22AF
  8
SAPA_PROFIL
 10
-80.512231806745007
 20
-47.769916887698272
 30
0.0
 42
0.221694662643014
  0
VERTEX
  5
22B0
  8
SAPA_PROFIL
 10
-81.053111638221822
 20
-47.364107982543487
 30
0.0
  0
VERTEX
  5
22B1
  8
SAPA_PROFIL
 10
-82.866342108880048
 20
-46.982661386415771
 30
0.0
 42
0.4769755326981641
  0
VERTEX
  5
22B2
  8
SAPA_PROFIL
 10
-83.237998983825946
 20
-47.284914210922238
 30
0.0
  0
VERTEX
  5
22B3
  8
SAPA_PROFIL
 10
-83.237915375942293
 20
-48.788015291684239
 30
0.0
  0
VERTEX
  5
22B4
  8
SAPA_PROFIL
 10
-83.190069625943806
 20
-48.802533700931349
 30
0.0
 42
-0.4142135623730878
  0
VERTEX
  5
22B5
  8
SAPA_PROFIL
 10
-82.990105581436396
 20
-49.176718656407161
 30
0.0
  0
VERTEX
  5
22B6
  8
SAPA_PROFIL
 10
-83.500000000000085
 20
-50.495951658168977
 30
0.0
  0
VERTEX
  5
22B7
  8
SAPA_PROFIL
 10
-83.500000000000114
 20
-61.89999991516234
 30
0.0
 42
-0.4142135623730847
  0
VERTEX
  5
22B8
  8
SAPA_PROFIL
 10
-83.700000000000131
 20
-62.099999915162343
 30
0.0
  0
VERTEX
  5
22B9
  8
SAPA_PROFIL
 10
-85.299999997930684
 20
-62.099999915162329
 30
0.0
 42
0.4142135623730951
  0
VERTEX
  5
22BA
  8
SAPA_PROFIL
 10
-85.499999997930715
 20
-62.299999915162338
 30
0.0
  0
VERTEX
  5
22BB
  8
SAPA_PROFIL
 10
-85.499999997930715
 20
-62.799999915162829
 30
0.0
 42
0.4142135623730951
  0
VERTEX
  5
22BC
  8
SAPA_PROFIL
 10
-84.499999997931084
 20
-63.799999915162402
 30
0.0
  0
VERTEX
  5
22BD
  8
SAPA_PROFIL
 10
-76.999999250856376
 20
-63.799999915162402
 30
0.0
 42
-0.4142135623730951
  0
VERTEX
  5
22BE
  8
SAPA_PROFIL
 10
-75.999999997930786
 20
-64.799999168087993
 30
0.0
  0
VERTEX
  5
22BF
  8
SAPA_PROFIL
 10
-75.999999997930644
 20
-70.499999999009901
 30
0.0
 42
0.4142135623730951
  0
VERTEX
  5
22C0
  8
SAPA_PROFIL
 10
-73.999999997930644
 20
-72.499999999009901
 30
0.0
  0
VERTEX
  5
22C1
  8
SAPA_PROFIL
 10
-9.5000000000001741
 20
-72.499999999009901
 30
0.0
 42
0.4142139999999795
  0
VERTEX
  5
22C2
  8
SAPA_PROFIL
 10
-9.0000000000001741
 20
-71.999999999009901
 30
0.0
  0
VERTEX
  5
22C3
  8
SAPA_PROFIL
 10
-9.0000000000001883
 20
-68.299999999009884
 30
0.0
 42
0.414213999999917
  0
VERTEX
  5
22C4
  8
SAPA_PROFIL
 10
-9.3000000000001144
 20
-67.999999999009901
 30
0.0
  0
VERTEX
  5
22C5
  8
SAPA_PROFIL
 10
-10.06754500000015
 20
-67.999999999009901
 30
0.0
 42
0.2896899999999867
  0
VERTEX
  5
22C6
  8
SAPA_PROFIL
 10
-10.97105300000011
 20
-68.571427999009899
 30
0.0
 42
0.5507600000000635
  0
VERTEX
  5
22C7
  8
SAPA_PROFIL
 10
-10.700000000000159
 20
-68.999999999009901
 30
0.0
  0
VERTEX
  5
22C8
  8
SAPA_PROFIL
 10
-10.500000000000171
 20
-68.999999999009901
 30
0.0
 42
-0.4142140000000558
  0
VERTEX
  5
22C9
  8
SAPA_PROFIL
 10
-10.200000000000101
 20
-69.29999999900987
 30
0.0
  0
VERTEX
  5
22CA
  8
SAPA_PROFIL
 10
-10.20000000000015
 20
-70.799999999009884
 30
0.0
 42
-0.4142139999999795
  0
VERTEX
  5
22CB
  8
SAPA_PROFIL
 10
-10.700000000000159
 20
-71.29999999900987
 30
0.0
  0
VERTEX
  5
22CC
  8
SAPA_PROFIL
 10
-14.000000000000201
 20
-71.299999999009884
 30
0.0
 42
-0.4142140000000003
  0
VERTEX
  5
22CD
  8
SAPA_PROFIL
 10
-14.50000000000024
 20
-70.799999999009884
 30
0.0
  0
VERTEX
  5
22CE
  8
SAPA_PROFIL
 10
-14.500000000000201
 20
-69.299999999009884
 30
0.0
 42
-0.4142140000000143
  0
VERTEX
  5
22CF
  8
SAPA_PROFIL
 10
-14.200000000000131
 20
-68.999999999009859
 30
0.0
  0
VERTEX
  5
22D0
  8
SAPA_PROFIL
 10
-14.000000000000201
 20
-68.999999999009901
 30
0.0
 42
0.5507599999999967
  0
VERTEX
  5
22D1
  8
SAPA_PROFIL
 10
-13.7289480000002
 20
-68.571427999009885
 30
0.0
 42
0.2896899999999865
  0
VERTEX
  5
22D2
  8
SAPA_PROFIL
 10
-14.63245600000012
 20
-67.999999999009901
 30
0.0
  0
VERTEX
  5
22D3
  8
SAPA_PROFIL
 10
-15.62992700000011
 20
-67.999999999009901
 30
0.0
 42
0.0436609999999814
  0
VERTEX
  5
22D4
  8
SAPA_PROFIL
 10
-15.71675200000009
 20
-68.007595999009908
 30
0.0
  0
VERTEX
  5
22D5
  8
SAPA_PROFIL
 10
-17.286824000000109
 20
-68.284441999009843
 30
0.0
 42
0.839099999999982
  0
VERTEX
  5
22D6
  8
SAPA_PROFIL
 10
-17.286824000000109
 20
-69.269249999009915
 30
0.0
  0
VERTEX
  5
22D7
  8
SAPA_PROFIL
 10
-16.113176000000109
 20
-69.476194999009891
 30
0.0
 42
-0.3639700000000465
  0
VERTEX
  5
22D8
  8
SAPA_PROFIL
 10
-15.70000000000012
 20
-69.968598999009927
 30
0.0
  0
VERTEX
  5
22D9
  8
SAPA_PROFIL
 10
-15.70000000000012
 20
-70.779999999009874
 30
0.0
 42
-0.4373279999999983
  0
VERTEX
  5
22DA
  8
SAPA_PROFIL
 10
-16.23909500000012
 20
-71.278468999009931
 30
0.0
  0
VERTEX
  5
22DB
  8
SAPA_PROFIL
 10
-30.712153273416519
 20
-70.711670512614035
 30
0.0
 42
-0.4023941355297885
  0
VERTEX
  5
22DC
  8
SAPA_PROFIL
 10
-31.000000000000242
 20
-70.411916783787717
 30
0.0
  0
VERTEX
  5
22DD
  8
SAPA_PROFIL
 10
-31.00000000000021
 20
-69.611382999009891
 30
0.0
 42
0.2596810000001162
  0
VERTEX
  5
22DE
  8
SAPA_PROFIL
 10
-31.09469300000022
 20
-69.441351999009896
 30
0.0
  0
VERTEX
  5
22DF
  8
SAPA_PROFIL
 10
-32.542040000000121
 20
-68.544952999009894
 30
0.0
 42
0.5877030000000189
  0
VERTEX
  5
22E0
  8
SAPA_PROFIL
 10
-33.00000000000022
 20
-68.799999999009913
 30
0.0
  0
VERTEX
  5
22E1
  8
SAPA_PROFIL
 10
-33.00000000000022
 20
-70.199999999009876
 30
0.0
 42
-0.4142139999999518
  0
VERTEX
  5
22E2
  8
SAPA_PROFIL
 10
-33.300000000000111
 20
-70.499999999009873
 30
0.0
  0
VERTEX
  5
22E3
  8
SAPA_PROFIL
 10
-35.700000000000117
 20
-70.499999999009901
 30
0.0
 42
-0.4142140000000629
  0
VERTEX
  5
22E4
  8
SAPA_PROFIL
 10
-36.000000000000163
 20
-70.199999999009876
 30
0.0
  0
VERTEX
  5
22E5
  8
SAPA_PROFIL
 10
-36.000000000000192
 20
-52.799999999009913
 30
0.0
 42
-0.4142140000001044
  0
VERTEX
  5
22E6
  8
SAPA_PROFIL
 10
-35.700000000000117
 20
-52.499999999009823
 30
0.0
  0
VERTEX
  5
22E7
  8
SAPA_PROFIL
 10
-33.300000000000111
 20
-52.499999999009901
 30
0.0
 42
-0.4142140000000074
  0
VERTEX
  5
22E8
  8
SAPA_PROFIL
 10
-33.000000000000242
 20
-52.799999999009913
 30
0.0
  0
VERTEX
  5
22E9
  8
SAPA_PROFIL
 10
-33.000000000000242
 20
-54.19999999900989
 30
0.0
 42
0.5920054160709848
  0
VERTEX
  5
22EA
  8
SAPA_PROFIL
 10
-32.538796661885293
 20
-54.453008511767649
 30
0.0
  0
VERTEX
  5
22EB
  8
SAPA_PROFIL
 10
-31.29253100567233
 20
-53.658955481945981
 30
0.0
 42
0.2562769852931301
  0
VERTEX
  5
22EC
  8
SAPA_PROFIL
 10
-31.200000000000198
 20
-53.490282973047378
 30
0.0
  0
VERTEX
  5
22ED
  8
SAPA_PROFIL
 10
-31.200000000000198
 20
-50.49595165816838
 30
0.0
  0
VERTEX
  5
22EE
  8
SAPA_PROFIL
 10
-31.709894418563621
 20
-49.176718656407161
 30
0.0
 42
-0.4142135623730872
  0
VERTEX
  5
22EF
  8
SAPA_PROFIL
 10
-31.509930374056228
 20
-48.802533700931349
 30
0.0
  0
VERTEX
  5
22F0
  8
SAPA_PROFIL
 10
-31.462084624057741
 20
-48.788015291684239
 30
0.0
  0
VERTEX
  5
22F1
  8
SAPA_PROFIL
 10
-31.462001016174121
 20
-47.284914210922238
 30
0.0
 42
0.4769755326981643
  0
VERTEX
  5
22F2
  8
SAPA_PROFIL
 10
-31.833657891119952
 20
-46.982661386415771
 30
0.0
  0
VERTEX
  5
22F3
  8
SAPA_PROFIL
 10
-33.646888361778238
 20
-47.364107982543473
 30
0.0
 42
0.221694662643016
  0
VERTEX
  5
22F4
  8
SAPA_PROFIL
 10
-34.187768193255003
 20
-47.76991688769828
 30
0.0
  0
VERTEX
  5
22F5
  8
SAPA_PROFIL
 10
-34.339902104363759
 20
-48.054599170929933
 30
0.0
 42
0.5773502691897466
  0
VERTEX
  5
22F6
  8
SAPA_PROFIL
 10
-34.15694836425358
 20
-48.348755471184752
 30
0.0
  0
VERTEX
  5
22F7
  8
SAPA_PROFIL
 10
-33.835190636035342
 20
-48.338194104957772
 30
0.0
  0
VERTEX
  5
22F8
  8
SAPA_PROFIL
 10
-32.750626189063603
 20
-50.224037796818841
 30
0.0
  0
VERTEX
  5
22F9
  8
SAPA_PROFIL
 10
-32.692552552074503
 20
-50.415420796812562
 30
0.0
 42
-0.7625858545243331
  0
VERTEX
  5
22FA
  8
SAPA_PROFIL
 10
-33.022878633091509
 20
-50.599999999010024
 30
0.0
 42
0.2134217652834442
  0
SEQEND
  5
22FB
  8
SAPA_PROFIL
  0
POLYLINE
  5
17BE
  8
SAPA_PROFIL
 66
     1
 10
0.0
 20
0.0
 30
0.0
 70
     1
  0
VERTEX
  5
22FC
  8
SAPA_PROFIL
 10
-71.999999957930697
 20
-52.599999999009903
 30
0.0
 42
0.4142135623730951
  0
VERTEX
  5
22FD
  8
SAPA_PROFIL
 10
-71.79999995793068
 20
-52.799999999009913
 30
0.0
  0
VERTEX
  5
22FE
  8
SAPA_PROFIL
 10
-70.199999957930629
 20
-52.799999999009877
 30
0.0
 42
0.4142135623730951
  0
VERTEX
  5
22FF
  8
SAPA_PROFIL
 10
-69.99999995793064
 20
-52.599999999009903
 30
0.0
  0
VERTEX
  5
2300
  8
SAPA_PROFIL
 10
-69.99999995793064
 20
-52.299999915136588
 30
0.0
  0
VERTEX
  5
2301
  8
SAPA_PROFIL
 10
-41.700000000000109
 20
-52.299999915136588
 30
0.0
  0
VERTEX
  5
2302
  8
SAPA_PROFIL
 10
-41.700000000000109
 20
-52.599999999009903
 30
0.0
 42
0.4142135623730951
  0
VERTEX
  5
2303
  8
SAPA_PROFIL
 10
-41.500000000000121
 20
-52.799999999009913
 30
0.0
  0
VERTEX
  5
2304
  8
SAPA_PROFIL
 10
-39.900000000000112
 20
-52.799999999009877
 30
0.0
 42
0.4142135623730951
  0
VERTEX
  5
2305
  8
SAPA_PROFIL
 10
-39.700000000000117
 20
-52.599999999009903
 30
0.0
  0
VERTEX
  5
2306
  8
SAPA_PROFIL
 10
-39.700000000000117
 20
-52.299999915136588
 30
0.0
  0
VERTEX
  5
2307
  8
SAPA_PROFIL
 10
-38.000000000000128
 20
-52.299999915136588
 30
0.0
 42
-0.4142135623730951
  0
VERTEX
  5
2308
  8
SAPA_PROFIL
 10
-37.700000000000117
 20
-52.59999991513655
 30
0.0
  0
VERTEX
  5
2309
  8
SAPA_PROFIL
 10
-37.700000000000117
 20
-70.199999999009876
 30
0.0
 42
-0.4142135623730951
  0
VERTEX
  5
230A
  8
SAPA_PROFIL
 10
-38.000000000000128
 20
-70.499999999009901
 30
0.0
  0
VERTEX
  5
230B
  8
SAPA_PROFIL
 10
-39.700000000000117
 20
-70.499999999009901
 30
0.0
  0
VERTEX
  5
230C
  8
SAPA_PROFIL
 10
-39.700000000000117
 20
-70.399999999009879
 30
0.0
 42
0.4142135623730951
  0
VERTEX
  5
230D
  8
SAPA_PROFIL
 10
-39.900000000000112
 20
-70.199999999009876
 30
0.0
  0
VERTEX
  5
230E
  8
SAPA_PROFIL
 10
-41.500000000000121
 20
-70.199999999009876
 30
0.0
 42
0.4142135623730951
  0
VERTEX
  5
230F
  8
SAPA_PROFIL
 10
-41.700000000000109
 20
-70.399999999009879
 30
0.0
  0
VERTEX
  5
2310
  8
SAPA_PROFIL
 10
-41.700000000000109
 20
-70.499999999009901
 30
0.0
  0
VERTEX
  5
2311
  8
SAPA_PROFIL
 10
-69.99999995793064
 20
-70.499999999009901
 30
0.0
  0
VERTEX
  5
2312
  8
SAPA_PROFIL
 10
-69.99999995793064
 20
-70.399999999009879
 30
0.0
 42
0.4142135623730951
  0
VERTEX
  5
2313
  8
SAPA_PROFIL
 10
-70.199999957930629
 20
-70.199999999009876
 30
0.0
  0
VERTEX
  5
2314
  8
SAPA_PROFIL
 10
-71.79999995793068
 20
-70.199999999009904
 30
0.0
 42
0.4142135623730951
  0
VERTEX
  5
2315
  8
SAPA_PROFIL
 10
-71.99999995793064
 20
-70.399999999009879
 30
0.0
  0
VERTEX
  5
2316
  8
SAPA_PROFIL
 10
-71.99999995793064
 20
-70.499999999009901
 30
0.0
  0
VERTEX
  5
2317
  8
SAPA_PROFIL
 10
-73.999999997930672
 20
-70.499999999009901
 30
0.0
 42
-0.4142135623732158
  0
VERTEX
  5
2318
  8
SAPA_PROFIL
 10
-74.299999997930769
 20
-70.199999999009918
 30
0.0
  0
VERTEX
  5
2319
  8
SAPA_PROFIL
 10
-74.299999997930712
 20
-64.799999168087993
 30
0.0
 42
0.4142135623730951
  0
VERTEX
  5
231A
  8
SAPA_PROFIL
 10
-76.999999250856376
 20
-62.099999915162329
 30
0.0
  0
VERTEX
  5
231B
  8
SAPA_PROFIL
 10
-81.500000000000142
 20
-62.099999915162329
 30
0.0
 42
-0.4142135623730951
  0
VERTEX
  5
231C
  8
SAPA_PROFIL
 10
-81.800000000000125
 20
-61.799999915162338
 30
0.0
  0
VERTEX
  5
231D
  8
SAPA_PROFIL
 10
-81.800000000000125
 20
-52.59999991513655
 30
0.0
 42
-0.4142135623730951
  0
VERTEX
  5
231E
  8
SAPA_PROFIL
 10
-81.500000000000114
 20
-52.299999915136588
 30
0.0
  0
VERTEX
  5
231F
  8
SAPA_PROFIL
 10
-71.99999995793064
 20
-52.299999915136588
 30
0.0
  0
SEQEND
  5
2320
  8
SAPA_PROFIL
  0
POLYLINE
  5
17BF
  8
SAPA_PROFIL
 62
     4
 66
     1
 10
0.0
 20
0.0
 30
0.0
  0
VERTEX
  5
2321
  8
SAPA_PROFIL
 62
     4
 10
-33.932281085847137
 20
-38.549329121449603
 30
0.0
 42
-0.5571646428658034
  0
VERTEX
  5
2322
  8
SAPA_PROFIL
 62
     4
 10
-34.80000000000269
 20
-38.012368617312781
 30
0.0
  0
VERTEX
  5
2323
  8
SAPA_PROFIL
 62
     4
 10
-34.800000000002228
 20
-20.98763138079158
 30
0.0
 42
-0.5571645048035741
  0
VERTEX
  5
2324
  8
SAPA_PROFIL
 62
     4
 10
-33.932281312136062
 20
-20.450670763830519
 30
0.0
  0
VERTEX
  5
2325
  8
SAPA_PROFIL
 62
     4
 10
-32.266140656068032
 20
-21.281377851377218
 30
0.0
 42
-0.284385813979063
  0
VERTEX
  5
2326
  8
SAPA_PROFIL
 62
     4
 10
-32.100000000000591
 20
-21.549858159857571
 30
0.0
  0
VERTEX
  5
2327
  8
SAPA_PROFIL
 62
     4
 10
-32.100000000000598
 20
-37.450141838246878
 30
0.0
 42
-0.2843858139786238
  0
VERTEX
  5
2328
  8
SAPA_PROFIL
 62
     4
 10
-32.266140656067527
 20
-37.718622146727157
 30
0.0
  0
VERTEX
  5
2329
  8
SAPA_PROFIL
 62
     4
 10
-33.93228131213688
 20
-38.549329234274317
 30
0.0
  0
SEQEND
  5
232A
  8
SAPA_PROFIL
 62
     4
  0
POLYLINE
  5
17C0
  8
SAPA_PROFIL
 62
     4
 66
     1
 10
0.0
 20
0.0
 30
0.0
 70
     1
  0
VERTEX
  5
232B
  8
SAPA_PROFIL
 62
     4
 10
-31.74316848550302
 20
-15.082388814384929
 30
0.0
  0
VERTEX
  5
232C
  8
SAPA_PROFIL
 62
     4
 10
-31.33660828949888
 20
-14.81836553600891
 30
0.0
 42
0.2539676464751066
  0
VERTEX
  5
232D
  8
SAPA_PROFIL
 62
     4
 10
-31.200000000002781
 20
-14.566764365624209
 30
0.0
  0
VERTEX
  5
232E
  8
SAPA_PROFIL
 62
     4
 10
-31.200000000002781
 20
-13.18526478041886
 30
0.0
 42
0.3152987888790479
  0
VERTEX
  5
232F
  8
SAPA_PROFIL
 62
     4
 10
-31.528989928340941
 20
-12.715418470026551
 30
0.0
  0
VERTEX
  5
2330
  8
SAPA_PROFIL
 62
     4
 10
-33.98982011879221
 20
-11.81974952911794
 30
0.0
 42
-0.2694959974287434
  0
VERTEX
  5
2331
  8
SAPA_PROFIL
 62
     4
 10
-34.182952093136102
 20
-11.58823048271659
 30
0.0
 42
-0.0612686379508233
  0
VERTEX
  5
2332
  8
SAPA_PROFIL
 62
     4
 10
-34.196535463766622
 20
-11.29555504986331
 30
0.0
  0
VERTEX
  5
2333
  8
SAPA_PROFIL
 62
     4
 10
-34.398272142495443
 20
-10.946136872555041
 30
0.0
 42
-0.5773502691891679
  0
VERTEX
  5
2334
  8
SAPA_PROFIL
 62
     4
 10
-34.216406807700878
 20
-10.63113687255546
 30
0.0
  0
VERTEX
  5
2335
  8
SAPA_PROFIL
 62
     4
 10
-33.949292279574557
 20
-10.631136872555221
 30
0.0
  0
VERTEX
  5
2336
  8
SAPA_PROFIL
 62
     4
 10
-33.140608818266251
 20
-9.2326091719209629
 30
0.0
 42
0.1318219888653519
  0
VERTEX
  5
2337
  8
SAPA_PROFIL
 62
     4
 10
-33.100316421728849
 20
-9.0824360694486188
 30
0.0
  0
VERTEX
  5
2338
  8
SAPA_PROFIL
 62
     4
 10
-33.100316421735222
 20
-8.8999999990118397
 30
0.0
 42
0.4142135623724291
  0
VERTEX
  5
2339
  8
SAPA_PROFIL
 62
     4
 10
-33.500316421734851
 20
-8.4999999990112922
 30
0.0
  0
VERTEX
  5
233A
  8
SAPA_PROFIL
 62
     4
 10
-36.900316421735852
 20
-8.4999999990126582
 30
0.0
 42
0.4142135623744271
  0
VERTEX
  5
233B
  8
SAPA_PROFIL
 62
     4
 10
-37.300316421736852
 20
-8.8999999990118397
 30
0.0
  0
VERTEX
  5
233C
  8
SAPA_PROFIL
 62
     4
 10
-37.300316421737492
 20
-9.0796152412831432
 30
0.0
 42
0.1316524975874005
  0
VERTEX
  5
233D
  8
SAPA_PROFIL
 62
     4
 10
-37.260124042871887
 20
-9.2296152412799586
 30
0.0
  0
VERTEX
  5
233E
  8
SAPA_PROFIL
 62
     4
 10
-36.333974596219363
 20
-10.83375313828221
 30
0.0
 42
-0.1316524975875904
  0
VERTEX
  5
233F
  8
SAPA_PROFIL
 62
     4
 10
-36.200000000004593
 20
-11.333753138283919
 30
0.0
  0
VERTEX
  5
2340
  8
SAPA_PROFIL
 62
     4
 10
-36.200000000004593
 20
-11.74999999901129
 30
0.0
 42
-0.4142135623730951
  0
VERTEX
  5
2341
  8
SAPA_PROFIL
 62
     4
 10
-37.200000000004593
 20
-12.74999999901129
 30
0.0
  0
VERTEX
  5
2342
  8
SAPA_PROFIL
 62
     4
 10
-40.200000000001857
 20
-12.74999999901129
 30
0.0
 42
0.9999996830128083
  0
VERTEX
  5
2343
  8
SAPA_PROFIL
 62
     4
 10
-40.200000000003683
 20
-13.74999999901129
 30
0.0
  0
VERTEX
  5
2344
  8
SAPA_PROFIL
 62
     4
 10
-37.200000000003683
 20
-13.74999999901129
 30
0.0
 42
-0.4142135623730951
  0
VERTEX
  5
2345
  8
SAPA_PROFIL
 62
     4
 10
-36.200000000003691
 20
-14.74999999901129
 30
0.0
  0
VERTEX
  5
2346
  8
SAPA_PROFIL
 62
     4
 10
-36.200000000003691
 20
-44.24999999909587
 30
0.0
 42
-0.4142135623730951
  0
VERTEX
  5
2347
  8
SAPA_PROFIL
 62
     4
 10
-37.200000000003691
 20
-45.249999999095877
 30
0.0
  0
VERTEX
  5
2348
  8
SAPA_PROFIL
 62
     4
 10
-40.200000000001857
 20
-45.249999999095877
 30
0.0
 42
0.9999999999999998
  0
VERTEX
  5
2349
  8
SAPA_PROFIL
 62
     4
 10
-40.200000000001857
 20
-46.24999999909587
 30
0.0
  0
VERTEX
  5
234A
  8
SAPA_PROFIL
 62
     4
 10
-37.200000000003691
 20
-46.24999999909587
 30
0.0
 42
-0.4142135623736278
  0
VERTEX
  5
234B
  8
SAPA_PROFIL
 62
     4
 10
-36.200000000003691
 20
-47.24999999909587
 30
0.0
  0
VERTEX
  5
234C
  8
SAPA_PROFIL
 62
     4
 10
-36.200000000003691
 20
-47.66624685982233
 30
0.0
 42
-0.1316524975874375
  0
VERTEX
  5
234D
  8
SAPA_PROFIL
 62
     4
 10
-36.333974596219733
 20
-48.166246859822543
 30
0.0
  0
VERTEX
  5
234E
  8
SAPA_PROFIL
 62
     4
 10
-37.260124042871901
 20
-49.770384756824477
 30
0.0
 42
0.1316524975874
  0
VERTEX
  5
234F
  8
SAPA_PROFIL
 62
     4
 10
-37.300316421737492
 20
-49.920384756824021
 30
0.0
  0
VERTEX
  5
2350
  8
SAPA_PROFIL
 62
     4
 10
-37.300316421736859
 20
-50.099999999095331
 30
0.0
 42
0.4142135623744271
  0
VERTEX
  5
2351
  8
SAPA_PROFIL
 62
     4
 10
-36.900316421735859
 20
-50.499999999094513
 30
0.0
  0
VERTEX
  5
2352
  8
SAPA_PROFIL
 62
     4
 10
-33.500316421734858
 20
-50.49999999909587
 30
0.0
 42
0.4142135623724291
  0
VERTEX
  5
2353
  8
SAPA_PROFIL
 62
     4
 10
-33.100316421735222
 20
-50.099999999095331
 30
0.0
  0
VERTEX
  5
2354
  8
SAPA_PROFIL
 62
     4
 10
-33.100316421728863
 20
-49.917563928658552
 30
0.0
 42
0.1318219888653524
  0
VERTEX
  5
2355
  8
SAPA_PROFIL
 62
     4
 10
-33.140608818266251
 20
-49.767390826186208
 30
0.0
  0
VERTEX
  5
2356
  8
SAPA_PROFIL
 62
     4
 10
-33.949292279490592
 20
-48.368863125706547
 30
0.0
  0
VERTEX
  5
2357
  8
SAPA_PROFIL
 62
     4
 10
-34.216406807703621
 20
-48.368863125706547
 30
0.0
 42
-0.577350269189159
  0
VERTEX
  5
2358
  8
SAPA_PROFIL
 62
     4
 10
-34.398272142498193
 20
-48.053863125706947
 30
0.0
  0
VERTEX
  5
2359
  8
SAPA_PROFIL
 62
     4
 10
-34.196535463821078
 20
-47.704444948488288
 30
0.0
 42
-0.0612687673629489
  0
VERTEX
  5
235A
  8
SAPA_PROFIL
 62
     4
 10
-34.182952093134872
 20
-47.41176951538808
 30
0.0
 42
-0.2694959974285039
  0
VERTEX
  5
235B
  8
SAPA_PROFIL
 62
     4
 10
-33.989820118790917
 20
-47.180250468987552
 30
0.0
  0
VERTEX
  5
235C
  8
SAPA_PROFIL
 62
     4
 10
-31.528989928337761
 20
-46.284581528077887
 30
0.0
 42
0.3152987888784035
  0
VERTEX
  5
235D
  8
SAPA_PROFIL
 62
     4
 10
-31.200000000001179
 20
-45.814735217684671
 30
0.0
  0
VERTEX
  5
235E
  8
SAPA_PROFIL
 62
     4
 10
-31.200000000002781
 20
-44.433235632480233
 30
0.0
 42
0.2539676464741841
  0
VERTEX
  5
235F
  8
SAPA_PROFIL
 62
     4
 10
-31.336608289498059
 20
-44.181634462096149
 30
0.0
  0
VERTEX
  5
2360
  8
SAPA_PROFIL
 62
     4
 10
-31.74316848550303
 20
-43.917611183719522
 30
0.0
 42
0.5862177598324623
  0
VERTEX
  5
2361
  8
SAPA_PROFIL
 62
     4
 10
-32.199999999999541
 20
-44.173352998957853
 30
0.0
  0
VERTEX
  5
2362
  8
SAPA_PROFIL
 62
     4
 10
-32.199999999991867
 20
-45.114527679467663
 30
0.0
 42
-0.3152987888813165
  0
VERTEX
  5
2363
  8
SAPA_PROFIL
 62
     4
 10
-32.52898992832862
 20
-45.584373989865419
 30
0.0
  0
VERTEX
  5
2364
  8
SAPA_PROFIL
 62
     4
 10
-33.72898992833985
 20
-46.021138270989383
 30
0.0
 42
-0.5205670505515651
  0
VERTEX
  5
2365
  8
SAPA_PROFIL
 62
     4
 10
-34.400000000002599
 20
-45.55129196059616
 30
0.0
  0
VERTEX
  5
2366
  8
SAPA_PROFIL
 62
     4
 10
-34.400000000002628
 20
-40.534851019927302
 30
0.0
 42
-0.3702522326300203
  0
VERTEX
  5
2367
  8
SAPA_PROFIL
 62
     4
 10
-34.145540047336908
 20
-40.238327658133983
 30
0.0
 42
-0.0982365330332397
  0
VERTEX
  5
2368
  8
SAPA_PROFIL
 62
     4
 10
-32.457853272341907
 20
-40.147874899923032
 30
0.0
 42
-0.3735060174783164
  0
VERTEX
  5
2369
  8
SAPA_PROFIL
 62
     4
 10
-32.200000000001879
 20
-40.444899567834021
 30
0.0
  0
VERTEX
  5
236A
  8
SAPA_PROFIL
 62
     4
 10
-32.200000000000969
 20
-40.873352998956669
 30
0.0
 42
0.5920056181162531
  0
VERTEX
  5
236B
  8
SAPA_PROFIL
 62
     4
 10
-31.738796497473039
 20
-41.126361755274068
 30
0.0
  0
VERTEX
  5
236C
  8
SAPA_PROFIL
 62
     4
 10
-31.336608289494741
 20
-40.865177679118368
 30
0.0
 42
0.2539676464746725
  0
VERTEX
  5
236D
  8
SAPA_PROFIL
 62
     4
 10
-31.199999999999381
 20
-40.61357650873461
 30
0.0
  0
VERTEX
  5
236E
  8
SAPA_PROFIL
 62
     4
 10
-31.200000000000959
 20
-18.386423489368919
 30
0.0
 42
0.2539676464741819
  0
VERTEX
  5
236F
  8
SAPA_PROFIL
 62
     4
 10
-31.336608289494741
 20
-18.134822318986071
 30
0.0
  0
VERTEX
  5
2370
  8
SAPA_PROFIL
 62
     4
 10
-31.738796497473071
 20
-17.87363824283225
 30
0.0
 42
0.5920055144124249
  0
VERTEX
  5
2371
  8
SAPA_PROFIL
 62
     4
 10
-32.200000000000962
 20
-18.126646999147759
 30
0.0
  0
VERTEX
  5
2372
  8
SAPA_PROFIL
 62
     4
 10
-32.199999974725948
 20
-18.555100476437978
 30
0.0
 42
-0.3735060174775405
  0
VERTEX
  5
2373
  8
SAPA_PROFIL
 62
     4
 10
-32.457853247066041
 20
-18.852125144347671
 30
0.0
 42
-0.0355900683670349
  0
VERTEX
  5
2374
  8
SAPA_PROFIL
 62
     4
 10
-33.073726833865827
 20
-18.89601870837992
 30
0.0
 42
-0.0624282003873116
  0
VERTEX
  5
2375
  8
SAPA_PROFIL
 62
     4
 10
-34.145540022060963
 20
-18.761672386136979
 30
0.0
 42
-0.3702522326309292
  0
VERTEX
  5
2376
  8
SAPA_PROFIL
 62
     4
 10
-34.399999974726683
 20
-18.46514902434361
 30
0.0
  0
VERTEX
  5
2377
  8
SAPA_PROFIL
 62
     4
 10
-34.400000000002812
 20
-13.4487080375101
 30
0.0
 42
-0.5205670505515692
  0
VERTEX
  5
2378
  8
SAPA_PROFIL
 62
     4
 10
-33.728989928339843
 20
-12.978861727116881
 30
0.0
  0
VERTEX
  5
2379
  8
SAPA_PROFIL
 62
     4
 10
-32.528989928330397
 20
-13.41562600824183
 30
0.0
 42
-0.3152987888807539
  0
VERTEX
  5
237A
  8
SAPA_PROFIL
 62
     4
 10
-32.19999999999277
 20
-13.88547231863768
 30
0.0
  0
VERTEX
  5
237B
  8
SAPA_PROFIL
 62
     4
 10
-32.199999999999591
 20
-14.82664699914676
 30
0.0
 42
0.5862175119221242
  0
VERTEX
  5
237C
  8
SAPA_PROFIL
 62
     4
 10
-31.743168674244458
 20
-15.082388930128721
 30
0.0
 42
-0.0000002084758573
  0
SEQEND
  5
237D
  8
SAPA_PROFIL
 62
     4
  0
POLYLINE
  5
17C1
  8
SAPA_PROFIL
 62
     4
 66
     1
 10
0.0
 20
0.0
 30
0.0
  0
VERTEX
  5
237E
  8
SAPA_PROFIL
 62
     4
 10
-80.767718914153235
 20
-38.549329121449603
 30
0.0
 42
0.5571646428658034
  0
VERTEX
  5
237F
  8
SAPA_PROFIL
 62
     4
 10
-79.899999999997704
 20
-38.012368617312781
 30
0.0
  0
VERTEX
  5
2380
  8
SAPA_PROFIL
 62
     4
 10
-79.899999999998158
 20
-20.98763138079158
 30
0.0
 42
0.5571645048035741
  0
VERTEX
  5
2381
  8
SAPA_PROFIL
 62
     4
 10
-80.767718687864331
 20
-20.450670763830519
 30
0.0
  0
VERTEX
  5
2382
  8
SAPA_PROFIL
 62
     4
 10
-82.433859343932355
 20
-21.281377851377218
 30
0.0
 42
0.284385813979063
  0
VERTEX
  5
2383
  8
SAPA_PROFIL
 62
     4
 10
-82.599999999999795
 20
-21.549858159857571
 30
0.0
  0
VERTEX
  5
2384
  8
SAPA_PROFIL
 62
     4
 10
-82.599999999999795
 20
-37.450141838246878
 30
0.0
 42
0.2843858139786238
  0
VERTEX
  5
2385
  8
SAPA_PROFIL
 62
     4
 10
-82.433859343932866
 20
-37.718622146727157
 30
0.0
  0
VERTEX
  5
2386
  8
SAPA_PROFIL
 62
     4
 10
-80.767718687863521
 20
-38.549329234274317
 30
0.0
  0
SEQEND
  5
2387
  8
SAPA_PROFIL
 62
     4
  0
POLYLINE
  5
17C2
  8
SAPA_PROFIL
 62
     4
 66
     1
 10
0.0
 20
0.0
 30
0.0
 70
     1
  0
VERTEX
  5
2388
  8
SAPA_PROFIL
 62
     4
 10
-82.956831514497367
 20
-15.082388814384929
 30
0.0
  0
VERTEX
  5
2389
  8
SAPA_PROFIL
 62
     4
 10
-83.363391710501517
 20
-14.81836553600891
 30
0.0
 42
-0.2539676464751066
  0
VERTEX
  5
238A
  8
SAPA_PROFIL
 62
     4
 10
-83.499999999997613
 20
-14.566764365624209
 30
0.0
  0
VERTEX
  5
238B
  8
SAPA_PROFIL
 62
     4
 10
-83.499999999997613
 20
-13.18526478041886
 30
0.0
 42
-0.3152987888790479
  0
VERTEX
  5
238C
  8
SAPA_PROFIL
 62
     4
 10
-83.171010071659452
 20
-12.715418470026551
 30
0.0
  0
VERTEX
  5
238D
  8
SAPA_PROFIL
 62
     4
 10
-80.710179881208177
 20
-11.81974952911794
 30
0.0
 42
0.2694959974287434
  0
VERTEX
  5
238E
  8
SAPA_PROFIL
 62
     4
 10
-80.517047906864292
 20
-11.58823048271659
 30
0.0
 42
0.0612686379508233
  0
VERTEX
  5
238F
  8
SAPA_PROFIL
 62
     4
 10
-80.503464536233764
 20
-11.29555504986331
 30
0.0
  0
VERTEX
  5
2390
  8
SAPA_PROFIL
 62
     4
 10
-80.301727857504943
 20
-10.946136872555041
 30
0.0
 42
0.5773502691891679
  0
VERTEX
  5
2391
  8
SAPA_PROFIL
 62
     4
 10
-80.483593192299494
 20
-10.63113687255546
 30
0.0
  0
VERTEX
  5
2392
  8
SAPA_PROFIL
 62
     4
 10
-80.750707720425822
 20
-10.631136872555221
 30
0.0
  0
VERTEX
  5
2393
  8
SAPA_PROFIL
 62
     4
 10
-81.559391181734142
 20
-9.2326091719209629
 30
0.0
 42
-0.1318219888653519
  0
VERTEX
  5
2394
  8
SAPA_PROFIL
 62
     4
 10
-81.599683578271524
 20
-9.0824360694486188
 30
0.0
  0
VERTEX
  5
2395
  8
SAPA_PROFIL
 62
     4
 10
-81.599683578265171
 20
-8.8999999990118397
 30
0.0
 42
-0.4142135623724291
  0
VERTEX
  5
2396
  8
SAPA_PROFIL
 62
     4
 10
-81.199683578265535
 20
-8.4999999990112922
 30
0.0
  0
VERTEX
  5
2397
  8
SAPA_PROFIL
 62
     4
 10
-77.799683578264535
 20
-8.4999999990126582
 30
0.0
 42
-0.4142135623744271
  0
VERTEX
  5
2398
  8
SAPA_PROFIL
 62
     4
 10
-77.399683578263534
 20
-8.8999999990118397
 30
0.0
  0
VERTEX
  5
2399
  8
SAPA_PROFIL
 62
     4
 10
-77.399683578262895
 20
-9.0796152412831432
 30
0.0
 42
-0.1316524975874005
  0
VERTEX
  5
239A
  8
SAPA_PROFIL
 62
     4
 10
-77.439875957128493
 20
-9.2296152412799586
 30
0.0
  0
VERTEX
  5
239B
  8
SAPA_PROFIL
 62
     4
 10
-78.366025403781038
 20
-10.83375313828221
 30
0.0
 42
0.1316524975875904
  0
VERTEX
  5
239C
  8
SAPA_PROFIL
 62
     4
 10
-78.499999999995794
 20
-11.333753138283919
 30
0.0
  0
VERTEX
  5
239D
  8
SAPA_PROFIL
 62
     4
 10
-78.499999999995794
 20
-11.74999999901129
 30
0.0
 42
0.4142135623730951
  0
VERTEX
  5
239E
  8
SAPA_PROFIL
 62
     4
 10
-77.499999999995794
 20
-12.74999999901129
 30
0.0
  0
VERTEX
  5
239F
  8
SAPA_PROFIL
 62
     4
 10
-74.499999999998522
 20
-12.74999999901129
 30
0.0
 42
-0.9999996830128083
  0
VERTEX
  5
23A0
  8
SAPA_PROFIL
 62
     4
 10
-74.499999999996703
 20
-13.74999999901129
 30
0.0
  0
VERTEX
  5
23A1
  8
SAPA_PROFIL
 62
     4
 10
-77.499999999996703
 20
-13.74999999901129
 30
0.0
 42
0.4142135623730951
  0
VERTEX
  5
23A2
  8
SAPA_PROFIL
 62
     4
 10
-78.499999999996703
 20
-14.74999999901129
 30
0.0
  0
VERTEX
  5
23A3
  8
SAPA_PROFIL
 62
     4
 10
-78.499999999996703
 20
-44.24999999909587
 30
0.0
 42
0.4142135623730951
  0
VERTEX
  5
23A4
  8
SAPA_PROFIL
 62
     4
 10
-77.499999999996703
 20
-45.249999999095877
 30
0.0
  0
VERTEX
  5
23A5
  8
SAPA_PROFIL
 62
     4
 10
-74.499999999998522
 20
-45.249999999095877
 30
0.0
 42
-0.9999999999999998
  0
VERTEX
  5
23A6
  8
SAPA_PROFIL
 62
     4
 10
-74.499999999998522
 20
-46.24999999909587
 30
0.0
  0
VERTEX
  5
23A7
  8
SAPA_PROFIL
 62
     4
 10
-77.499999999996703
 20
-46.24999999909587
 30
0.0
 42
0.4142135623736278
  0
VERTEX
  5
23A8
  8
SAPA_PROFIL
 62
     4
 10
-78.499999999996703
 20
-47.24999999909587
 30
0.0
  0
VERTEX
  5
23A9
  8
SAPA_PROFIL
 62
     4
 10
-78.499999999996703
 20
-47.66624685982233
 30
0.0
 42
0.1316524975874375
  0
VERTEX
  5
23AA
  8
SAPA_PROFIL
 62
     4
 10
-78.366025403780654
 20
-48.166246859822543
 30
0.0
  0
VERTEX
  5
23AB
  8
SAPA_PROFIL
 62
     4
 10
-77.439875957128493
 20
-49.770384756824477
 30
0.0
 42
-0.1316524975874
  0
VERTEX
  5
23AC
  8
SAPA_PROFIL
 62
     4
 10
-77.399683578262909
 20
-49.920384756824021
 30
0.0
  0
VERTEX
  5
23AD
  8
SAPA_PROFIL
 62
     4
 10
-77.399683578263534
 20
-50.099999999095331
 30
0.0
 42
-0.4142135623744271
  0
VERTEX
  5
23AE
  8
SAPA_PROFIL
 62
     4
 10
-77.799683578264535
 20
-50.499999999094513
 30
0.0
  0
VERTEX
  5
23AF
  8
SAPA_PROFIL
 62
     4
 10
-81.199683578265535
 20
-50.49999999909587
 30
0.0
 42
-0.4142135623724291
  0
VERTEX
  5
23B0
  8
SAPA_PROFIL
 62
     4
 10
-81.599683578265171
 20
-50.099999999095331
 30
0.0
  0
VERTEX
  5
23B1
  8
SAPA_PROFIL
 62
     4
 10
-81.599683578271524
 20
-49.917563928658552
 30
0.0
 42
-0.1318219888653524
  0
VERTEX
  5
23B2
  8
SAPA_PROFIL
 62
     4
 10
-81.559391181734156
 20
-49.767390826186208
 30
0.0
  0
VERTEX
  5
23B3
  8
SAPA_PROFIL
 62
     4
 10
-80.750707720509808
 20
-48.368863125706547
 30
0.0
  0
VERTEX
  5
23B4
  8
SAPA_PROFIL
 62
     4
 10
-80.48359319229678
 20
-48.368863125706547
 30
0.0
 42
0.577350269189159
  0
VERTEX
  5
23B5
  8
SAPA_PROFIL
 62
     4
 10
-80.301727857502215
 20
-48.053863125706947
 30
0.0
  0
VERTEX
  5
23B6
  8
SAPA_PROFIL
 62
     4
 10
-80.503464536179308
 20
-47.704444948488288
 30
0.0
 42
0.0612687673629489
  0
VERTEX
  5
23B7
  8
SAPA_PROFIL
 62
     4
 10
-80.517047906865528
 20
-47.41176951538808
 30
0.0
 42
0.2694959974285039
  0
VERTEX
  5
23B8
  8
SAPA_PROFIL
 62
     4
 10
-80.710179881209484
 20
-47.180250468987552
 30
0.0
  0
VERTEX
  5
23B9
  8
SAPA_PROFIL
 62
     4
 10
-83.171010071662636
 20
-46.284581528077887
 30
0.0
 42
-0.3152987888784035
  0
VERTEX
  5
23BA
  8
SAPA_PROFIL
 62
     4
 10
-83.499999999999204
 20
-45.814735217684671
 30
0.0
  0
VERTEX
  5
23BB
  8
SAPA_PROFIL
 62
     4
 10
-83.499999999997613
 20
-44.433235632480233
 30
0.0
 42
-0.2539676464741841
  0
VERTEX
  5
23BC
  8
SAPA_PROFIL
 62
     4
 10
-83.363391710502341
 20
-44.181634462096149
 30
0.0
  0
VERTEX
  5
23BD
  8
SAPA_PROFIL
 62
     4
 10
-82.956831514497367
 20
-43.917611183719522
 30
0.0
 42
-0.5862177598324623
  0
VERTEX
  5
23BE
  8
SAPA_PROFIL
 62
     4
 10
-82.500000000000867
 20
-44.173352998957853
 30
0.0
  0
VERTEX
  5
23BF
  8
SAPA_PROFIL
 62
     4
 10
-82.500000000008527
 20
-45.114527679467663
 30
0.0
 42
0.3152987888813165
  0
VERTEX
  5
23C0
  8
SAPA_PROFIL
 62
     4
 10
-82.171010071671773
 20
-45.584373989865419
 30
0.0
  0
VERTEX
  5
23C1
  8
SAPA_PROFIL
 62
     4
 10
-80.971010071660544
 20
-46.021138270989383
 30
0.0
 42
0.5205670505515651
  0
VERTEX
  5
23C2
  8
SAPA_PROFIL
 62
     4
 10
-80.299999999997794
 20
-45.55129196059616
 30
0.0
  0
VERTEX
  5
23C3
  8
SAPA_PROFIL
 62
     4
 10
-80.299999999997766
 20
-40.534851019927302
 30
0.0
 42
0.3702522326300203
  0
VERTEX
  5
23C4
  8
SAPA_PROFIL
 62
     4
 10
-80.554459952663478
 20
-40.238327658133983
 30
0.0
 42
0.0982365330332397
  0
VERTEX
  5
23C5
  8
SAPA_PROFIL
 62
     4
 10
-82.242146727658479
 20
-40.147874899923032
 30
0.0
 42
0.3735060174783164
  0
VERTEX
  5
23C6
  8
SAPA_PROFIL
 62
     4
 10
-82.499999999998522
 20
-40.444899567834021
 30
0.0
  0
VERTEX
  5
23C7
  8
SAPA_PROFIL
 62
     4
 10
-82.499999999999432
 20
-40.873352998956669
 30
0.0
 42
-0.5920056181162531
  0
VERTEX
  5
23C8
  8
SAPA_PROFIL
 62
     4
 10
-82.961203502527354
 20
-41.126361755274068
 30
0.0
  0
VERTEX
  5
23C9
  8
SAPA_PROFIL
 62
     4
 10
-83.363391710505667
 20
-40.865177679118368
 30
0.0
 42
-0.2539676464746725
  0
VERTEX
  5
23CA
  8
SAPA_PROFIL
 62
     4
 10
-83.500000000001023
 20
-40.61357650873461
 30
0.0
  0
VERTEX
  5
23CB
  8
SAPA_PROFIL
 62
     4
 10
-83.499999999999417
 20
-18.386423489368919
 30
0.0
 42
-0.2539676464741819
  0
VERTEX
  5
23CC
  8
SAPA_PROFIL
 62
     4
 10
-83.363391710505667
 20
-18.134822318986071
 30
0.0
  0
VERTEX
  5
23CD
  8
SAPA_PROFIL
 62
     4
 10
-82.961203502527326
 20
-17.87363824283225
 30
0.0
 42
-0.5920055144124249
  0
VERTEX
  5
23CE
  8
SAPA_PROFIL
 62
     4
 10
-82.499999999999432
 20
-18.126646999147759
 30
0.0
  0
VERTEX
  5
23CF
  8
SAPA_PROFIL
 62
     4
 10
-82.500000025274446
 20
-18.555100476437978
 30
0.0
 42
0.3735060174775405
  0
VERTEX
  5
23D0
  8
SAPA_PROFIL
 62
     4
 10
-82.242146752934346
 20
-18.852125144347671
 30
0.0
 42
0.0355900683670349
  0
VERTEX
  5
23D1
  8
SAPA_PROFIL
 62
     4
 10
-81.626273166134567
 20
-18.89601870837992
 30
0.0
 42
0.0624282003873116
  0
VERTEX
  5
23D2
  8
SAPA_PROFIL
 62
     4
 10
-80.554459977939445
 20
-18.761672386136979
 30
0.0
 42
0.3702522326309292
  0
VERTEX
  5
23D3
  8
SAPA_PROFIL
 62
     4
 10
-80.300000025273704
 20
-18.46514902434361
 30
0.0
  0
VERTEX
  5
23D4
  8
SAPA_PROFIL
 62
     4
 10
-80.299999999997567
 20
-13.4487080375101
 30
0.0
 42
0.5205670505515692
  0
VERTEX
  5
23D5
  8
SAPA_PROFIL
 62
     4
 10
-80.971010071660544
 20
-12.978861727116881
 30
0.0
  0
VERTEX
  5
23D6
  8
SAPA_PROFIL
 62
     4
 10
-82.171010071669997
 20
-13.41562600824183
 30
0.0
 42
0.3152987888807539
  0
VERTEX
  5
23D7
  8
SAPA_PROFIL
 62
     4
 10
-82.500000000007617
 20
-13.88547231863768
 30
0.0
  0
VERTEX
  5
23D8
  8
SAPA_PROFIL
 62
     4
 10
-82.500000000000796
 20
-14.82664699914676
 30
0.0
 42
-0.5862175119221242
  0
VERTEX
  5
23D9
  8
SAPA_PROFIL
 62
     4
 10
-82.956831325755928
 20
-15.082388930128721
 30
0.0
 42
0.0000002084758573
  0
SEQEND
  5
23DA
  8
SAPA_PROFIL
 62
     4
  0
POLYLINE
  5
17C3
  8
SAPA_PROFIL
 62
     4
 66
     1
 10
0.0
 20
0.0
 30
0.0
 70
     1
  0
VERTEX
  5
23DB
  8
SAPA_PROFIL
 62
     4
 10
-14.90000000090231
 20
-58.70294355321132
 30
0.0
  0
VERTEX
  5
23DC
  8
SAPA_PROFIL
 62
     4
 10
-14.900000000900491
 20
-62.89705610290823
 30
0.0
 42
0.1989123673786592
  0
VERTEX
  5
23DD
  8
SAPA_PROFIL
 62
     4
 10
-14.81213203525704
 20
-63.109188137264063
 30
0.0
  0
VERTEX
  5
23DE
  8
SAPA_PROFIL
 62
     4
 10
-12.587867966546129
 20
-65.333452205974964
 30
0.0
 42
-0.1989123673785438
  0
VERTEX
  5
23DF
  8
SAPA_PROFIL
 62
     4
 10
-12.50000000090267
 20
-65.545584240330783
 30
0.0
  0
VERTEX
  5
23E0
  8
SAPA_PROFIL
 62
     4
 10
-12.500000000904491
 20
-65.999999828059146
 30
0.0
 42
-0.4142135623730951
  0
VERTEX
  5
23E1
  8
SAPA_PROFIL
 62
     4
 10
-12.80000000090376
 20
-66.299999828059327
 30
0.0
  0
VERTEX
  5
23E2
  8
SAPA_PROFIL
 62
     4
 10
-24.700000000899941
 20
-66.299999828059327
 30
0.0
 42
0.4142135623730951
  0
VERTEX
  5
23E3
  8
SAPA_PROFIL
 62
     4
 10
-25.200000000899951
 20
-66.799999828059327
 30
0.0
  0
VERTEX
  5
23E4
  8
SAPA_PROFIL
 62
     4
 10
-25.200000000899951
 20
-68.499999828059146
 30
0.0
 42
-0.4142135623739832
  0
VERTEX
  5
23E5
  8
SAPA_PROFIL
 62
     4
 10
-25.50000000089922
 20
-68.799999828059327
 30
0.0
  0
VERTEX
  5
23E6
  8
SAPA_PROFIL
 62
     4
 10
-29.200000000901579
 20
-68.799999828059327
 30
0.0
 42
-0.414213562375759
  0
VERTEX
  5
23E7
  8
SAPA_PROFIL
 62
     4
 10
-29.500000000902681
 20
-68.499999828059146
 30
0.0
  0
VERTEX
  5
23E8
  8
SAPA_PROFIL
 62
     4
 10
-29.500000000900851
 20
-52.006576697656129
 30
0.0
 42
-0.4142135623735391
  0
VERTEX
  5
23E9
  8
SAPA_PROFIL
 62
     4
 10
-29.200000000901579
 20
-51.706576697656402
 30
0.0
  0
VERTEX
  5
23EA
  8
SAPA_PROFIL
 62
     4
 10
-12.80000000090376
 20
-51.706576697656402
 30
0.0
 42
-0.4142135623726511
  0
VERTEX
  5
23EB
  8
SAPA_PROFIL
 62
     4
 10
-12.50000000090267
 20
-52.006576697656129
 30
0.0
  0
VERTEX
  5
23EC
  8
SAPA_PROFIL
 62
     4
 10
-12.50000000090267
 20
-56.054415415786963
 30
0.0
 42
-0.1989123673785438
  0
VERTEX
  5
23ED
  8
SAPA_PROFIL
 62
     4
 10
-12.587867966546129
 20
-56.266547450142781
 30
0.0
  0
VERTEX
  5
23EE
  8
SAPA_PROFIL
 62
     4
 10
-14.81213203525885
 20
-58.490811518855509
 30
0.0
 42
0.1989123673798886
  0
SEQEND
  5
23EF
  8
SAPA_PROFIL
 62
     4
  0
POLYLINE
  5
17C4
  8
SAPA_PROFIL
 62
     4
 66
     1
 10
0.0
 20
0.0
 30
0.0
 70
     1
  0
VERTEX
  5
23F0
  8
SAPA_PROFIL
 62
     4
 10
-29.500000000902681
 20
-45.299999828059548
 30
0.0
  0
VERTEX
  5
23F1
  8
SAPA_PROFIL
 62
     4
 10
-29.500000000900851
 20
-50.106576697656038
 30
0.0
 42
0.4142135623732061
  0
VERTEX
  5
23F2
  8
SAPA_PROFIL
 62
     4
 10
-29.200000000901579
 20
-50.40657669765622
 30
0.0
  0
VERTEX
  5
23F3
  8
SAPA_PROFIL
 62
     4
 10
-12.80000000090376
 20
-50.40657669765622
 30
0.0
 42
0.4142135623730951
  0
VERTEX
  5
23F4
  8
SAPA_PROFIL
 62
     4
 10
-12.50000000090267
 20
-50.106576697656038
 30
0.0
  0
VERTEX
  5
23F5
  8
SAPA_PROFIL
 62
     4
 10
-12.500000000904491
 20
-45.299999828059548
 30
0.0
 42
0.4142135623731173
  0
VERTEX
  5
23F6
  8
SAPA_PROFIL
 62
     4
 10
-12.80000000090558
 20
-44.999999828059373
 30
0.0
  0
VERTEX
  5
23F7
  8
SAPA_PROFIL
 62
     4
 10
-29.200000000903401
 20
-44.999999828059373
 30
0.0
 42
0.4142135623730951
  0
SEQEND
  5
23F8
  8
SAPA_PROFIL
 62
     4
  0
POLYLINE
  5
17C5
  8
SAPA_PROFIL
 62
     4
 66
     1
 10
0.0
 20
0.0
 30
0.0
 70
     1
  0
VERTEX
  5
23F9
  8
SAPA_PROFIL
 62
     4
 10
-11.00000000090267
 20
-56.675735759346964
 30
0.0
 42
-0.1989123673799838
  0
VERTEX
  5
23FA
  8
SAPA_PROFIL
 62
     4
 10
-11.08786796654794
 20
-56.887867793703691
 30
0.0
  0
VERTEX
  5
23FB
  8
SAPA_PROFIL
 62
     4
 10
-13.31213203525885
 20
-59.1121318624146
 30
0.0
 42
0.1989123673811189
  0
VERTEX
  5
23FC
  8
SAPA_PROFIL
 62
     4
 10
-13.40000000090231
 20
-59.324263896770418
 30
0.0
  0
VERTEX
  5
23FD
  8
SAPA_PROFIL
 62
     4
 10
-13.400000000900491
 20
-62.27573575934823
 30
0.0
 42
0.1989123673785447
  0
VERTEX
  5
23FE
  8
SAPA_PROFIL
 62
     4
 10
-13.31213203525704
 20
-62.487867793704048
 30
0.0
  0
VERTEX
  5
23FF
  8
SAPA_PROFIL
 62
     4
 10
-11.087867966546121
 20
-64.712131862415873
 30
0.0
 42
-0.1989123673785445
  0
VERTEX
  5
2400
  8
SAPA_PROFIL
 62
     4
 10
-11.00000000090267
 20
-64.924263896771691
 30
0.0
  0
VERTEX
  5
2401
  8
SAPA_PROFIL
 62
     4
 10
-11.000000000904491
 20
-67.299999828059313
 30
0.0
 42
-0.4142135623730951
  0
VERTEX
  5
2402
  8
SAPA_PROFIL
 62
     4
 10
-11.500000000904491
 20
-67.799999828059313
 30
0.0
  0
VERTEX
  5
2403
  8
SAPA_PROFIL
 62
     4
 10
-23.400000000900668
 20
-67.799999828059313
 30
0.0
 42
0.4142135623737615
  0
VERTEX
  5
2404
  8
SAPA_PROFIL
 62
     4
 10
-23.700000000899941
 20
-68.099999828059509
 30
0.0
  0
VERTEX
  5
2405
  8
SAPA_PROFIL
 62
     4
 10
-23.700000000899941
 20
-69.799999828059313
 30
0.0
 42
-0.4142135623730951
  0
VERTEX
  5
2406
  8
SAPA_PROFIL
 62
     4
 10
-24.200000000899951
 20
-70.299999828059313
 30
0.0
  0
VERTEX
  5
2407
  8
SAPA_PROFIL
 62
     4
 10
-30.500000000902681
 20
-70.299999828059313
 30
0.0
 42
-0.4142135623730951
  0
VERTEX
  5
2408
  8
SAPA_PROFIL
 62
     4
 10
-31.00000000090267
 20
-69.799999828059313
 30
0.0
  0
VERTEX
  5
2409
  8
SAPA_PROFIL
 62
     4
 10
-31.000000000899039
 20
-68.799999828058944
 30
0.0
 42
0.4142135623735387
  0
VERTEX
  5
240A
  8
SAPA_PROFIL
 62
     4
 10
-31.300000000898311
 20
-68.499999828059003
 30
0.0
  0
VERTEX
  5
240B
  8
SAPA_PROFIL
 62
     4
 10
-32.900000000900491
 20
-68.499999828059458
 30
0.0
 42
0.4142135623735394
  0
VERTEX
  5
240C
  8
SAPA_PROFIL
 62
     4
 10
-33.200000000899763
 20
-68.799999828059185
 30
0.0
  0
VERTEX
  5
240D
  8
SAPA_PROFIL
 62
     4
 10
-33.200000000897951
 20
-69.099999828058813
 30
0.0
 42
-0.5923377296036106
  0
VERTEX
  5
240E
  8
SAPA_PROFIL
 62
     4
 10
-33.661452271639519
 20
-69.352849910663082
 30
0.0
  0
VERTEX
  5
240F
  8
SAPA_PROFIL
 62
     4
 10
-35.361452271640253
 20
-68.075790642366229
 30
0.0
 42
-0.2560149538738703
  0
VERTEX
  5
2410
  8
SAPA_PROFIL
 62
     4
 10
-35.500000000900847
 20
-67.822940559761065
 30
0.0
  0
VERTEX
  5
2411
  8
SAPA_PROFIL
 62
     4
 10
-35.500000000900847
 20
-67.599999828058458
 30
0.0
 42
-0.4142135623733172
  0
VERTEX
  5
2412
  8
SAPA_PROFIL
 62
     4
 10
-35.200000000901589
 20
-67.299999828059185
 30
0.0
  0
VERTEX
  5
2413
  8
SAPA_PROFIL
 62
     4
 10
-31.300000000898311
 20
-67.299999828059185
 30
0.0
 42
0.4142135623735389
  0
VERTEX
  5
2414
  8
SAPA_PROFIL
 62
     4
 10
-31.000000000899039
 20
-66.999999828059231
 30
0.0
  0
VERTEX
  5
2415
  8
SAPA_PROFIL
 62
     4
 10
-31.000000000900862
 20
-55.999999828059053
 30
0.0
 42
0.4142135623735387
  0
VERTEX
  5
2416
  8
SAPA_PROFIL
 62
     4
 10
-31.30000000090013
 20
-55.699999828059099
 30
0.0
  0
VERTEX
  5
2417
  8
SAPA_PROFIL
 62
     4
 10
-35.200000000901589
 20
-55.699999828059099
 30
0.0
 42
-0.4142135623730951
  0
VERTEX
  5
2418
  8
SAPA_PROFIL
 62
     4
 10
-35.500000000900847
 20
-55.399999828059833
 30
0.0
  0
VERTEX
  5
2419
  8
SAPA_PROFIL
 62
     4
 10
-35.500000000900847
 20
-55.177059096357219
 30
0.0
 42
-0.2560149538738701
  0
VERTEX
  5
241A
  8
SAPA_PROFIL
 62
     4
 10
-35.361452271640253
 20
-54.924209013752062
 30
0.0
  0
VERTEX
  5
241B
  8
SAPA_PROFIL
 62
     4
 10
-33.661452271639519
 20
-53.647149745455202
 30
0.0
 42
-0.5923377296036115
  0
VERTEX
  5
241C
  8
SAPA_PROFIL
 62
     4
 10
-33.200000000897951
 20
-53.899999828059457
 30
0.0
  0
VERTEX
  5
241D
  8
SAPA_PROFIL
 62
     4
 10
-33.200000000899763
 20
-54.199999828059099
 30
0.0
 42
0.4142135623735394
  0
VERTEX
  5
241E
  8
SAPA_PROFIL
 62
     4
 10
-32.900000000900491
 20
-54.499999828058819
 30
0.0
  0
VERTEX
  5
241F
  8
SAPA_PROFIL
 62
     4
 10
-31.30000000090013
 20
-54.499999828059281
 30
0.0
 42
0.4142135623735389
  0
VERTEX
  5
2420
  8
SAPA_PROFIL
 62
     4
 10
-31.000000000900862
 20
-54.199999828059333
 30
0.0
  0
VERTEX
  5
2421
  8
SAPA_PROFIL
 62
     4
 10
-31.000000000906311
 20
-43.999999828059373
 30
0.0
 42
-0.4142135623731242
  0
VERTEX
  5
2422
  8
SAPA_PROFIL
 62
     4
 10
-30.500000000906311
 20
-43.499999828059373
 30
0.0
  0
VERTEX
  5
2423
  8
SAPA_PROFIL
 62
     4
 10
-11.500000000904491
 20
-43.499999828059373
 30
0.0
 42
-0.4142135623730951
  0
VERTEX
  5
2424
  8
SAPA_PROFIL
 62
     4
 10
-11.000000000904491
 20
-43.999999828059373
 30
0.0
  0
SEQEND
  5
2425
  8
SAPA_PROFIL
 62
     4
  0
POLYLINE
  5
17C6
  8
SAPA_PROFIL
 66
     1
 10
0.0
 20
0.0
 30
0.0
 70
     1
  0
VERTEX
  5
2426
  8
SAPA_PROFIL
 10
13.289707822415201
 20
-79.262132034007038
 30
0.0
 42
0.1989123678065343
  0
VERTEX
  5
2427
  8
SAPA_PROFIL
 10
13.501839857119609
 20
-79.349999999999497
 30
0.0
  0
VERTEX
  5
2428
  8
SAPA_PROFIL
 10
14.600000000000019
 20
-79.349999999999497
 30
0.0
 42
-0.4142135623730951
  0
VERTEX
  5
2429
  8
SAPA_PROFIL
 10
14.900000000000031
 20
-79.649999999999494
 30
0.0
  0
VERTEX
  5
242A
  8
SAPA_PROFIL
 10
14.899999999999929
 20
-84.800000000000225
 30
0.0
 42
-0.4142135623730951
  0
VERTEX
  5
242B
  8
SAPA_PROFIL
 10
14.399999999999929
 20
-85.300000000000239
 30
0.0
  0
VERTEX
  5
242C
  8
SAPA_PROFIL
 10
-14.400000000000119
 20
-85.300000000000239
 30
0.0
 42
-0.4142135623730951
  0
VERTEX
  5
242D
  8
SAPA_PROFIL
 10
-14.900000000000119
 20
-84.800000000000225
 30
0.0
  0
VERTEX
  5
242E
  8
SAPA_PROFIL
 10
-14.900000000000359
 20
-79.649999999999494
 30
0.0
 42
-0.4142135623731023
  0
VERTEX
  5
242F
  8
SAPA_PROFIL
 10
-14.60000000000036
 20
-79.349999999999497
 30
0.0
  0
VERTEX
  5
2430
  8
SAPA_PROFIL
 10
-13.50183985711992
 20
-79.349999999999497
 30
0.0
 42
0.1989123678065156
  0
VERTEX
  5
2431
  8
SAPA_PROFIL
 10
-13.28970782241554
 20
-79.262132034007038
 30
0.0
  0
VERTEX
  5
2432
  8
SAPA_PROFIL
 10
-12.23786796529587
 20
-78.210292173432137
 30
0.0
 42
0.1989123669528251
  0
VERTEX
  5
2433
  8
SAPA_PROFIL
 10
-12.15000000000007
 20
-77.998160139424542
 30
0.0
  0
VERTEX
  5
2434
  8
SAPA_PROFIL
 10
-12.15000000000019
 20
-77.900906587984466
 30
0.0
 42
0.4400105308916151
  0
VERTEX
  5
2435
  8
SAPA_PROFIL
 10
-12.47614672282428
 20
-77.602048178556899
 30
0.0
  0
VERTEX
  5
2436
  8
SAPA_PROFIL
 10
-14.0449347124006
 20
-77.739299343120052
 30
0.0
 42
-0.2216946626433876
  0
VERTEX
  5
2437
  8
SAPA_PROFIL
 10
-14.283213469581209
 20
-77.652572968048077
 30
0.0
  0
VERTEX
  5
2438
  8
SAPA_PROFIL
 10
-14.99791847198218
 20
-76.937867965644315
 30
0.0
 42
0.1989123673794082
  0
VERTEX
  5
2439
  8
SAPA_PROFIL
 10
-15.21005050633811
 20
-76.849999999999497
 30
0.0
  0
VERTEX
  5
243A
  8
SAPA_PROFIL
 10
-15.699999999999919
 20
-76.849999999999497
 30
0.0
 42
0.4142135623732032
  0
VERTEX
  5
243B
  8
SAPA_PROFIL
 10
-16.00000000000011
 20
-77.149999999999451
 30
0.0
  0
VERTEX
  5
243C
  8
SAPA_PROFIL
 10
-16.00000000000011
 20
-86.349999999999483
 30
0.0
 42
0.4142135623732616
  0
VERTEX
  5
243D
  8
SAPA_PROFIL
 10
-15.699999999999919
 20
-86.649999999999494
 30
0.0
  0
VERTEX
  5
243E
  8
SAPA_PROFIL
 10
15.699999999999919
 20
-86.649999999999494
 30
0.0
 42
0.414213562373088
  0
VERTEX
  5
243F
  8
SAPA_PROFIL
 10
15.99999999999994
 20
-86.349999999999483
 30
0.0
  0
VERTEX
  5
2440
  8
SAPA_PROFIL
 10
16.00000000000011
 20
-77.149999999999451
 30
0.0
 42
0.4142135623731402
  0
VERTEX
  5
2441
  8
SAPA_PROFIL
 10
15.699999999999999
 20
-76.849999999999511
 30
0.0
  0
VERTEX
  5
2442
  8
SAPA_PROFIL
 10
15.21005050633801
 20
-76.849999999999497
 30
0.0
 42
0.1989123673794317
  0
VERTEX
  5
2443
  8
SAPA_PROFIL
 10
14.99791847198183
 20
-76.93786796564433
 30
0.0
  0
VERTEX
  5
2444
  8
SAPA_PROFIL
 10
14.283213469580859
 20
-77.652572968048077
 30
0.0
 42
-0.2216946626433918
  0
VERTEX
  5
2445
  8
SAPA_PROFIL
 10
14.04493471240025
 20
-77.739299343120052
 30
0.0
  0
VERTEX
  5
2446
  8
SAPA_PROFIL
 10
12.476146722824019
 20
-77.602048178556899
 30
0.0
 42
0.4400105308916328
  0
VERTEX
  5
2447
  8
SAPA_PROFIL
 10
12.149999999999901
 20
-77.900906587984466
 30
0.0
  0
VERTEX
  5
2448
  8
SAPA_PROFIL
 10
12.149999999999819
 20
-77.998160139424542
 30
0.0
 42
0.1989123669528365
  0
VERTEX
  5
2449
  8
SAPA_PROFIL
 10
12.237867965295621
 20
-78.210292173432137
 30
0.0
  0
SEQEND
  5
244A
  8
SAPA_PROFIL
  0
POLYLINE
  5
17C7
  8
SAPA_PROFIL
  6
CONTINUOUS
 66
     1
 10
0.0
 20
0.0
 30
0.0
 70
     1
  0
VERTEX
  5
244B
  8
SAPA_PROFIL
  6
CONTINUOUS
 10
-5.9092893218803431
 20
-76.987867965643161
 30
0.0
 42
0.6681786379191337
  0
VERTEX
  5
244C
  8
SAPA_PROFIL
  6
CONTINUOUS
 10
-5.6971572875243552
 20
-77.499999999999105
 30
0.0
  0
VERTEX
  5
244D
  8
SAPA_PROFIL
  6
CONTINUOUS
 10
-5.2999999999991507
 20
-77.499999999998636
 30
0.0
 42
-0.414213562374094
  0
VERTEX
  5
244E
  8
SAPA_PROFIL
  6
CONTINUOUS
 10
-4.9999999999991971
 20
-77.799999999999613
 30
0.0
  0
VERTEX
  5
244F
  8
SAPA_PROFIL
  6
CONTINUOUS
 10
-4.9999999999991971
 20
-80.199999999999605
 30
0.0
 42
-0.4142135623730951
  0
VERTEX
  5
2450
  8
SAPA_PROFIL
  6
CONTINUOUS
 10
-5.2999999999991507
 20
-80.499999999999559
 30
0.0
  0
VERTEX
  5
2451
  8
SAPA_PROFIL
  6
CONTINUOUS
 10
-8.0391854213350413
 20
-80.49999999999865
 30
0.0
 42
-0.2216946626429604
  0
VERTEX
  5
2452
  8
SAPA_PROFIL
  6
CONTINUOUS
 10
-9.5712743075730984
 20
-79.785575219371609
 30
0.0
  0
VERTEX
  5
2453
  8
SAPA_PROFIL
  6
CONTINUOUS
 10
-10.53302222155917
 20
-78.639408687709604
 30
0.0
 42
-0.1763269807085765
  0
VERTEX
  5
2454
  8
SAPA_PROFIL
  6
CONTINUOUS
 10
-10.650000000000031
 20
-78.318014882865626
 30
0.0
  0
VERTEX
  5
2455
  8
SAPA_PROFIL
  6
CONTINUOUS
 10
-10.649999999998149
 20
-77.799999999998604
 30
0.0
 42
-0.4142135623733171
  0
VERTEX
  5
2456
  8
SAPA_PROFIL
  6
CONTINUOUS
 10
-10.34999999999871
 20
-77.499999999999503
 30
0.0
  0
VERTEX
  5
2457
  8
SAPA_PROFIL
  6
CONTINUOUS
 10
-9.2928427124741617
 20
-77.499999999999105
 30
0.0
 42
0.6681786379192504
  0
VERTEX
  5
2458
  8
SAPA_PROFIL
  6
CONTINUOUS
 10
-9.080710678118173
 20
-76.987867965643161
 30
0.0
  0
VERTEX
  5
2459
  8
SAPA_PROFIL
  6
CONTINUOUS
 10
-9.4807106781175818
 20
-76.587867965643696
 30
0.0
 42
0.1989123673796784
  0
VERTEX
  5
245A
  8
SAPA_PROFIL
  6
CONTINUOUS
 10
-9.6928427124735705
 20
-76.499999999999616
 30
0.0
  0
VERTEX
  5
245B
  8
SAPA_PROFIL
  6
CONTINUOUS
 10
-14.65263912041404
 20
-76.49999999999865
 30
0.0
 42
0.6808757648994829
  0
VERTEX
  5
245C
  8
SAPA_PROFIL
  6
CONTINUOUS
 10
-14.857238628433141
 20
-77.019406110484624
 30
0.0
  0
VERTEX
  5
245D
  8
SAPA_PROFIL
  6
CONTINUOUS
 10
-14.428291144423151
 20
-77.419406110484616
 30
0.0
 42
0.189855932106766
  0
VERTEX
  5
245E
  8
SAPA_PROFIL
  6
CONTINUOUS
 10
-14.22369163640405
 20
-77.499999999998636
 30
0.0
  0
VERTEX
  5
245F
  8
SAPA_PROFIL
  6
CONTINUOUS
 10
-12.37022832743218
 20
-77.499999999998636
 30
0.0
 42
-0.7002075382100549
  0
VERTEX
  5
2460
  8
SAPA_PROFIL
  6
CONTINUOUS
 10
-12.114322422670099
 20
-78.203095694838296
 30
0.0
  0
VERTEX
  5
2461
  8
SAPA_PROFIL
  6
CONTINUOUS
 10
-12.542836282904879
 20
-78.562661516915412
 30
0.0
 42
0.2216946626430935
  0
VERTEX
  5
2462
  8
SAPA_PROFIL
  6
CONTINUOUS
 10
-12.649999999999171
 20
-78.792474849851203
 30
0.0
  0
VERTEX
  5
2463
  8
SAPA_PROFIL
  6
CONTINUOUS
 10
-12.649999999999171
 20
-78.947146456086344
 30
0.0
 42
0.2079979736432576
  0
VERTEX
  5
2464
  8
SAPA_PROFIL
  6
CONTINUOUS
 10
-12.55460146427969
 20
-79.166550742312111
 30
0.0
  0
VERTEX
  5
2465
  8
SAPA_PROFIL
  6
CONTINUOUS
 10
-6.59999956124215
 20
-84.719406110485636
 30
0.0
 42
0.1898559321065746
  0
VERTEX
  5
2466
  8
SAPA_PROFIL
  6
CONTINUOUS
 10
-6.3954000532241864
 20
-84.799999999998604
 30
0.0
  0
VERTEX
  5
2467
  8
SAPA_PROFIL
  6
CONTINUOUS
 10
-0.7732050807561494
 20
-84.799999999998604
 30
0.0
 42
0.131652497587957
  0
VERTEX
  5
2468
  8
SAPA_PROFIL
  6
CONTINUOUS
 10
-0.6232050807551488
 20
-84.759807621134613
 30
0.0
  0
VERTEX
  5
2469
  8
SAPA_PROFIL
  6
CONTINUOUS
 10
0.0000000000008029
 20
-84.39999999999965
 30
0.0
  0
VERTEX
  5
246A
  8
SAPA_PROFIL
  6
CONTINUOUS
 10
0.6232050807579485
 20
-84.759807621134613
 30
0.0
 42
0.1316524975871203
  0
VERTEX
  5
246B
  8
SAPA_PROFIL
  6
CONTINUOUS
 10
0.773205080757812
 20
-84.799999999998604
 30
0.0
  0
VERTEX
  5
246C
  8
SAPA_PROFIL
  6
CONTINUOUS
 10
6.395400053225905
 20
-84.799999999998604
 30
0.0
 42
0.1898559321066236
  0
VERTEX
  5
246D
  8
SAPA_PROFIL
  6
CONTINUOUS
 10
6.5999995612439264
 20
-84.719406110485636
 30
0.0
  0
VERTEX
  5
246E
  8
SAPA_PROFIL
  6
CONTINUOUS
 10
12.55460146428141
 20
-79.166550742312111
 30
0.0
 42
0.207997973643366
  0
VERTEX
  5
246F
  8
SAPA_PROFIL
  6
CONTINUOUS
 10
12.650000000000951
 20
-78.947146456086344
 30
0.0
  0
VERTEX
  5
2470
  8
SAPA_PROFIL
  6
CONTINUOUS
 10
12.65000000000089
 20
-78.792474849851203
 30
0.0
 42
0.221694662643129
  0
VERTEX
  5
2471
  8
SAPA_PROFIL
  6
CONTINUOUS
 10
12.542836282906711
 20
-78.562661516915412
 30
0.0
  0
VERTEX
  5
2472
  8
SAPA_PROFIL
  6
CONTINUOUS
 10
12.11432242267165
 20
-78.20309569483841
 30
0.0
 42
-0.7002075382100074
  0
VERTEX
  5
2473
  8
SAPA_PROFIL
  6
CONTINUOUS
 10
12.370228327433839
 20
-77.499999999998636
 30
0.0
  0
VERTEX
  5
2474
  8
SAPA_PROFIL
  6
CONTINUOUS
 10
14.22369163640594
 20
-77.499999999998934
 30
0.0
 42
0.1898559321066891
  0
VERTEX
  5
2475
  8
SAPA_PROFIL
  6
CONTINUOUS
 10
14.42829114442492
 20
-77.419406110484616
 30
0.0
  0
VERTEX
  5
2476
  8
SAPA_PROFIL
  6
CONTINUOUS
 10
14.857238628434629
 20
-77.019406110484354
 30
0.0
 42
0.6808757648995032
  0
VERTEX
  5
2477
  8
SAPA_PROFIL
  6
CONTINUOUS
 10
14.65263912041593
 20
-76.49999999999865
 30
0.0
  0
VERTEX
  5
2478
  8
SAPA_PROFIL
  6
CONTINUOUS
 10
9.6928427124751764
 20
-76.499999999999616
 30
0.0
 42
0.1989123673797132
  0
VERTEX
  5
2479
  8
SAPA_PROFIL
  6
CONTINUOUS
 10
9.4807106781192445
 20
-76.587867965643696
 30
0.0
  0
VERTEX
  5
247A
  8
SAPA_PROFIL
  6
CONTINUOUS
 10
9.0807106781197788
 20
-76.987867965643161
 30
0.0
 42
0.6681786379192504
  0
VERTEX
  5
247B
  8
SAPA_PROFIL
  6
CONTINUOUS
 10
9.2928427124757675
 20
-77.499999999999105
 30
0.0
  0
VERTEX
  5
247C
  8
SAPA_PROFIL
  6
CONTINUOUS
 10
10.35000000000179
 20
-77.499999999999616
 30
0.0
 42
-0.4142135623719851
  0
VERTEX
  5
247D
  8
SAPA_PROFIL
  6
CONTINUOUS
 10
10.64999999999975
 20
-77.799999999998604
 30
0.0
  0
VERTEX
  5
247E
  8
SAPA_PROFIL
  6
CONTINUOUS
 10
10.65000000000078
 20
-78.318014882865626
 30
0.0
 42
-0.176326980708563
  0
VERTEX
  5
247F
  8
SAPA_PROFIL
  6
CONTINUOUS
 10
10.533022221560771
 20
-78.639408687709604
 30
0.0
  0
VERTEX
  5
2480
  8
SAPA_PROFIL
  6
CONTINUOUS
 10
9.5712743075746474
 20
-79.785575219371552
 30
0.0
 42
-0.2216946626429643
  0
VERTEX
  5
2481
  8
SAPA_PROFIL
  6
CONTINUOUS
 10
8.0391854213366472
 20
-80.49999999999865
 30
0.0
  0
VERTEX
  5
2482
  8
SAPA_PROFIL
  6
CONTINUOUS
 10
5.3000000000007574
 20
-80.49999999999865
 30
0.0
 42
-0.4142135623730951
  0
VERTEX
  5
2483
  8
SAPA_PROFIL
  6
CONTINUOUS
 10
5.000000000000802
 20
-80.199999999999605
 30
0.0
  0
VERTEX
  5
2484
  8
SAPA_PROFIL
  6
CONTINUOUS
 10
5.000000000000802
 20
-77.799999999999613
 30
0.0
 42
-0.414213562374094
  0
VERTEX
  5
2485
  8
SAPA_PROFIL
  6
CONTINUOUS
 10
5.3000000000007574
 20
-77.499999999998636
 30
0.0
  0
VERTEX
  5
2486
  8
SAPA_PROFIL
  6
CONTINUOUS
 10
5.6971572875259611
 20
-77.499999999999105
 30
0.0
 42
0.6681786379192504
  0
VERTEX
  5
2487
  8
SAPA_PROFIL
  6
CONTINUOUS
 10
5.9092893218819489
 20
-76.987867965643161
 30
0.0
  0
VERTEX
  5
2488
  8
SAPA_PROFIL
  6
CONTINUOUS
 10
5.5092893218825401
 20
-76.587867965643696
 30
0.0
 42
0.1989123673796784
  0
VERTEX
  5
2489
  8
SAPA_PROFIL
  6
CONTINUOUS
 10
5.2971572875265522
 20
-76.499999999999616
 30
0.0
  0
VERTEX
  5
248A
  8
SAPA_PROFIL
  6
CONTINUOUS
 10
-5.2971572875248887
 20
-76.499999999999616
 30
0.0
 42
0.1989123673796928
  0
VERTEX
  5
248B
  8
SAPA_PROFIL
  6
CONTINUOUS
 10
-5.5092893218808783
 20
-76.587867965643696
 30
0.0
  0
SEQEND
  5
248C
  8
SAPA_PROFIL
  6
CONTINUOUS
  0
POLYLINE
  5
17C8
  8
SAPA_PROFIL
 62
     4
 66
     1
 10
0.0
 20
0.0
 30
0.0
 70
     1
  0
VERTEX
  5
248D
  8
SAPA_PROFIL
 62
     4
 10
-1.1499999999999619
 20
-48.850000000000108
 30
0.0
  0
VERTEX
  5
248E
  8
SAPA_PROFIL
 62
     4
 10
-1.1499999999999619
 20
-46.650000000000063
 30
0.0
 42
-1.0
  0
VERTEX
  5
248F
  8
SAPA_PROFIL
 62
     4
 10
1.149999999999991
 20
-46.650000000000063
 30
0.0
  0
VERTEX
  5
2490
  8
SAPA_PROFIL
 62
     4
 10
1.1500000000001049
 20
-48.850000000000108
 30
0.0
 42
-1.0
  0
SEQEND
  5
2491
  8
SAPA_PROFIL
 62
     4
  0
POLYLINE
  5
17C9
  8
SAPA_PROFIL
 62
     4
 66
     1
 10
0.0
 20
0.0
 30
0.0
 70
     1
  0
VERTEX
  5
2492
  8
SAPA_PROFIL
 62
     4
 10
-3.9999999999999831
 20
-64.000000000000085
 30
0.0
  0
VERTEX
  5
2493
  8
SAPA_PROFIL
 62
     4
 10
-3.9999999999999831
 20
-67.050832149036324
 30
0.0
  0
VERTEX
  5
2494
  8
SAPA_PROFIL
 62
     4
 10
-3.9999999999999818
 20
-70.378679656440426
 30
0.0
 42
0.6681786379192966
  0
VERTEX
  5
2495
  8
SAPA_PROFIL
 62
     4
 10
-3.146446609406762
 20
-70.732233047033645
 30
0.0
  0
VERTEX
  5
2496
  8
SAPA_PROFIL
 62
     4
 10
-1.00000001162179
 20
-68.585786439270549
 30
0.0
 42
-0.1989123679837333
  0
VERTEX
  5
2497
  8
SAPA_PROFIL
 62
     4
 10
-0.2928932287916808
 20
-68.292893218813532
 30
0.0
  0
VERTEX
  5
2498
  8
SAPA_PROFIL
 62
     4
 10
0.2928932088352554
 20
-68.292893218813532
 30
0.0
 42
-0.1989123667755704
  0
VERTEX
  5
2499
  8
SAPA_PROFIL
 62
     4
 10
0.9999999883782239
 20
-68.585786435983408
 30
0.0
  0
VERTEX
  5
249A
  8
SAPA_PROFIL
 62
     4
 10
3.1464466094067971
 20
-70.732233047033645
 30
0.0
 42
0.6681786379192936
  0
VERTEX
  5
249B
  8
SAPA_PROFIL
 62
     4
 10
4.0000000000000027
 20
-70.378679656440426
 30
0.0
  0
VERTEX
  5
249C
  8
SAPA_PROFIL
 62
     4
 10
4.0000000000000018
 20
-67.050832149036324
 30
0.0
  0
VERTEX
  5
249D
  8
SAPA_PROFIL
 62
     4
 10
4.000000000000016
 20
-64.000000000000085
 30
0.0
 42
0.4142135623730951
  0
VERTEX
  5
249E
  8
SAPA_PROFIL
 62
     4
 10
3.500000000000016
 20
-63.500000000000078
 30
0.0
  0
VERTEX
  5
249F
  8
SAPA_PROFIL
 62
     4
 10
-3.4999999999999831
 20
-63.500000000000078
 30
0.0
 42
0.4142135623730951
  0
SEQEND
  5
24A0
  8
SAPA_PROFIL
 62
     4
  0
POLYLINE
  5
17CA
  8
SAPA_PROFIL
 62
     4
 66
     1
 10
0.0
 20
0.0
 30
0.0
 70
     1
  0
VERTEX
  5
24A1
  8
SAPA_PROFIL
 62
     4
 10
2.5857864376267941
 20
-53.460000000000093
 30
0.0
  0
VERTEX
  5
24A2
  8
SAPA_PROFIL
 62
     4
 10
1.14653106284699
 20
-52.060744625220053
 30
0.0
 42
0.9251773977986363
  0
VERTEX
  5
24A3
  8
SAPA_PROFIL
 62
     4
 10
-1.1465310628468459
 20
-52.060744625220053
 30
0.0
  0
VERTEX
  5
24A4
  8
SAPA_PROFIL
 62
     4
 10
-2.5857864376267639
 20
-53.460000000000093
 30
0.0
  0
VERTEX
  5
24A5
  8
SAPA_PROFIL
 62
     4
 10
-3.499999999999984
 20
-53.460000000000093
 30
0.0
 42
0.4142135623730769
  0
VERTEX
  5
24A6
  8
SAPA_PROFIL
 62
     4
 10
-3.999999999999984
 20
-53.960000000000093
 30
0.0
  0
VERTEX
  5
24A7
  8
SAPA_PROFIL
 62
     4
 10
-3.9999999999999831
 20
-62.000000000000092
 30
0.0
 42
0.4142135623730951
  0
VERTEX
  5
24A8
  8
SAPA_PROFIL
 62
     4
 10
-3.4999999999999831
 20
-62.500000000000078
 30
0.0
  0
VERTEX
  5
24A9
  8
SAPA_PROFIL
 62
     4
 10
3.500000000000016
 20
-62.500000000000078
 30
0.0
 42
0.4142135623730951
  0
VERTEX
  5
24AA
  8
SAPA_PROFIL
 62
     4
 10
4.0000000000000151
 20
-62.000000000000092
 30
0.0
  0
VERTEX
  5
24AB
  8
SAPA_PROFIL
 62
     4
 10
4.0000000000000151
 20
-53.960000000000093
 30
0.0
 42
0.4142135623730951
  0
VERTEX
  5
24AC
  8
SAPA_PROFIL
 62
     4
 10
3.5000000000000151
 20
-53.460000000000093
 30
0.0
  0
SEQEND
  5
24AD
  8
SAPA_PROFIL
 62
     4
  0
POLYLINE
  5
17CB
  8
SAPA_PROFIL
 62
     4
 66
     1
 10
0.0
 20
0.0
 30
0.0
 70
     1
  0
VERTEX
  5
24AE
  8
SAPA_PROFIL
 62
     4
 10
-4.9999999999998712
 20
-54.11000000000007
 30
0.0
 42
1.0
  0
VERTEX
  5
24AF
  8
SAPA_PROFIL
 62
     4
 10
-6.2999999999999394
 20
-54.11000000000007
 30
0.0
  0
VERTEX
  5
24B0
  8
SAPA_PROFIL
 62
     4
 10
-6.2999999999999394
 20
-54.960000000000093
 30
0.0
  0
VERTEX
  5
24B1
  8
SAPA_PROFIL
 62
     4
 10
-6.2499999999998712
 20
-54.960000000000093
 30
0.0
 42
-1.0
  0
VERTEX
  5
24B2
  8
SAPA_PROFIL
 62
     4
 10
-6.2499999999998703
 20
-55.4600000000001
 30
0.0
  0
VERTEX
  5
24B3
  8
SAPA_PROFIL
 62
     4
 10
-6.6999999999999149
 20
-55.4600000000001
 30
0.0
 42
-0.4142135623730951
  0
VERTEX
  5
24B4
  8
SAPA_PROFIL
 62
     4
 10
-6.9999999999998712
 20
-55.160000000000018
 30
0.0
  0
VERTEX
  5
24B5
  8
SAPA_PROFIL
 62
     4
 10
-6.9999999999998712
 20
-53.460000000000093
 30
0.0
 42
-0.4225789089359373
  0
VERTEX
  5
24B6
  8
SAPA_PROFIL
 62
     4
 10
-5.9999999999998712
 20
-52.499999999999972
 30
0.0
  0
VERTEX
  5
24B7
  8
SAPA_PROFIL
 62
     4
 10
-2.9999999999998712
 20
-52.499999999999972
 30
0.0
  0
VERTEX
  5
24B8
  8
SAPA_PROFIL
 62
     4
 10
-2.1499999999999622
 20
-51.650000000000063
 30
0.0
  0
VERTEX
  5
24B9
  8
SAPA_PROFIL
 62
     4
 10
-2.1499999999999631
 20
-45.500000000000078
 30
0.0
 42
-0.4142135623730951
  0
VERTEX
  5
24BA
  8
SAPA_PROFIL
 62
     4
 10
-1.1499999999999631
 20
-44.500000000000092
 30
0.0
  0
VERTEX
  5
24BB
  8
SAPA_PROFIL
 62
     4
 10
1.149999999999991
 20
-44.500000000000092
 30
0.0
 42
-0.4142135623730951
  0
VERTEX
  5
24BC
  8
SAPA_PROFIL
 62
     4
 10
2.149999999999991
 20
-45.500000000000078
 30
0.0
  0
VERTEX
  5
24BD
  8
SAPA_PROFIL
 62
     4
 10
2.1499999999999919
 20
-51.649999999999949
 30
0.0
  0
VERTEX
  5
24BE
  8
SAPA_PROFIL
 62
     4
 10
3.0000000000000151
 20
-52.499999999999972
 30
0.0
  0
VERTEX
  5
24BF
  8
SAPA_PROFIL
 62
     4
 10
6.0000000000000151
 20
-52.499999999999972
 30
0.0
 42
-0.4225789089359373
  0
VERTEX
  5
24C0
  8
SAPA_PROFIL
 62
     4
 10
7.0000000000000293
 20
-53.460000000000093
 30
0.0
  0
VERTEX
  5
24C1
  8
SAPA_PROFIL
 62
     4
 10
7.0000000000000293
 20
-55.160000000000018
 30
0.0
 42
-0.4142135623730951
  0
VERTEX
  5
24C2
  8
SAPA_PROFIL
 62
     4
 10
6.6999999999999469
 20
-55.4600000000001
 30
0.0
  0
VERTEX
  5
24C3
  8
SAPA_PROFIL
 62
     4
 10
6.2500000000000151
 20
-55.4600000000001
 30
0.0
 42
-1.0
  0
VERTEX
  5
24C4
  8
SAPA_PROFIL
 62
     4
 10
6.2500000000000151
 20
-54.960000000000093
 30
0.0
  0
VERTEX
  5
24C5
  8
SAPA_PROFIL
 62
     4
 10
6.3000000000000833
 20
-54.960000000000093
 30
0.0
  0
VERTEX
  5
24C6
  8
SAPA_PROFIL
 62
     4
 10
6.3000000000000833
 20
-54.11000000000007
 30
0.0
 42
1.0
  0
VERTEX
  5
24C7
  8
SAPA_PROFIL
 62
     4
 10
5.0000000000000151
 20
-54.11000000000007
 30
0.0
  0
VERTEX
  5
24C8
  8
SAPA_PROFIL
 62
     4
 10
5.0000000000000018
 20
-67.050832149036324
 30
0.0
  0
VERTEX
  5
24C9
  8
SAPA_PROFIL
 62
     4
 10
5.0000000000000027
 20
-72.500000000000085
 30
0.0
  0
VERTEX
  5
24CA
  8
SAPA_PROFIL
 62
     4
 10
3.5000000000000169
 20
-72.500000000000085
 30
0.0
  0
VERTEX
  5
24CB
  8
SAPA_PROFIL
 62
     4
 10
0.353553390593237
 20
-69.353553390593305
 30
0.0
 42
0.4142135623730951
  0
VERTEX
  5
24CC
  8
SAPA_PROFIL
 62
     4
 10
-0.3535533905932025
 20
-69.353553390593305
 30
0.0
  0
VERTEX
  5
24CD
  8
SAPA_PROFIL
 62
     4
 10
-3.4999999999999818
 20
-72.500000000000085
 30
0.0
  0
VERTEX
  5
24CE
  8
SAPA_PROFIL
 62
     4
 10
-5.0000000000000098
 20
-72.500000000000085
 30
0.0
  0
VERTEX
  5
24CF
  8
SAPA_PROFIL
 62
     4
 10
-4.999999999999968
 20
-67.050832149036324
 30
0.0
  0
VERTEX
  5
24D0
  8
SAPA_PROFIL
 62
     4
 10
-4.9999999999998712
 20
-54.410000000000061
 30
0.0
  0
SEQEND
  5
24D1
  8
SAPA_PROFIL
 62
     4
  0
POLYLINE
  5
17CC
  8
SAPA_PROFIL
 66
     1
 10
0.0
 20
0.0
 30
0.0
 70
   129
  0
VERTEX
  5
24D2
  8
SAPA_PROFIL
 10
-2.9999999999999711
 20
-31.49999999999952
 30
0.0
  0
VERTEX
  5
24D3
  8
SAPA_PROFIL
 10
-2.9999999999999711
 20
-14.49999999999952
 30
0.0
 42
-0.4142135623730951
  0
VERTEX
  5
24D4
  8
SAPA_PROFIL
 10
-0.9999999999999715
 20
-12.49999999999952
 30
0.0
  0
VERTEX
  5
24D5
  8
SAPA_PROFIL
 10
1.000000000000028
 20
-12.49999999999952
 30
0.0
 42
-0.4142135623730951
  0
VERTEX
  5
24D6
  8
SAPA_PROFIL
 10
3.000000000000028
 20
-14.49999999999952
 30
0.0
  0
VERTEX
  5
24D7
  8
SAPA_PROFIL
 10
3.000000000000028
 20
-31.49999999999952
 30
0.0
 42
-0.4142135623731002
  0
VERTEX
  5
24D8
  8
SAPA_PROFIL
 10
2.000000000000028
 20
-32.499999999999517
 30
0.0
  0
VERTEX
  5
24D9
  8
SAPA_PROFIL
 10
-1.9999999999999709
 20
-32.499999999999517
 30
0.0
 42
-0.4142135623730951
  0
SEQEND
  5
24DA
  8
SAPA_PROFIL
  0
POLYLINE
  5
17CD
  8
SAPA_PROFIL
 66
     1
 10
0.0
 20
0.0
 30
0.0
 70
   129
  0
VERTEX
  5
24DB
  8
SAPA_PROFIL
 10
20.8180339887499
 20
-14.99999999999952
 30
0.0
 42
0.6482315195103768
  0
VERTEX
  5
24DC
  8
SAPA_PROFIL
 10
19.700000000000021
 20
-12.49999999999952
 30
0.0
  0
VERTEX
  5
24DD
  8
SAPA_PROFIL
 10
7.0000000000000284
 20
-12.49999999999952
 30
0.0
 42
0.4142135623730951
  0
VERTEX
  5
24DE
  8
SAPA_PROFIL
 10
5.0000000000000284
 20
-14.49999999999952
 30
0.0
  0
VERTEX
  5
24DF
  8
SAPA_PROFIL
 10
5.0000000000000284
 20
-52.199999999999498
 30
0.0
 42
-0.4142135623730951
  0
VERTEX
  5
24E0
  8
SAPA_PROFIL
 10
4.7000000000000171
 20
-52.499999999999517
 30
0.0
  0
VERTEX
  5
24E1
  8
SAPA_PROFIL
 10
3.0757359312880221
 20
-52.499999999999517
 30
0.0
  0
VERTEX
  5
24E2
  8
SAPA_PROFIL
 10
2.1378679656441468
 20
-51.562132034356161
 30
0.0
 42
-0.1989123673804472
  0
VERTEX
  5
24E3
  8
SAPA_PROFIL
 10
2.0500000000000389
 20
-51.349999999999511
 30
0.0
  0
VERTEX
  5
24E4
  8
SAPA_PROFIL
 10
2.0500000000000389
 20
-50.149999999999523
 30
0.0
  0
VERTEX
  5
24E5
  8
SAPA_PROFIL
 10
2.7000000000000171
 20
-50.149999999999523
 30
0.0
  0
VERTEX
  5
24E6
  8
SAPA_PROFIL
 10
2.076719695747812
 20
-48.77376540432482
 30
0.0
 42
-0.5450207774088041
  0
VERTEX
  5
24E7
  8
SAPA_PROFIL
 10
2.3500000000000218
 20
-48.349999999999511
 30
0.0
  0
VERTEX
  5
24E8
  8
SAPA_PROFIL
 10
2.7000000000000171
 20
-48.349999999999511
 30
0.0
  0
VERTEX
  5
24E9
  8
SAPA_PROFIL
 10
2.076719695747812
 20
-46.973765404324858
 30
0.0
 42
-0.545020777408923
  0
VERTEX
  5
24EA
  8
SAPA_PROFIL
 10
2.3500000000000218
 20
-46.5499999999995
 30
0.0
  0
VERTEX
  5
24EB
  8
SAPA_PROFIL
 10
2.7000000000000171
 20
-46.5499999999995
 30
0.0
  0
VERTEX
  5
24EC
  8
SAPA_PROFIL
 10
2.076719695747812
 20
-45.173765404324847
 30
0.0
 42
-0.5450207774088153
  0
VERTEX
  5
24ED
  8
SAPA_PROFIL
 10
2.3500000000000218
 20
-44.74999999999951
 30
0.0
  0
VERTEX
  5
24EE
  8
SAPA_PROFIL
 10
2.7000000000000171
 20
-44.74999999999951
 30
0.0
  0
VERTEX
  5
24EF
  8
SAPA_PROFIL
 10
2.076719695747812
 20
-43.373765404324843
 30
0.0
 42
-0.5450207774088153
  0
VERTEX
  5
24F0
  8
SAPA_PROFIL
 10
2.3500000000000218
 20
-42.949999999999513
 30
0.0
  0
VERTEX
  5
24F1
  8
SAPA_PROFIL
 10
2.7000000000000171
 20
-42.949999999999513
 30
0.0
  0
VERTEX
  5
24F2
  8
SAPA_PROFIL
 10
2.0767196957477552
 20
-41.573765404324767
 30
0.0
 42
-0.5450207774087306
  0
VERTEX
  5
24F3
  8
SAPA_PROFIL
 10
2.3500000000000218
 20
-41.149999999999523
 30
0.0
  0
VERTEX
  5
24F4
  8
SAPA_PROFIL
 10
2.7000000000000171
 20
-41.149999999999523
 30
0.0
  0
VERTEX
  5
24F5
  8
SAPA_PROFIL
 10
2.076719695747812
 20
-39.77376540432482
 30
0.0
 42
-0.5450207774088212
  0
VERTEX
  5
24F6
  8
SAPA_PROFIL
 10
2.3500000000000218
 20
-39.349999999999511
 30
0.0
  0
VERTEX
  5
24F7
  8
SAPA_PROFIL
 10
2.7000000000000171
 20
-39.349999999999511
 30
0.0
  0
VERTEX
  5
24F8
  8
SAPA_PROFIL
 10
2.076719695747812
 20
-37.973765404324837
 30
0.0
 42
-0.5450207774088153
  0
VERTEX
  5
24F9
  8
SAPA_PROFIL
 10
2.3500000000000218
 20
-37.5499999999995
 30
0.0
  0
VERTEX
  5
24FA
  8
SAPA_PROFIL
 10
2.7000000000000171
 20
-37.5499999999995
 30
0.0
  0
VERTEX
  5
24FB
  8
SAPA_PROFIL
 10
2.076719695747812
 20
-36.173765404324861
 30
0.0
 42
-0.5450207774088267
  0
VERTEX
  5
24FC
  8
SAPA_PROFIL
 10
2.3500000000000218
 20
-35.749999999999517
 30
0.0
  0
VERTEX
  5
24FD
  8
SAPA_PROFIL
 10
2.7000000000000171
 20
-35.749999999999517
 30
0.0
  0
VERTEX
  5
24FE
  8
SAPA_PROFIL
 10
2.7000000000000171
 20
-35.499999999999517
 30
0.0
 42
0.4142135623730951
  0
VERTEX
  5
24FF
  8
SAPA_PROFIL
 10
1.7000000000000171
 20
-34.499999999999517
 30
0.0
  0
VERTEX
  5
2500
  8
SAPA_PROFIL
 10
-1.69999999999996
 20
-34.499999999999517
 30
0.0
 42
0.4142135623730951
  0
VERTEX
  5
2501
  8
SAPA_PROFIL
 10
-2.6999999999999602
 20
-35.499999999999517
 30
0.0
  0
VERTEX
  5
2502
  8
SAPA_PROFIL
 10
-2.6999999999999602
 20
-36.649999999999523
 30
0.0
  0
VERTEX
  5
2503
  8
SAPA_PROFIL
 10
-2.349999999999937
 20
-36.649999999999523
 30
0.0
 42
-0.5450207774090871
  0
VERTEX
  5
2504
  8
SAPA_PROFIL
 10
-2.0767196957479821
 20
-37.07376540432552
 30
0.0
  0
VERTEX
  5
2505
  8
SAPA_PROFIL
 10
-2.6999999999999602
 20
-38.449999999999513
 30
0.0
  0
VERTEX
  5
2506
  8
SAPA_PROFIL
 10
-2.349999999999937
 20
-38.449999999999513
 30
0.0
 42
-0.5450207774090871
  0
VERTEX
  5
2507
  8
SAPA_PROFIL
 10
-2.0767196957479821
 20
-38.873765404325532
 30
0.0
  0
VERTEX
  5
2508
  8
SAPA_PROFIL
 10
-2.6999999999999602
 20
-40.24999999999951
 30
0.0
  0
VERTEX
  5
2509
  8
SAPA_PROFIL
 10
-2.3500000000000512
 20
-40.24999999999951
 30
0.0
 42
-0.5450207774093415
  0
VERTEX
  5
250A
  8
SAPA_PROFIL
 10
-2.0767196957479821
 20
-40.673765404325501
 30
0.0
  0
VERTEX
  5
250B
  8
SAPA_PROFIL
 10
-2.6999999999999602
 20
-42.0499999999995
 30
0.0
  0
VERTEX
  5
250C
  8
SAPA_PROFIL
 10
-2.3500000000000218
 20
-42.0499999999995
 30
0.0
 42
-0.5450207774092283
  0
VERTEX
  5
250D
  8
SAPA_PROFIL
 10
-2.0767196957479821
 20
-42.473765404325519
 30
0.0
  0
VERTEX
  5
250E
  8
SAPA_PROFIL
 10
-2.6999999999999602
 20
-43.849999999999497
 30
0.0
  0
VERTEX
  5
250F
  8
SAPA_PROFIL
 10
-2.349999999999937
 20
-43.849999999999497
 30
0.0
 42
-0.5450207774090871
  0
VERTEX
  5
2510
  8
SAPA_PROFIL
 10
-2.0767196957479821
 20
-44.273765404325502
 30
0.0
  0
VERTEX
  5
2511
  8
SAPA_PROFIL
 10
-2.6999999999999602
 20
-45.649999999999523
 30
0.0
  0
VERTEX
  5
2512
  8
SAPA_PROFIL
 10
-2.349999999999937
 20
-45.649999999999523
 30
0.0
 42
-0.5450207774090871
  0
VERTEX
  5
2513
  8
SAPA_PROFIL
 10
-2.0767196957479821
 20
-46.073765404325513
 30
0.0
  0
VERTEX
  5
2514
  8
SAPA_PROFIL
 10
-2.6999999999999602
 20
-47.449999999999498
 30
0.0
  0
VERTEX
  5
2515
  8
SAPA_PROFIL
 10
-2.3499999999999939
 20
-47.449999999999498
 30
0.0
 42
-0.5450207774091945
  0
VERTEX
  5
2516
  8
SAPA_PROFIL
 10
-2.0767196957479821
 20
-47.873765404325532
 30
0.0
  0
VERTEX
  5
2517
  8
SAPA_PROFIL
 10
-2.6999999999999602
 20
-49.24999999999951
 30
0.0
  0
VERTEX
  5
2518
  8
SAPA_PROFIL
 10
-2.3500000000000218
 20
-49.24999999999951
 30
0.0
 42
-0.5450207774092962
  0
VERTEX
  5
2519
  8
SAPA_PROFIL
 10
-2.0767196957479821
 20
-49.673765404325501
 30
0.0
  0
VERTEX
  5
251A
  8
SAPA_PROFIL
 10
-2.6999999999999602
 20
-51.0499999999995
 30
0.0
  0
VERTEX
  5
251B
  8
SAPA_PROFIL
 10
-2.3500000000000791
 20
-51.0499999999995
 30
0.0
 42
-0.6681786379194189
  0
VERTEX
  5
251C
  8
SAPA_PROFIL
 10
-2.1378679656439772
 20
-51.5621320343555
 30
0.0
  0
VERTEX
  5
251D
  8
SAPA_PROFIL
 10
-3.0757359312879942
 20
-52.499999999999517
 30
0.0
  0
VERTEX
  5
251E
  8
SAPA_PROFIL
 10
-4.6999999999999602
 20
-52.499999999999517
 30
0.0
 42
-0.4142135623730951
  0
VERTEX
  5
251F
  8
SAPA_PROFIL
 10
-4.9999999999999707
 20
-52.199999999999498
 30
0.0
  0
VERTEX
  5
2520
  8
SAPA_PROFIL
 10
-4.9999999999999707
 20
-14.49999999999952
 30
0.0
 42
0.4142135623730951
  0
VERTEX
  5
2521
  8
SAPA_PROFIL
 10
-7.0
 20
-12.49999999999952
 30
0.0
  0
VERTEX
  5
2522
  8
SAPA_PROFIL
 10
-19.699999999999989
 20
-12.49999999999954
 30
0.0
 42
0.6482315195103831
  0
VERTEX
  5
2523
  8
SAPA_PROFIL
 10
-20.81803398874985
 20
-14.99999999999957
 30
0.0
 42
-0.6482315195103645
  0
VERTEX
  5
2524
  8
SAPA_PROFIL
 10
-21.041640786500011
 20
-15.49999999999954
 30
0.0
  0
VERTEX
  5
2525
  8
SAPA_PROFIL
 10
-22.399999999999981
 20
-15.49999999999954
 30
0.0
 42
0.4142135623730951
  0
VERTEX
  5
2526
  8
SAPA_PROFIL
 10
-22.699999999999989
 20
-15.79999999999953
 30
0.0
  0
VERTEX
  5
2527
  8
SAPA_PROFIL
 10
-22.699999999999989
 20
-29.699999999999541
 30
0.0
 42
0.4142135623731104
  0
VERTEX
  5
2528
  8
SAPA_PROFIL
 10
-22.399999999999981
 20
-29.999999999999549
 30
0.0
  0
VERTEX
  5
2529
  8
SAPA_PROFIL
 10
-16.500000000000959
 20
-29.99999999999952
 30
0.0
 42
-0.4142135623731104
  0
VERTEX
  5
252A
  8
SAPA_PROFIL
 10
-16.20000000000098
 20
-30.2999999999995
 30
0.0
  0
VERTEX
  5
252B
  8
SAPA_PROFIL
 10
-16.20000000000098
 20
-34.199999999999513
 30
0.0
 42
0.2134217652833545
  0
VERTEX
  5
252C
  8
SAPA_PROFIL
 10
-16.100000000000989
 20
-34.423606797749471
 30
0.0
 42
-0.213421765283341
  0
VERTEX
  5
252D
  8
SAPA_PROFIL
 10
-16.000000000000959
 20
-34.647213595499501
 30
0.0
  0
VERTEX
  5
252E
  8
SAPA_PROFIL
 10
-16.000000000000959
 20
-35.199999999999513
 30
0.0
 42
-0.4142135623731104
  0
VERTEX
  5
252F
  8
SAPA_PROFIL
 10
-16.300000000000981
 20
-35.499999999999517
 30
0.0
  0
VERTEX
  5
2530
  8
SAPA_PROFIL
 10
-18.000000000000959
 20
-35.499999999999538
 30
0.0
  0
VERTEX
  5
2531
  8
SAPA_PROFIL
 10
-18.586384015761979
 20
-35.035076580434549
 30
0.0
 42
-0.7105995015649603
  0
VERTEX
  5
2532
  8
SAPA_PROFIL
 10
-18.400000000001
 20
-34.499999999999552
 30
0.0
  0
VERTEX
  5
2533
  8
SAPA_PROFIL
 10
-18.000000000000959
 20
-34.499999999999552
 30
0.0
 42
0.4142135623731359
  0
VERTEX
  5
2534
  8
SAPA_PROFIL
 10
-17.70000000000098
 20
-34.199999999999541
 30
0.0
  0
VERTEX
  5
2535
  8
SAPA_PROFIL
 10
-17.70000000000098
 20
-31.799999999999532
 30
0.0
 42
0.4142135623730951
  0
VERTEX
  5
2536
  8
SAPA_PROFIL
 10
-18.000000000000959
 20
-31.499999999999549
 30
0.0
  0
VERTEX
  5
2537
  8
SAPA_PROFIL
 10
-22.900000000000968
 20
-31.499999999999549
 30
0.0
 42
0.4142135623731104
  0
VERTEX
  5
2538
  8
SAPA_PROFIL
 10
-23.200000000000959
 20
-31.799999999999532
 30
0.0
  0
VERTEX
  5
2539
  8
SAPA_PROFIL
 10
-23.20000000000098
 20
-34.199999999999541
 30
0.0
 42
0.4142135623731258
  0
VERTEX
  5
253A
  8
SAPA_PROFIL
 10
-22.900000000000951
 20
-34.499999999999552
 30
0.0
  0
VERTEX
  5
253B
  8
SAPA_PROFIL
 10
-22.000000000000959
 20
-34.499999999999552
 30
0.0
 42
-0.7105995015650852
  0
VERTEX
  5
253C
  8
SAPA_PROFIL
 10
-21.813615984240219
 20
-35.035076580434271
 30
0.0
  0
VERTEX
  5
253D
  8
SAPA_PROFIL
 10
-22.400000000000968
 20
-35.499999999999538
 30
0.0
  0
VERTEX
  5
253E
  8
SAPA_PROFIL
 10
-24.70000000000098
 20
-35.499999999999538
 30
0.0
 42
-0.4142135623730951
  0
VERTEX
  5
253F
  8
SAPA_PROFIL
 10
-25.00000000000097
 20
-35.199999999999527
 30
0.0
  0
VERTEX
  5
2540
  8
SAPA_PROFIL
 10
-25.0
 20
63.999999999999481
 30
0.0
 42
-0.4142135623730951
  0
VERTEX
  5
2541
  8
SAPA_PROFIL
 10
-24.5
 20
64.499999999999488
 30
0.0
  0
VERTEX
  5
2542
  8
SAPA_PROFIL
 10
24.5
 20
64.499999999999488
 30
0.0
 42
-0.4142135623730951
  0
VERTEX
  5
2543
  8
SAPA_PROFIL
 10
25.0
 20
63.999999999999481
 30
0.0
  0
VERTEX
  5
2544
  8
SAPA_PROFIL
 10
25.00000000000103
 20
-35.199999999999513
 30
0.0
 42
-0.4142135623731258
  0
VERTEX
  5
2545
  8
SAPA_PROFIL
 10
24.700000000001008
 20
-35.499999999999517
 30
0.0
  0
VERTEX
  5
2546
  8
SAPA_PROFIL
 10
22.400000000001029
 20
-35.499999999999517
 30
0.0
  0
VERTEX
  5
2547
  8
SAPA_PROFIL
 10
21.81361598424002
 20
-35.035076580433497
 30
0.0
 42
-0.7105995015650982
  0
VERTEX
  5
2548
  8
SAPA_PROFIL
 10
22.00000000000102
 20
-34.499999999999517
 30
0.0
  0
VERTEX
  5
2549
  8
SAPA_PROFIL
 10
22.900000000001029
 20
-34.499999999999517
 30
0.0
 42
0.4142135623731104
  0
VERTEX
  5
254A
  8
SAPA_PROFIL
 10
23.200000000001008
 20
-34.199999999999513
 30
0.0
  0
VERTEX
  5
254B
  8
SAPA_PROFIL
 10
23.200000000001008
 20
-31.7999999999995
 30
0.0
 42
0.4142135623731001
  0
VERTEX
  5
254C
  8
SAPA_PROFIL
 10
22.900000000001029
 20
-31.49999999999952
 30
0.0
  0
VERTEX
  5
254D
  8
SAPA_PROFIL
 10
18.00000000000102
 20
-31.49999999999952
 30
0.0
 42
0.4142135623730951
  0
VERTEX
  5
254E
  8
SAPA_PROFIL
 10
17.700000000001008
 20
-31.7999999999995
 30
0.0
  0
VERTEX
  5
254F
  8
SAPA_PROFIL
 10
17.700000000001008
 20
-34.199999999999513
 30
0.0
 42
0.4142135623731359
  0
VERTEX
  5
2550
  8
SAPA_PROFIL
 10
18.000000000001052
 20
-34.499999999999517
 30
0.0
  0
VERTEX
  5
2551
  8
SAPA_PROFIL
 10
18.400000000001029
 20
-34.499999999999517
 30
0.0
 42
-0.7105995015649472
  0
VERTEX
  5
2552
  8
SAPA_PROFIL
 10
18.586384015761841
 20
-35.035076580434207
 30
0.0
  0
VERTEX
  5
2553
  8
SAPA_PROFIL
 10
18.00000000000102
 20
-35.499999999999517
 30
0.0
  0
VERTEX
  5
2554
  8
SAPA_PROFIL
 10
16.300000000000999
 20
-35.499999999999517
 30
0.0
 42
-0.4142135623731156
  0
VERTEX
  5
2555
  8
SAPA_PROFIL
 10
16.00000000000102
 20
-35.199999999999513
 30
0.0
  0
VERTEX
  5
2556
  8
SAPA_PROFIL
 10
16.00000000000102
 20
-34.647213595499522
 30
0.0
 42
-0.2134217652833455
  0
VERTEX
  5
2557
  8
SAPA_PROFIL
 10
16.100000000000989
 20
-34.423606797749557
 30
0.0
 42
0.2134217652833592
  0
VERTEX
  5
2558
  8
SAPA_PROFIL
 10
16.200000000001008
 20
-34.199999999999513
 30
0.0
  0
VERTEX
  5
2559
  8
SAPA_PROFIL
 10
16.200000000001008
 20
-30.2999999999995
 30
0.0
 42
-0.4142135623731053
  0
VERTEX
  5
255A
  8
SAPA_PROFIL
 10
16.50000000000102
 20
-29.99999999999952
 30
0.0
  0
VERTEX
  5
255B
  8
SAPA_PROFIL
 10
22.400000000000009
 20
-29.99999999999952
 30
0.0
 42
0.4142135623730951
  0
VERTEX
  5
255C
  8
SAPA_PROFIL
 10
22.700000000000021
 20
-29.699999999999509
 30
0.0
  0
VERTEX
  5
255D
  8
SAPA_PROFIL
 10
22.700000000000021
 20
-15.7999999999995
 30
0.0
 42
0.4142135623730951
  0
VERTEX
  5
255E
  8
SAPA_PROFIL
 10
22.400000000000009
 20
-15.49999999999952
 30
0.0
  0
VERTEX
  5
255F
  8
SAPA_PROFIL
 10
21.041640786500011
 20
-15.49999999999952
 30
0.0
 42
-0.6482315195103644
  0
SEQEND
  5
2560
  8
SAPA_PROFIL
  0
POLYLINE
  5
17CE
  8
SAPA_PROFIL
 66
     1
 10
0.0
 20
0.0
 30
0.0
 70
   129
  0
VERTEX
  5
2561
  8
SAPA_PROFIL
 10
-22.399999999999981
 20
62.2000000000005
 30
0.0
 42
0.4142135623730951
  0
VERTEX
  5
2562
  8
SAPA_PROFIL
 10
-22.699999999999989
 20
61.900000000000489
 30
0.0
  0
VERTEX
  5
2563
  8
SAPA_PROFIL
 10
-22.699999999999989
 20
49.299999999999493
 30
0.0
 42
0.4142135623731104
  0
VERTEX
  5
2564
  8
SAPA_PROFIL
 10
-22.399999999999981
 20
48.999999999999481
 30
0.0
  0
VERTEX
  5
2565
  8
SAPA_PROFIL
 10
-18.0
 20
48.999999999999481
 30
0.0
 42
-0.4142135623730951
  0
VERTEX
  5
2566
  8
SAPA_PROFIL
 10
-17.5
 20
48.499999999999488
 30
0.0
  0
VERTEX
  5
2567
  8
SAPA_PROFIL
 10
-17.5
 20
46.399999999999459
 30
0.0
 42
-0.4142135623730951
  0
VERTEX
  5
2568
  8
SAPA_PROFIL
 10
-17.800000000000011
 20
46.099999999999483
 30
0.0
  0
VERTEX
  5
2569
  8
SAPA_PROFIL
 10
-18.300000000000011
 20
46.099999999999483
 30
0.0
 42
-0.4142135623730951
  0
VERTEX
  5
256A
  8
SAPA_PROFIL
 10
-18.599999999999991
 20
46.399999999999459
 30
0.0
  0
VERTEX
  5
256B
  8
SAPA_PROFIL
 10
-18.600000000000311
 20
46.736626924635203
 30
0.0
 42
0.5643553431125428
  0
VERTEX
  5
256C
  8
SAPA_PROFIL
 10
-22.924395043234998
 20
44.874395043232482
 30
0.0
  0
VERTEX
  5
256D
  8
SAPA_PROFIL
 10
-22.550000000002001
 20
44.499999999999481
 30
0.0
  0
VERTEX
  5
256E
  8
SAPA_PROFIL
 10
-22.924395043234231
 20
44.125604956763077
 30
0.0
 42
0.5643553431119962
  0
VERTEX
  5
256F
  8
SAPA_PROFIL
 10
-18.599999999999991
 20
42.263373075365479
 30
0.0
  0
VERTEX
  5
2570
  8
SAPA_PROFIL
 10
-18.599999999999991
 20
42.599999999999497
 30
0.0
 42
-0.4142135623730644
  0
VERTEX
  5
2571
  8
SAPA_PROFIL
 10
-18.300000000000011
 20
42.899999999999459
 30
0.0
  0
VERTEX
  5
2572
  8
SAPA_PROFIL
 10
-17.800000000000011
 20
42.899999999999459
 30
0.0
 42
-0.4142135623730951
  0
VERTEX
  5
2573
  8
SAPA_PROFIL
 10
-17.5
 20
42.599999999999483
 30
0.0
  0
VERTEX
  5
2574
  8
SAPA_PROFIL
 10
-17.5
 20
40.499999999999488
 30
0.0
 42
-0.4142135623730951
  0
VERTEX
  5
2575
  8
SAPA_PROFIL
 10
-18.0
 20
39.999999999999488
 30
0.0
  0
VERTEX
  5
2576
  8
SAPA_PROFIL
 10
-22.399999999999981
 20
39.999999999999488
 30
0.0
 42
0.4142135623731104
  0
VERTEX
  5
2577
  8
SAPA_PROFIL
 10
-22.699999999999989
 20
39.699999999999477
 30
0.0
  0
VERTEX
  5
2578
  8
SAPA_PROFIL
 10
-22.699999999999989
 20
9.2999999999994714
 30
0.0
 42
0.4142135623731104
  0
VERTEX
  5
2579
  8
SAPA_PROFIL
 10
-22.399999999999981
 20
8.9999999999994582
 30
0.0
  0
VERTEX
  5
257A
  8
SAPA_PROFIL
 10
-18.0
 20
8.9999999999994582
 30
0.0
 42
-0.4142135623730951
  0
VERTEX
  5
257B
  8
SAPA_PROFIL
 10
-17.5
 20
8.4999999999994884
 30
0.0
  0
VERTEX
  5
257C
  8
SAPA_PROFIL
 10
-17.5
 20
6.3999999999994941
 30
0.0
 42
-0.4142135623730951
  0
VERTEX
  5
257D
  8
SAPA_PROFIL
 10
-17.800000000000011
 20
6.0999999999994543
 30
0.0
  0
VERTEX
  5
257E
  8
SAPA_PROFIL
 10
-18.300000000000011
 20
6.0999999999994543
 30
0.0
 42
-0.4142135623730389
  0
VERTEX
  5
257F
  8
SAPA_PROFIL
 10
-18.599999999999991
 20
6.3999999999994648
 30
0.0
  0
VERTEX
  5
2580
  8
SAPA_PROFIL
 10
-18.600000000000311
 20
6.7366269246341801
 30
0.0
 42
0.5643553431125485
  0
VERTEX
  5
2581
  8
SAPA_PROFIL
 10
-22.924395043234998
 20
4.874395043232453
 30
0.0
  0
VERTEX
  5
2582
  8
SAPA_PROFIL
 10
-22.550000000002001
 20
4.4999999999994591
 30
0.0
  0
VERTEX
  5
2583
  8
SAPA_PROFIL
 10
-22.924395043234199
 20
4.1256049567620323
 30
0.0
 42
0.5643553431119904
  0
VERTEX
  5
2584
  8
SAPA_PROFIL
 10
-18.599999999999991
 20
2.2633730753654779
 30
0.0
  0
VERTEX
  5
2585
  8
SAPA_PROFIL
 10
-18.599999999999991
 20
2.5999999999994818
 30
0.0
 42
-0.4142135623730644
  0
VERTEX
  5
2586
  8
SAPA_PROFIL
 10
-18.300000000000011
 20
2.8999999999994648
 30
0.0
  0
VERTEX
  5
2587
  8
SAPA_PROFIL
 10
-17.800000000000011
 20
2.8999999999994648
 30
0.0
 42
-0.4142135623730951
  0
VERTEX
  5
2588
  8
SAPA_PROFIL
 10
-17.5
 20
2.5999999999994818
 30
0.0
  0
VERTEX
  5
2589
  8
SAPA_PROFIL
 10
-17.5
 20
0.4999999999994884
 30
0.0
 42
-0.4142135623730951
  0
VERTEX
  5
258A
  8
SAPA_PROFIL
 10
-18.0
 20
-0.00000000000054
 30
0.0
  0
VERTEX
  5
258B
  8
SAPA_PROFIL
 10
-22.399999999999981
 20
-0.00000000000054
 30
0.0
 42
0.4142135623731104
  0
VERTEX
  5
258C
  8
SAPA_PROFIL
 10
-22.699999999999989
 20
-0.3000000000005514
 30
0.0
  0
VERTEX
  5
258D
  8
SAPA_PROFIL
 10
-22.699999999999989
 20
-9.8999999999995492
 30
0.0
 42
0.4142135623730951
  0
VERTEX
  5
258E
  8
SAPA_PROFIL
 10
-22.399999999999981
 20
-10.19999999999953
 30
0.0
  0
VERTEX
  5
258F
  8
SAPA_PROFIL
 10
22.400000000000009
 20
-10.1999999999995
 30
0.0
 42
0.4142135623730951
  0
VERTEX
  5
2590
  8
SAPA_PROFIL
 10
22.700000000000021
 20
-9.8999999999995225
 30
0.0
  0
VERTEX
  5
2591
  8
SAPA_PROFIL
 10
22.700000000000021
 20
-0.300000000000523
 30
0.0
 42
0.4142135623730951
  0
VERTEX
  5
2592
  8
SAPA_PROFIL
 10
22.400000000000009
 20
-0.0000000000005116
 30
0.0
  0
VERTEX
  5
2593
  8
SAPA_PROFIL
 10
18.000000000000028
 20
-0.0000000000005116
 30
0.0
 42
-0.4142135623730951
  0
VERTEX
  5
2594
  8
SAPA_PROFIL
 10
17.500000000000028
 20
0.4999999999994884
 30
0.0
  0
VERTEX
  5
2595
  8
SAPA_PROFIL
 10
17.500000000000028
 20
2.5999999999994818
 30
0.0
 42
-0.4142135623730951
  0
VERTEX
  5
2596
  8
SAPA_PROFIL
 10
17.80000000000004
 20
2.8999999999994941
 30
0.0
  0
VERTEX
  5
2597
  8
SAPA_PROFIL
 10
18.30000000000004
 20
2.8999999999994941
 30
0.0
 42
-0.4142135623730951
  0
VERTEX
  5
2598
  8
SAPA_PROFIL
 10
18.600000000000019
 20
2.5999999999994818
 30
0.0
  0
VERTEX
  5
2599
  8
SAPA_PROFIL
 10
18.600000000000019
 20
2.2633730753655068
 30
0.0
 42
0.5643553431119905
  0
VERTEX
  5
259A
  8
SAPA_PROFIL
 10
22.924395043234231
 20
4.125604956762003
 30
0.0
  0
VERTEX
  5
259B
  8
SAPA_PROFIL
 10
22.550000000002029
 20
4.4999999999994884
 30
0.0
  0
VERTEX
  5
259C
  8
SAPA_PROFIL
 10
22.92439504323502
 20
4.8743950432324823
 30
0.0
 42
0.5643553431125659
  0
VERTEX
  5
259D
  8
SAPA_PROFIL
 10
18.600000000000222
 20
6.7366269246341508
 30
0.0
  0
VERTEX
  5
259E
  8
SAPA_PROFIL
 10
18.600000000000019
 20
6.3999999999994941
 30
0.0
 42
-0.4142135623730388
  0
VERTEX
  5
259F
  8
SAPA_PROFIL
 10
18.30000000000004
 20
6.0999999999994818
 30
0.0
  0
VERTEX
  5
25A0
  8
SAPA_PROFIL
 10
17.80000000000004
 20
6.0999999999994818
 30
0.0
 42
-0.4142135623730951
  0
VERTEX
  5
25A1
  8
SAPA_PROFIL
 10
17.500000000000028
 20
6.3999999999994941
 30
0.0
  0
VERTEX
  5
25A2
  8
SAPA_PROFIL
 10
17.500000000000028
 20
8.4999999999994884
 30
0.0
 42
-0.4142135623730951
  0
VERTEX
  5
25A3
  8
SAPA_PROFIL
 10
18.000000000000028
 20
8.9999999999994884
 30
0.0
  0
VERTEX
  5
25A4
  8
SAPA_PROFIL
 10
22.400000000000009
 20
8.9999999999994884
 30
0.0
 42
0.4142135623730951
  0
VERTEX
  5
25A5
  8
SAPA_PROFIL
 10
22.700000000000021
 20
9.2999999999994998
 30
0.0
  0
VERTEX
  5
25A6
  8
SAPA_PROFIL
 10
22.700000000000021
 20
39.699999999999477
 30
0.0
 42
0.4142135623730951
  0
VERTEX
  5
25A7
  8
SAPA_PROFIL
 10
22.400000000000009
 20
39.999999999999488
 30
0.0
  0
VERTEX
  5
25A8
  8
SAPA_PROFIL
 10
18.000000000000028
 20
39.999999999999488
 30
0.0
 42
-0.4142135623730951
  0
VERTEX
  5
25A9
  8
SAPA_PROFIL
 10
17.500000000000028
 20
40.499999999999488
 30
0.0
  0
VERTEX
  5
25AA
  8
SAPA_PROFIL
 10
17.5
 20
42.599999999999483
 30
0.0
 42
-0.4142135623730951
  0
VERTEX
  5
25AB
  8
SAPA_PROFIL
 10
17.800000000000011
 20
42.899999999999459
 30
0.0
  0
VERTEX
  5
25AC
  8
SAPA_PROFIL
 10
18.300000000000011
 20
42.899999999999459
 30
0.0
 42
-0.4142135623730951
  0
VERTEX
  5
25AD
  8
SAPA_PROFIL
 10
18.599999999999991
 20
42.599999999999483
 30
0.0
  0
VERTEX
  5
25AE
  8
SAPA_PROFIL
 10
18.599999999999991
 20
42.263373075365479
 30
0.0
 42
0.5643553431119905
  0
VERTEX
  5
25AF
  8
SAPA_PROFIL
 10
22.924395043234199
 20
44.125604956762999
 30
0.0
  0
VERTEX
  5
25B0
  8
SAPA_PROFIL
 10
22.550000000002001
 20
44.499999999999481
 30
0.0
  0
VERTEX
  5
25B1
  8
SAPA_PROFIL
 10
22.924395043234998
 20
44.874395043232482
 30
0.0
 42
0.5643553431125659
  0
VERTEX
  5
25B2
  8
SAPA_PROFIL
 10
18.60000000000019
 20
46.736626924635146
 30
0.0
  0
VERTEX
  5
25B3
  8
SAPA_PROFIL
 10
18.599999999999991
 20
46.399999999999459
 30
0.0
 42
-0.4142135623730951
  0
VERTEX
  5
25B4
  8
SAPA_PROFIL
 10
18.300000000000011
 20
46.099999999999483
 30
0.0
  0
VERTEX
  5
25B5
  8
SAPA_PROFIL
 10
17.800000000000011
 20
46.099999999999483
 30
0.0
 42
-0.4142135623730951
  0
VERTEX
  5
25B6
  8
SAPA_PROFIL
 10
17.5
 20
46.399999999999459
 30
0.0
  0
VERTEX
  5
25B7
  8
SAPA_PROFIL
 10
17.5
 20
48.499999999999488
 30
0.0
 42
-0.4142135623730951
  0
VERTEX
  5
25B8
  8
SAPA_PROFIL
 10
18.0
 20
48.999999999999481
 30
0.0
  0
VERTEX
  5
25B9
  8
SAPA_PROFIL
 10
22.399999999999981
 20
48.999999999999481
 30
0.0
 42
0.4142135623730951
  0
VERTEX
  5
25BA
  8
SAPA_PROFIL
 10
22.699999999999989
 20
49.299999999999493
 30
0.0
  0
VERTEX
  5
25BB
  8
SAPA_PROFIL
 10
22.699999999999989
 20
61.899999999999473
 30
0.0
 42
0.4142135623730951
  0
VERTEX
  5
25BC
  8
SAPA_PROFIL
 10
22.399999999999981
 20
62.199999999999477
 30
0.0
  0
SEQEND
  5
25BD
  8
SAPA_PROFIL
  0
TEXT
  5
17D4
  8
SAPA_ARTIKELNR
 62
     4
 10
-210.17988547077911
 20
20.051192314697438
 30
0.0
 40
3.0
  1
42762
  7
BYGG-036634$0$STANDARD
 72
     4
 11
-203.17988547077911
 21
21.551192314697438
 31
0.0
  0
POLYLINE
  5
17E0
  8
SAPA_GLAS
 66
     1
 10
0.0
 20
0.0
 30
0.0
  0
VERTEX
  5
25D3
  8
SAPA_GLAS
 10
40.999999999999773
 20
-66.499999999998636
 30
0.0
  0
VERTEX
  5
25D4
  8
SAPA_GLAS
 10
10.999999999999771
 20
-66.499999999998636
 30
0.0
  0
VERTEX
  5
25D5
  8
SAPA_GLAS
 10
10.999999999999771
 20
-72.499999999998636
 30
0.0
  0
VERTEX
  5
25D6
  8
SAPA_GLAS
 10
40.999999999999773
 20
-72.499999999998636
 30
0.0
  0
SEQEND
  5
25D7
  8
SAPA_GLAS
  0
POLYLINE
  5
17E1
  8
SAPA_GLAS
 66
     1
 10
0.0
 20
0.0
 30
0.0
  0
VERTEX
  5
25D8
  8
SAPA_GLAS
 10
20.999999999999769
 20
-51.499999999998629
 30
0.0
  0
VERTEX
  5
25D9
  8
SAPA_GLAS
 10
10.999999999999771
 20
-51.499999999998629
 30
0.0
  0
VERTEX
  5
25DA
  8
SAPA_GLAS
 10
10.999999999999771
 20
-66.499999999998636
 30
0.0
  0
VERTEX
  5
25DB
  8
SAPA_GLAS
 10
20.999999999999769
 20
-66.499999999998636
 30
0.0
  0
VERTEX
  5
25DC
  8
SAPA_GLAS
 10
20.999999999999769
 20
-51.499999999998629
 30
0.0
  0
SEQEND
  5
25DD
  8
SAPA_GLAS
  0
POLYLINE
  5
17E2
  8
SAPA_GLAS
 66
     1
 10
0.0
 20
0.0
 30
0.0
  0
VERTEX
  5
25DE
  8
SAPA_GLAS
 10
40.999999999999773
 20
-45.499999999998629
 30
0.0
  0
VERTEX
  5
25DF
  8
SAPA_GLAS
 10
10.999999999999771
 20
-45.499999999998629
 30
0.0
  0
VERTEX
  5
25E0
  8
SAPA_GLAS
 10
10.999999999999771
 20
-51.499999999998629
 30
0.0
  0
VERTEX
  5
25E1
  8
SAPA_GLAS
 10
40.999999999999773
 20
-51.499999999998629
 30
0.0
  0
SEQEND
  5
25E2
  8
SAPA_GLAS
  0
LINE
  5
17E3
  8
SAPA_GLAS
 10
-162.99999999793059
 20
-57.550000073848729
 30
0.0
 11
-162.99999999793059
 21
-42.550000073848729
 31
0.0
  0
POLYLINE
  5
17E4
  8
SAPA_GLAS
 66
     1
 10
0.0
 20
0.0
 30
0.0
  0
VERTEX
  5
25E3
  8
SAPA_GLAS
 10
-182.9999999979307
 20
-36.550000073848743
 30
0.0
  0
VERTEX
  5
25E4
  8
SAPA_GLAS
 10
-152.9999999979307
 20
-36.550000073848743
 30
0.0
  0
VERTEX
  5
25E5
  8
SAPA_GLAS
 10
-152.9999999979307
 20
-63.550000073848729
 30
0.0
  0
VERTEX
  5
25E6
  8
SAPA_GLAS
 10
-182.9999999979307
 20
-63.550000073848729
 30
0.0
  0
SEQEND
  5
25E7
  8
SAPA_GLAS
  0
LINE
  5
17E5
  8
SAPA_GLAS
 10
-182.9999999979307
 20
-42.550000073848729
 30
0.0
 11
-152.9999999979307
 21
-42.550000073848729
 31
0.0
  0
LINE
  5
17E6
  8
SAPA_GLAS
 10
-182.9999999979307
 20
-57.550000073848729
 30
0.0
 11
-152.9999999979307
 21
-57.550000073848729
 31
0.0
  0
LINE
  5
17F1
  8
SAPA_ISOLATOR
 10
-25.00001783612641
 20
-7.3369832384358062
 30
0.0
 11
-31.194641603309378
 21
-7.3369832384358062
 31
0.0
  0
LINE
  5
17F2
  8
SAPA_ISOLATOR
 10
-25.00001783612641
 20
-42.578680595394779
 30
0.0
 11
-25.00001783612641
 21
-7.3369832384358062
 31
0.0
  0
LINE
  5
17F3
  8
SAPA_ISOLATOR
 10
-31.194641603311201
 20
-42.578680595394779
 30
0.0
 11
-25.00001783612641
 21
-42.578680595394779
 31
0.0
  0
LINE
  5
17F4
  8
SAPA_ISOLATOR
 10
-31.200017836126449
 20
-7.3369832384358062
 30
0.0
 11
-31.194641603311201
 21
-42.578680595394779
 31
0.0
  0
LINE
  5
17F5
  8
SAPA_ISOLATOR
 10
-31.194641603311201
 20
-42.578680595394779
 30
0.0
 11
-25.00001783612641
 21
-7.3369832384358062
 31
0.0
  0
LINE
  5
17F6
  8
SAPA_ISOLATOR
 10
-31.2166051390119
 20
-7.3369832384358062
 30
0.0
 11
-25.01122890619661
 21
-42.578680595394779
 31
0.0
  0
POLYLINE
  5
1819
  8
SAPA_FOGBAND
 66
     1
 10
0.0
 20
0.0
 30
0.0
 70
     1
  0
VERTEX
  5
26E7
  8
SAPA_FOGBAND
 10
-16.00339355472715
 20
-36.300000000000608
 30
0.0
  0
VERTEX
  5
26E8
  8
SAPA_FOGBAND
 10
-23.303393554727108
 20
-36.300000000000608
 30
0.0
 42
-0.4142135623730951
  0
VERTEX
  5
26E9
  8
SAPA_FOGBAND
 10
-23.803393554727108
 20
-35.800000000000608
 30
0.0
  0
VERTEX
  5
26EA
  8
SAPA_FOGBAND
 10
-23.803393554727108
 20
-35.500000000000647
 30
0.0
  0
VERTEX
  5
26EB
  8
SAPA_FOGBAND
 10
-22.203393554727089
 20
-35.500000000000647
 30
0.0
 42
0.4142135623730951
  0
VERTEX
  5
26EC
  8
SAPA_FOGBAND
 10
-21.703393554727089
 20
-35.000000000000661
 30
0.0
  0
VERTEX
  5
26ED
  8
SAPA_FOGBAND
 10
-21.703393554727089
 20
-34.058574583118769
 30
0.0
  0
VERTEX
  5
26EE
  8
SAPA_FOGBAND
 10
-21.95515736374762
 20
-33.991114673808369
 30
0.0
 42
-0.4740571810232243
  0
VERTEX
  5
26EF
  8
SAPA_FOGBAND
 10
-22.082451226111171
 20
-33.708832088169721
 30
0.0
  0
VERTEX
  5
26F0
  8
SAPA_FOGBAND
 10
-21.462350723352529
 20
-32.262625951409831
 30
0.0
 42
-0.2846003776496037
  0
VERTEX
  5
26F1
  8
SAPA_FOGBAND
 10
-21.01470654489242
 20
-31.985369502361859
 30
0.0
  0
VERTEX
  5
26F2
  8
SAPA_FOGBAND
 10
-19.392080564561859
 20
-31.985369502361859
 30
0.0
 42
-0.2846003776496048
  0
VERTEX
  5
26F3
  8
SAPA_FOGBAND
 10
-18.944436386101639
 20
-32.262625951409831
 30
0.0
  0
VERTEX
  5
26F4
  8
SAPA_FOGBAND
 10
-18.324335883343
 20
-33.708832088169721
 30
0.0
 42
-0.4740571810232242
  0
VERTEX
  5
26F5
  8
SAPA_FOGBAND
 10
-18.451629745706668
 20
-33.991114673808369
 30
0.0
  0
VERTEX
  5
26F6
  8
SAPA_FOGBAND
 10
-18.703393554727079
 20
-34.058574583118769
 30
0.0
  0
VERTEX
  5
26F7
  8
SAPA_FOGBAND
 10
-18.703393554727079
 20
-35.000000000000661
 30
0.0
 42
0.4142135623730951
  0
VERTEX
  5
26F8
  8
SAPA_FOGBAND
 10
-18.203393554727079
 20
-35.500000000000647
 30
0.0
  0
VERTEX
  5
26F9
  8
SAPA_FOGBAND
 10
-15.503393554727269
 20
-35.500000000000647
 30
0.0
  0
VERTEX
  5
26FA
  8
SAPA_FOGBAND
 10
-15.50339355472715
 20
-35.800000000000608
 30
0.0
 42
-0.4142135623730951
  0
SEQEND
  5
26FB
  8
SAPA_FOGBAND
  0
POLYLINE
  5
181A
  8
SAPA_FOGBAND
 66
     1
 10
0.0
 20
0.0
 30
0.0
 70
     1
  0
VERTEX
  5
26FC
  8
SAPA_FOGBAND
 10
-19.303393554727108
 20
-34.185369502361908
 30
0.0
  0
VERTEX
  5
26FD
  8
SAPA_FOGBAND
 10
-19.303393554727108
 20
-33.585369502361893
 30
0.0
 42
0.9999999999999998
  0
VERTEX
  5
26FE
  8
SAPA_FOGBAND
 10
-21.10339355472707
 20
-33.585369502361893
 30
0.0
  0
VERTEX
  5
26FF
  8
SAPA_FOGBAND
 10
-21.10339355472707
 20
-34.185369502361908
 30
0.0
 42
0.9999999999999998
  0
SEQEND
  5
2700
  8
SAPA_FOGBAND
  0
POLYLINE
  5
181B
  8
SAPA_FOGBAND
 66
     1
 10
0.0
 20
0.0
 30
0.0
  0
VERTEX
  5
2701
  8
SAPA_FOGBAND
 10
-23.803393554727108
 20
-35.800000000000608
 30
0.0
  0
VERTEX
  5
2702
  8
SAPA_FOGBAND
 10
-23.803393554727108
 20
-35.500000000000647
 30
0.0
  0
VERTEX
  5
2703
  8
SAPA_FOGBAND
 10
-24.715553718108481
 20
-35.500000000000647
 30
0.0
 42
0.4027293761437522
  0
VERTEX
  5
2704
  8
SAPA_FOGBAND
 10
-25.015321271706512
 20
-35.788192637469791
 30
0.0
  0
VERTEX
  5
2705
  8
SAPA_FOGBAND
 10
-25.635472610187659
 20
-42.42399551155389
 30
0.0
 42
0.4366759199119207
  0
VERTEX
  5
2706
  8
SAPA_FOGBAND
 10
-24.638365134668678
 20
-43.500000000001222
 30
0.0
  0
VERTEX
  5
2707
  8
SAPA_FOGBAND
 10
-12.763165518679671
 20
-43.500000000001222
 30
0.0
 42
0.1134871727417796
  0
VERTEX
  5
2708
  8
SAPA_FOGBAND
 10
-12.32638668306754
 20
-43.39956892385382
 30
0.0
  0
VERTEX
  5
2709
  8
SAPA_FOGBAND
 10
-5.2213249162899507
 20
-40.44088966117701
 30
0.0
 42
0.2866770623134215
  0
VERTEX
  5
270A
  8
SAPA_FOGBAND
 10
-5.002066370208559
 20
-40.090931572825333
 30
0.0
  0
VERTEX
  5
270B
  8
SAPA_FOGBAND
 10
-5.002066370208559
 20
-39.09808839016145
 30
0.0
 42
0.3386584782462731
  0
VERTEX
  5
270C
  8
SAPA_FOGBAND
 10
-5.5928058660858611
 20
-38.32594200416051
 30
0.0
  0
VERTEX
  5
270D
  8
SAPA_FOGBAND
 10
-15.05021068724818
 20
-35.546144059771187
 30
0.0
 42
0.0644539213931785
  0
VERTEX
  5
270E
  8
SAPA_FOGBAND
 10
-15.4066852208482
 20
-35.500000000000647
 30
0.0
  0
VERTEX
  5
270F
  8
SAPA_FOGBAND
 10
-15.503393554727269
 20
-35.500000000000647
 30
0.0
  0
SEQEND
  5
2710
  8
SAPA_FOGBAND
  0
POLYLINE
  5
181C
  8
SAPA_FOGBAND
 66
     1
 10
0.0
 20
0.0
 30
0.0
 70
     1
  0
VERTEX
  5
2711
  8
SAPA_FOGBAND
 10
-11.88029721313341
 20
-37.605164153426962
 30
0.0
  0
VERTEX
  5
2712
  8
SAPA_FOGBAND
 10
-7.6042180012538898
 20
-39.020702744132592
 30
0.0
 42
-0.444186966527488
  0
VERTEX
  5
2713
  8
SAPA_FOGBAND
 10
-7.5698481632943313
 20
-39.495522529297361
 30
0.0
  0
VERTEX
  5
2714
  8
SAPA_FOGBAND
 10
-11.762261311780319
 20
-41.890424100316892
 30
0.0
 42
-0.5537304554466119
  0
VERTEX
  5
2715
  8
SAPA_FOGBAND
 10
-12.693293997256889
 20
-41.307503437660408
 30
0.0
  0
VERTEX
  5
2716
  8
SAPA_FOGBAND
 10
-12.693293997256889
 20
-38.231806045761772
 30
0.0
 42
-0.4917973357877383
  0
SEQEND
  5
2717
  8
SAPA_FOGBAND
  0
POLYLINE
  5
181D
  8
SAPA_FOGBAND
 10
-21.926001341734228
 20
-40.020122589264091
 30
0.0
 66
     1
 70
     8
  0
VERTEX
  8
SAPA_FOGBAND
  5
2890
 10
-21.9260
 20
-40.0201
 30
0.000000
  70
    32
  0
VERTEX
  8
SAPA_FOGBAND
  5
2891
 10
-21.9213
 20
-40.1350
 30
0.000000
  70
    32
  0
VERTEX
  8
SAPA_FOGBAND
  5
2892
 10
-21.9094
 20
-40.2495
 30
0.000000
  70
    32
  0
VERTEX
  8
SAPA_FOGBAND
  5
2893
 10
-21.8905
 20
-40.3634
 30
0.000000
  70
    32
  0
VERTEX
  8
SAPA_FOGBAND
  5
2894
 10
-21.8644
 20
-40.4765
 30
0.000000
  70
    32
  0
VERTEX
  8
SAPA_FOGBAND
  5
2895
 10
-21.8314
 20
-40.5883
 30
0.000000
  70
    32
  0
VERTEX
  8
SAPA_FOGBAND
  5
2896
 10
-21.7914
 20
-40.6987
 30
0.000000
  70
    32
  0
VERTEX
  8
SAPA_FOGBAND
  5
2897
 10
-21.7446
 20
-40.8074
 30
0.000000
  70
    32
  0
VERTEX
  8
SAPA_FOGBAND
  5
2898
 10
-21.6911
 20
-40.9141
 30
0.000000
  70
    32
  0
VERTEX
  8
SAPA_FOGBAND
  5
2899
 10
-21.6310
 20
-41.0186
 30
0.000000
  70
    32
  0
VERTEX
  8
SAPA_FOGBAND
  5
289A
 10
-21.5645
 20
-41.1206
 30
0.000000
  70
    32
  0
VERTEX
  8
SAPA_FOGBAND
  5
289B
 10
-21.4917
 20
-41.2199
 30
0.000000
  70
    32
  0
VERTEX
  8
SAPA_FOGBAND
  5
289C
 10
-21.4128
 20
-41.3163
 30
0.000000
  70
    32
  0
VERTEX
  8
SAPA_FOGBAND
  5
289D
 10
-21.3279
 20
-41.4094
 30
0.000000
  70
    32
  0
VERTEX
  8
SAPA_FOGBAND
  5
289E
 10
-21.2374
 20
-41.4992
 30
0.000000
  70
    32
  0
VERTEX
  8
SAPA_FOGBAND
  5
289F
 10
-21.1414
 20
-41.5852
 30
0.000000
  70
    32
  0
VERTEX
  8
SAPA_FOGBAND
  5
28A0
 10
-21.0401
 20
-41.6675
 30
0.000000
  70
    32
  0
VERTEX
  8
SAPA_FOGBAND
  5
28A1
 10
-20.9338
 20
-41.7457
 30
0.000000
  70
    32
  0
VERTEX
  8
SAPA_FOGBAND
  5
28A2
 10
-20.8227
 20
-41.8197
 30
0.000000
  70
    32
  0
VERTEX
  8
SAPA_FOGBAND
  5
28A3
 10
-20.7071
 20
-41.8893
 30
0.000000
  70
    32
  0
VERTEX
  8
SAPA_FOGBAND
  5
28A4
 10
-20.5874
 20
-41.9543
 30
0.000000
  70
    32
  0
VERTEX
  8
SAPA_FOGBAND
  5
28A5
 10
-20.4636
 20
-42.0146
 30
0.000000
  70
    32
  0
VERTEX
  8
SAPA_FOGBAND
  5
28A6
 10
-20.3363
 20
-42.0699
 30
0.000000
  70
    32
  0
VERTEX
  8
SAPA_FOGBAND
  5
28A7
 10
-20.2057
 20
-42.1203
 30
0.000000
  70
    32
  0
VERTEX
  8
SAPA_FOGBAND
  5
28A8
 10
-20.0720
 20
-42.1656
 30
0.000000
  70
    32
  0
VERTEX
  8
SAPA_FOGBAND
  5
28A9
 10
-19.9356
 20
-42.2056
 30
0.000000
  70
    32
  0
VERTEX
  8
SAPA_FOGBAND
  5
28AA
 10
-19.7969
 20
-42.2403
 30
0.000000
  70
    32
  0
VERTEX
  8
SAPA_FOGBAND
  5
28AB
 10
-19.6562
 20
-42.2696
 30
0.000000
  70
    32
  0
VERTEX
  8
SAPA_FOGBAND
  5
28AC
 10
-19.5138
 20
-42.2933
 30
0.000000
  70
    32
  0
VERTEX
  8
SAPA_FOGBAND
  5
28AD
 10
-19.3701
 20
-42.3115
 30
0.000000
  70
    32
  0
VERTEX
  8
SAPA_FOGBAND
  5
28AE
 10
-19.2253
 20
-42.3242
 30
0.000000
  70
    32
  0
VERTEX
  8
SAPA_FOGBAND
  5
28AF
 10
-19.0799
 20
-42.3312
 30
0.000000
  70
    32
  0
VERTEX
  8
SAPA_FOGBAND
  5
28B0
 10
-18.9342
 20
-42.3326
 30
0.000000
  70
    32
  0
VERTEX
  8
SAPA_FOGBAND
  5
28B1
 10
-18.7886
 20
-42.3283
 30
0.000000
  70
    32
  0
VERTEX
  8
SAPA_FOGBAND
  5
28B2
 10
-18.6434
 20
-42.3184
 30
0.000000
  70
    32
  0
VERTEX
  8
SAPA_FOGBAND
  5
28B3
 10
-18.4989
 20
-42.3029
 30
0.000000
  70
    32
  0
VERTEX
  8
SAPA_FOGBAND
  5
28B4
 10
-18.3556
 20
-42.2818
 30
0.000000
  70
    32
  0
VERTEX
  8
SAPA_FOGBAND
  5
28B5
 10
-18.2137
 20
-42.2552
 30
0.000000
  70
    32
  0
VERTEX
  8
SAPA_FOGBAND
  5
28B6
 10
-18.0736
 20
-42.2231
 30
0.000000
  70
    32
  0
VERTEX
  8
SAPA_FOGBAND
  5
28B7
 10
-17.9356
 20
-42.1857
 30
0.000000
  70
    32
  0
VERTEX
  8
SAPA_FOGBAND
  5
28B8
 10
-17.8001
 20
-42.1430
 30
0.000000
  70
    32
  0
VERTEX
  8
SAPA_FOGBAND
  5
28B9
 10
-17.6673
 20
-42.0951
 30
0.000000
  70
    32
  0
VERTEX
  8
SAPA_FOGBAND
  5
28BA
 10
-17.5377
 20
-42.0421
 30
0.000000
  70
    32
  0
VERTEX
  8
SAPA_FOGBAND
  5
28BB
 10
-17.4115
 20
-41.9842
 30
0.000000
  70
    32
  0
VERTEX
  8
SAPA_FOGBAND
  5
28BC
 10
-17.2890
 20
-41.9214
 30
0.000000
  70
    32
  0
VERTEX
  8
SAPA_FOGBAND
  5
28BD
 10
-17.1705
 20
-41.8541
 30
0.000000
  70
    32
  0
VERTEX
  8
SAPA_FOGBAND
  5
28BE
 10
-17.0564
 20
-41.7822
 30
0.000000
  70
    32
  0
VERTEX
  8
SAPA_FOGBAND
  5
28BF
 10
-16.9468
 20
-41.7060
 30
0.000000
  70
    32
  0
VERTEX
  8
SAPA_FOGBAND
  5
28C0
 10
-16.8421
 20
-41.6257
 30
0.000000
  70
    32
  0
VERTEX
  8
SAPA_FOGBAND
  5
28C1
 10
-16.7424
 20
-41.5415
 30
0.000000
  70
    32
  0
VERTEX
  8
SAPA_FOGBAND
  5
28C2
 10
-16.6481
 20
-41.4535
 30
0.000000
  70
    32
  0
VERTEX
  8
SAPA_FOGBAND
  5
28C3
 10
-16.5594
 20
-41.3620
 30
0.000000
  70
    32
  0
VERTEX
  8
SAPA_FOGBAND
  5
28C4
 10
-16.4764
 20
-41.2671
 30
0.000000
  70
    32
  0
VERTEX
  8
SAPA_FOGBAND
  5
28C5
 10
-16.3995
 20
-41.1693
 30
0.000000
  70
    32
  0
VERTEX
  8
SAPA_FOGBAND
  5
28C6
 10
-16.3286
 20
-41.0685
 30
0.000000
  70
    32
  0
VERTEX
  8
SAPA_FOGBAND
  5
28C7
 10
-16.2642
 20
-40.9652
 30
0.000000
  70
    32
  0
VERTEX
  8
SAPA_FOGBAND
  5
28C8
 10
-16.2062
 20
-40.8595
 30
0.000000
  70
    32
  0
VERTEX
  8
SAPA_FOGBAND
  5
28C9
 10
-16.1548
 20
-40.7517
 30
0.000000
  70
    32
  0
VERTEX
  8
SAPA_FOGBAND
  5
28CA
 10
-16.1102
 20
-40.6421
 30
0.000000
  70
    32
  0
VERTEX
  8
SAPA_FOGBAND
  5
28CB
 10
-16.0724
 20
-40.5310
 30
0.000000
  70
    32
  0
VERTEX
  8
SAPA_FOGBAND
  5
28CC
 10
-16.0416
 20
-40.4185
 30
0.000000
  70
    32
  0
VERTEX
  8
SAPA_FOGBAND
  5
28CD
 10
-16.0178
 20
-40.3050
 30
0.000000
  70
    32
  0
VERTEX
  8
SAPA_FOGBAND
  5
28CE
 10
-16.0011
 20
-40.1907
 30
0.000000
  70
    32
  0
VERTEX
  8
SAPA_FOGBAND
  5
28CF
 10
-15.9916
 20
-40.0760
 30
0.000000
  70
    32
  0
VERTEX
  8
SAPA_FOGBAND
  5
28D0
 10
-15.9891
 20
-39.9610
 30
0.000000
  70
    32
  0
VERTEX
  8
SAPA_FOGBAND
  5
28D1
 10
-15.9938
 20
-39.8462
 30
0.000000
  70
    32
  0
VERTEX
  8
SAPA_FOGBAND
  5
28D2
 10
-16.0057
 20
-39.7316
 30
0.000000
  70
    32
  0
VERTEX
  8
SAPA_FOGBAND
  5
28D3
 10
-16.0247
 20
-39.6177
 30
0.000000
  70
    32
  0
VERTEX
  8
SAPA_FOGBAND
  5
28D4
 10
-16.0507
 20
-39.5047
 30
0.000000
  70
    32
  0
VERTEX
  8
SAPA_FOGBAND
  5
28D5
 10
-16.0837
 20
-39.3929
 30
0.000000
  70
    32
  0
VERTEX
  8
SAPA_FOGBAND
  5
28D6
 10
-16.1237
 20
-39.2825
 30
0.000000
  70
    32
  0
VERTEX
  8
SAPA_FOGBAND
  5
28D7
 10
-16.1705
 20
-39.1738
 30
0.000000
  70
    32
  0
VERTEX
  8
SAPA_FOGBAND
  5
28D8
 10
-16.2240
 20
-39.0670
 30
0.000000
  70
    32
  0
VERTEX
  8
SAPA_FOGBAND
  5
28D9
 10
-16.2841
 20
-38.9625
 30
0.000000
  70
    32
  0
VERTEX
  8
SAPA_FOGBAND
  5
28DA
 10
-16.3506
 20
-38.8605
 30
0.000000
  70
    32
  0
VERTEX
  8
SAPA_FOGBAND
  5
28DB
 10
-16.4234
 20
-38.7612
 30
0.000000
  70
    32
  0
VERTEX
  8
SAPA_FOGBAND
  5
28DC
 10
-16.5023
 20
-38.6649
 30
0.000000
  70
    32
  0
VERTEX
  8
SAPA_FOGBAND
  5
28DD
 10
-16.5872
 20
-38.5717
 30
0.000000
  70
    32
  0
VERTEX
  8
SAPA_FOGBAND
  5
28DE
 10
-16.6777
 20
-38.4820
 30
0.000000
  70
    32
  0
VERTEX
  8
SAPA_FOGBAND
  5
28DF
 10
-16.7737
 20
-38.3959
 30
0.000000
  70
    32
  0
VERTEX
  8
SAPA_FOGBAND
  5
28E0
 10
-16.8750
 20
-38.3137
 30
0.000000
  70
    32
  0
VERTEX
  8
SAPA_FOGBAND
  5
28E1
 10
-16.9813
 20
-38.2354
 30
0.000000
  70
    32
  0
VERTEX
  8
SAPA_FOGBAND
  5
28E2
 10
-17.0924
 20
-38.1615
 30
0.000000
  70
    32
  0
VERTEX
  8
SAPA_FOGBAND
  5
28E3
 10
-17.2080
 20
-38.0919
 30
0.000000
  70
    32
  0
VERTEX
  8
SAPA_FOGBAND
  5
28E4
 10
-17.3278
 20
-38.0269
 30
0.000000
  70
    32
  0
VERTEX
  8
SAPA_FOGBAND
  5
28E5
 10
-17.4515
 20
-37.9666
 30
0.000000
  70
    32
  0
VERTEX
  8
SAPA_FOGBAND
  5
28E6
 10
-17.5788
 20
-37.9112
 30
0.000000
  70
    32
  0
VERTEX
  8
SAPA_FOGBAND
  5
28E7
 10
-17.7095
 20
-37.8608
 30
0.000000
  70
    32
  0
VERTEX
  8
SAPA_FOGBAND
  5
28E8
 10
-17.8431
 20
-37.8156
 30
0.000000
  70
    32
  0
VERTEX
  8
SAPA_FOGBAND
  5
28E9
 10
-17.9795
 20
-37.7755
 30
0.000000
  70
    32
  0
VERTEX
  8
SAPA_FOGBAND
  5
28EA
 10
-18.1182
 20
-37.7409
 30
0.000000
  70
    32
  0
VERTEX
  8
SAPA_FOGBAND
  5
28EB
 10
-18.2589
 20
-37.7116
 30
0.000000
  70
    32
  0
VERTEX
  8
SAPA_FOGBAND
  5
28EC
 10
-18.4013
 20
-37.6878
 30
0.000000
  70
    32
  0
VERTEX
  8
SAPA_FOGBAND
  5
28ED
 10
-18.5451
 20
-37.6696
 30
0.000000
  70
    32
  0
VERTEX
  8
SAPA_FOGBAND
  5
28EE
 10
-18.6898
 20
-37.6570
 30
0.000000
  70
    32
  0
VERTEX
  8
SAPA_FOGBAND
  5
28EF
 10
-18.8352
 20
-37.6500
 30
0.000000
  70
    32
  0
VERTEX
  8
SAPA_FOGBAND
  5
28F0
 10
-18.9809
 20
-37.6486
 30
0.000000
  70
    32
  0
VERTEX
  8
SAPA_FOGBAND
  5
28F1
 10
-19.1265
 20
-37.6529
 30
0.000000
  70
    32
  0
VERTEX
  8
SAPA_FOGBAND
  5
28F2
 10
-19.2717
 20
-37.6628
 30
0.000000
  70
    32
  0
VERTEX
  8
SAPA_FOGBAND
  5
28F3
 10
-19.4162
 20
-37.6783
 30
0.000000
  70
    32
  0
VERTEX
  8
SAPA_FOGBAND
  5
28F4
 10
-19.5595
 20
-37.6994
 30
0.000000
  70
    32
  0
VERTEX
  8
SAPA_FOGBAND
  5
28F5
 10
-19.7014
 20
-37.7260
 30
0.000000
  70
    32
  0
VERTEX
  8
SAPA_FOGBAND
  5
28F6
 10
-19.8416
 20
-37.7580
 30
0.000000
  70
    32
  0
VERTEX
  8
SAPA_FOGBAND
  5
28F7
 10
-19.9795
 20
-37.7955
 30
0.000000
  70
    32
  0
VERTEX
  8
SAPA_FOGBAND
  5
28F8
 10
-20.1151
 20
-37.8382
 30
0.000000
  70
    32
  0
VERTEX
  8
SAPA_FOGBAND
  5
28F9
 10
-20.2478
 20
-37.8861
 30
0.000000
  70
    32
  0
VERTEX
  8
SAPA_FOGBAND
  5
28FA
 10
-20.3774
 20
-37.9391
 30
0.000000
  70
    32
  0
VERTEX
  8
SAPA_FOGBAND
  5
28FB
 10
-20.5036
 20
-37.9970
 30
0.000000
  70
    32
  0
VERTEX
  8
SAPA_FOGBAND
  5
28FC
 10
-20.6261
 20
-38.0597
 30
0.000000
  70
    32
  0
VERTEX
  8
SAPA_FOGBAND
  5
28FD
 10
-20.7446
 20
-38.1271
 30
0.000000
  70
    32
  0
VERTEX
  8
SAPA_FOGBAND
  5
28FE
 10
-20.8587
 20
-38.1989
 30
0.000000
  70
    32
  0
VERTEX
  8
SAPA_FOGBAND
  5
28FF
 10
-20.9683
 20
-38.2751
 30
0.000000
  70
    32
  0
VERTEX
  8
SAPA_FOGBAND
  5
2900
 10
-21.0730
 20
-38.3554
 30
0.000000
  70
    32
  0
VERTEX
  8
SAPA_FOGBAND
  5
2901
 10
-21.1727
 20
-38.4397
 30
0.000000
  70
    32
  0
VERTEX
  8
SAPA_FOGBAND
  5
2902
 10
-21.2670
 20
-38.5277
 30
0.000000
  70
    32
  0
VERTEX
  8
SAPA_FOGBAND
  5
2903
 10
-21.3557
 20
-38.6192
 30
0.000000
  70
    32
  0
VERTEX
  8
SAPA_FOGBAND
  5
2904
 10
-21.4387
 20
-38.7140
 30
0.000000
  70
    32
  0
VERTEX
  8
SAPA_FOGBAND
  5
2905
 10
-21.5157
 20
-38.8119
 30
0.000000
  70
    32
  0
VERTEX
  8
SAPA_FOGBAND
  5
2906
 10
-21.5865
 20
-38.9126
 30
0.000000
  70
    32
  0
VERTEX
  8
SAPA_FOGBAND
  5
2907
 10
-21.6510
 20
-39.0160
 30
0.000000
  70
    32
  0
VERTEX
  8
SAPA_FOGBAND
  5
2908
 10
-21.7090
 20
-39.1216
 30
0.000000
  70
    32
  0
VERTEX
  8
SAPA_FOGBAND
  5
2909
 10
-21.7603
 20
-39.2294
 30
0.000000
  70
    32
  0
VERTEX
  8
SAPA_FOGBAND
  5
290A
 10
-21.8049
 20
-39.3390
 30
0.000000
  70
    32
  0
VERTEX
  8
SAPA_FOGBAND
  5
290B
 10
-21.8427
 20
-39.4502
 30
0.000000
  70
    32
  0
VERTEX
  8
SAPA_FOGBAND
  5
290C
 10
-21.8735
 20
-39.5627
 30
0.000000
  70
    32
  0
VERTEX
  8
SAPA_FOGBAND
  5
290D
 10
-21.8973
 20
-39.6762
 30
0.000000
  70
    32
  0
VERTEX
  8
SAPA_FOGBAND
  5
290E
 10
-21.9140
 20
-39.7904
 30
0.000000
  70
    32
  0
VERTEX
  8
SAPA_FOGBAND
  5
290F
 10
-21.9236
 20
-39.9052
 30
0.000000
  70
    32
  0
VERTEX
  8
SAPA_FOGBAND
  5
2910
 10
-21.9260
 20
-40.0201
 30
0.000000
  70
    32
  0
SEQEND
  8
SAPA_FOGBAND
  5
2911
  0
POLYLINE
  5
181E
  8
SAPA_FOGBAND
 62
     2
 66
     1
 10
0.0
 20
0.0
 30
0.0000000195376815
 70
     1
  0
VERTEX
  5
2718
  8
SAPA_FOGBAND
 62
     2
 10
-94.415820339269317
 20
10.873016923030811
 30
0.0000000195376815
  0
VERTEX
  5
2719
  8
SAPA_FOGBAND
 62
     2
 10
-94.515820339269325
 20
10.873016923030811
 30
0.0000000195376815
 42
0.4142135623730959
  0
VERTEX
  5
271A
  8
SAPA_FOGBAND
 62
     2
 10
-95.215820339269314
 20
10.17301692303082
 30
0.0000000195376815
  0
VERTEX
  5
271B
  8
SAPA_FOGBAND
 62
     2
 10
-95.215820339269342
 20
9.0730169230308242
 30
0.0000000195376815
 42
0.4142135623730961
  0
VERTEX
  5
271C
  8
SAPA_FOGBAND
 62
     2
 10
-95.015820339269325
 20
8.8730169230308071
 30
0.0000000195376815
  0
VERTEX
  5
271D
  8
SAPA_FOGBAND
 62
     2
 10
-93.915820339269331
 20
8.8730169230308071
 30
0.0000000195376815
 42
0.4142135623730956
  0
VERTEX
  5
271E
  8
SAPA_FOGBAND
 62
     2
 10
-93.715820339269314
 20
9.0730169230308242
 30
0.0000000195376815
  0
VERTEX
  5
271F
  8
SAPA_FOGBAND
 62
     2
 10
-93.715820339269342
 20
10.17301692303082
 30
0.0000000195376815
 42
0.4142135623730946
  0
SEQEND
  5
2720
  8
SAPA_FOGBAND
 62
     2
  0
POLYLINE
  5
181F
  8
SAPA_FOGBAND
 62
     2
 66
     1
 10
0.0
 20
0.0
 30
0.0000000195376815
 70
     1
  0
VERTEX
  5
2721
  8
SAPA_FOGBAND
 62
     2
 10
-92.915820339269345
 20
9.5730169230308242
 30
0.0000000195376815
  0
VERTEX
  5
2722
  8
SAPA_FOGBAND
 62
     2
 10
-92.915820339269345
 20
8.9252513577577357
 30
0.0000000195376815
 42
0.4416942457848321
  0
VERTEX
  5
2723
  8
SAPA_FOGBAND
 62
     2
 10
-92.697265979641415
 20
8.7261138782647887
 30
0.0000000195376815
  0
VERTEX
  5
2724
  8
SAPA_FOGBAND
 62
     2
 10
-91.734374698897255
 20
8.815829943522834
 30
0.0000000195376815
 42
-0.441694245784789
  0
VERTEX
  5
2725
  8
SAPA_FOGBAND
 62
     2
 10
-91.515820339269325
 20
8.6166924640299154
 30
0.0000000195376815
  0
VERTEX
  5
2726
  8
SAPA_FOGBAND
 62
     2
 10
-91.515820339269325
 20
8.0667101244383481
 30
0.0000000195376815
 42
-0.5445962197109614
  0
VERTEX
  5
2727
  8
SAPA_FOGBAND
 62
     2
 10
-92.221499384674402
 20
7.6109732153765091
 30
0.0000000195376815
  0
VERTEX
  5
2728
  8
SAPA_FOGBAND
 62
     2
 10
-92.580550537959667
 20
7.7730169230308137
 30
0.0000000195376815
  0
VERTEX
  5
2729
  8
SAPA_FOGBAND
 62
     2
 10
-94.053509776707571
 20
7.7730169230308173
 30
0.0000000195376815
 42
-0.3364379234965429
  0
VERTEX
  5
272A
  8
SAPA_FOGBAND
 62
     2
 10
-95.125253506322409
 20
7.9605237408725653
 30
0.0000000195376815
  0
VERTEX
  5
272B
  8
SAPA_FOGBAND
 62
     2
 10
-95.687117142146107
 20
7.9605237408725653
 30
0.0000000195376815
 42
0.1919812372740509
  0
VERTEX
  5
272C
  8
SAPA_FOGBAND
 62
     2
 10
-96.031104189746145
 20
7.8233913628552951
 30
0.0000000195376815
  0
VERTEX
  5
272D
  8
SAPA_FOGBAND
 62
     2
 10
-96.422971120149555
 20
7.4519138865652126
 30
0.0000000195376815
 42
0.7523758382293955
  0
VERTEX
  5
272E
  8
SAPA_FOGBAND
 62
     2
 10
-92.182541309047053
 20
6.463342713137104
 30
0.0000000195376815
 42
0.020738253891463
  0
VERTEX
  5
272F
  8
SAPA_FOGBAND
 62
     2
 10
-91.936822091096602
 20
6.966573842207711
 30
0.0000000195376815
 42
-0.910188045100355
  0
VERTEX
  5
2730
  8
SAPA_FOGBAND
 62
     2
 10
-91.479522524415231
 20
6.614826995193992
 30
0.0000000195376815
 42
-0.8808478876171385
  0
VERTEX
  5
2731
  8
SAPA_FOGBAND
 62
     2
 10
-96.988788819429075
 20
7.9162194014080898
 30
0.0000000195376815
  0
VERTEX
  5
2732
  8
SAPA_FOGBAND
 62
     2
 10
-97.419347957310336
 20
8.0315873746972173
 30
0.0000000195376815
 42
-0.9163311740173993
  0
VERTEX
  5
2733
  8
SAPA_FOGBAND
 62
     2
 10
-97.280958042170255
 20
8.8164355844495557
 30
0.0000000195376815
  0
VERTEX
  5
2734
  8
SAPA_FOGBAND
 62
     2
 10
-96.233251487818876
 20
8.7247731382420053
 30
0.0000000195376815
 42
0.4400105308918154
  0
VERTEX
  5
2735
  8
SAPA_FOGBAND
 62
     2
 10
-96.015820339269325
 20
8.9240120778603451
 30
0.0000000195376815
  0
VERTEX
  5
2736
  8
SAPA_FOGBAND
 62
     2
 10
-96.015820339269325
 20
9.7730169230308146
 30
0.0000000195376815
  0
VERTEX
  5
2737
  8
SAPA_FOGBAND
 62
     2
 10
-96.415820339269331
 20
9.7730169230308146
 30
0.0000000195376815
 42
-0.5693809839207589
  0
VERTEX
  5
2738
  8
SAPA_FOGBAND
 62
     2
 10
-96.591374384832903
 20
10.06883329473348
 30
0.0000000195376815
  0
VERTEX
  5
2739
  8
SAPA_FOGBAND
 62
     2
 10
-95.886408784933835
 20
11.36046603813876
 30
0.0000000195376815
 42
-0.2743878130875473
  0
VERTEX
  5
273A
  8
SAPA_FOGBAND
 62
     2
 10
-95.359746648243103
 20
11.673016923030829
 30
0.0000000195376815
  0
VERTEX
  5
273B
  8
SAPA_FOGBAND
 62
     2
 10
-93.571894030295553
 20
11.67301692303082
 30
0.0000000195376815
 42
-0.2743878130875473
  0
VERTEX
  5
273C
  8
SAPA_FOGBAND
 62
     2
 10
-93.045231893604836
 20
11.36046603813875
 30
0.0000000195376815
  0
VERTEX
  5
273D
  8
SAPA_FOGBAND
 62
     2
 10
-92.340266293705724
 20
10.06883329473348
 30
0.0000000195376815
 42
-0.5693809839208268
  0
VERTEX
  5
273E
  8
SAPA_FOGBAND
 62
     2
 10
-92.515820339269325
 20
9.7730169230307826
 30
0.0000000195376815
  0
VERTEX
  5
273F
  8
SAPA_FOGBAND
 62
     2
 10
-92.915820339269345
 20
9.7730169230308146
 30
0.0000000195376815
  0
VERTEX
  5
2740
  8
SAPA_FOGBAND
 62
     2
 10
-92.915820339269345
 20
8.9240120778603451
 30
0.0000000195376815
  0
SEQEND
  5
2741
  8
SAPA_FOGBAND
 62
     2
  0
POLYLINE
  5
1820
  8
SAPA_FOGBAND
 66
     1
 10
0.0
 20
0.0
 30
0.0
 70
     1
  0
VERTEX
  5
2742
  8
SAPA_FOGBAND
 10
19.573675668776779
 20
-33.499999999998863
 30
0.0
  0
VERTEX
  5
2743
  8
SAPA_FOGBAND
 10
19.573675668776779
 20
-35.29999999999859
 30
0.0
 42
0.4142135623730951
  0
VERTEX
  5
2744
  8
SAPA_FOGBAND
 10
19.773675668776601
 20
-35.499999999998408
 30
0.0
  0
VERTEX
  5
2745
  8
SAPA_FOGBAND
 10
20.673675668776241
 20
-35.499999999998408
 30
0.0
 42
0.4142135623730951
  0
VERTEX
  5
2746
  8
SAPA_FOGBAND
 10
20.873675668776059
 20
-35.29999999999859
 30
0.0
  0
VERTEX
  5
2747
  8
SAPA_FOGBAND
 10
20.87367566877651
 20
-33.499999999998863
 30
0.0
 42
0.9999999999999998
  0
SEQEND
  5
2748
  8
SAPA_FOGBAND
  0
CIRCLE
  5
1821
  8
SAPA_FOGBAND
 10
20.223675668776419
 20
-36.79999999999859
 30
0.0
 40
0.2549509756796394
  0
POLYLINE
  5
1822
  8
SAPA_FOGBAND
 66
     1
 10
0.0
 20
0.0
 30
0.0
 70
     1
  0
VERTEX
  5
2749
  8
SAPA_FOGBAND
 10
16.270085830290778
 20
-35.499999999998408
 30
0.0
 42
-0.267949192431121
  0
VERTEX
  5
274A
  8
SAPA_FOGBAND
 10
16.09688074953306
 20
-35.399999999998961
 30
0.0
 42
0.7673269879789569
  0
VERTEX
  5
274B
  8
SAPA_FOGBAND
 10
15.72367566877687
 20
-35.499999999998408
 30
0.0
  0
VERTEX
  5
274C
  8
SAPA_FOGBAND
 10
15.72367566877687
 20
-44.699999999999129
 30
0.0
 42
0.4602937089574736
  0
VERTEX
  5
274D
  8
SAPA_FOGBAND
 10
15.954497976116951
 20
-44.897610691435823
 30
0.0
  0
VERTEX
  5
274E
  8
SAPA_FOGBAND
 10
18.428386189851381
 20
-44.51174623088923
 30
0.0
 42
-0.6910703998708235
  0
VERTEX
  5
274F
  8
SAPA_FOGBAND
 10
18.613035907186479
 20
-44.83717369718147
 30
0.0
  0
VERTEX
  5
2750
  8
SAPA_FOGBAND
 10
15.836297738753499
 20
-45.008963529986652
 30
0.0
 42
0.928378177954751
  0
VERTEX
  5
2751
  8
SAPA_FOGBAND
 10
16.26687478628741
 20
-45.424442128142118
 30
0.0
  0
VERTEX
  5
2752
  8
SAPA_FOGBAND
 10
19.476099419057618
 20
-45.228542559024163
 30
0.0
 42
-0.6076316918600427
  0
VERTEX
  5
2753
  8
SAPA_FOGBAND
 10
19.725013792520478
 20
-45.32309672969108
 30
0.0
 42
0.38070580105552
  0
VERTEX
  5
2754
  8
SAPA_FOGBAND
 10
19.923675668776241
 20
-45.499999999998401
 30
0.0
  0
VERTEX
  5
2755
  8
SAPA_FOGBAND
 10
20.223675668776419
 20
-45.499999999998401
 30
0.0
  0
VERTEX
  5
2756
  8
SAPA_FOGBAND
 10
20.523675668776612
 20
-45.499999999998401
 30
0.0
 42
0.3807058010555201
  0
VERTEX
  5
2757
  8
SAPA_FOGBAND
 10
20.72233754503236
 20
-45.32309672969108
 30
0.0
 42
-0.6076316918600374
  0
VERTEX
  5
2758
  8
SAPA_FOGBAND
 10
20.971251918495231
 20
-45.228542559024163
 30
0.0
  0
VERTEX
  5
2759
  8
SAPA_FOGBAND
 10
24.205028688483029
 20
-45.421865476482928
 30
0.0
 42
0.9283781779547513
  0
VERTEX
  5
275A
  8
SAPA_FOGBAND
 10
24.6356057360174
 20
-45.006386878327469
 30
0.0
  0
VERTEX
  5
275B
  8
SAPA_FOGBAND
 10
21.834315430366811
 20
-44.83717369718147
 30
0.0
 42
-0.6910703998708235
  0
VERTEX
  5
275C
  8
SAPA_FOGBAND
 10
22.018965147702382
 20
-44.511746230890139
 30
0.0
  0
VERTEX
  5
275D
  8
SAPA_FOGBAND
 10
24.49285336143635
 20
-44.897610691435823
 30
0.0
 42
0.4602937089574736
  0
VERTEX
  5
275E
  8
SAPA_FOGBAND
 10
24.723675668776419
 20
-44.699999999999129
 30
0.0
  0
VERTEX
  5
275F
  8
SAPA_FOGBAND
 10
24.723675668776419
 20
-35.499999999998408
 30
0.0
 42
0.7673269879789572
  0
VERTEX
  5
2760
  8
SAPA_FOGBAND
 10
24.350470588019789
 20
-35.399999999998961
 30
0.0
 42
-0.267949192431121
  0
VERTEX
  5
2761
  8
SAPA_FOGBAND
 10
24.17726550726297
 20
-35.499999999998408
 30
0.0
  0
VERTEX
  5
2762
  8
SAPA_FOGBAND
 10
21.673675668776241
 20
-35.499999999998408
 30
0.0
  0
VERTEX
  5
2763
  8
SAPA_FOGBAND
 10
21.673675668776241
 20
-34.399999999998961
 30
0.0
  0
VERTEX
  5
2764
  8
SAPA_FOGBAND
 10
22.181730915002621
 20
-34.291388579558088
 30
0.0
 42
0.4364998583843341
  0
VERTEX
  5
2765
  8
SAPA_FOGBAND
 10
22.310141004872779
 20
-34.027676570637823
 30
0.0
  0
VERTEX
  5
2766
  8
SAPA_FOGBAND
 10
21.77128221139105
 20
-32.638382853194571
 30
0.0
 42
0.3095538907669666
  0
VERTEX
  5
2767
  8
SAPA_FOGBAND
 10
20.83895553090974
 20
-31.999999999998408
 30
0.0
  0
VERTEX
  5
2768
  8
SAPA_FOGBAND
 10
19.608395806643099
 20
-31.99999999999886
 30
0.0
 42
0.3095538907669666
  0
VERTEX
  5
2769
  8
SAPA_FOGBAND
 10
18.676069126161789
 20
-32.638382853194571
 30
0.0
  0
VERTEX
  5
276A
  8
SAPA_FOGBAND
 10
18.137210332680521
 20
-34.027676570638278
 30
0.0
 42
0.4364998583843338
  0
VERTEX
  5
276B
  8
SAPA_FOGBAND
 10
18.265620422550679
 20
-34.291388579558088
 30
0.0
  0
VERTEX
  5
276C
  8
SAPA_FOGBAND
 10
18.77367566877637
 20
-34.399999999998961
 30
0.0
  0
VERTEX
  5
276D
  8
SAPA_FOGBAND
 10
18.77367566877637
 20
-35.499999999998408
 30
0.0
  0
SEQEND
  5
276E
  8
SAPA_FOGBAND
  0
POLYLINE
  5
1823
  8
SAPA_FOGBAND
 66
     1
 10
0.0
 20
0.0
 30
0.0
 70
     1
  0
VERTEX
  5
276F
  8
SAPA_FOGBAND
 10
18.723675668776419
 20
-37.999999999998408
 30
0.0
 42
0.3533664767746626
  0
VERTEX
  5
2770
  8
SAPA_FOGBAND
 10
18.23488157348697
 20
-38.394736842103839
 30
0.0
 42
0.162847186097109
  0
VERTEX
  5
2771
  8
SAPA_FOGBAND
 10
18.286918832692429
 20
-41.833847743324661
 30
0.0
 42
0.2572150309758587
  0
VERTEX
  5
2772
  8
SAPA_FOGBAND
 10
18.611937220160371
 20
-42.190466027633867
 30
0.0
 42
0.1655934221057593
  0
VERTEX
  5
2773
  8
SAPA_FOGBAND
 10
21.835414117393391
 20
-42.190466027633867
 30
0.0
 42
0.2572150309758567
  0
VERTEX
  5
2774
  8
SAPA_FOGBAND
 10
22.160432504860861
 20
-41.833847743324661
 30
0.0
 42
0.1628471860971115
  0
VERTEX
  5
2775
  8
SAPA_FOGBAND
 10
22.212469764066331
 20
-38.394736842103839
 30
0.0
 42
0.3533664767746627
  0
VERTEX
  5
2776
  8
SAPA_FOGBAND
 10
21.723675668776419
 20
-37.999999999998408
 30
0.0
  0
SEQEND
  5
2777
  8
SAPA_FOGBAND
  0
LINE
  5
1824
  8
SAPA_FOGBAND
 10
-17.599999999999682
 20
-73.499999999999091
 30
0.0
 11
-17.599999999999682
 21
-72.499999999999091
 31
0.0
  0
CIRCLE
  5
1825
  8
SAPA_FOGBAND
 10
-7.9999999999995453
 20
-75.057534635653823
 30
0.0
 40
0.25
  0
LINE
  5
1826
  8
SAPA_FOGBAND
 10
-15.09999999999968
 20
-72.499999999999091
 30
0.0
 11
-15.09999999999968
 21
-73.499999999999091
 31
0.0
  0
LINE
  5
1827
  8
SAPA_FOGBAND
 10
-10.09999999999968
 20
-72.499999999999091
 30
0.0
 11
-10.09999999999968
 21
-73.499999999999091
 31
0.0
  0
LINE
  5
1828
  8
SAPA_FOGBAND
 10
-10.09999999999968
 20
-72.999999999999091
 30
0.0
 11
-15.09999999999968
 21
-72.999999999999091
 31
0.0
  0
LINE
  5
1829
  8
SAPA_FOGBAND
 10
-2.5999999999996808
 20
-72.499999999999091
 30
0.0
 11
-2.5999999999996808
 21
-73.499999999999091
 31
0.0
  0
POLYLINE
  5
182A
  8
SAPA_FOGBAND
 66
     1
 10
0.0
 20
0.0
 30
0.0
 70
     1
  0
VERTEX
  5
2778
  8
SAPA_FOGBAND
 10
-8.1500000000005457
 20
-76.55753463565361
 30
0.0
  0
VERTEX
  5
2779
  8
SAPA_FOGBAND
 10
-8.1500000000000892
 20
-78.357534635654247
 30
0.0
 42
0.9999999999999996
  0
VERTEX
  5
277A
  8
SAPA_FOGBAND
 10
-6.8500000000005912
 20
-78.357534635654247
 30
0.0
  0
VERTEX
  5
277B
  8
SAPA_FOGBAND
 10
-6.8500000000005912
 20
-76.55753463565361
 30
0.0
 42
0.4142135623730951
  0
VERTEX
  5
277C
  8
SAPA_FOGBAND
 10
-7.0500000000004093
 20
-76.357534635653792
 30
0.0
  0
VERTEX
  5
277D
  8
SAPA_FOGBAND
 10
-7.9499999999995898
 20
-76.357534635653792
 30
0.0
 42
0.4142135623730951
  0
SEQEND
  5
277E
  8
SAPA_FOGBAND
  0
CIRCLE
  5
182B
  8
SAPA_FOGBAND
 10
7.9999999999995453
 20
-75.057534635653823
 30
0.0
 40
0.25
  0
POLYLINE
  5
182C
  8
SAPA_FOGBAND
 66
     1
 10
0.0
 20
0.0
 30
0.0
  0
VERTEX
  5
277F
  8
SAPA_FOGBAND
 10
7.0500000000004093
 20
-76.357534635653792
 30
0.0
  0
VERTEX
  5
2780
  8
SAPA_FOGBAND
 10
7.9499999999995898
 20
-76.357534635653565
 30
0.0
 42
-0.4142135623730951
  0
VERTEX
  5
2781
  8
SAPA_FOGBAND
 10
8.1500000000005457
 20
-76.55753463565361
 30
0.0
  0
VERTEX
  5
2782
  8
SAPA_FOGBAND
 10
8.1500000000000892
 20
-78.357534635654247
 30
0.0
 42
-0.9999999999999998
  0
VERTEX
  5
2783
  8
SAPA_FOGBAND
 10
6.8499999999999091
 20
-78.357534635654247
 30
0.0
  0
VERTEX
  5
2784
  8
SAPA_FOGBAND
 10
6.8500000000005912
 20
-76.55753463565361
 30
0.0
 42
-0.4142135623730951
  0
VERTEX
  5
2785
  8
SAPA_FOGBAND
 10
7.0500000000004093
 20
-76.357534635653792
 30
0.0
  0
VERTEX
  5
2786
  8
SAPA_FOGBAND
 10
7.7999999999997272
 20
-76.357534635653792
 30
0.0
  0
SEQEND
  5
2787
  8
SAPA_FOGBAND
  0
LINE
  5
182D
  8
SAPA_FOGBAND
 10
9.9000000000003183
 20
-72.499999999999091
 30
0.0
 11
9.9000000000003183
 21
-73.499999999999091
 31
0.0
  0
LINE
  5
182E
  8
SAPA_FOGBAND
 10
2.4000000000003179
 20
-72.499999999999091
 30
0.0
 11
2.4000000000003179
 21
-73.499999999999091
 31
0.0
  0
LINE
  5
182F
  8
SAPA_FOGBAND
 10
14.90000000000032
 20
-72.499999999999091
 30
0.0
 11
14.90000000000032
 21
-73.499999999999091
 31
0.0
  0
LINE
  5
1830
  8
SAPA_FOGBAND
 10
17.400000000000318
 20
-72.499999999999091
 30
0.0
 11
17.400000000000318
 21
-73.499999999999091
 31
0.0
  0
LINE
  5
1831
  8
SAPA_FOGBAND
 10
14.90000000000032
 20
-72.999999999999091
 30
0.0
 11
9.9000000000003183
 21
-72.999999999999091
 31
0.0
  0
LINE
  5
1832
  8
SAPA_FOGBAND
 10
-17.599999999999682
 20
-72.499999999999091
 30
0.0
 11
17.400000000000318
 21
-72.499999999999091
 31
0.0
  0
LINE
  5
1833
  8
SAPA_FOGBAND
 10
17.400000000000318
 20
-73.499999999999091
 30
0.0
 11
-17.599999999999682
 21
-73.499999999999091
 31
0.0
  0
POLYLINE
  5
1834
  8
SAPA_FOGBAND
 66
     1
 10
0.0
 20
0.0
 30
0.0
 70
     1
  0
VERTEX
  5
2788
  8
SAPA_FOGBAND
 10
-21.651788769293489
 20
-72.534485185379026
 30
0.0
 42
0.8497079118398895
  0
VERTEX
  5
2789
  8
SAPA_FOGBAND
 10
-22.099999999999451
 20
-72.921427446889084
 30
0.0
  0
VERTEX
  5
278A
  8
SAPA_FOGBAND
 10
-16.55852911070588
 20
-76.404540759853717
 30
0.0
 42
0.2608822022991484
  0
VERTEX
  5
278B
  8
SAPA_FOGBAND
 10
-16.388026238211069
 20
-76.499999999998863
 30
0.0
  0
VERTEX
  5
278C
  8
SAPA_FOGBAND
 10
-9.1700000000003001
 20
-76.499999999998408
 30
0.0
 42
-0.4142135623730951
  0
VERTEX
  5
278D
  8
SAPA_FOGBAND
 10
-9.1499999999996362
 20
-76.51999999999839
 30
0.0
  0
VERTEX
  5
278E
  8
SAPA_FOGBAND
 10
-9.1499999999996362
 20
-77.499999999999091
 30
0.0
  0
VERTEX
  5
278F
  8
SAPA_FOGBAND
 10
-9.5080552462263768
 20
-77.608611420439729
 30
0.0
 42
0.4364998583843544
  0
VERTEX
  5
2790
  8
SAPA_FOGBAND
 10
-9.6364653360967623
 20
-77.872323429360449
 30
0.0
  0
VERTEX
  5
2791
  8
SAPA_FOGBAND
 10
-9.0976065426150399
 20
-79.261617146803019
 30
0.0
 42
0.3095538907669633
  0
VERTEX
  5
2792
  8
SAPA_FOGBAND
 10
-8.1652798621337297
 20
-79.899999999999181
 30
0.0
  0
VERTEX
  5
2793
  8
SAPA_FOGBAND
 10
-6.8347201378662703
 20
-79.899999999998954
 30
0.0
 42
0.309553890766963
  0
VERTEX
  5
2794
  8
SAPA_FOGBAND
 10
-5.9023934573849601
 20
-79.261617146803701
 30
0.0
  0
VERTEX
  5
2795
  8
SAPA_FOGBAND
 10
-5.3635346639043737
 20
-77.872323429359767
 30
0.0
 42
0.4364998583843053
  0
VERTEX
  5
2796
  8
SAPA_FOGBAND
 10
-5.4919447537747601
 20
-77.608611420439729
 30
0.0
  0
VERTEX
  5
2797
  8
SAPA_FOGBAND
 10
-5.8500000000003629
 20
-77.499999999999091
 30
0.0
  0
VERTEX
  5
2798
  8
SAPA_FOGBAND
 10
-5.8500000000003629
 20
-76.549999999998818
 30
0.0
 42
-0.4142135623730953
  0
VERTEX
  5
2799
  8
SAPA_FOGBAND
 10
-5.8000000000004093
 20
-76.499999999998863
 30
0.0
  0
VERTEX
  5
279A
  8
SAPA_FOGBAND
 10
5.8000000000004093
 20
-76.499999999998863
 30
0.0
 42
-0.4142135623730951
  0
VERTEX
  5
279B
  8
SAPA_FOGBAND
 10
5.8500000000003629
 20
-76.549999999998818
 30
0.0
  0
VERTEX
  5
279C
  8
SAPA_FOGBAND
 10
5.8500000000003629
 20
-77.499999999999091
 30
0.0
  0
VERTEX
  5
279D
  8
SAPA_FOGBAND
 10
5.4919447537747601
 20
-77.608611420439729
 30
0.0
 42
0.4364998583843054
  0
VERTEX
  5
279E
  8
SAPA_FOGBAND
 10
5.3635346639043737
 20
-77.872323429360449
 30
0.0
  0
VERTEX
  5
279F
  8
SAPA_FOGBAND
 10
5.9023934573849601
 20
-79.261617146803019
 30
0.0
 42
0.309553890766963
  0
VERTEX
  5
27A0
  8
SAPA_FOGBAND
 10
6.8347201378662703
 20
-79.899999999999181
 30
0.0
  0
VERTEX
  5
27A1
  8
SAPA_FOGBAND
 10
8.1652798621337297
 20
-79.899999999998954
 30
0.0
 42
0.3095538907669633
  0
VERTEX
  5
27A2
  8
SAPA_FOGBAND
 10
9.0976065426150399
 20
-79.261617146803701
 30
0.0
  0
VERTEX
  5
27A3
  8
SAPA_FOGBAND
 10
9.6364653360967623
 20
-77.872323429359767
 30
0.0
 42
0.4364998583843544
  0
VERTEX
  5
27A4
  8
SAPA_FOGBAND
 10
9.5080552462263768
 20
-77.608611420439729
 30
0.0
  0
VERTEX
  5
27A5
  8
SAPA_FOGBAND
 10
9.1499999999996362
 20
-77.499999999999091
 30
0.0
  0
VERTEX
  5
27A6
  8
SAPA_FOGBAND
 10
9.1500000000003183
 20
-76.51999999999839
 30
0.0
 42
-0.4142135623730951
  0
VERTEX
  5
27A7
  8
SAPA_FOGBAND
 10
9.1700000000003001
 20
-76.499999999998863
 30
0.0
  0
VERTEX
  5
27A8
  8
SAPA_FOGBAND
 10
16.388026238211069
 20
-76.499999999999091
 30
0.0
 42
0.2608822022991486
  0
VERTEX
  5
27A9
  8
SAPA_FOGBAND
 10
16.5585291107061
 20
-76.404540759853262
 30
0.0
  0
VERTEX
  5
27AA
  8
SAPA_FOGBAND
 10
21.900000000000428
 20
-72.922817216677686
 30
0.0
 42
0.8497079118398893
  0
VERTEX
  5
27AB
  8
SAPA_FOGBAND
 10
21.451788769294129
 20
-72.535874955167628
 30
0.0
  0
VERTEX
  5
27AC
  8
SAPA_FOGBAND
 10
15.2741001893371
 20
-74.012665285346657
 30
0.0
  0
VERTEX
  5
27AD
  8
SAPA_FOGBAND
 10
12.77909822842957
 20
-73.999999999998863
 30
0.0
  0
VERTEX
  5
27AE
  8
SAPA_FOGBAND
 10
13.070897343000521
 20
-73.848341139643026
 30
0.0
 42
0.767326987978962
  0
VERTEX
  5
27AF
  8
SAPA_FOGBAND
 10
12.596121451851779
 20
-73.515967214875204
 30
0.0
  0
VERTEX
  5
27B0
  8
SAPA_FOGBAND
 10
11.00000000000022
 20
-73.999999999998863
 30
0.0
  0
VERTEX
  5
27B1
  8
SAPA_FOGBAND
 10
8.6000000000001364
 20
-73.999999999998863
 30
0.0
  0
VERTEX
  5
27B2
  8
SAPA_FOGBAND
 10
7.0038785481478953
 20
-73.515967214875673
 30
0.0
 42
0.7673269879789616
  0
VERTEX
  5
27B3
  8
SAPA_FOGBAND
 10
6.5291026569991573
 20
-73.848341139642798
 30
0.0
  0
VERTEX
  5
27B4
  8
SAPA_FOGBAND
 10
6.8209017715707878
 20
-73.999999999998863
 30
0.0
  0
VERTEX
  5
27B5
  8
SAPA_FOGBAND
 10
3.3286724168056021
 20
-73.999999999998863
 30
0.0
 42
-0.2679491924311367
  0
VERTEX
  5
27B6
  8
SAPA_FOGBAND
 10
3.1554673360487859
 20
-73.899999999999181
 30
0.0
  0
VERTEX
  5
27B7
  8
SAPA_FOGBAND
 10
2.414891558349836
 20
-72.617285126167644
 30
0.0
 42
0.5773502691896298
  0
VERTEX
  5
27B8
  8
SAPA_FOGBAND
 10
2.068481396835522
 20
-72.617285126168554
 30
0.0
  0
VERTEX
  5
27B9
  8
SAPA_FOGBAND
 10
0.1732050807561336
 20
-75.899999999999409
 30
0.0
  0
VERTEX
  5
27BA
  8
SAPA_FOGBAND
 10
0.0866025403786353
 20
-76.049999999999272
 30
0.0
 42
-0.5773502691896253
  0
VERTEX
  5
27BB
  8
SAPA_FOGBAND
 10
-0.0866025403784079
 20
-76.049999999999272
 30
0.0
  0
VERTEX
  5
27BC
  8
SAPA_FOGBAND
 10
-0.1732050807572705
 20
-75.899999999999409
 30
0.0
  0
VERTEX
  5
27BD
  8
SAPA_FOGBAND
 10
-2.0684813968352951
 20
-72.617285126167644
 30
0.0
 42
0.5773502691896298
  0
VERTEX
  5
27BE
  8
SAPA_FOGBAND
 10
-2.4148915583496091
 20
-72.617285126168554
 30
0.0
  0
VERTEX
  5
27BF
  8
SAPA_FOGBAND
 10
-3.1554673360494681
 20
-73.899999999998954
 30
0.0
 42
-0.2679491924311367
  0
VERTEX
  5
27C0
  8
SAPA_FOGBAND
 10
-3.3286724168056021
 20
-73.999999999999091
 30
0.0
  0
VERTEX
  5
27C1
  8
SAPA_FOGBAND
 10
-6.8209017715707878
 20
-73.999999999998863
 30
0.0
  0
VERTEX
  5
27C2
  8
SAPA_FOGBAND
 10
-6.5291026570002941
 20
-73.848341139642798
 30
0.0
 42
0.7673269879789616
  0
VERTEX
  5
27C3
  8
SAPA_FOGBAND
 10
-7.0038785481478953
 20
-73.515967214874991
 30
0.0
  0
VERTEX
  5
27C4
  8
SAPA_FOGBAND
 10
-8.6000000000001364
 20
-73.999999999998863
 30
0.0
  0
VERTEX
  5
27C5
  8
SAPA_FOGBAND
 10
-11.00000000000022
 20
-73.999999999998863
 30
0.0
  0
VERTEX
  5
27C6
  8
SAPA_FOGBAND
 10
-12.59612145185247
 20
-73.515967214875204
 30
0.0
 42
0.767326987978962
  0
VERTEX
  5
27C7
  8
SAPA_FOGBAND
 10
-13.07089734300007
 20
-73.848341139642343
 30
0.0
  0
VERTEX
  5
27C8
  8
SAPA_FOGBAND
 10
-12.77909822842957
 20
-73.999999999998863
 30
0.0
  0
VERTEX
  5
27C9
  8
SAPA_FOGBAND
 10
-15.5754461958802
 20
-73.99178576835061
 30
0.0
  0
SEQEND
  5
27CA
  8
SAPA_FOGBAND
  0
LINE
  5
1835
  8
SAPA_FOGBAND
 10
2.4000000000003179
 20
-72.999999999999091
 30
0.0
 11
-2.5999999999996808
 21
-72.999999999999091
 31
0.0
  0
POLYLINE
  5
1836
  8
SAPA_FOGBAND
 66
     1
 10
0.0
 20
0.0
 30
0.0
 70
     1
  0
VERTEX
  5
27CB
  8
SAPA_FOGBAND
 10
-28.500000000685759
 20
13.060773946886879
 30
0.0
  0
VERTEX
  5
27CC
  8
SAPA_FOGBAND
 10
-28.500000000685759
 20
10.227454982467149
 30
0.0
 42
0.577350269189628
  0
VERTEX
  5
27CD
  8
SAPA_FOGBAND
 10
-28.050000000685721
 20
9.9676473613317
 30
0.0
  0
VERTEX
  5
27CE
  8
SAPA_FOGBAND
 10
-25.393650503841741
 20
12.10936157181672
 30
0.0
 42
-0.8769764629927237
  0
VERTEX
  5
27CF
  8
SAPA_FOGBAND
 10
-25.031518469485832
 20
11.637421916325451
 30
0.0
  0
VERTEX
  5
27D0
  8
SAPA_FOGBAND
 10
-28.207106781872199
 20
7.6676084073473874
 30
0.0
 42
0.1989123673796493
  0
VERTEX
  5
27D1
  8
SAPA_FOGBAND
 10
-28.500000000685759
 20
6.9605016261609469
 30
0.0
  0
VERTEX
  5
27D2
  8
SAPA_FOGBAND
 10
-28.500000000685759
 20
5.2095454967264621
 30
0.0
 42
0.577350269189628
  0
VERTEX
  5
27D3
  8
SAPA_FOGBAND
 10
-28.050000000685721
 20
4.9497378755912393
 30
0.0
  0
VERTEX
  5
27D4
  8
SAPA_FOGBAND
 10
-25.394519257022129
 20
7.030785927071264
 30
0.0
 42
-0.8769764629928424
  0
VERTEX
  5
27D5
  8
SAPA_FOGBAND
 10
-25.03238722266622
 20
6.558846271579994
 30
0.0
  0
VERTEX
  5
27D6
  8
SAPA_FOGBAND
 10
-29.282961429186109
 20
2.092893219803698
 30
0.0
 42
-0.1989123673796579
  0
VERTEX
  5
27D7
  8
SAPA_FOGBAND
 10
-29.990068210372549
 20
1.8000000009903649
 30
0.0
  0
VERTEX
  5
27D8
  8
SAPA_FOGBAND
 10
-30.000000000685759
 20
1.8000000009903649
 30
0.0
 42
-0.4142135623730951
  0
VERTEX
  5
27D9
  8
SAPA_FOGBAND
 10
-31.000000000685759
 20
2.8000000009903649
 30
0.0
  0
VERTEX
  5
27DA
  8
SAPA_FOGBAND
 10
-32.164084599809257
 20
10.03499250175761
 30
0.0
 42
-0.6261632875160376
  0
VERTEX
  5
27DB
  8
SAPA_FOGBAND
 10
-31.722117796382921
 20
10.3448494302763
 30
0.0
  0
VERTEX
  5
27DC
  8
SAPA_FOGBAND
 10
-31.445776150396799
 20
10.191211435487469
 30
0.0
 42
0.5719685712689121
  0
VERTEX
  5
27DD
  8
SAPA_FOGBAND
 10
-31.000000000685869
 20
10.45341233971086
 30
0.0
  0
VERTEX
  5
27DE
  8
SAPA_FOGBAND
 10
-31.000000000685759
 20
13.200000000990229
 30
0.0
 42
0.4142135623730118
  0
VERTEX
  5
27DF
  8
SAPA_FOGBAND
 10
-31.300000000685721
 20
13.50000000099041
 30
0.0
  0
VERTEX
  5
27E0
  8
SAPA_FOGBAND
 10
-32.700000000685812
 20
13.50000000099018
 30
0.0
 42
-0.7754026414785753
  0
VERTEX
  5
27E1
  8
SAPA_FOGBAND
 10
-32.844707868991691
 20
14.06279199639809
 30
0.0
  0
VERTEX
  5
27E2
  8
SAPA_FOGBAND
 10
-25.384550969900719
 20
18.21642566906198
 30
0.0
 42
-0.8680589103333867
  0
VERTEX
  5
27E3
  8
SAPA_FOGBAND
 10
-25.027711067238791
 20
17.7415016392982
 30
0.0
  0
VERTEX
  5
27E4
  8
SAPA_FOGBAND
 10
-28.207106781872199
 20
13.767880728073321
 30
0.0
 42
0.1989123673796493
  0
SEQEND
  5
27E5
  8
SAPA_FOGBAND
  0
DIMENSION
  5
1840
  8
SAPA_MATT
  2
*D115
 10
-169.99999999978931
 20
-106.8138500465783
 30
0.0
 11
-125.49999999989519
 21
-104.3138500465783
 31
0.0
 70
     0
 13
-81.000000000000995
 23
-69.349948021764106
 33
0.0
 14
-169.99999999978931
 24
-71.699947648272314
 34
0.0
 50
180.0
1001
ACAD
1000
DSTYLE
1002
{
1070
   287
1070
     4
1070
    40
1040
1.0
1070
   279
1070
     1
1002
}
  0
DIMENSION
  5
1841
  8
SAPA_MATT
  2
*D114
 10
-81.000000000000995
 20
-106.8138500465783
 30
0.0
 11
-78.500000000001108
 21
-104.3138500465783
 31
0.0
 70
     0
 13
-76.000000000001194
 23
-64.499946820781531
 33
0.0
 14
-81.000000000000995
 24
-69.349948021764106
 34
0.0
 50
180.0
1001
ACAD
1000
DSTYLE
1002
{
1070
   287
1070
     4
1070
    40
1040
1.0
1070
   279
1070
     1
1002
}
  0
DIMENSION
  5
1842
  8
SAPA_MATT
  2
*D113
 10
-76.000000000001194
 20
-106.8138500465783
 30
0.0
 11
-46.000000000000647
 21
-104.3138500465783
 31
0.0
 70
     0
 13
-16.00000000000011
 23
-86.349999999999483
 33
0.0
 14
-76.000000000001194
 24
-64.499946820781531
 34
0.0
 50
180.0
1001
ACAD
1000
DSTYLE
1002
{
1070
   287
1070
     4
1070
    40
1040
1.0
1070
   279
1070
     1
1002
}
  0
DIMENSION
  5
1843
  8
SAPA_MATT
  2
*D112
 10
-25.0
 20
84.499999999999488
 30
0.0
 11
0.0000000000004869
 21
86.999999999999488
 31
0.0
 70
     0
 13
25.000000000000981
 23
63.999999999999481
 33
0.0
 14
-25.0
 24
63.999999999999481
 34
0.0
 50
180.0
1001
ACAD
1000
DSTYLE
1002
{
1070
    40
1040
1.0
1002
}
  0
DIMENSION
  5
1844
  8
SAPA_MATT
  2
*D111
 10
-16.00000000000011
 20
-106.8138500465783
 30
0.0
 11
-0.000000000000086
 21
-104.3138500465783
 31
0.0
 70
     0
 13
15.99999999999994
 23
-86.349999999999483
 33
0.0
 14
-16.00000000000011
 24
-86.349999999999483
 34
0.0
 50
180.0
1001
ACAD
1000
DSTYLE
1002
{
1070
    40
1040
1.0
1002
}
  0
VIEWPORT
  5
C4
 67
     1
  8
0
 10
143.06236603067589
 20
116.00969601843509
 30
0.0
 40
369.98580003443811
 41
256.8421457311839
 68
     1
 69
     1
1001
ACAD
1000
MVIEW
1002
{
1070
    16
1010
0.0
1020
0.0
1030
0.0
1010
0.0
1020
0.0
1030
1.0
1040
0.0
1040
256.8421457311839
1040
99.112914085388169
1040
143.07606935501099
1040
50.0
1040
0.0
1040
0.0
1070
     0
1070
     0
1070
     1
1070
     1
1070
     0
1070
     0
1070
     0
1070
     0
1040
0.0
1040
0.0
1040
0.0
1040
10.0
1040
10.0
1040
10.0
1040
10.0
1070
     0
1002
{
1002
}
1002
}
  0
ENDSEC
  0
EOF
